osu file format v14

[General]
AudioFilename: audio.mp3
AudioLeadIn: 0
PreviewTime: 52607
Countdown: 0
SampleSet: Soft
StackLeniency: 0.6
Mode: 0
LetterboxInBreaks: 0
WidescreenStoryboard: 1

[Editor]
Bookmarks: 10627,20732,30837,40943,45995,53574,63679,72995,73785,83890,93995,104100,109153,116732,126837,136153,136943,141995,147048,152100,155732,157153,162206,164732,167258,168364,186679,197574,203890
DistanceSpacing: 0.97
BeatDivisor: 4
GridSize: 32
TimelineZoom: 1.8

[Metadata]
Title:PROMISiNG
TitleUnicode:PROMISiNG
Artist:Sakura Yuno
ArtistUnicode:咲良ゆの
Creator:Lasse
Version:Insane
Source:
Tags:futurize me japanese pop rock amelia
BeatmapID:4037320
BeatmapSetID:1950038

[Difficulty]
HPDrainRate:5
CircleSize:4
OverallDifficulty:8
ApproachRate:9
SliderMultiplier:2
SliderTickRate:1

[Events]
//Background and Video events
0,0,"102793945_p0_3.jpg",0,0
//Break Periods
2,157353,161606
//Storyboard Layer 0 (Background)
//Storyboard Layer 1 (Fail)
//Storyboard Layer 2 (Pass)
//Storyboard Layer 3 (Foreground)
//Storyboard Layer 4 (Overlay)
//Storyboard Sound Samples

[TimingPoints]
522,315.789473684211,4,2,1,32,1,0
522,-200,4,2,1,32,0,0
2416,-200,4,2,1,34,0,0
3048,-200,4,2,1,36,0,0
5574,-200,4,2,1,38,0,0
6837,-200,4,2,1,40,0,0
8100,-200,4,2,1,45,0,0
9048,-200,4,2,1,50,0,0
9916,-200,4,2,1,20,0,0
9995,-200,4,2,1,60,0,0
10311,-200,4,2,1,50,0,0
10627,-100,4,2,3,65,0,0
10706,-100,4,2,1,65,0,0
11811,-100,4,2,1,30,0,0
11890,-100,4,2,1,65,0,0
14653,-100,4,2,1,30,0,0
14732,-100,4,2,1,65,0,0
15679,-100,4,2,2,65,0,0
15837,-100,4,2,1,65,0,0
16864,-100,4,2,1,30,0,0
16943,-100,4,2,1,65,0,0
20653,-100,4,2,1,30,0,0
20732,-133.333333333333,4,2,1,50,0,0
21048,-133.333333333333,4,2,2,50,0,0
22153,-133.333333333333,4,2,2,40,0,0
22311,-133.333333333333,4,2,2,50,0,0
22469,-133.333333333333,4,2,2,40,0,0
22627,-133.333333333333,4,2,2,50,0,0
22785,-133.333333333333,4,2,2,40,0,0
22943,-133.333333333333,4,2,2,50,0,0
24679,-133.333333333333,4,2,2,40,0,0
24837,-133.333333333333,4,2,2,50,0,0
24995,-133.333333333333,4,2,2,40,0,0
25153,-133.333333333333,4,2,2,50,0,0
25311,-133.333333333333,4,2,2,40,0,0
25469,-133.333333333333,4,2,2,50,0,0
25627,-133.333333333333,4,2,2,40,0,0
27048,-133.333333333333,4,2,2,50,0,0
27206,-133.333333333333,4,2,2,40,0,0
27364,-133.333333333333,4,2,2,50,0,0
27522,-133.333333333333,4,2,2,40,0,0
27679,-133.333333333333,4,2,2,50,0,0
27837,-133.333333333333,4,2,2,40,0,0
27995,-133.333333333333,4,2,2,50,0,0
28153,-133.333333333333,4,2,2,40,0,0
28311,-133.333333333333,4,2,2,50,0,0
28785,-133.333333333333,4,2,1,50,0,0
29732,-133.333333333333,4,2,1,55,0,0
30837,-100,4,2,1,60,0,0
32022,-100,4,2,1,30,0,0
32100,-100,4,2,1,60,0,0
33285,-100,4,2,1,30,0,0
33364,-100,4,2,1,60,0,0
35811,-100,4,2,1,30,0,0
35890,-100,4,2,1,60,0,0
37074,-100,4,2,1,30,0,0
37153,-100,4,2,1,60,0,0
38653,-100,4,2,1,30,0,0
38732,-100,4,2,1,60,0,0
40943,-133.333333333333,4,2,4,60,0,0
41100,-133.333333333333,4,2,1,60,0,0
42285,-133.333333333333,4,2,1,30,0,0
42364,-133.333333333333,4,2,1,60,0,0
42679,-133.333333333333,4,2,1,60,0,0
43469,-133.333333333333,4,2,2,60,0,0
43627,-133.333333333333,4,2,1,60,0,0
45995,-100,4,2,4,65,0,0
46153,-100,4,2,1,65,0,0
47179,-100,4,2,1,30,0,0
47258,-100,4,2,1,65,0,0
48522,-100,4,2,2,65,0,0
48679,-100,4,2,1,65,0,0
52074,-100,4,2,1,30,0,0
52153,-100,4,2,1,65,0,0
52232,-100,4,2,1,30,0,0
53258,-100,4,2,1,50,0,0
53574,-100,4,2,3,70,0,1
53653,-100,4,2,1,70,0,1
54916,-100,4,2,1,35,0,1
54995,-100,4,2,1,70,0,1
56100,-100,4,2,2,70,0,1
56179,-100,4,2,1,70,0,1
57443,-100,4,2,1,35,0,1
57522,-100,4,2,1,70,0,1
58627,-100,4,2,4,70,0,1
58706,-100,4,2,1,70,0,1
61074,-100,4,2,1,35,0,1
61153,-100,4,2,2,70,0,1
61390,-100,4,2,1,35,0,1
61469,-100,4,2,1,70,0,1
63640,-100,4,2,1,70,0,0
63679,-100,4,2,3,70,0,1
63758,-100,4,2,1,70,0,1
65022,-100,4,2,1,35,0,1
65100,-100,4,2,1,70,0,1
66206,-100,4,2,2,70,0,1
66285,-100,4,2,1,70,0,1
67548,-100,4,2,1,35,0,1
67627,-100,4,2,1,70,0,1
68653,-100,4,2,1,35,0,1
68732,-100,4,2,4,70,0,1
68811,-100,4,2,1,70,0,1
71258,-100,4,2,2,70,0,1
71337,-100,4,2,1,70,0,1
72285,-100,4,2,1,35,0,1
72364,-100,4,2,1,70,0,1
72600,-100,4,2,1,35,0,1
72679,-100,4,2,1,70,0,1
72995,-100,4,2,1,70,0,0
73311,-133.333333333333,4,2,1,60,0,0
73785,-100,4,2,3,65,0,0
73864,-100,4,2,1,65,0,0
77811,-100,4,2,1,30,0,0
77890,-100,4,2,1,65,0,0
78837,-100,4,2,2,65,0,0
79074,-100,4,2,1,30,0,0
79153,-100,4,2,1,65,0,0
80022,-100,4,2,1,30,0,0
80100,-100,4,2,1,65,0,0
83811,-100,4,2,1,30,0,0
83890,-133.333333333333,4,2,1,55,0,0
92653,-133.333333333333,4,2,1,30,0,0
92732,-133.333333333333,4,2,1,55,0,0
93995,-100,4,2,1,60,0,0
95179,-100,4,2,1,30,0,0
95258,-100,4,2,1,60,0,0
96443,-100,4,2,1,30,0,0
96522,-100,4,2,1,60,0,0
98969,-100,4,2,1,30,0,0
99048,-100,4,2,1,60,0,0
100232,-100,4,2,1,30,0,0
100311,-100,4,2,1,60,0,0
104100,-133.333333333333,4,2,4,60,0,0
104258,-133.333333333333,4,2,1,60,0,0
105443,-133.333333333333,4,2,1,30,0,0
105522,-133.333333333333,4,2,1,60,0,0
105837,-133.333333333333,4,2,1,60,0,0
106627,-133.333333333333,4,2,2,60,0,0
106785,-133.333333333333,4,2,1,60,0,0
109153,-100,4,2,4,65,0,0
109311,-100,4,2,1,65,0,0
110337,-100,4,2,1,30,0,0
110416,-100,4,2,1,65,0,0
111679,-100,4,2,2,65,0,0
111837,-100,4,2,1,65,0,0
115232,-100,4,2,1,30,0,0
115311,-100,4,2,1,65,0,0
115390,-100,4,2,1,30,0,0
116416,-100,4,2,1,50,0,0
116732,-100,4,2,3,70,0,1
116811,-100,4,2,1,70,0,1
118074,-100,4,2,1,35,0,1
118153,-100,4,2,1,70,0,1
119258,-100,4,2,2,70,0,1
119337,-100,4,2,1,70,0,1
120600,-100,4,2,1,35,0,1
120679,-100,4,2,1,70,0,1
121785,-100,4,2,4,70,0,1
121864,-100,4,2,1,70,0,1
124232,-100,4,2,1,35,0,1
124311,-100,4,2,2,70,0,1
124548,-100,4,2,1,35,0,1
124627,-100,4,2,1,70,0,1
126798,-100,4,2,1,70,0,0
126837,-100,4,2,3,70,0,1
126916,-100,4,2,1,70,0,1
128179,-100,4,2,1,35,0,1
128258,-100,4,2,1,70,0,1
129364,-100,4,2,2,70,0,1
129443,-100,4,2,1,70,0,1
130706,-100,4,2,1,35,0,1
130785,-100,4,2,1,70,0,1
131890,-100,4,2,4,70,0,1
131969,-100,4,2,1,70,0,1
134416,-100,4,2,2,70,0,1
134495,-100,4,2,1,70,0,1
135443,-100,4,2,1,35,0,1
135522,-100,4,2,1,70,0,1
135758,-100,4,2,1,35,0,1
135837,-100,4,2,1,70,0,1
136153,-100,4,2,1,70,0,0
136469,-133.333333333333,4,2,1,60,0,0
136943,-100,4,2,3,65,0,0
137022,-100,4,2,1,60,0,0
139469,-100,4,2,2,65,0,0
139548,-100,4,2,1,65,0,0
141995,-100,4,2,4,65,0,0
142074,-100,4,2,1,65,0,0
144522,-100,4,2,2,65,0,0
144601,-100,4,2,1,65,0,0
147048,-100,4,2,3,70,0,0
147127,-100,4,2,1,70,0,0
147285,-100,4,2,1,35,0,0
147364,-100,4,2,1,70,0,0
149574,-100,4,2,2,70,0,0
149653,-100,4,2,1,70,0,0
152022,-100,4,2,1,35,0,0
152100,-100,4,2,4,70,0,0
152179,-100,4,2,1,70,0,0
154627,-100,4,2,2,70,0,0
154706,-100,4,2,1,70,0,0
157153,-200,4,2,3,45,0,0
162206,-200,4,2,1,40,0,0
163469,-200,4,2,1,45,0,0
164732,-133.333333333333,4,2,2,60,0,0
164811,-133.333333333333,4,2,1,60,0,0
165837,-100,4,2,1,60,0,0
166074,-133.333333333333,4,2,1,30,0,0
166153,-100,4,2,1,65,0,0
167258,-100,4,2,1,50,0,0
167337,-100,4,2,1,25,0,0
167416,-100,4,2,1,60,0,0
167574,-100,4,2,3,70,0,1
167653,-100,4,2,1,30,0,1
167732,-100,4,2,1,65,0,0
167811,-100,4,2,1,30,0,0
167890,-100,4,2,1,65,0,0
168364,-100,4,2,1,70,0,1
168600,-100,4,2,1,35,0,1
168679,-100,4,2,1,70,0,1
169785,-100,4,2,2,70,0,1
169864,-100,4,2,1,70,0,1
171127,-100,4,2,1,35,0,1
171206,-100,4,2,1,70,0,1
172232,-100,4,2,1,35,0,1
172311,-100,4,2,4,70,0,1
172390,-100,4,2,1,70,0,1
172864,-100,4,2,1,35,0,1
172943,-100,4,2,1,70,0,1
174758,-100,4,2,1,35,0,1
174837,-100,4,2,2,70,0,1
175074,-100,4,2,1,35,0,1
175153,-100,4,2,1,70,0,1
176732,-100,4,2,1,70,0,1
177324,-100,4,2,1,70,0,0
177364,-100,4,2,3,70,0,1
177443,-100,4,2,1,70,0,1
178706,-100,4,2,1,35,0,1
178785,-100,4,2,1,70,0,1
179890,-100,4,2,2,70,0,1
179969,-100,4,2,1,70,0,1
181232,-100,4,2,1,35,0,1
181311,-100,4,2,1,70,0,1
182416,-100,4,2,4,70,0,1
182495,-100,4,2,1,70,0,1
184943,-100,4,2,2,70,0,1
185022,-100,4,2,1,70,0,1
185969,-100,4,2,1,35,0,1
186048,-100,4,2,1,70,0,1
186285,-100,4,2,1,35,0,1
186364,-100,4,2,1,70,0,1
186679,-100,4,2,1,70,0,0
186995,-133.333333333333,4,2,1,60,0,0
187469,-100,4,2,3,65,0,0
187548,-100,4,2,1,65,0,0
188653,-100,4,2,1,30,0,0
188732,-100,4,2,1,65,0,0
191495,-100,4,2,1,30,0,0
191574,-100,4,2,1,65,0,0
192522,-100,4,2,2,65,0,0
192600,-100,4,2,1,65,0,0
193706,-100,4,2,1,30,0,0
193785,-100,4,2,1,65,0,0
197495,-100,4,2,1,30,0,0
197574,-100,4,2,3,55,0,0
197732,-100,4,2,99,5,0,0
203890,-100,4,2,99,7,0,0

[Colours]
Combo1 : 250,180,240
Combo2 : 120,200,230
Combo3 : 255,230,130
Combo4 : 160,230,150

[HitObjects]
299,161,522,6,0,P|271:154|239:153,1,50,2|0,0:2|0:2,0:2:0:0:
213,223,837,2,0,P|241:230|273:231,1,50,0|0,0:2|0:2,0:2:0:0:
299,161,2416,5,0,0:2:0:0:
299,161,2732,1,0,0:2:0:0:
299,161,3048,2,0,P|286:134|280:112,1,50,2|0,0:2|0:2,0:2:0:0:
213,223,3364,2,0,P|226:250|232:272,1,50,0|0,0:2|0:2,0:2:0:0:
256,192,5574,6,0,B|284:242|353:236|339:186|411:176|426:226,1,200,2|0,0:2|0:2,0:2:0:0:
376,310,6837,5,2,0:2:0:0:
301,360,7153,1,0,0:2:0:0:
211,360,7469,1,0,0:2:0:0:
136,310,7785,1,0,0:2:0:0:
124,215,8100,6,0,P|166:187|223:185,1,100,2|0,0:2|0:2,0:2:0:0:
297,200,8574,2,0,P|346:196|388:169,1,100,2|0,0:2|0:2,0:2:0:0:
409,82,9048,2,0,P|338:14|317:121,1,250,2|0,0:2|0:0,0:2:0:0:
387,169,9995,5,10,0:2:0:0:
234,144,10153,1,10,0:2:0:0:
318,212,10311,6,0,P|294:213|255:227,1,50,2|0,0:2|0:2,0:2:0:0:
103,295,10627,6,0,P|24:240|30:144,1,200,6|8,1:2|0:2,0:2:0:0:
202,172,11100,1,2,0:2:0:0:
202,172,11258,2,0,P|154:176|98:208,1,100,0|0,1:2|0:2,0:2:0:0:
183,257,11574,2,0,P|204:316|238:343,1,100,10|0,0:2|0:0,0:2:0:0:
296,182,11890,6,0,P|254:97|158:86,1,200,2|8,1:2|0:2,0:2:0:0:
267,264,12364,1,2,0:2:0:0:
267,264,12522,2,0,P|324:264|368:237,1,100,0|0,1:0|0:2,0:0:0:0:
428,178,12837,1,10,0:2:0:0:
428,178,12995,1,0,0:2:0:0:
361,66,13153,6,0,B|317:25|258:40|281:85|207:103|172:50,1,200,6|8,1:2|0:2,0:2:0:0:
68,8,13627,1,2,3:2:0:0:
68,8,13706,1,0,3:2:0:0:
68,8,13785,2,0,P|92:57|99:104,1,100,0|0,1:2|0:2,0:2:0:0:
81,193,14100,2,0,P|51:232|10:262,1,100,8|0,0:2|0:2,0:2:0:0:
172,169,14416,6,0,P|221:174|267:195,1,100,2|0,1:2|0:0,0:2:0:0:
236,322,14732,2,0,P|186:316|140:295,1,100,8|0,0:2|0:2,0:2:0:0:
305,273,15048,1,2,1:2:0:0:
389,230,15206,1,0,1:2:0:0:
477,275,15364,1,8,0:2:0:0:
477,275,15522,1,0,1:2:0:0:
389,230,15679,6,0,P|376:175|413:24,2,200,6|8|0,1:2|2:2|1:2,0:2:0:0:
477,275,16469,1,0,1:2:0:0:
408,339,16627,2,0,P|342:339|293:318,1,100,10|0,0:2|0:0,0:2:0:0:
127,357,16943,6,0,P|175:371|225:369,1,100,2|0,1:2|0:2,0:2:0:0:
235,269,17258,2,0,P|187:255|137:257,1,100,10|0,0:2|0:2,0:2:0:0:
318,205,17574,2,0,P|365:218|415:216,1,100,2|0,1:2|0:2,0:2:0:0:
427,114,17890,2,0,P|379:100|329:102,1,100,10|0,0:2|0:2,0:2:0:0:
222,138,18206,6,0,B|115:138|149:92|30:86,1,200,6|8,1:2|0:2,0:2:0:0:
11,178,18679,2,0,B|128:183|94:229|201:229,1,200,2|0,0:2|0:2,0:2:0:0:
293,208,19153,1,10,0:2:0:0:
293,208,19311,1,0,0:2:0:0:
222,138,19469,5,6,1:2:0:0:
260,296,19627,1,8,0:2:0:0:
332,138,19785,1,8,0:2:0:0:
344,270,19943,1,8,0:2:0:0:
425,158,20100,1,8,0:2:0:0:
438,249,20258,1,8,0:2:0:0:
437,273,20337,1,8,0:2:0:0:
432,297,20416,1,8,0:3:0:0:
420,319,20495,1,8,0:3:0:0:
404,338,20574,1,4,0:3:0:0:
320,373,20732,6,0,P|233:358|161:359,1,150.000005722046,6|8,1:2|1:2,0:2:0:0:
320,373,21364,2,0,P|357:366|397:349,1,75.0000028610231,2|0,1:2|0:0,0:2:0:0:
338,292,21679,2,0,P|365:265|389:229,1,75.0000028610231,8|0,1:2|0:0,0:0:0:0:
309,214,21995,2,0,P|317:177|318:133,1,75.0000028610231,2|0,1:2|0:2,0:2:0:0:
243,164,22311,2,0,P|230:128|207:91,1,75.0000028610231,8|0,1:2|0:2,0:2:0:0:
161,159,22627,2,0,P|131:136|91:117,1,75.0000028610231,2|0,1:2|0:2,0:2:0:0:
88,200,22943,2,0,P|40:230|1:318,2,150.000005722046,8|2|8,1:2|1:2|1:2,0:2:0:0:
424,200,23890,6,0,P|484:244|511:313,1,150.000005722046,2|8,1:2|1:2,0:2:0:0:
424,200,24522,2,0,P|369:185|337:170,1,75.0000028610231,2|0,1:2|0:2,0:2:0:0:
325,262,24837,2,0,P|286:220|268:190,1,75.0000028610231,8|0,1:2|0:2,0:2:0:0:
208,261,25153,2,0,P|198:205|199:170,1,75.0000028610231,0|0,1:2|0:2,0:2:0:0:
110,195,25469,2,0,P|132:143|152:114,1,75.0000028610231,8|0,1:2|0:2,0:2:0:0:
63,86,25785,2,0,P|117:50|212:26,2,150.000005722046,2|8|0,1:2|1:2|1:2,0:2:0:0:
11,256,26732,5,8,1:2:0:0:
293,213,27048,1,2,1:2:0:0:
11,256,27364,1,8,1:2:0:0:
293,213,27679,1,0,1:2:0:0:
11,256,27995,2,0,P|64:244|103:215,1,75.0000028610231,8|0,1:2|0:2,0:2:0:0:
150,159,28311,6,0,P|124:229|147:306,1,150.000005722046,2|8,1:2|1:2,0:2:0:0:
188,359,28785,1,10,0:2:0:0:
262,371,28943,2,0,P|303:363|353:336,1,75.0000028610231,0|2,1:2|0:2,0:0:0:0:
385,295,29258,2,0,P|403:223|377:154,1,150.000005722046,12|0,0:2|1:2,0:2:0:0:
284,92,29732,5,2,0:2:0:0:
258,162,29890,1,12,0:2:0:0:
188,134,30048,1,8,0:3:0:0:
188,134,30127,1,8,0:3:0:0:
188,134,30206,1,4,0:3:0:0:
155,201,30364,1,8,0:3:0:0:
82,182,30522,1,8,0:2:0:0:
48,248,30679,1,4,0:3:0:0:
151,319,30837,6,0,B|201:300|263:305|239:359|311:362|355:339,2,200,6|8|2,1:2|0:2|0:2,0:2:0:0:
66,351,31627,1,0,1:2:0:0:
2,287,31785,2,0,P|3:233|21:181,1,100,10|0,0:2|0:0,0:2:0:0:
65,113,32100,5,2,1:2:0:0:
153,96,32258,1,0,1:2:0:0:
234,134,32416,1,8,0:2:0:0:
255,230,32574,1,0,3:2:0:0:
255,230,32653,1,0,3:2:0:0:
255,230,32732,2,0,L|237:345,1,100,2|0,3:2|1:2,0:0:0:0:
321,384,33048,2,0,L|336:285,1,100,8|0,0:2|0:0,0:2:0:0:
434,138,33364,6,0,P|452:235|416:327,2,200,2|8|2,1:2|0:2|0:2,0:2:0:0:
368,76,34153,1,0,1:2:0:0:
283,105,34311,2,0,P|233:104|185:89,1,100,8|0,0:2|0:2,0:0:0:0:
107,43,34627,5,2,1:2:0:0:
20,69,34785,1,0,1:2:0:0:
2,157,34943,1,8,0:2:0:0:
75,224,35100,1,0,3:2:0:0:
75,224,35179,1,0,3:2:0:0:
75,224,35258,2,0,P|124:223|172:208,1,100,2|0,3:2|1:2,0:0:0:0:
242,151,35574,2,0,P|255:102|281:60,1,100,10|0,0:2|0:0,0:2:0:0:
260,245,35890,6,0,P|336:293|449:296,1,200,2|8,1:2|0:2,0:2:0:0:
497,223,36364,1,0,0:2:0:0:
442,151,36522,2,0,P|404:127|345:122,1,100,2|0,0:2|1:2,0:2:0:0:
320,199,36837,2,0,P|358:223|417:228,1,100,10|0,0:2|0:0,0:2:0:0:
270,132,37153,5,2,1:2:0:0:
184,103,37311,1,0,1:2:0:0:
116,162,37469,1,8,0:2:0:0:
38,138,37627,1,2,3:2:0:0:
38,138,37706,1,0,3:2:0:0:
38,138,37785,2,0,P|23:197|21:256,1,100,0|0,3:2|1:2,0:0:0:0:
44,322,38100,1,8,0:2:0:0:
107,193,38258,1,0,3:2:0:0:
124,359,38416,6,0,P|216:371|333:331,1,200,6|8,1:2|0:2,0:2:0:0:
384,281,38890,1,12,0:2:0:0:
376,101,39206,1,2,1:2:0:0:
295,60,39364,2,0,P|196:51|102:83,1,200,12|0,0:2|1:2,0:2:0:0:
10,159,39837,5,14,0:2:0:0:
123,198,39995,1,10,0:2:0:0:
34,278,40153,1,8,0:2:0:0:
39,297,40232,1,8,0:2:0:0:
48,314,40311,1,8,0:2:0:0:
61,329,40390,1,8,0:2:0:0:
78,341,40469,1,8,0:2:0:0:
96,349,40548,1,8,0:2:0:0:
116,353,40627,1,8,0:3:0:0:
135,352,40706,1,8,0:3:0:0:
155,346,40785,1,4,0:3:0:0:
172,337,40864,1,4,0:3:0:0:
187,324,40943,6,0,P|192:283|199:249,1,75.0000028610231,4|0,1:2|1:2,0:2:0:0:
344,286,41416,1,2,1:2:0:0:
344,286,41574,2,0,P|302:296|258:293,1,75.0000028610231,8|0,0:2|0:2,0:2:0:0:
198,250,41890,1,10,0:2:0:0:
246,177,42048,6,0,P|288:167|332:170,1,75.0000028610231,4|0,1:2|0:0,0:2:0:0:
198,250,42364,2,0,P|156:260|112:257,1,75.0000028610231,0|8,1:2|0:2,0:2:0:0:
53,235,42679,1,2,0:2:0:0:
33,162,42837,1,8,0:2:0:0:
66,94,42995,2,0,P|137:72|222:83,1,150.000005722046,0|0,1:2|0:2,0:2:0:0:
308,98,43469,6,0,L|320:24,1,75.0000028610231,6|0,1:2|1:2,0:2:0:0:
451,109,43943,1,2,1:2:0:0:
451,109,44100,2,0,L|433:213,1,75.0000028610231,8|0,0:2|0:2,0:2:0:0:
471,258,44416,1,10,0:2:0:0:
410,314,44574,2,0,P|336:322|265:265,1,150.000005722046,4|0,1:2|1:2,0:2:0:0:
247,203,45048,2,0,L|259:129,1,75.0000028610231,10|0,0:2|0:2,0:2:0:0:
158,26,45364,5,10,0:2:0:0:
116,121,45522,1,0,1:2:0:0:
45,43,45679,1,8,0:3:0:0:
45,43,45837,1,4,0:3:0:0:
116,121,45995,6,0,P|139:163|157:329,1,200,4|10,1:2|0:2,0:2:0:0:
96,376,46469,1,0,0:2:0:0:
13,339,46627,2,0,P|1:283|5:220,1,100,2|0,0:2|1:2,0:2:0:0:
159,311,46943,2,0,P|205:321|274:319,1,100,10|0,0:2|0:0,0:2:0:0:
337,363,47258,5,6,1:2:0:0:
426,350,47416,1,0,1:2:0:0:
473,273,47574,1,8,0:2:0:0:
458,181,47732,2,0,P|376:132|271:139,1,200,2|0,0:2|1:2,0:2:0:0:
215,204,48206,2,0,P|196:250|161:285,1,100,10|0,0:2|0:2,0:0:0:0:
191,117,48522,6,0,P|110:62|8:57,2,200,6|8|0,1:2|0:2|0:2,0:2:0:0:
215,204,49311,1,0,1:2:0:0:
282,263,49469,2,0,P|342:267|399:240,1,100,10|2,0:2|3:2,0:0:0:0:
461,217,49785,5,4,1:2:0:0:
494,133,49943,1,0,1:2:0:0:
456,51,50100,1,10,0:2:0:0:
367,36,50258,1,2,3:2:0:0:
337,39,50337,1,0,3:2:0:0:
312,56,50416,1,0,3:2:0:0:
278,139,50574,2,0,L|299:249,2,100,2|8|2,1:2|0:2|0:2,0:0:0:0:
175,43,51048,5,12,0:2:0:0:
155,49,51127,1,8,0:2:0:0:
136,58,51206,1,8,0:2:0:0:
119,70,51285,1,8,0:2:0:0:
104,85,51364,1,8,0:2:0:0:
92,102,51443,1,8,0:2:0:0:
83,120,51522,1,8,0:2:0:0:
77,140,51600,1,8,0:2:0:0:
75,161,51679,1,8,0:3:0:0:
76,182,51758,1,8,0:3:0:0:
80,202,51837,1,4,0:3:0:0:
88,221,51916,1,4,0:3:0:0:
98,239,51995,1,10,0:2:0:0:
169,211,52153,1,10,0:2:0:0:
100,48,53574,6,0,P|209:32|310:46,1,200,6|8,1:2|0:2,0:2:0:0:
255,125,54048,2,0,P|205:120|156:128,1,100,2|0,0:2|1:2,0:2:0:0:
314,190,54364,2,0,P|363:203|413:206,1,100,2|8,1:2|0:2,0:2:0:0:
228,216,54679,6,0,P|213:333|275:364,1,200,4|2,1:2|1:2,0:2:0:0:
363,375,55153,1,8,0:2:0:0:
436,320,55311,1,2,3:2:0:0:
449,285,55390,1,0,3:2:0:0:
448,244,55469,1,0,1:2:0:0:
384,177,55627,1,0,1:2:0:0:
289,188,55785,2,0,P|272:233|272:285,1,100,8|0,0:2|0:2,0:0:0:0:
384,177,56100,6,0,P|321:103|208:133,1,200,6|8,1:2|0:2,0:2:0:0:
137,137,56574,2,0,P|87:131|44:107,1,100,2|0,0:2|1:2,0:2:0:0:
206,199,56890,2,0,P|234:267|233:319,1,100,2|8,1:2|0:2,0:2:0:0:
45,293,57206,6,0,P|95:290|142:272,1,100,6|0,1:2|0:0,0:2:0:0:
235,292,57522,1,2,1:2:0:0:
318,249,57679,1,8,0:2:0:0:
337,156,57837,1,2,3:2:0:0:
324,122,57916,1,0,3:2:0:0:
300,94,57995,2,0,P|252:78|202:75,1,100,0|0,1:2|1:2,0:2:0:0:
115,38,58311,1,10,0:2:0:0:
39,93,58469,1,0,0:2:0:0:
23,260,58627,6,0,P|60:225|77:179,1,100,6|0,1:2|0:2,0:2:0:0:
178,364,58943,2,0,P|161:317|126:283,1,100,10|0,0:2|0:0,0:2:0:0:
227,246,59258,1,2,1:2:0:0:
299,188,59416,1,0,1:2:0:0:
392,189,59574,1,8,0:2:0:0:
446,264,59732,6,0,P|352:270|300:191,1,200,6|0,1:2|1:2,2:2:0:0:
431,101,60206,2,0,P|415:163|388:192,1,100,10|0,0:2|0:2,0:2:0:0:
245,116,60522,2,0,P|293:103|341:112,1,100,2|0,1:2|1:2,0:2:0:0:
348,270,60837,2,0,P|312:235|300:187,1,100,10|0,0:2|0:0,0:2:0:0:
441,271,61153,6,0,P|412:341|280:328,1,200,6|8,1:2|0:2,0:2:0:0:
209,369,61627,1,0,1:2:0:0:
126,281,61785,1,8,0:2:0:0:
150,163,61943,1,0,1:2:0:0:
263,125,62100,1,8,0:2:0:0:
348,164,62258,6,0,P|442:170|489:87,1,200,6|0,1:2|1:2,0:2:0:0:
412,8,62732,1,10,1:2:0:0:
315,60,62890,1,0,1:2:0:0:
348,164,63048,2,0,L|355:243,2,50,8|8|4,2:3|2:3|2:3,0:0:0:0:
315,60,63364,1,8,2:2:0:0:
283,47,63443,1,8,2:2:0:0:
249,46,63522,1,8,2:2:0:0:
217,55,63600,1,8,2:2:0:0:
192,78,63679,6,0,P|176:169|228:289,1,200,6|8,1:2|0:2,0:2:0:0:
377,356,64153,2,0,P|336:327|288:317,1,100,2|0,0:2|1:2,0:2:0:0:
110,376,64469,2,0,P|159:375|204:353,1,100,2|8,1:2|0:2,0:2:0:0:
293,224,64785,6,0,P|315:179|345:139,1,100,14|0,0:2|0:0,0:2:0:0:
425,92,65100,1,2,1:2:0:0:
505,138,65258,1,8,0:2:0:0:
486,229,65416,1,2,3:2:0:0:
454,248,65495,1,0,3:2:0:0:
417,252,65574,1,0,1:2:0:0:
339,200,65732,1,0,1:2:0:0:
328,107,65890,2,0,P|288:81|225:62,1,100,8|0,0:2|0:2,0:0:0:0:
67,175,66206,6,0,P|159:140|256:159,1,200,6|8,1:2|0:2,0:2:0:0:
324,224,66679,2,0,P|338:264|380:316,1,100,2|0,0:2|1:2,0:2:0:0:
250,286,66995,2,0,P|232:332|201:371,1,100,2|8,1:2|0:2,0:2:0:0:
55,330,67311,6,0,P|104:323|145:296,1,100,6|0,1:2|0:0,0:2:0:0:
197,218,67627,1,2,1:2:0:0:
288,202,67785,1,8,0:2:0:0:
350,270,67943,1,2,3:2:0:0:
384,286,68022,1,0,3:2:0:0:
421,282,68100,1,0,1:2:0:0:
480,210,68258,1,0,1:2:0:0:
459,119,68416,2,0,P|417:91|368:85,1,100,10|0,0:2|0:0,0:2:0:0:
165,37,68732,6,0,P|206:64|255:70,1,100,6|0,1:2|1:2,0:0:0:0:
306,180,69048,1,8,0:2:0:0:
204,244,69206,2,0,P|154:237|113:210,1,100,2|8,1:2|0:2,0:0:0:0:
306,180,69522,2,0,P|327:231|323:290,1,100,2|8,1:2|2:2,0:0:0:0:
202,358,69837,6,0,P|153:357|106:340,2,100,2|12|0,1:2|0:2|1:2,0:0:0:0:
326,275,70311,1,10,2:2:0:0:
439,314,70469,1,0,1:2:0:0:
507,215,70627,1,10,2:2:0:0:
394,176,70785,1,0,1:2:0:0:
326,275,70943,1,10,0:2:0:0:
292,290,71022,1,8,0:2:0:0:
255,288,71100,1,8,0:3:0:0:
220,273,71179,1,8,0:3:0:0:
191,249,71258,6,0,P|196:196|221:136,1,100,6|0,1:2|1:2,0:0:0:0:
298,68,71574,1,8,0:2:0:0:
415,90,71732,1,8,0:2:0:0:
475,193,71890,1,8,0:3:0:0:
481,229,71969,1,8,0:3:0:0:
475,266,72048,1,4,0:3:0:0:
456,298,72127,1,4,0:3:0:0:
429,323,72206,1,8,0:2:0:0:
331,363,72364,6,0,P|270:339|127:317,1,200,6|10,1:2|0:2,0:2:0:0:
0,345,72837,1,10,0:2:0:0:
46,212,72995,1,10,0:2:0:0:
266,321,73311,5,0,1:2:0:0:
266,321,73390,1,0,1:2:0:0:
266,321,73469,2,0,L|277:230,1,75.0000028610231,10|0,0:2|0:2,0:1:0:0:
256,105,73785,6,0,P|159:73|60:80,1,200,6|8,1:2|0:2,0:2:0:0:
103,155,74258,1,2,0:2:0:0:
103,155,74416,2,0,P|152:154|200:167,1,100,0|0,1:2|0:2,0:2:0:0:
187,247,74732,2,0,P|137:247|89:234,1,100,10|0,0:2|0:2,0:2:0:0:
29,298,75048,6,0,P|123:329|222:323,1,200,2|8,1:2|0:2,0:2:0:0:
303,271,75522,1,2,0:2:0:0:
303,271,75679,2,0,P|306:212|328:160,1,100,0|0,1:0|0:2,0:0:0:0:
395,116,75995,1,10,0:2:0:0:
473,169,76153,1,0,0:2:0:0:
406,236,76311,6,0,P|343:234|199:182,1,200,6|8,1:2|0:2,0:2:0:0:
83,56,76785,1,2,3:2:0:0:
83,56,76864,1,0,3:2:0:0:
83,56,76943,2,0,P|119:90|139:135,1,100,0|0,1:2|0:2,0:2:0:0:
135,234,77258,2,0,P|106:274|64:301,1,100,8|0,0:2|0:2,0:2:0:0:
213,191,77574,6,0,P|241:150|283:123,1,100,2|0,1:2|0:0,0:2:0:0:
467,136,77890,2,0,P|418:130|373:110,1,100,8|0,0:2|0:2,0:2:0:0:
315,38,78206,1,2,1:2:0:0:
372,109,78364,1,0,1:2:0:0:
338,194,78522,1,8,0:2:0:0:
283,123,78679,1,0,1:2:0:0:
338,194,78837,6,0,P|335:284|237:366,2,200,6|8|0,1:2|2:2|1:2,0:2:0:0:
283,123,79627,1,0,1:2:0:0:
192,131,79785,2,0,P|142:127|96:110,1,100,10|0,0:2|0:0,0:2:0:0:
246,205,80100,6,0,P|256:240|257:323,1,100,2|0,1:2|0:2,0:2:0:0:
177,266,80416,2,0,P|166:300|121:370,1,100,10|0,0:2|0:2,0:2:0:0:
342,258,80732,2,0,P|375:297|427:333,1,100,2|0,1:2|0:2,0:2:0:0:
431,238,81048,2,0,P|468:221|519:175,1,100,10|0,0:2|0:2,0:2:0:0:
264,31,81364,6,0,P|359:69|419:147,1,200,6|8,1:2|0:2,0:2:0:0:
342,258,81837,2,0,P|249:221|187:144,1,200,2|0,0:2|0:2,0:2:0:0:
155,59,82311,1,10,0:2:0:0:
155,59,82469,1,0,0:2:0:0:
251,76,82627,5,6,1:2:0:0:
94,129,82785,1,8,0:2:0:0:
262,176,82943,1,8,0:2:0:0:
152,218,83100,1,8,0:2:0:0:
255,267,83258,1,8,0:2:0:0:
182,296,83416,1,8,0:2:0:0:
193,317,83495,1,8,0:2:0:0:
211,333,83574,1,8,0:3:0:0:
232,344,83653,1,8,0:3:0:0:
256,348,83732,1,4,0:3:0:0:
340,308,83890,6,0,P|349:227|365:148,2,150.000005722046,4|0|2,1:2|1:2|1:2,0:2:0:0:
393,360,84679,1,0,0:2:0:0:
463,335,84837,1,8,0:2:0:0:
321,232,85153,6,0,P|266:233|162:254,1,150.000005722046,2|0,1:2|1:2,0:2:0:0:
108,289,85627,1,8,0:2:0:0:
42,263,85785,1,0,1:2:0:0:
42,263,85943,1,8,0:3:0:0:
35,192,86100,1,0,1:2:0:0:
35,192,86258,1,4,0:3:0:0:
87,138,86416,6,0,P|160:122|235:119,1,150.000005722046,2|0,1:2|1:2,0:2:0:0:
382,150,87048,1,2,1:2:0:0:
338,6,87364,1,8,0:2:0:0:
235,119,87679,6,0,B|210:182|268:209|242:279,1,150.000005722046,2|0,1:2|1:2,0:2:0:0:
189,315,88153,1,8,0:2:0:0:
116,293,88311,1,0,1:2:0:0:
116,293,88469,1,8,0:3:0:0:
56,336,88627,1,0,1:2:0:0:
56,336,88785,1,4,0:3:0:0:
2,283,88943,6,0,B|-19:226|38:199|13:136,2,150.000005722046,2|0|0,1:2|1:2|1:2,0:2:0:0:
56,336,89732,1,0,0:2:0:0:
116,293,89890,1,10,0:2:0:0:
188,336,90048,5,0,3:2:0:0:
188,336,90127,1,0,3:2:0:0:
188,336,90206,2,0,P|263:353|347:336,1,150.000005722046,2|0,1:2|1:2,0:2:0:0:
402,309,90679,1,8,0:2:0:0:
389,235,90837,1,0,1:2:0:0:
389,235,90995,1,8,0:3:0:0:
442,182,91153,1,0,1:2:0:0:
442,182,91311,1,4,0:3:0:0:
407,115,91469,6,0,P|332:98|248:115,1,150.000005722046,2|0,1:2|1:2,0:2:0:0:
191,139,91943,1,8,0:2:0:0:
250,183,92100,1,2,1:2:0:0:
335,54,92416,1,12,0:2:0:0:
191,139,92732,5,2,1:2:0:0:
250,183,92890,1,0,0:2:0:0:
205,243,93048,1,12,0:2:0:0:
144,204,93206,1,8,0:3:0:0:
144,204,93285,1,8,0:3:0:0:
144,204,93364,1,4,0:3:0:0:
205,243,93522,1,8,0:3:0:0:
158,301,93679,1,8,0:2:0:0:
92,263,93837,1,4,0:3:0:0:
6,344,93995,6,0,P|-3:248|18:136,2,200,6|8|2,1:2|0:2|2:2,0:2:0:0:
90,376,94785,1,0,1:2:0:0:
172,340,94943,2,0,P|184:291|187:241,1,100,10|0,0:2|0:0,0:2:0:0:
161,155,95258,5,2,1:2:0:0:
79,115,95416,1,0,1:2:0:0:
119,34,95574,1,8,0:2:0:0:
207,79,95732,1,0,3:2:0:0:
207,79,95811,1,0,3:2:0:0:
207,79,95890,2,0,L|323:63,1,100,2|0,3:2|1:2,0:0:0:0:
479,101,96206,2,0,L|379:114,1,100,8|0,0:2|0:0,0:2:0:0:
315,177,96522,6,0,P|306:276|323:374,2,200,2|8|2,1:2|0:2|0:2,0:2:0:0:
379,114,97311,1,0,1:2:0:0:
456,159,97469,2,0,P|469:206|469:264,1,100,8|0,0:2|0:2,0:0:0:0:
434,340,97785,5,2,1:2:0:0:
347,365,97943,1,0,1:2:0:0:
260,340,98100,1,8,0:2:0:0:
216,273,98258,1,0,3:2:0:0:
216,273,98337,1,0,3:2:0:0:
216,273,98416,2,0,P|216:223|229:175,1,100,2|0,3:2|1:2,0:0:0:0:
143,320,98732,2,0,P|129:271|130:222,1,100,10|0,0:2|0:0,0:2:0:0:
81,382,99048,6,0,P|51:312|59:158,1,200,2|8,1:2|0:2,0:2:0:0:
84,105,99522,1,0,0:2:0:0:
152,46,99679,2,0,P|203:37|258:35,1,100,2|0,0:2|1:2,0:2:0:0:
425,95,99995,2,0,P|375:86|326:84,1,100,10|0,0:2|0:0,0:2:0:0:
249,132,100311,5,2,1:2:0:0:
326,177,100469,1,0,1:2:0:0:
327,267,100627,1,8,0:2:0:0:
259,325,100785,1,2,3:2:0:0:
259,325,100864,1,0,3:2:0:0:
259,325,100943,2,0,P|207:315|160:314,1,100,0|0,3:2|1:2,0:0:0:0:
84,364,101258,1,8,0:2:0:0:
4,321,101416,1,0,3:2:0:0:
80,239,101574,6,0,B|104:193|76:144|40:161|19:104|43:56,1,200,6|8,1:2|0:2,0:2:0:0:
122,12,102048,1,12,0:2:0:0:
390,12,102364,1,2,1:2:0:0:
468,56,102522,2,0,B|493:104|472:161|436:144|408:193|432:239,1,200,12|0,0:2|1:2,0:2:0:0:
510,328,102995,5,14,0:2:0:0:
394,360,103153,1,10,0:2:0:0:
317,267,103311,1,8,0:2:0:0:
300,255,103390,1,8,0:2:0:0:
282,246,103469,1,8,0:2:0:0:
263,239,103548,1,8,0:2:0:0:
244,235,103627,1,8,0:2:0:0:
224,232,103706,1,8,0:2:0:0:
204,232,103785,1,8,0:3:0:0:
184,234,103864,1,8,0:3:0:0:
165,239,103943,1,4,0:3:0:0:
146,246,104022,1,4,0:3:0:0:
128,255,104100,6,0,P|93:267|44:268,1,75.0000028610231,4|0,1:2|1:2,0:2:0:0:
104,129,104574,1,2,1:2:0:0:
104,129,104732,2,0,P|66:131|31:143,1,75.0000028610231,8|0,0:2|0:2,0:2:0:0:
2,212,105048,1,10,0:2:0:0:
55,269,105206,6,0,P|92:267|128:255,1,75.0000028610231,4|0,1:2|0:0,0:2:0:0:
250,324,105522,2,0,P|213:322|178:310,1,75.0000028610231,0|8,1:2|0:2,0:2:0:0:
127,255,105837,1,2,0:2:0:0:
129,180,105995,1,8,0:2:0:0:
184,129,106153,2,0,P|258:121|330:155,1,150.000005722046,0|0,1:2|0:2,0:2:0:0:
376,230,106627,6,0,L|357:304,1,75.0000028610231,6|0,1:2|1:2,0:2:0:0:
136,230,107100,1,2,1:2:0:0:
136,230,107258,2,0,L|155:304,1,75.0000028610231,8|0,0:2|0:2,0:2:0:0:
192,379,107574,1,10,0:2:0:0:
258,323,107732,2,0,B|285:261|222:244|251:178,1,150.000005722046,4|0,1:2|1:2,0:2:0:0:
392,242,108206,2,0,P|344:228|315:211,1,75.0000028610231,10|0,0:2|0:2,0:2:0:0:
221,108,108522,5,10,0:2:0:0:
319,70,108679,1,0,1:2:0:0:
387,155,108837,1,8,0:3:0:0:
387,155,108995,1,4,0:3:0:0:
319,70,109153,6,0,P|248:36|117:12,1,200,4|10,1:2|0:2,0:2:0:0:
54,63,109627,1,0,0:2:0:0:
133,104,109785,2,0,P|158:159|171:218,1,100,2|0,0:2|1:2,0:2:0:0:
85,366,110100,2,0,P|98:317|119:272,1,100,10|0,0:2|0:0,0:2:0:0:
241,241,110416,5,6,1:2:0:0:
313,301,110574,1,0,1:2:0:0:
406,291,110732,1,8,0:2:0:0:
475,227,110890,2,0,P|486:153|436:32,1,200,2|0,0:2|1:2,0:2:0:0:
330,23,111364,2,0,L|218:37,1,100,10|0,0:2|0:2,0:0:0:0:
192,136,111679,6,0,P|293:144|397:108,2,200,6|8|0,1:2|0:2|0:2,0:2:0:0:
106,95,112469,1,0,1:2:0:0:
25,143,112627,2,0,P|8:201|18:265,1,100,10|2,0:2|3:2,0:0:0:0:
42,328,112943,5,4,1:2:0:0:
129,363,113100,1,0,1:2:0:0:
219,338,113258,1,10,0:2:0:0:
256,251,113416,1,2,3:2:0:0:
247,222,113495,1,0,3:2:0:0:
237,193,113574,1,0,3:2:0:0:
339,107,113732,2,0,L|326:215,2,100,2|8|2,1:2|0:2|0:2,0:0:0:0:
239,26,114206,5,12,0:2:0:0:
218,28,114285,1,8,0:2:0:0:
200,37,114364,1,8,0:2:0:0:
184,49,114443,1,8,0:2:0:0:
174,66,114522,1,8,0:2:0:0:
168,86,114600,1,8,0:2:0:0:
169,106,114679,1,8,0:2:0:0:
168,124,114758,1,8,0:2:0:0:
162,144,114837,1,8,0:3:0:0:
151,161,114916,1,8,0:3:0:0:
137,174,114995,1,4,0:3:0:0:
119,182,115074,1,4,0:3:0:0:
98,185,115153,1,10,0:2:0:0:
70,114,115311,1,10,0:2:0:0:
17,330,116732,6,0,B|63:298|127:310|114:342|167:354|219:318,1,200,6|8,1:2|0:2,0:2:0:0:
297,155,117206,2,0,P|272:198|261:247,1,100,2|0,0:2|1:2,0:2:0:0:
302,332,117522,2,0,P|349:355|403:364,1,100,2|8,1:2|0:2,0:2:0:0:
480,323,117837,6,0,B|499:270|470:211|443:232|417:184|439:124,1,200,4|2,1:2|1:2,0:2:0:0:
488,59,118311,1,8,0:2:0:0:
411,4,118469,1,2,3:2:0:0:
373,1,118548,1,0,3:2:0:0:
344,25,118627,1,0,1:2:0:0:
314,114,118785,1,0,1:2:0:0:
227,150,118943,2,0,P|177:151|132:131,1,100,8|0,0:2|0:2,0:0:0:0:
301,208,119258,6,0,P|320:301|249:364,1,200,6|8,1:2|0:2,0:2:0:0:
157,340,119732,2,0,L|144:211,1,100,2|0,0:2|1:2,0:2:0:0:
55,216,120048,2,0,L|65:315,1,100,2|8,1:2|0:2,0:0:0:0:
238,275,120364,6,0,L|225:146,1,100,6|0,1:2|0:0,0:2:0:0:
227,80,120679,1,2,1:2:0:0:
304,28,120837,1,8,0:2:0:0:
392,53,120995,1,2,3:2:0:0:
416,79,121074,1,0,3:2:0:0:
423,114,121153,2,0,L|433:213,1,100,0|0,1:2|1:2,0:2:0:0:
485,289,121469,1,10,0:2:0:0:
414,347,121627,1,0,0:2:0:0:
257,284,121785,6,0,P|305:270|354:274,1,100,6|0,1:2|0:2,0:2:0:0:
220,200,122100,2,0,P|172:214|122:209,1,100,10|0,0:2|0:0,0:2:0:0:
33,185,122416,1,2,1:2:0:0:
5,97,122574,1,0,1:2:0:0:
63,26,122732,1,8,0:2:0:0:
154,17,122890,6,0,P|238:35|336:114,1,200,6|0,1:2|1:2,2:2:0:0:
435,258,123364,2,0,P|398:225|372:183,1,100,10|0,0:2|0:2,0:2:0:0:
328,103,123679,1,2,1:2:0:0:
419,104,123837,1,0,1:2:0:0:
372,182,123995,2,0,P|345:224|308:257,1,100,10|0,0:2|0:0,0:2:0:0:
185,353,124311,6,0,B|296:291|267:381|378:317,1,200,6|8,1:2|0:2,0:2:0:0:
449,251,124785,1,0,1:2:0:0:
421,154,124943,1,8,0:2:0:0:
307,257,125100,1,0,1:2:0:0:
321,159,125258,1,8,0:2:0:0:
204,251,125416,6,0,B|86:212|172:174|52:132,1,200,6|0,1:2|1:2,0:2:0:0:
8,244,125890,1,10,1:2:0:0:
103,316,126048,1,0,1:2:0:0:
204,251,126206,2,0,L|222:175,2,50,8|8|4,2:3|2:3|2:3,0:0:0:0:
261,357,126522,1,8,2:2:0:0:
293,370,126600,1,8,2:2:0:0:
327,371,126679,1,8,2:2:0:0:
359,362,126758,1,8,2:2:0:0:
384,339,126837,6,0,B|433:253|307:242|353:145,1,200,6|8,1:2|0:2,0:2:0:0:
504,130,127311,2,0,P|466:171|408:189,1,100,2|0,0:2|1:2,0:2:0:0:
323,77,127627,2,0,P|372:79|420:108,1,100,2|8,1:2|0:2,0:2:0:0:
359,245,127943,6,0,B|247:248|301:175|180:173,1,200,14|2,0:2|1:2,0:2:0:0:
87,167,128416,1,8,0:2:0:0:
46,252,128574,1,2,3:2:0:0:
43,288,128653,1,0,3:2:0:0:
59,320,128732,1,0,1:2:0:0:
145,358,128890,1,0,1:2:0:0:
229,316,129048,2,0,P|241:278|238:209,1,100,8|0,0:2|0:2,0:0:0:0:
146,80,129364,6,0,P|185:117|328:104,1,200,6|8,1:2|0:2,0:2:0:0:
485,12,129837,2,0,P|436:21|396:50,1,100,2|0,0:2|1:2,0:2:0:0:
406,144,130153,2,0,P|449:182|501:192,1,100,2|8,1:2|0:2,0:2:0:0:
331,222,130469,6,0,P|280:240|233:305,1,100,6|0,1:2|0:0,0:2:0:0:
204,356,130785,1,2,1:2:0:0:
111,369,130943,1,8,0:2:0:0:
38,309,131100,1,2,3:2:0:0:
25,274,131179,1,0,3:2:0:0:
24,237,131258,2,0,P|42:182|88:139,1,100,0|0,1:2|1:2,0:2:0:0:
155,112,131574,1,10,0:2:0:0:
245,138,131732,1,0,0:2:0:0:
378,21,131890,6,0,P|346:59|333:107,1,100,6|0,1:2|1:2,0:0:0:0:
387,214,132206,1,8,0:2:0:0:
301,298,132364,2,0,P|252:292|210:264,1,100,2|8,1:2|0:2,0:0:0:0:
155,159,132679,2,0,P|158:109|138:63,1,100,2|8,1:2|2:2,0:0:0:0:
99,265,132995,6,0,P|59:293|7:297,2,100,2|12|0,1:2|0:2|1:2,0:0:0:0:
155,159,133469,1,10,2:2:0:0:
210,264,133627,1,0,1:2:0:0:
266,135,133785,1,10,2:2:0:0:
313,282,133943,1,0,1:2:0:0:
365,155,134100,1,10,0:2:0:0:
399,140,134179,1,8,0:2:0:0:
436,142,134258,1,8,0:3:0:0:
471,157,134337,1,8,0:3:0:0:
496,186,134416,6,0,P|493:239|466:299,1,100,6|0,1:2|1:2,0:0:0:0:
392,369,134732,1,8,0:2:0:0:
274,343,134890,1,8,0:2:0:0:
241,227,135048,1,8,0:3:0:0:
239,191,135127,1,8,0:3:0:0:
250,155,135206,1,4,0:3:0:0:
272,126,135285,1,4,0:3:0:0:
302,104,135364,1,8,0:2:0:0:
398,109,135522,6,0,B|302:88|318:39|212:19,1,200,6|10,1:2|0:2,0:2:0:0:
160,147,135995,1,10,0:2:0:0:
137,7,136153,1,10,0:2:0:0:
29,181,136469,5,0,1:2:0:0:
29,181,136548,1,0,1:2:0:0:
29,181,136627,2,0,L|44:281,1,75.0000028610231,10|0,0:2|0:2,0:1:0:0:
106,350,136943,6,0,P|140:343|196:318,1,66.6666666666667,6|2,1:2|0:2,0:2:0:0:
236,377,137153,1,2,0:2:0:0:
236,377,137258,2,0,P|260:352|294:301,1,66.6666666666667,10|2,0:2|0:2,0:2:0:0:
359,328,137469,1,2,0:2:0:0:
359,328,137574,2,0,P|366:294|366:232,1,66.6666666666667,2|2,1:2|0:2,0:2:0:0:
435,219,137785,1,2,0:2:0:0:
435,219,137890,2,0,P|422:186|389:135,1,66.6666666666667,10|2,0:2|0:2,0:2:0:0:
439,86,138100,5,2,0:2:0:0:
439,86,138206,2,0,P|410:65|354:40,1,66.6666666666667,2|2,2:2|0:2,0:2:0:0:
373,171,138416,1,2,0:2:0:0:
373,171,138522,2,0,P|353:141|311:97,1,66.6666666666667,10|2,0:2|0:2,0:2:0:0:
279,225,138732,1,2,0:2:0:0:
279,225,138837,2,0,P|272:190|249:133,1,66.6666666666667,2|2,1:2|0:2,0:2:0:0:
171,239,139048,1,2,0:2:0:0:
171,239,139153,2,0,P|178:204|178:143,1,66.6666666666667,10|2,0:2|0:2,0:2:0:0:
117,104,139364,5,2,0:2:0:0:
117,104,139469,2,2,P|57:189|60:285,1,200,6|10,1:2|0:2,0:2:0:0:
119,354,139943,2,0,P|181:374|232:373,1,100,2|0,0:2|1:2,0:2:0:0:
309,368,140258,1,2,1:2:0:0:
363,291,140416,1,8,0:2:0:0:
320,206,140574,6,0,P|230:172|90:193,1,200,6|0,1:2|1:2,0:2:0:0:
39,211,141048,1,8,0:2:0:0:
3,123,141206,1,2,3:2:0:0:
7,84,141285,1,0,3:2:0:0:
31,55,141364,2,0,P|77:38|149:30,1,100,0|0,1:2|1:2,0:0:0:0:
222,33,141679,1,8,0:2:0:0:
293,110,141837,5,0,3:2:0:0:
293,110,141916,1,0,3:2:0:0:
293,110,141995,2,0,L|270:238,1,100,6|0,1:2|0:2,0:2:0:0:
257,302,142311,1,8,0:2:0:0:
337,352,142469,2,0,P|408:366|506:271,1,200,2|0,0:2|1:2,0:2:0:0:
493,194,142943,1,8,0:2:0:0:
426,126,143100,6,0,L|315:138,1,100,6|0,1:2|0:0,0:2:0:0:
252,197,143416,1,0,1:2:0:0:
169,150,143574,1,8,0:2:0:0:
104,220,143732,2,0,L|98:299,2,50,2|0|0,3:2|3:0|1:2,0:2:0:0:
169,150,144048,1,2,1:2:0:0:
252,197,144206,1,8,0:2:0:0:
326,136,144364,1,0,3:2:0:0:
480,237,144522,6,0,P|430:232|389:206,1,100,6|0,1:2|0:0,0:2:0:0:
326,136,144837,1,8,0:2:0:0:
266,62,144995,2,0,L|151:42,1,100,2|8,1:2|0:2,0:0:0:0:
252,197,145311,2,0,L|153:214,1,100,2|8,1:2|0:2,0:0:0:0:
102,122,145627,6,0,L|-23:107,1,100,6|0,1:2|0:0,0:2:0:0:
79,274,145943,1,0,1:2:0:0:
0,325,146100,1,10,0:2:0:0:
98,359,146258,1,8,2:3:0:0:
98,359,146337,1,8,2:2:0:0:
98,359,146416,2,0,L|197:347,1,100,8|4,2:2|3:3,3:2:0:0:
281,301,146732,1,8,0:2:0:0:
285,264,146811,1,8,0:2:0:0:
288,227,146890,1,8,0:2:0:0:
292,189,146969,1,8,0:2:0:0:
296,152,147048,6,0,P|420:164|467:248,1,200,6|8,1:2|0:2,0:2:0:0:
450,313,147522,2,0,P|402:351|335:354,1,100,2|0,0:2|1:2,0:2:0:0:
271,339,147837,1,0,1:2:0:0:
246,247,147995,1,8,0:2:0:0:
395,102,148153,6,0,P|406:198|338:266,1,200,14|0,0:2|1:2,0:2:0:0:
246,247,148627,2,0,P|197:223|126:207,1,100,10|0,0:2|3:2,0:2:0:0:
153,210,148864,1,0,3:2:0:0:
153,210,148943,1,2,1:2:0:0:
64,241,149100,1,0,1:2:0:0:
14,159,149258,1,10,0:2:0:0:
66,79,149416,1,0,0:2:0:0:
156,107,149574,6,0,B|257:109|250:60|347:57,1,200,6|8,1:2|0:2,0:2:0:0:
512,197,150048,2,0,B|411:199|418:150|320:147,1,200,2|0,0:2|1:2,0:2:0:0:
193,199,150522,1,8,0:2:0:0:
349,240,150679,6,0,B|251:242|258:291|157:289,1,200,6|0,1:2|1:2,0:2:0:0:
93,352,151153,1,8,0:2:0:0:
20,298,151311,1,2,3:2:0:0:
10,261,151390,1,0,3:2:0:0:
15,223,151469,2,0,P|26:174|47:126,1,100,0|0,1:2|1:2,0:2:0:0:
127,202,151785,2,0,P|148:156|180:115,1,100,10|0,0:2|0:0,0:2:0:0:
324,26,152100,6,0,B|411:90|427:15|518:79,1,200,6|10,1:2|0:2,0:0:0:0:
507,196,152574,1,0,1:2:0:0:
415,273,152732,2,0,P|367:265|314:229,1,100,10|0,0:2|1:2,0:0:0:0:
253,146,153048,1,10,0:2:0:0:
253,146,153206,1,0,1:2:0:0:
350,144,153364,5,14,0:2:0:0:
225,236,153522,1,0,1:2:0:0:
238,51,153679,1,10,0:2:0:0:
167,164,153837,1,0,1:2:0:0:
131,49,153995,1,10,0:2:0:0:
90,119,154153,1,0,1:2:0:0:
83,134,154232,1,0,1:2:0:0:
80,150,154311,1,8,0:2:0:0:
80,167,154390,1,8,0:2:0:0:
83,183,154469,1,8,0:3:0:0:
88,199,154548,1,8,0:3:0:0:
97,213,154627,6,0,P|124:235|163:254,3,50,4|0|0|0,3:2|3:2|3:2|3:2,3:2:0:0:
195,307,154943,2,0,P|229:304|270:290,3,50,0|0|0|0,3:2|3:2|3:2|3:2,3:2:0:0:
330,306,155258,2,0,P|352:279|373:241,3,50,0|0|0|0,3:2|3:2|3:2|3:2,3:2:0:0:
438,229,155574,5,10,0:2:0:0:
256,192,155732,1,10,0:2:0:0:
392,21,157153,5,6,1:2:0:0:
197,252,162206,6,0,P|192:206|181:153,1,100,2|0,0:2|0:2,0:2:0:0:
315,132,162837,2,0,P|320:178|331:231,1,100,0|0,3:2|0:2,0:2:0:0:
397,363,163469,5,2,0:2:0:0:
397,363,163785,1,0,0:2:0:0:
397,363,164100,2,0,P|332:343|279:334,1,100,0|0,3:2|0:2,0:2:0:0:
53,274,164732,6,0,P|152:272|211:223,1,150.000005722046,6|8,1:2|0:2,0:2:0:0:
254,198,165206,1,2,1:2:0:0:
136,19,165522,1,2,1:2:0:0:
254,198,165837,6,0,P|360:217|418:111,1,200,12|10,0:2|0:2,0:2:0:0:
398,12,166311,1,10,0:2:0:0:
321,133,166469,1,10,0:2:0:0:
120,73,167258,5,2,2:2:0:0:
42,93,167416,1,0,1:2:0:0:
42,93,167495,1,0,1:2:0:0:
42,93,167574,2,0,P|23:161|33:215,1,100,12|0,0:2|1:2,0:2:0:0:
93,267,167890,1,8,0:2:0:0:
118,267,167968,1,8,0:2:0:0:
142,273,168047,1,8,0:3:0:0:
163,286,168126,1,8,0:3:0:0:
184,301,168205,1,4,0:3:0:0:
207,308,168284,1,4,0:3:0:0:
232,307,168364,6,0,L|247:200,1,100,6|0,1:2|0:0,0:2:0:0:
335,44,168679,2,0,L|322:144,1,100,2|8,1:2|0:2,0:2:0:0:
374,229,168995,1,2,3:2:0:0:
408,243,169074,1,0,3:2:0:0:
444,237,169153,1,0,1:2:0:0:
509,161,169311,1,0,1:2:0:0:
460,73,169469,1,8,0:2:0:0:
364,101,169627,1,0,2:2:0:0:
298,30,169784,6,0,B|229:9|174:65|174:65|99:50,1,200,6|8,1:2|0:2,0:2:0:0:
114,150,170258,2,0,P|76:149|4:176,1,100,2|0,0:2|1:2,0:2:0:0:
85,241,170574,2,0,P|33:260|-11:309,1,100,2|8,1:2|0:2,0:2:0:0:
58,384,170890,6,0,P|109:364|154:315,1,100,6|0,1:2|0:0,0:2:0:0:
184,243,171206,1,2,1:2:0:0:
282,229,171363,1,8,0:2:0:0:
351,300,171521,1,2,3:2:0:0:
373,326,171600,1,0,3:2:0:0:
408,330,171679,1,0,1:2:0:0:
488,270,171837,1,0,1:2:0:0:
458,174,171995,2,0,P|409:151|348:148,1,100,10|0,0:0|0:0,0:0:0:0:
206,38,172311,6,0,P|250:59|300:65,1,100,6|0,1:2|0:2,0:2:0:0:
99,44,172627,2,0,P|120:89|155:125,1,100,10|0,0:2|0:0,0:2:0:0:
247,162,172942,1,2,1:2:0:0:
300,65,173100,1,0,1:2:0:0:
336,172,173258,1,8,0:2:0:0:
282,275,173416,6,0,B|180:304|203:206|94:232,1,200,6|0,1:2|1:2,2:2:0:0:
54,378,173890,2,0,P|97:351|128:305,1,100,10|0,0:2|0:2,0:2:0:0:
187,231,174206,2,0,P|171:184|139:146,1,100,2|0,1:2|1:2,0:2:0:0:
257,303,174522,2,0,P|295:334|343:348,1,100,10|0,0:2|0:0,0:2:0:0:
504,187,174837,6,0,B|449:176|449:176|412:252|336:253,1,200,6|8,1:2|0:2,0:2:0:0:
187,231,175311,1,0,1:2:0:0:
97,276,175469,1,8,0:2:0:0:
257,303,175627,1,0,1:2:0:0:
167,348,175785,1,8,0:2:0:0:
187,231,175942,6,0,B|196:122|93:161|108:34,1,200,6|0,1:2|1:2,0:2:0:0:
205,6,176416,1,10,1:2:0:0:
274,91,176574,1,0,1:2:0:0:
179,147,176732,2,0,P|151:148|119:156,2,50,8|8|4,2:3|2:3|2:3,0:0:0:0:
259,222,177048,1,8,2:2:0:0:
291,235,177127,1,8,2:2:0:0:
325,236,177206,1,8,2:2:0:0:
357,227,177284,1,8,2:2:0:0:
382,203,177363,6,0,P|410:111|340:36,1,200,6|8,1:2|0:2,0:2:0:0:
290,234,177837,2,0,P|318:274|363:296,1,100,2|0,0:2|1:2,0:2:0:0:
310,141,178153,2,0,P|268:117|218:115,1,100,2|8,1:2|0:2,0:2:0:0:
55,209,178469,6,0,P|97:184|147:182,1,100,14|0,0:2|0:0,0:2:0:0:
244,208,178785,1,2,1:2:0:0:
266,304,178942,1,8,0:2:0:0:
187,366,179100,1,2,3:2:0:0:
152,376,179179,1,0,3:2:0:0:
117,364,179258,1,0,1:2:0:0:
56,284,179416,1,0,1:2:0:0:
57,183,179574,2,0,P|79:138|119:110,1,100,8|0,0:2|0:2,0:0:0:0:
288,11,179890,6,0,P|257:50|212:70,1,100,6|0,1:2|0:0,0:2:0:0:
119,110,180206,1,8,0:2:0:0:
190,179,180364,2,0,P|239:177|282:152,1,100,2|0,0:2|1:2,0:2:0:0:
128,258,180679,2,0,P|89:288|69:333,1,100,2|8,1:2|0:2,0:0:0:0:
224,275,180995,6,0,P|273:273|316:248,1,100,6|0,1:2|0:0,0:2:0:0:
382,172,181311,1,2,1:2:0:0:
282,151,181469,1,8,0:2:0:0:
317,248,181627,1,2,3:2:0:0:
345,272,181706,1,0,3:2:0:0:
380,285,181785,2,0,P|428:275|466:243,1,100,0|0,1:2|1:2,0:2:0:0:
512,154,182100,1,10,0:2:0:0:
457,70,182258,1,0,0:2:0:0:
271,35,182416,6,0,P|308:67|357:77,1,100,6|0,1:2|1:2,0:0:0:0:
457,70,182732,1,8,0:2:0:0:
308,161,182890,2,0,P|314:208|346:256,1,100,2|8,1:2|0:2,0:0:0:0:
216,116,183206,2,0,P|150:122|114:144,1,100,2|8,1:2|2:2,0:0:0:0:
58,240,183522,1,2,1:2:0:0:
191,219,183679,6,0,P|160:277|158:319,1,100,12|0,0:2|1:2,0:2:0:0:
262,351,183995,1,10,2:2:0:0:
298,234,184153,1,0,1:2:0:0:
352,384,184311,1,10,2:2:0:0:
390,209,184469,1,0,1:2:0:0:
458,367,184627,1,10,0:2:0:0:
467,344,184705,1,8,0:2:0:0:
473,319,184784,1,8,0:3:0:0:
472,295,184863,1,8,0:3:0:0:
465,270,184943,6,0,P|419:246|388:205,1,100,6|0,1:2|1:2,0:0:0:0:
336,89,185258,1,8,0:2:0:0:
465,103,185416,1,8,0:2:0:0:
390,209,185574,1,8,0:3:0:0:
358,224,185653,1,8,0:3:0:0:
323,227,185732,1,4,0:3:0:0:
288,218,185811,1,4,0:3:0:0:
259,197,185890,1,8,0:2:0:0:
336,89,186048,6,0,B|281:68|281:68|217:114|134:67,1,200,6|10,1:2|0:2,0:2:0:0:
19,17,186521,1,10,0:2:0:0:
42,186,186679,1,10,0:2:0:0:
243,94,186995,5,0,1:2:0:0:
243,94,187074,1,0,1:2:0:0:
243,94,187153,2,0,P|228:143|226:189,1,75.0000028610231,10|0,0:2|0:2,0:1:0:0:
291,324,187469,6,0,P|376:365|458:311,1,200,6|8,1:2|0:2,0:2:0:0:
288,237,187942,1,2,0:2:0:0:
288,237,188100,2,0,P|234:258|208:296,1,100,0|0,1:2|0:2,0:0:0:0:
370,276,188416,2,0,P|379:231|361:175,1,100,10|0,0:2|0:0,0:2:0:0:
294,99,188732,6,0,B|176:82|234:38|96:27,1,200,2|8,1:2|0:2,0:2:0:0:
127,126,189206,1,2,0:2:0:0:
127,126,189363,2,0,P|89:127|8:163,1,100,0|0,1:0|0:2,0:0:0:0:
3,237,189679,1,10,0:2:0:0:
66,306,189837,1,0,0:2:0:0:
102,219,189995,6,0,B|221:232|161:279|299:290,1,200,6|8,1:2|0:2,0:2:0:0:
351,149,190469,1,2,3:2:0:0:
351,149,190548,1,0,3:2:0:0:
351,149,190627,2,0,P|302:165|264:208,1,100,0|0,1:2|0:2,0:2:0:0:
424,303,190943,2,0,P|392:257|350:234,1,100,8|0,0:2|0:2,0:2:0:0:
502,112,191258,6,0,P|477:155|430:178,1,100,2|0,1:2|0:0,0:2:0:0:
311,69,191574,2,0,P|360:62|405:83,1,100,8|0,0:2|0:2,0:2:0:0:
433,177,191890,1,2,1:2:0:0:
358,240,192048,1,0,1:2:0:0:
272,192,192206,1,8,0:2:0:0:
285,95,192363,1,0,1:2:0:0:
350,156,192521,6,0,P|340:257|297:369,2,200,6|8|0,1:2|2:2|1:2,0:2:0:0:
294,75,193311,1,0,1:2:0:0:
209,123,193469,2,0,L|182:225,1,100,10|0,0:2|0:0,0:2:0:0:
1,158,193785,6,0,L|102:147,1,100,2|0,1:2|0:2,0:2:0:0:
10,298,194100,2,0,L|111:309,1,100,10|0,0:2|0:2,0:2:0:0:
209,123,194416,2,0,L|297:70,1,100,2|0,1:2|0:2,0:2:0:0:
208,333,194732,2,0,L|296:386,1,100,10|0,0:2|0:2,0:2:0:0:
301,175,195048,6,0,B|402:173|390:227|498:224,1,200,6|8,1:2|0:2,0:2:0:0:
476,317,195522,2,0,B|374:319|386:265|285:267,1,200,2|0,0:2|0:2,0:2:0:0:
200,311,195995,1,10,0:2:0:0:
200,311,196153,1,0,0:2:0:0:
274,360,196311,5,6,1:2:0:0:
204,211,196469,1,8,0:2:0:0:
90,366,196627,1,8,0:2:0:0:
129,248,196784,1,8,0:2:0:0:
4,303,196942,1,8,0:2:0:0:
50,239,197100,1,8,0:2:0:0:
55,214,197178,1,8,0:2:0:0:
58,189,197257,1,8,0:3:0:0:
57,164,197336,1,8,0:3:0:0:
52,140,197415,1,4,0:3:0:0:
0,61,197574,5,6,1:2:0:0:
256,192,197653,12,0,203890,0:2:0:0:
