osu file format v14

[General]
AudioFilename: audio.mp3
AudioLeadIn: 0
PreviewTime: 52607
Countdown: 0
SampleSet: Soft
StackLeniency: 0.6
Mode: 0
LetterboxInBreaks: 0
WidescreenStoryboard: 1

[Editor]
Bookmarks: 10627,20732,30837,40943,45995,53574,63679,72995,73785,83890,93995,104100,109153,116732,126837,136153,136943,141995,147048,152100,155732,157153,162206,164732,167258,168364,186679,197574,203890
DistanceSpacing: 0.9
BeatDivisor: 4
GridSize: 32
TimelineZoom: 1.8

[Metadata]
Title:PROMISiNG
TitleUnicode:PROMISiNG
Artist:Sakura Yuno
ArtistUnicode:咲良ゆの
Creator:Lasse
Version:Hard
Source:
Tags:futurize me japanese pop rock amelia
BeatmapID:4039424
BeatmapSetID:1950038

[Difficulty]
HPDrainRate:4
CircleSize:3.8
OverallDifficulty:6.8
ApproachRate:8
SliderMultiplier:1.49
SliderTickRate:1

[Events]
//Background and Video events
0,0,"102793945_p0_3.jpg",0,0
//Break Periods
2,157353,161456
//Storyboard Layer 0 (Background)
//Storyboard Layer 1 (Fail)
//Storyboard Layer 2 (Pass)
//Storyboard Layer 3 (Foreground)
//Storyboard Layer 4 (Overlay)
//Storyboard Sound Samples

[TimingPoints]
522,315.789473684211,4,2,1,32,1,0
522,-200,4,2,1,32,0,0
2416,-200,4,2,1,34,0,0
3048,-200,4,2,1,36,0,0
5574,-200,4,2,1,38,0,0
6837,-200,4,2,1,40,0,0
8100,-200,4,2,1,45,0,0
9048,-200,4,2,1,50,0,0
9916,-200,4,2,1,20,0,0
9995,-200,4,2,1,60,0,0
10311,-133.333333333333,4,2,1,50,0,0
10627,-100,4,2,3,65,0,0
10706,-100,4,2,1,65,0,0
11811,-100,4,2,1,30,0,0
11890,-100,4,2,1,65,0,0
13074,-100,4,2,1,30,0,0
13153,-100,4,2,1,65,0,0
14653,-100,4,2,1,30,0,0
14732,-100,4,2,1,65,0,0
15679,-100,4,2,2,65,0,0
15837,-100,4,2,1,65,0,0
16864,-100,4,2,1,30,0,0
16943,-100,4,2,1,65,0,0
20653,-100,4,2,1,30,0,0
20732,-166.666666666667,4,2,1,50,0,0
21048,-166.666666666667,4,2,2,50,0,0
22153,-166.666666666667,4,2,2,40,0,0
22311,-166.666666666667,4,2,2,50,0,0
22469,-166.666666666667,4,2,2,40,0,0
22627,-166.666666666667,4,2,2,50,0,0
22785,-166.666666666667,4,2,2,40,0,0
22943,-166.666666666667,4,2,2,50,0,0
24679,-166.666666666667,4,2,2,40,0,0
24837,-166.666666666667,4,2,2,50,0,0
24995,-166.666666666667,4,2,2,40,0,0
25153,-166.666666666667,4,2,2,50,0,0
25311,-166.666666666667,4,2,2,40,0,0
25469,-166.666666666667,4,2,2,50,0,0
25627,-166.666666666667,4,2,2,40,0,0
27048,-166.666666666667,4,2,2,50,0,0
27206,-166.666666666667,4,2,2,40,0,0
27364,-166.666666666667,4,2,2,50,0,0
27522,-166.666666666667,4,2,2,40,0,0
27679,-166.666666666667,4,2,2,50,0,0
27837,-166.666666666667,4,2,2,40,0,0
27995,-166.666666666667,4,2,2,50,0,0
28153,-166.666666666667,4,2,2,40,0,0
28311,-166.666666666667,4,2,2,50,0,0
28785,-166.666666666667,4,2,1,50,0,0
29732,-166.666666666667,4,2,1,55,0,0
30837,-125,4,2,1,60,0,0
32022,-125,4,2,1,30,0,0
32100,-125,4,2,1,60,0,0
33285,-125,4,2,1,30,0,0
33364,-125,4,2,1,60,0,0
35811,-125,4,2,1,30,0,0
35890,-125,4,2,1,60,0,0
37074,-125,4,2,1,30,0,0
37153,-125,4,2,1,60,0,0
38653,-125,4,2,1,30,0,0
38732,-125,4,2,1,60,0,0
40943,-111.111111111111,4,2,4,60,0,0
41100,-111.111111111111,4,2,1,60,0,0
42285,-111.111111111111,4,2,1,30,0,0
42364,-111.111111111111,4,2,1,60,0,0
42679,-166.666666666666,4,2,1,60,0,0
43469,-111.111111111111,4,2,2,60,0,0
43627,-111.111111111111,4,2,1,60,0,0
45995,-105.263157894737,4,2,4,65,0,0
46153,-105.263157894737,4,2,1,65,0,0
47179,-105.263157894737,4,2,1,30,0,0
47258,-105.263157894737,4,2,1,65,0,0
48522,-105.263157894737,4,2,2,65,0,0
48679,-105.263157894737,4,2,1,65,0,0
52074,-105.263157894737,4,2,1,30,0,0
52153,-105.263157894737,4,2,1,65,0,0
52232,-105.263157894737,4,2,1,30,0,0
53258,-105.263157894737,4,2,1,50,0,0
53574,-100,4,2,3,70,0,1
53653,-100,4,2,1,70,0,1
54916,-100,4,2,1,35,0,1
54995,-100,4,2,1,70,0,1
56100,-100,4,2,2,70,0,1
56179,-100,4,2,1,70,0,1
57443,-100,4,2,1,35,0,1
57522,-100,4,2,1,70,0,1
58627,-100,4,2,4,70,0,1
58706,-100,4,2,1,70,0,1
61074,-100,4,2,1,35,0,1
61153,-100,4,2,2,70,0,1
61390,-100,4,2,1,35,0,1
61469,-100,4,2,1,70,0,1
63640,-100,4,2,1,70,0,0
63679,-100,4,2,3,70,0,1
63758,-100,4,2,1,70,0,1
65022,-100,4,2,1,35,0,1
65100,-100,4,2,1,70,0,1
66206,-100,4,2,2,70,0,1
66285,-100,4,2,1,70,0,1
67548,-100,4,2,1,35,0,1
67627,-100,4,2,1,70,0,1
68653,-100,4,2,1,35,0,1
68732,-100,4,2,4,70,0,1
68811,-100,4,2,1,70,0,1
71258,-100,4,2,2,70,0,1
71337,-100,4,2,1,70,0,1
72285,-100,4,2,1,35,0,1
72364,-100,4,2,1,70,0,1
72600,-100,4,2,1,35,0,1
72679,-100,4,2,1,70,0,1
72995,-100,4,2,1,70,0,0
73311,-133.333333333333,4,2,1,60,0,0
73785,-100,4,2,3,65,0,0
73864,-100,4,2,1,65,0,0
74969,-100,4,2,1,30,0,0
75048,-100,4,2,1,65,0,0
77811,-100,4,2,1,30,0,0
77890,-100,4,2,1,65,0,0
78758,-100,4,2,1,30,0,0
78837,-100,4,2,2,65,0,0
79074,-100,4,2,1,30,0,0
79153,-100,4,2,1,65,0,0
80022,-100,4,2,1,30,0,0
80100,-100,4,2,1,65,0,0
83811,-100,4,2,1,30,0,0
83890,-142.857142857143,4,2,1,55,0,0
92653,-142.857142857143,4,2,1,30,0,0
92732,-142.857142857143,4,2,1,55,0,0
93995,-125,4,2,1,60,0,0
95179,-125,4,2,1,30,0,0
95258,-125,4,2,1,60,0,0
96443,-125,4,2,1,30,0,0
96522,-125,4,2,1,60,0,0
98969,-125,4,2,1,30,0,0
99048,-125,4,2,1,60,0,0
100232,-125,4,2,1,30,0,0
100311,-125,4,2,1,60,0,0
104100,-111.111111111111,4,2,4,60,0,0
104258,-111.111111111111,4,2,1,60,0,0
105443,-111.111111111111,4,2,1,30,0,0
105522,-111.111111111111,4,2,1,60,0,0
105837,-166.666666666666,4,2,1,60,0,0
106627,-111.111111111111,4,2,2,60,0,0
106785,-111.111111111111,4,2,1,60,0,0
109153,-105.263157894737,4,2,4,65,0,0
109311,-105.263157894737,4,2,1,65,0,0
110337,-105.263157894737,4,2,1,30,0,0
110416,-105.263157894737,4,2,1,65,0,0
111679,-105.263157894737,4,2,2,65,0,0
111837,-105.263157894737,4,2,1,65,0,0
115232,-105.263157894737,4,2,1,30,0,0
115311,-105.263157894737,4,2,1,65,0,0
115390,-105.263157894737,4,2,1,30,0,0
116416,-105.263157894737,4,2,1,50,0,0
116732,-100,4,2,3,70,0,1
116811,-100,4,2,1,70,0,1
118074,-100,4,2,1,35,0,1
118153,-100,4,2,1,70,0,1
119258,-100,4,2,2,70,0,1
119337,-100,4,2,1,70,0,1
120600,-100,4,2,1,35,0,1
120679,-100,4,2,1,70,0,1
121785,-100,4,2,4,70,0,1
121864,-100,4,2,1,70,0,1
124232,-100,4,2,1,35,0,1
124311,-100,4,2,2,70,0,1
124548,-100,4,2,1,35,0,1
124627,-100,4,2,1,70,0,1
126798,-100,4,2,1,70,0,0
126837,-100,4,2,3,70,0,1
126916,-100,4,2,1,70,0,1
128179,-100,4,2,1,35,0,1
128258,-100,4,2,1,70,0,1
129364,-100,4,2,2,70,0,1
129443,-100,4,2,1,70,0,1
130706,-100,4,2,1,35,0,1
130785,-100,4,2,1,70,0,1
131890,-100,4,2,4,70,0,1
131969,-100,4,2,1,70,0,1
134416,-100,4,2,2,70,0,1
134495,-100,4,2,1,70,0,1
135443,-100,4,2,1,35,0,1
135522,-100,4,2,1,70,0,1
135758,-100,4,2,1,35,0,1
135837,-100,4,2,1,70,0,1
136153,-100,4,2,1,70,0,0
136469,-133.333333333333,4,2,1,60,0,0
136943,-100,4,2,3,65,0,0
137022,-100,4,2,1,60,0,0
139469,-100,4,2,2,65,0,0
139548,-100,4,2,1,65,0,0
141995,-100,4,2,4,65,0,0
142074,-100,4,2,1,65,0,0
144522,-100,4,2,2,65,0,0
144601,-100,4,2,1,65,0,0
147048,-95.2380952380952,4,2,3,70,0,0
147127,-95.2380952380952,4,2,1,70,0,0
147285,-95.2380952380952,4,2,1,35,0,0
147364,-95.2380952380952,4,2,1,70,0,0
149574,-95.2380952380952,4,2,2,70,0,0
149653,-95.2380952380952,4,2,1,70,0,0
152022,-95.2380952380952,4,2,1,35,0,0
152100,-90.9090909090909,4,2,4,70,0,0
152179,-90.9090909090909,4,2,1,70,0,0
154627,-90.9090909090909,4,2,2,70,0,0
154706,-90.9090909090909,4,2,1,70,0,0
157153,-200,4,2,3,45,0,0
162206,-200,4,2,1,40,0,0
163469,-166.666666666667,4,2,1,45,0,0
164732,-111.111111111111,4,2,2,60,0,0
164811,-111.111111111111,4,2,1,60,0,0
166074,-111.111111111111,4,2,1,30,0,0
166153,-111.111111111111,4,2,1,65,0,0
167258,-166.666666666667,4,2,1,50,0,0
167337,-166.666666666667,4,2,1,25,0,0
167416,-166.666666666667,4,2,1,60,0,0
167574,-100,4,2,3,70,0,1
167653,-100,4,2,1,30,0,1
167732,-83.3333333333333,4,2,1,65,0,0
167811,-83.3333333333333,4,2,1,30,0,0
167890,-100,4,2,1,65,0,0
168364,-83.3333333333333,4,2,1,70,0,1
168600,-83.3333333333333,4,2,1,35,0,1
168679,-100,4,2,1,70,0,1
169706,-83.3333333333333,4,2,1,35,0,1
169785,-100,4,2,2,70,0,1
169864,-100,4,2,1,70,0,1
171127,-100,4,2,1,35,0,1
171206,-100,4,2,1,70,0,1
172232,-100,4,2,1,35,0,1
172311,-100,4,2,4,70,0,1
172390,-100,4,2,1,70,0,1
172864,-100,4,2,1,35,0,1
172943,-100,4,2,1,70,0,1
174758,-100,4,2,1,35,0,1
174837,-100,4,2,2,70,0,1
175074,-100,4,2,1,35,0,1
175153,-100,4,2,1,70,0,1
176732,-100,4,2,1,70,0,1
177324,-100,4,2,1,70,0,0
177364,-100,4,2,3,70,0,1
177443,-100,4,2,1,70,0,1
178706,-100,4,2,1,35,0,1
178785,-100,4,2,1,70,0,1
179890,-100,4,2,2,70,0,1
179969,-100,4,2,1,70,0,1
181232,-100,4,2,1,35,0,1
181311,-100,4,2,1,70,0,1
182416,-100,4,2,4,70,0,1
182495,-100,4,2,1,70,0,1
184943,-100,4,2,2,70,0,1
185022,-100,4,2,1,70,0,1
185969,-100,4,2,1,35,0,1
186048,-100,4,2,1,70,0,1
186285,-100,4,2,1,35,0,1
186364,-100,4,2,1,70,0,1
186679,-100,4,2,1,70,0,0
186995,-133.333333333333,4,2,1,60,0,0
187469,-100,4,2,3,65,0,0
187548,-100,4,2,1,65,0,0
188653,-100,4,2,1,30,0,0
188732,-100,4,2,1,65,0,0
189916,-100,4,2,1,30,0,0
189995,-100,4,2,1,65,0,0
191495,-100,4,2,1,30,0,0
191574,-100,4,2,1,65,0,0
192522,-100,4,2,2,65,0,0
192600,-100,4,2,1,65,0,0
193706,-100,4,2,1,30,0,0
193785,-100,4,2,1,65,0,0
197495,-100,4,2,1,30,0,0
197574,-465.116279069767,4,2,3,55,0,0
197732,-465.116279069767,4,2,99,5,0,0
203890,-465.116279069767,4,2,99,7,0,0

[Colours]
Combo1 : 250,180,240
Combo2 : 120,200,230
Combo3 : 255,230,130
Combo4 : 160,230,150

[HitObjects]
86,296,522,6,0,L|94:341,1,37.25,2|0,0:2|0:2,0:2:0:0:
168,340,837,2,0,L|176:385,1,37.25,0|0,0:2|0:2,0:2:0:0:
392,215,2416,5,0,0:2:0:0:
392,215,2732,1,0,0:2:0:0:
392,215,3048,2,0,L|384:260,1,37.25,2|0,0:2|0:2,0:2:0:0:
315,292,3364,2,0,L|307:337,1,37.25,0|0,0:2|0:2,0:2:0:0:
224,182,5574,6,0,B|138:165|168:213|77:195,1,149,2|0,0:2|0:2,0:2:0:0:
0,47,6837,5,2,0:2:0:0:
0,47,7153,1,0,0:2:0:0:
0,47,7469,1,0,0:2:0:0:
0,47,7785,1,0,0:2:0:0:
57,102,8100,6,0,P|102:103|136:87,1,74.5,2|0,0:2|0:2,0:2:0:0:
192,141,8574,2,0,P|226:153|263:151,1,74.5,2|0,0:2|0:2,0:2:0:0:
341,118,9048,2,0,P|301:136|304:260,1,186.25,2|0,0:2|0:0,0:2:0:0:
387,310,9995,5,10,0:2:0:0:
387,310,10153,1,10,0:2:0:0:
312,361,10311,6,0,P|286:358|256:344,1,55.8750021314622,2|0,0:2|0:2,0:2:0:0:
194,264,10627,6,0,B|123:233|125:303|52:268,1,149,6|8,1:2|0:2,0:2:0:0:
0,186,11100,1,2,0:2:0:0:
0,186,11258,2,0,L|19:113,1,74.5,0|0,1:2|0:2,0:2:0:0:
112,115,11574,2,0,L|93:188,1,74.5,10|0,0:2|0:0,0:2:0:0:
169,285,11890,6,0,P|218:299|317:251,1,149,2|8,1:2|0:2,0:2:0:0:
375,183,12364,2,0,L|351:24,1,149,2|0,0:2|0:2,0:2:0:0:
260,14,12837,2,0,L|276:124,1,111.75,10|0,0:2|0:0,0:0:0:0:
279,144,13153,6,0,P|232:179|142:156,1,149,6|8,1:2|0:2,0:2:0:0:
40,264,13627,1,2,3:2:0:0:
40,264,13706,1,0,3:2:0:0:
40,264,13785,2,0,P|83:247|130:242,1,74.5,0|0,1:2|0:2,0:2:0:0:
40,362,14100,2,0,P|80:334|119:325,1,74.5,8|0,0:2|0:2,0:2:0:0:
222,287,14416,6,0,P|271:313|387:316,2,149,2|8|2,1:2|0:2|1:2,0:2:0:0:
150,231,15206,1,0,1:2:0:0:
126,144,15364,2,0,L|144:64,1,74.5,8|0,0:2|1:2,0:0:0:0:
299,107,15679,6,0,L|282:179,1,74.5,6|0,1:2|0:2,0:2:0:0:
194,211,15995,2,0,L|226:65,1,149,8|0,2:2|1:2,2:2:0:0:
305,22,16469,1,0,1:2:0:0:
380,70,16627,2,0,P|430:88|500:88,1,111.75,10|0,0:2|0:2,0:2:0:0:
509,88,16943,6,0,P|483:121|465:153,1,74.5,2|0,1:2|0:2,0:2:0:0:
390,189,17258,2,0,P|364:222|346:254,1,74.5,10|0,0:2|0:2,0:2:0:0:
311,348,17574,2,0,P|285:315|267:283,1,74.5,2|0,1:2|0:2,0:2:0:0:
189,254,17890,2,0,P|163:221|145:189,1,74.5,10|0,0:2|0:2,0:2:0:0:
171,80,18206,6,0,P|233:59|336:41,1,149,6|8,1:2|0:2,0:2:0:0:
312,132,18679,2,0,P|385:145|456:168,1,149,2|0,0:2|0:2,0:2:0:0:
503,250,19153,1,10,0:2:0:0:
503,250,19311,1,0,0:2:0:0:
442,331,19469,6,0,P|371:353|297:367,1,149,6|8,1:2|0:2,0:0:0:0:
208,376,19943,1,8,0:2:0:0:
128,336,20100,1,8,0:2:0:0:
113,256,20258,1,8,0:2:0:0:
113,256,20337,1,8,0:2:0:0:
113,256,20416,2,0,P|119:218|133:183,1,74.5,8|4,0:3|0:3,0:0:0:0:
209,124,20732,6,0,P|257:115|294:95,1,89.3999972717286,6|8,1:2|1:2,0:2:0:0:
140,76,21364,2,0,P|92:67|55:47,1,89.3999972717286,2|8,1:2|1:2,0:2:0:0:
0,163,21995,1,2,1:2:0:0:
91,218,22311,1,8,1:2:0:0:
196,237,22627,1,2,1:2:0:0:
301,218,22943,2,0,P|357:201|403:203,2,89.3999972717286,8|2|8,1:2|1:2|1:2,0:2:0:0:
196,346,23890,6,0,P|140:329|94:331,1,89.3999972717286,2|8,1:2|1:2,0:2:0:0:
10,257,24522,1,2,1:2:0:0:
138,200,24837,1,8,1:2:0:0:
26,124,25153,1,0,1:2:0:0:
135,46,25469,1,8,1:2:0:0:
244,115,25785,2,0,L|233:222,2,89.3999972717286,2|8|0,1:2|1:2|1:2,0:2:0:0:
419,26,26732,5,8,1:2:0:0:
476,116,27048,1,2,1:2:0:0:
462,222,27364,1,8,1:2:0:0:
398,307,27679,1,0,1:2:0:0:
293,332,27995,1,8,1:2:0:0:
190,271,28311,6,0,P|184:231|181:165,1,89.3999972717286,2|8,1:2|1:2,0:2:0:0:
243,124,28785,2,0,P|275:112|300:101,2,44.6999986358643,10|0|2,0:2|1:2|0:2,0:2:0:0:
180,182,29258,2,0,P|121:155|78:145,1,89.3999972717286,12|0,0:2|1:2,0:2:0:0:
7,135,29732,5,2,0:2:0:0:
31,211,29890,1,12,0:2:0:0:
52,297,30048,1,8,0:3:0:0:
52,297,30127,1,8,0:3:0:0:
52,297,30206,2,0,L|31:357,1,44.6999986358643,4|8,0:3|0:3,0:0:0:0:
112,384,30522,2,0,L|126:341,1,44.6999986358643,8|4,0:2|0:3,0:0:0:0:
227,300,30837,6,0,P|291:327|359:317,2,119.2,6|8|2,1:2|0:2|0:2,0:2:0:0:
159,261,31627,1,0,1:2:0:0:
106,203,31785,2,0,P|115:167|135:129,1,59.6,10|0,0:2|0:0,0:2:0:0:
206,91,32100,6,0,P|265:92|318:67,1,119.2,2|8,1:2|0:2,0:2:0:0:
421,44,32574,1,0,3:2:0:0:
421,44,32653,1,0,3:2:0:0:
421,44,32732,2,0,P|405:79|396:108,1,59.6,2|0,3:2|1:2,0:0:0:0:
434,172,33048,2,0,P|445:213|468:260,1,89.4,8|0,0:2|0:2,0:2:0:0:
474,276,33364,6,0,P|443:283|407:293,1,59.6,2|0,1:2|0:2,0:2:0:0:
373,373,33679,2,0,P|323:358|257:344,1,119.2,8|2,0:2|0:2,0:2:0:0:
181,362,34153,1,0,1:2:0:0:
128,304,34311,2,0,P|122:271|121:237,1,59.6,8|0,0:2|0:2,0:0:0:0:
188,160,34627,6,0,L|311:145,1,119.2,2|8,1:2|0:2,0:2:0:0:
401,164,35100,1,0,3:2:0:0:
401,164,35179,1,0,3:2:0:0:
401,164,35258,2,0,P|397:132|389:105,1,59.6,2|0,3:2|1:2,0:0:0:0:
313,50,35574,2,0,L|224:60,1,89.4,10|0,0:2|0:2,0:2:0:0:
205,70,35890,6,0,P|147:59|91:30,2,119.2,2|8|2,1:2|0:2|0:2,0:2:0:0:
262,122,36679,1,0,1:2:0:0:
301,188,36837,2,0,P|299:227|280:298,1,89.4,10|0,0:2|0:2,0:2:0:0:
279,293,37153,6,0,P|227:299|155:316,1,119.2,2|8,1:2|0:2,0:0:0:0:
99,371,37627,1,2,3:2:0:0:
99,371,37706,1,0,3:2:0:0:
99,371,37785,2,0,P|61:360|35:344,1,59.6,0|0,3:2|1:2,0:0:0:0:
1,285,38100,1,8,0:2:0:0:
60,235,38258,1,0,3:2:0:0:
0,165,38416,6,0,B|61:161|55:134|112:127,1,119.2,6|8,1:2|0:2,0:2:0:0:
176,84,38890,1,12,0:2:0:0:
253,253,39206,1,2,1:2:0:0:
324,224,39364,2,0,B|385:228|379:255|436:261,1,119.2,12|0,0:2|1:2,0:2:0:0:
512,211,39837,5,14,0:2:0:0:
427,164,39995,1,10,0:2:0:0:
492,96,40153,1,8,0:2:0:0:
492,96,40232,1,8,0:2:0:0:
492,96,40311,2,0,P|484:77|474:55,3,29.8,8|8|8|8,0:2|0:2|0:2|0:2,0:0:0:0:
476,51,40627,2,0,P|453:40|424:30,3,29.8,8|8|4|4,0:3|0:3|0:3|0:3,0:0:0:0:
431,24,40943,6,0,P|399:29|338:46,1,67.0499979537964,4|0,1:2|1:2,0:2:0:0:
267,164,41416,1,2,1:2:0:0:
267,164,41574,2,0,B|201:159|213:137|139:127,1,134.099995907593,8|10,0:2|0:2,0:2:0:0:
58,154,42048,2,0,P|41:193|36:227,1,67.0499979537964,4|0,1:2|0:0,0:2:0:0:
58,299,42364,2,0,P|89:311|140:322,1,67.0499979537964,0|8,1:2|0:2,0:2:0:0:
208,306,42679,5,2,0:2:0:0:
254,370,42837,1,8,0:2:0:0:
327,340,42995,2,0,P|315:294|314:244,1,89.3999972717286,0|0,1:2|0:2,0:2:0:0:
383,184,43469,6,0,P|432:174|472:160,1,67.0499979537964,6|0,1:2|1:2,0:2:0:0:
335,46,43943,1,2,1:2:0:0:
335,46,44100,2,0,B|281:34|278:73|199:60,1,134.099995907593,8|10,0:2|0:2,0:2:0:0:
149,125,44574,2,0,P|93:114|29:159,1,134.099995907593,4|0,1:2|1:2,0:2:0:0:
8,236,45048,2,0,P|13:273|27:323,1,67.0499979537964,10|0,0:2|0:2,0:2:0:0:
96,364,45364,5,10,0:2:0:0:
96,364,45522,1,0,1:2:0:0:
169,309,45679,1,8,0:3:0:0:
169,309,45837,1,4,0:3:0:0:
238,358,45995,6,0,P|262:366|388:371,2,141.549996220207,4|10|2,1:2|0:2|0:2,0:2:0:0:
169,309,46785,1,0,1:2:0:0:
161,224,46943,2,0,P|169:193|188:152,1,70.7749981101037,10|0,0:2|0:0,0:2:0:0:
259,83,47258,6,0,B|190:83|203:52|108:50,1,141.549996220207,6|8,1:2|0:2,0:2:0:0:
78,138,47732,2,0,P|38:171|23:274,1,141.549996220207,2|0,0:2|1:2,0:2:0:0:
61,329,48206,1,10,0:2:0:0:
61,329,48364,1,0,0:2:0:0:
154,294,48522,6,0,L|178:195,1,70.7749981101037,6|0,1:2|0:2,0:2:0:0:
248,266,48837,2,0,L|286:108,1,141.549996220207,8|0,0:2|0:2,0:2:0:0:
342,68,49311,1,0,1:2:0:0:
424,86,49469,1,10,0:2:0:0:
464,171,49627,5,2,3:2:0:0:
464,171,49706,1,0,3:2:0:0:
464,171,49785,2,0,L|425:328,1,141.549996220207,4|10,1:2|0:2,0:2:0:0:
374,372,50258,1,2,3:2:0:0:
374,372,50337,1,0,3:2:0:0:
374,372,50416,1,0,3:2:0:0:
324,302,50574,2,0,L|348:203,1,70.7749981101037,2|8,1:2|0:2,0:0:0:0:
294,161,50890,1,2,0:2:0:0:
216,213,51048,6,0,L|169:215,3,35.3874990550518,12|8|8|8,0:2|0:2|0:2|0:2,0:0:0:0:
150,234,51364,2,0,L|103:236,3,35.3874990550518,8|8|8|8,0:2|0:2|0:2|0:2,0:0:0:0:
84,255,51679,2,0,L|37:257,3,35.3874990550518,8|8|4|4,0:3|0:3|0:3|0:3,0:0:0:0:
24,283,51995,5,10,0:2:0:0:
0,190,52153,1,10,0:2:0:0:
44,336,53574,6,0,P|112:338|178:269,1,149,6|8,1:2|0:2,0:2:0:0:
244,211,54048,2,0,P|249:256|268:297,1,74.5,2|0,0:2|1:2,0:2:0:0:
332,336,54364,2,0,P|376:333|421:308,1,74.5,2|8,1:2|0:2,0:2:0:0:
483,243,54679,6,0,B|475:192|475:192|493:155|493:155|481:82|481:83,1,149,4|2,1:2|1:2,0:2:0:0:
396,59,55153,2,0,L|410:150,1,74.5,8|2,0:2|3:2,0:0:0:0:
407,132,55390,1,0,3:2:0:0:
407,132,55469,1,0,1:2:0:0:
352,206,55627,1,0,1:2:0:0:
277,160,55785,2,0,L|265:86,1,74.5,8|0,0:2|0:2,0:0:0:0:
175,33,56100,6,0,P|93:44|59:120,1,149,6|8,1:2|0:2,0:2:0:0:
83,183,56574,2,0,P|1:183|-2:184,1,74.5,2|0,0:2|1:2,0:2:0:0:
108,284,56890,2,0,P|62:260|34:257,1,74.5,2|8,1:2|0:2,0:2:0:0:
157,360,57206,6,0,P|224:356|289:327,1,111.75,6|0,1:2|0:2,0:2:0:0:
265,340,57522,2,0,P|271:298|284:245,1,74.5,2|8,1:2|0:2,0:2:0:0:
383,232,57837,1,2,3:2:0:0:
383,232,57916,1,0,3:2:0:0:
383,232,57995,2,0,P|426:219|463:201,1,74.5,0|0,1:2|1:2,0:2:0:0:
512,129,58311,1,10,0:2:0:0:
512,129,58469,1,0,0:2:0:0:
428,44,58627,6,0,B|342:19|374:85|254:51,2,149,6|10|2,1:2|0:2|1:2,0:2:0:0:
512,129,59416,1,0,1:2:0:0:
424,161,59574,1,8,0:2:0:0:
499,243,59732,6,0,P|458:288|363:285,1,149,6|0,1:2|1:2,2:2:0:0:
308,368,60206,2,0,P|234:349|160:347,1,149,10|2,0:2|1:2,0:2:0:0:
80,380,60679,1,0,1:2:0:0:
13,327,60837,2,0,P|15:289|24:253,1,74.5,10|0,0:2|0:0,0:2:0:0:
91,173,61153,6,0,P|165:170|237:151,1,149,6|8,1:2|0:2,0:2:0:0:
321,115,61627,1,2,1:2:0:0:
321,115,61785,1,8,0:2:0:0:
249,69,61943,1,2,1:2:0:0:
249,69,62100,1,8,0:2:0:0:
305,202,62258,6,0,L|283:355,1,149,6|0,1:2|1:2,0:2:0:0:
379,384,62732,2,0,L|390:307,1,74.5,10|0,1:2|1:2,0:2:0:0:
478,268,63048,1,8,2:3:0:0:
478,268,63127,1,8,2:3:0:0:
478,268,63206,1,4,2:3:0:0:
437,174,63364,2,0,P|414:167|389:152,3,37.25,8|8|8|8,2:2|2:2|2:2|2:2,0:0:0:0:
386,150,63679,6,0,P|367:65|284:44,1,149,6|8,1:2|0:2,0:2:0:0:
228,90,64153,2,0,L|217:167,1,74.5,2|0,0:2|1:2,0:2:0:0:
134,170,64469,2,0,L|144:96,1,74.5,2|8,1:2|0:2,0:2:0:0:
306,125,64785,6,0,L|283:301,1,149,14|2,0:2|1:2,0:2:0:0:
230,359,65258,2,0,P|192:359|157:349,1,74.5,8|2,0:2|3:2,0:0:0:0:
157,349,65495,1,0,3:2:0:0:
157,349,65574,1,0,1:2:0:0:
89,301,65732,1,0,1:2:0:0:
159,247,65890,2,0,L|169:173,1,74.5,8|0,0:2|0:2,0:0:0:0:
211,66,66206,6,0,B|129:59|152:99|62:92,1,149,6|8,1:2|0:2,0:2:0:0:
79,182,66679,2,0,P|62:184|7:204,1,74.5,2|0,0:2|1:2,0:2:0:0:
69,272,66995,2,0,P|41:285|3:330,1,74.5,2|8,1:2|0:2,0:2:0:0:
138,351,67311,6,0,P|205:383|264:362,1,111.75,6|0,1:2|0:2,0:2:0:0:
239,376,67627,2,0,P|250:336|258:281,1,74.5,2|8,1:2|0:2,0:2:0:0:
331,245,67943,1,2,3:2:0:0:
331,245,68022,1,0,3:2:0:0:
331,245,68100,2,0,P|324:208|314:172,1,74.5,0|0,1:2|1:2,0:2:0:0:
383,99,68416,2,0,P|362:62|279:30,1,111.75,10|0,0:2|0:2,0:2:0:0:
284,44,68732,6,0,P|233:126|163:121,1,149,6|8,1:2|0:2,0:0:0:0:
104,119,69206,1,2,1:2:0:0:
104,119,69364,1,8,0:2:0:0:
19,109,69522,1,2,1:2:0:0:
19,109,69679,1,8,2:2:0:0:
90,210,69837,6,0,L|73:296,2,74.5,2|12|0,1:2|0:2|1:2,0:0:0:0:
191,157,70311,2,0,L|205:83,1,74.5,10|0,2:2|1:2,0:0:0:0:
276,225,70627,2,0,L|259:311,1,74.5,10|0,2:2|1:2,0:0:0:0:
379,195,70943,2,0,L|386:158,3,37.25,10|8|8|8,0:2|0:2|0:3|0:3,0:0:0:0:
400,146,71258,6,0,P|439:158|464:283,1,149,6|8,1:2|0:2,0:0:0:0:
467,340,71732,1,8,0:2:0:0:
381,364,71890,1,8,0:3:0:0:
381,364,71969,1,8,0:3:0:0:
381,364,72048,2,0,P|340:350|296:347,1,74.5,4|8,0:3|0:2,0:0:0:0:
209,273,72364,6,0,P|152:306|52:283,1,149,6|10,1:2|0:2,0:2:0:0:
4,227,72837,1,10,0:2:0:0:
59,147,72995,1,10,0:2:0:0:
231,188,73311,5,0,1:2:0:0:
231,188,73390,1,0,1:2:0:0:
231,188,73469,2,0,L|240:259,1,55.8750021314622,10|0,0:2|0:2,0:1:0:0:
305,324,73785,6,0,P|367:334|456:292,1,149,6|8,1:2|0:2,0:2:0:0:
484,222,74258,1,2,0:2:0:0:
484,222,74416,2,0,L|471:146,1,74.5,0|0,1:2|0:2,0:2:0:0:
396,207,74732,2,0,L|380:87,1,111.75,10|0,0:2|0:0,0:2:0:0:
376,82,75048,6,0,B|292:53|313:120|233:92,1,149,2|8,1:2|0:2,0:2:0:0:
154,35,75522,2,0,P|92:34|34:107,1,149,2|0,0:2|0:2,0:2:0:0:
72,175,75995,2,0,P|35:178|0:189,1,74.5,10|0,0:2|0:2,0:0:0:0:
92,267,76311,6,0,P|137:323|209:326,1,149,6|8,1:2|0:2,0:2:0:0:
279,268,76785,1,2,3:2:0:0:
279,268,76864,1,0,3:2:0:0:
279,268,76943,2,0,L|268:182,1,74.5,0|0,1:2|0:2,0:2:0:0:
168,177,77258,2,0,L|177:250,1,74.5,8|0,0:2|0:2,0:2:0:0:
280,170,77574,6,0,L|261:22,2,149,2|8|2,1:2|0:2|1:2,0:2:0:0:
287,259,78364,1,0,1:2:0:0:
354,318,78522,2,0,P|422:324|479:291,1,111.75,8|0,0:2|0:0,0:0:0:0:
483,292,78837,6,0,L|494:206,1,74.5,6|0,1:2|0:0,0:2:0:0:
400,235,79153,2,0,L|381:87,1,149,8|0,2:2|1:2,2:2:0:0:
321,19,79627,1,0,1:2:0:0:
237,51,79785,2,0,L|222:161,1,111.75,10|0,0:2|0:2,0:2:0:0:
205,182,80100,6,0,P|155:176|114:150,1,74.5,2|0,1:2|0:2,0:2:0:0:
79,232,80416,2,0,P|41:229|7:215,1,74.5,10|0,0:2|0:2,0:2:0:0:
113,317,80732,2,0,P|163:323|204:349,1,74.5,2|0,1:2|0:2,0:2:0:0:
272,376,81048,2,0,P|309:373|343:359,1,74.5,10|0,0:2|0:2,0:2:0:0:
438,284,81364,6,0,P|439:216|460:130,1,149,6|8,1:2|0:2,0:2:0:0:
362,84,81837,2,0,P|361:152|340:238,1,149,2|0,0:2|0:2,0:2:0:0:
291,304,82311,1,10,0:2:0:0:
291,304,82469,1,0,0:2:0:0:
205,243,82627,6,0,P|206:175|227:89,1,149,6|8,1:2|0:2,0:0:0:0:
289,34,83100,1,8,0:2:0:0:
362,84,83258,1,8,0:2:0:0:
303,151,83416,1,8,0:2:0:0:
303,151,83495,1,8,0:2:0:0:
303,151,83574,2,0,P|306:187|319:228,1,74.5,8|4,0:3|0:3,0:0:0:0:
394,289,83890,6,0,P|468:309|512:336,1,104.299996817017,4|0,1:2|1:2,0:2:0:0:
317,373,84522,2,0,P|243:353|199:326,1,104.299996817017,2|8,1:2|0:2,0:0:0:0:
140,220,85153,6,0,P|131:168|119:117,1,104.299996817017,2|0,1:2|1:2,0:2:0:0:
83,49,85627,1,8,0:2:0:0:
83,49,85785,2,0,P|58:46|12:31,1,52.1499984085084,0|8,1:2|0:3,0:0:0:0:
119,117,86100,2,0,P|144:114|190:99,1,52.1499984085084,0|4,1:2|0:3,0:0:0:0:
243,71,86416,6,0,P|225:110|214:185,1,104.299996817017,2|0,1:2|1:2,0:2:0:0:
341,283,87048,2,0,P|359:244|370:169,1,104.299996817017,2|8,1:2|0:2,0:2:0:0:
227,272,87679,6,0,B|171:278|185:302|130:308,1,104.299996817017,2|0,1:2|1:2,0:2:0:0:
57,287,88153,1,8,0:2:0:0:
57,287,88311,2,0,L|45:216,1,52.1499984085084,0|8,1:2|0:3,0:0:0:0:
125,231,88627,2,0,L|113:160,1,52.1499984085084,0|4,1:2|0:3,0:0:0:0:
103,91,88943,6,0,L|-23:73,2,104.299996817017,2|0|0,1:2|1:2|1:2,0:2:0:0:
244,42,89890,1,10,0:2:0:0:
282,189,90206,6,0,L|251:310,1,104.299996817017,2|0,1:2|1:2,0:2:0:0:
296,360,90679,1,8,0:2:0:0:
296,360,90837,2,0,P|332:359|369:348,1,52.1499984085084,0|8,1:2|0:3,0:0:0:0:
422,371,91153,2,0,P|440:351|463:313,1,52.1499984085084,0|4,1:2|0:3,0:0:0:0:
508,246,91469,6,0,P|500:184|483:131,1,104.299996817017,2|0,1:2|1:2,0:2:0:0:
465,70,91943,2,0,P|490:55|524:46,2,52.1499984085084,8|2|0,0:2|1:2|0:2,0:0:0:0:
409,122,92416,2,0,P|378:121|318:99,1,78.2249976127625,12|0,0:2|0:2,0:2:0:0:
324,101,92732,6,0,L|313:40,1,52.1499984085084,2|0,1:2|0:2,0:0:0:0:
249,9,93048,1,12,0:2:0:0:
212,78,93206,1,8,0:3:0:0:
212,78,93285,1,8,0:3:0:0:
212,78,93364,2,0,L|223:139,1,52.1499984085084,4|8,0:3|0:3,0:0:0:0:
187,197,93679,2,0,L|198:258,1,52.1499984085084,8|4,0:2|0:3,0:0:0:0:
231,341,93995,6,0,B|173:318|182:367|117:340,2,119.2,6|8|2,1:2|0:2|2:2,0:2:0:0:
304,367,94785,1,0,1:2:0:0:
372,331,94943,2,0,P|382:302|387:272,1,59.6,10|0,0:2|0:0,0:2:0:0:
472,206,95258,6,0,P|462:136|432:71,1,119.2,2|8,1:2|0:2,0:2:0:0:
385,39,95732,1,0,3:2:0:0:
385,39,95811,1,0,3:2:0:0:
385,39,95890,2,0,P|353:35|310:20,1,59.6,2|0,3:2|1:2,0:0:0:0:
285,109,96206,2,0,P|253:113|191:135,1,89.4,8|0,0:2|0:2,0:2:0:0:
189,143,96522,6,0,L|184:203,1,59.6,2|0,1:2|0:2,0:2:0:0:
100,230,96837,2,0,L|109:111,1,119.2,8|2,0:2|0:2,0:2:0:0:
67,45,97311,1,0,1:2:0:0:
23,109,97469,2,0,L|18:169,1,59.6,8|0,0:2|0:2,0:0:0:0:
13,269,97785,6,0,P|63:290|140:261,1,119.2,2|8,1:2|0:2,0:2:0:0:
218,237,98258,1,0,3:2:0:0:
218,237,98337,1,0,3:2:0:0:
218,237,98416,2,0,P|210:267|210:299,1,59.6,2|0,3:2|1:2,0:0:0:0:
272,355,98732,2,0,P|313:357|362:370,1,89.4,10|0,0:2|0:2,0:2:0:0:
377,363,99048,6,0,P|440:357|491:323,2,119.2,2|8|2,1:2|0:2|0:2,0:2:0:0:
306,331,99837,1,0,1:2:0:0:
272,261,99995,2,0,L|297:152,1,89.4,10|0,0:2|0:2,0:2:0:0:
289,158,100311,6,0,P|238:127|179:122,1,119.2,2|8,1:2|0:2,0:0:0:0:
115,160,100785,1,2,3:2:0:0:
115,160,100864,1,0,3:2:0:0:
115,160,100943,2,0,L|101:218,1,59.6,0|0,3:2|1:2,0:0:0:0:
101,295,101258,1,8,0:2:0:0:
26,316,101416,1,0,3:2:0:0:
0,220,101574,6,0,L|28:104,1,119.2,6|8,1:2|0:2,0:2:0:0:
92,60,102048,1,12,0:2:0:0:
200,170,102364,1,2,1:2:0:0:
276,155,102522,2,0,L|304:39,1,119.2,12|0,0:2|1:2,0:2:0:0:
406,12,102995,5,14,0:2:0:0:
467,82,103153,1,10,0:2:0:0:
391,131,103311,1,8,0:2:0:0:
391,131,103390,1,8,0:2:0:0:
391,131,103469,2,0,L|384:160,3,29.8,8|8|8|8,0:2|0:2|0:2|0:2,0:0:0:0:
393,182,103785,2,0,L|386:211,3,29.8,8|8|4|4,0:3|0:3|0:3|0:3,0:0:0:0:
395,226,104100,6,0,P|425:240|465:248,1,67.0499979537964,4|0,1:2|1:2,0:2:0:0:
326,311,104574,1,2,1:2:0:0:
326,311,104732,2,0,B|254:305|273:352|198:348,1,134.099995907593,8|10,0:2|0:2,0:2:0:0:
115,369,105206,2,0,P|76:359|50:340,1,67.0499979537964,4|0,1:2|0:0,0:2:0:0:
11,267,105522,2,0,P|24:236|60:189,1,67.0499979537964,0|8,1:2|0:2,0:2:0:0:
124,160,105837,5,2,0:2:0:0:
195,193,105995,1,8,0:2:0:0:
251,137,106153,2,0,P|237:92|238:41,1,89.3999972717286,0|0,1:2|0:2,0:2:0:0:
308,8,106627,6,0,P|345:17|393:22,1,67.0499979537964,6|0,1:2|1:2,0:2:0:0:
500,141,107100,1,2,1:2:0:0:
500,141,107258,2,0,B|439:125|445:173|370:164,1,134.099995907593,8|10,0:2|0:2,0:2:0:0:
325,237,107732,2,0,B|264:221|270:269|195:260,1,134.099995907593,4|0,1:2|1:2,0:2:0:0:
136,324,108206,2,0,P|94:315|59:298,1,67.0499979537964,10|0,0:2|0:2,0:2:0:0:
0,239,108522,5,10,0:2:0:0:
0,239,108679,1,0,1:2:0:0:
72,194,108837,1,8,0:3:0:0:
72,194,108995,1,4,0:3:0:0:
15,130,109153,6,0,P|9:80|80:15,2,141.549996220207,4|10|2,1:2|0:2|0:2,0:2:0:0:
72,194,109943,1,0,1:2:0:0:
150,226,110100,2,0,P|194:221|252:208,1,70.7749981101037,10|0,0:2|0:0,0:2:0:0:
330,167,110416,6,0,P|308:217|310:318,1,141.549996220207,6|8,1:2|0:2,0:2:0:0:
401,322,110890,2,0,P|423:272|421:171,1,141.549996220207,2|0,0:2|1:2,0:2:0:0:
394,111,111364,1,10,0:2:0:0:
394,111,111522,1,0,0:2:0:0:
313,177,111679,6,0,L|237:159,1,70.7749981101037,6|0,1:2|0:2,0:2:0:0:
260,253,111995,2,0,L|108:217,1,141.549996220207,8|0,0:2|0:2,0:2:0:0:
36,224,112469,1,0,1:2:0:0:
12,142,112627,1,10,0:2:0:0:
106,127,112785,5,2,3:2:0:0:
106,127,112864,1,0,3:2:0:0:
106,127,112943,2,0,L|243:160,1,141.549996220207,4|10,1:2|0:2,0:2:0:0:
328,132,113416,1,2,3:2:0:0:
328,132,113495,1,0,3:2:0:0:
328,132,113574,1,0,3:2:0:0:
374,203,113732,2,0,P|370:237|354:271,1,70.7749981101037,2|8,1:2|0:2,0:0:0:0:
282,329,114048,1,2,0:2:0:0:
211,266,114206,6,0,L|176:257,3,35.3874990550518,12|8|8|8,0:2|0:2|0:2|0:2,0:0:0:0:
152,231,114522,2,0,L|117:222,3,35.3874990550518,8|8|8|8,0:2|0:2|0:2|0:2,0:0:0:0:
93,196,114837,2,0,L|58:187,3,35.3874990550518,8|8|4|4,0:3|0:3|0:3|0:3,0:0:0:0:
36,159,115153,5,10,0:2:0:0:
0,256,115311,1,10,0:2:0:0:
192,384,116732,6,0,B|191:318|148:310|158:239,1,149,6|8,1:2|0:2,0:2:0:0:
208,168,117206,2,0,P|168:158|127:152,1,74.5,2|0,0:2|1:2,0:2:0:0:
238,254,117522,2,0,P|274:248|310:238,1,74.5,2|8,1:2|0:2,0:2:0:0:
409,286,117837,6,0,B|429:259|467:257|467:257|483:177,1,149,4|2,1:2|1:2,0:2:0:0:
447,94,118311,2,0,P|416:83|361:81,1,74.5,8|2,0:2|3:2,0:0:0:0:
374,79,118548,1,0,3:2:0:0:
374,79,118627,1,0,1:2:0:0:
308,140,118785,1,0,1:2:0:0:
225,105,118943,2,0,L|215:21,1,74.5,8|0,0:2|0:2,0:0:0:0:
108,8,119258,6,0,L|125:155,1,149,6|8,1:2|0:2,0:2:0:0:
75,230,119732,2,0,P|39:241|3:237,1,74.5,2|0,0:2|1:2,0:2:0:0:
139,296,120048,2,0,P|175:300|211:289,1,74.5,2|8,1:2|0:2,0:0:0:0:
287,216,120364,6,0,L|300:105,1,111.75,6|0,1:2|0:2,0:2:0:0:
300,105,120679,2,0,P|341:97|379:104,1,74.5,2|8,1:2|0:2,0:2:0:0:
442,170,120995,1,2,3:2:0:0:
442,170,121074,1,0,3:2:0:0:
442,170,121153,2,0,L|431:259,1,74.5,0|0,1:2|1:2,0:2:0:0:
358,293,121469,1,10,0:2:0:0:
358,293,121627,1,0,0:2:0:0:
287,216,121785,6,0,B|239:208|239:208|199:226|199:226|118:215,2,149,6|10|2,1:2|0:2|1:2,0:2:0:0:
358,293,122574,1,0,1:2:0:0:
300,361,122732,1,8,0:2:0:0:
195,312,122890,6,0,B|147:304|147:304|107:322|107:322|26:311,1,149,6|0,1:2|1:2,2:2:0:0:
0,228,123364,2,0,P|11:142|44:68,1,149,10|2,0:2|1:2,0:2:0:0:
105,30,123837,1,0,1:2:0:0:
170,91,123995,2,0,P|214:101|290:89,1,111.75,10|0,0:2|0:2,0:2:0:0:
294,85,124311,6,0,P|337:81|418:155,1,149,6|8,1:2|0:2,0:2:0:0:
446,233,124785,1,2,1:2:0:0:
446,233,124943,1,8,0:2:0:0:
503,166,125100,1,2,1:2:0:0:
503,166,125258,1,8,0:2:0:0:
358,209,125416,6,0,L|207:187,1,149,6|0,1:2|1:2,0:2:0:0:
125,265,125890,2,0,L|199:276,1,74.5,10|0,1:2|1:2,0:2:0:0:
242,365,126206,1,8,2:3:0:0:
242,365,126285,1,8,2:3:0:0:
242,365,126364,1,4,2:3:0:0:
327,339,126522,2,0,L|333:296,3,37.25,8|8|8|8,2:2|2:2|2:2|2:2,0:0:0:0:
345,289,126837,6,0,P|414:303|474:258,1,149,6|8,1:2|0:2,0:2:0:0:
501,172,127311,2,0,L|488:97,1,74.5,2|0,0:2|1:2,0:2:0:0:
416,194,127627,2,0,L|403:119,1,74.5,2|8,1:2|0:2,0:2:0:0:
326,40,127943,6,0,B|252:16|269:77|167:53,1,149,14|2,0:2|1:2,0:2:0:0:
113,113,128416,2,0,P|73:111|37:123,1,74.5,8|2,0:2|3:2,0:0:0:0:
40,121,128653,1,0,3:2:0:0:
40,121,128732,1,0,1:2:0:0:
14,206,128890,1,0,1:2:0:0:
70,275,129048,2,0,P|110:277|146:265,1,74.5,8|0,0:2|0:2,0:0:0:0:
227,209,129364,6,0,B|193:247|193:247|186:305|225:337,1,149,6|8,1:2|0:2,0:2:0:0:
302,378,129837,2,0,P|341:373|375:356,1,74.5,2|0,0:2|1:2,0:2:0:0:
435,294,130153,2,0,P|430:254|417:219,1,74.5,2|8,1:2|0:2,0:2:0:0:
336,142,130469,6,0,P|267:123|227:73,1,111.75,6|0,1:2|0:2,0:2:0:0:
239,95,130785,2,0,L|229:18,1,74.5,2|8,1:2|0:2,0:2:0:0:
145,78,131100,1,2,3:2:0:0:
145,78,131179,1,0,3:2:0:0:
145,78,131258,2,0,L|155:155,1,74.5,0|0,1:2|1:2,0:2:0:0:
233,205,131574,1,10,0:2:0:0:
233,205,131732,1,0,0:2:0:0:
178,300,131890,6,0,P|113:338|43:308,1,149,6|8,1:2|0:2,0:0:0:0:
12,237,132364,1,2,1:2:0:0:
12,237,132522,1,8,0:2:0:0:
49,158,132679,1,2,1:2:0:0:
49,158,132837,1,8,2:2:0:0:
130,221,132995,6,0,L|137:147,2,74.5,2|12|0,1:2|0:2|1:2,0:0:0:0:
208,305,133469,2,0,L|201:379,1,74.5,10|0,2:2|1:2,0:0:0:0:
319,278,133785,2,0,L|408:270,1,74.5,10|0,2:2|1:2,0:0:0:0:
280,187,134100,2,0,L|226:178,3,37.25,10|8|8|8,0:2|0:2|0:3|0:3,0:0:0:0:
229,176,134416,6,0,P|211:118|248:38,1,149,6|8,1:2|0:2,0:0:0:0:
336,16,134890,1,8,0:2:0:0:
422,74,135048,1,8,0:3:0:0:
422,74,135127,1,8,0:3:0:0:
422,74,135206,2,0,L|412:154,1,74.5,4|8,0:3|0:2,0:0:0:0:
512,234,135522,6,0,B|433:202|454:261|355:224,1,149,6|10,1:2|0:2,0:2:0:0:
281,182,135995,1,10,0:2:0:0:
286,278,136153,1,10,0:2:0:0:
143,362,136469,5,0,1:2:0:0:
143,362,136548,1,0,1:2:0:0:
143,362,136627,2,0,L|74:347,1,55.8750021314622,10|0,0:2|0:2,0:1:0:0:
24,283,136943,6,0,P|17:256|16:224,2,49.6666666666667,6|0|0,1:2|0:2|0:2,0:2:0:0:
36,214,137258,2,0,P|44:187|61:160,2,49.6666666666667,10|0|0,0:2|0:2|0:2,0:2:0:0:
83,162,137574,2,0,P|104:144|133:130,2,49.6666666666667,2|0|0,1:2|0:2|0:2,0:2:0:0:
150,144,137890,2,0,P|177:141|209:145,2,49.6666666666667,10|0|0,0:2|0:2|0:2,0:2:0:0:
217,166,138206,6,0,P|239:185|266:199,2,49.6666666666667,2|0|0,2:2|0:2|0:2,0:2:0:0:
272,216,138522,2,0,P|300:219|331:216,2,49.6666666666667,10|0|0,0:2|0:2|0:2,0:2:0:0:
345,228,138837,2,0,P|371:215|395:196,2,49.6666666666667,2|0|0,1:2|0:2|0:2,0:2:0:0:
413,198,139153,2,0,P|428:173|437:144,2,49.6666666666667,10|0|0,0:2|0:2|0:2,0:2:0:0:
453,136,139469,6,2,P|448:103|352:44,1,149,6|10,1:2|0:2,0:2:0:0:
282,91,139943,2,0,B|234:77|234:77|195:88|195:88|134:70,1,149,2|2,0:2|1:2,0:2:0:0:
55,39,140416,1,8,0:2:0:0:
94,141,140574,6,0,P|53:152|8:264,1,149,6|0,1:2|1:2,0:2:0:0:
32,324,141048,1,8,0:2:0:0:
127,349,141206,1,2,3:2:0:0:
127,349,141285,1,0,3:2:0:0:
127,349,141364,2,0,B|180:343|180:343|214:360|214:360|298:347,1,149,0|8,1:2|0:2,0:0:0:0:
392,349,141837,5,0,3:2:0:0:
392,349,141916,1,0,3:2:0:0:
392,349,141995,2,0,P|400:304|370:189,1,149,6|8,1:2|0:2,0:2:0:0:
293,157,142469,2,0,B|228:150|231:204|152:200,1,149,2|0,0:2|1:2,0:2:0:0:
72,164,142943,1,8,0:2:0:0:
145,79,143100,6,0,P|190:57|298:49,1,149,6|0,1:2|1:2,0:2:0:0:
375,65,143574,1,8,0:2:0:0:
446,118,143732,2,0,P|473:194|473:264,1,149,2|2,0:2|1:2,0:2:0:0:
450,348,144206,1,8,0:2:0:0:
450,348,144364,1,0,3:2:0:0:
363,279,144522,6,0,B|314:266|314:266|273:288|273:288|215:274,1,149,6|8,1:2|0:2,0:2:0:0:
144,319,144995,2,0,L|139:230,1,74.5,2|8,1:2|0:2,0:0:0:0:
212,191,145311,2,0,L|217:102,1,74.5,2|8,1:2|0:2,0:0:0:0:
148,40,145627,6,0,P|83:39|28:125,1,149,6|0,1:2|1:2,0:2:0:0:
0,182,146100,1,10,0:2:0:0:
29,276,146258,1,8,2:3:0:0:
29,276,146337,1,8,2:2:0:0:
29,276,146416,2,0,P|80:273|119:252,1,74.5,8|4,2:2|3:3,3:2:0:0:
180,219,146732,2,0,L|183:165,3,37.25,8|8|8|8,0:2|0:2|0:2|0:0,0:0:0:0:
194,165,147048,6,0,B|291:150|257:198|360:188,1,156.449995225525,6|8,1:2|0:2,0:2:0:0:
443,174,147522,2,0,B|483:205|483:205|487:270|436:329,1,156.449995225525,2|0,0:2|1:2,0:2:0:0:
391,369,147995,1,8,0:2:0:0:
304,318,148153,6,0,B|221:293|242:346|151:322,1,156.449995225525,14|0,0:2|1:2,0:2:0:0:
74,370,148627,2,0,P|67:334|63:256,1,78.2249976127625,10|0,0:2|3:2,0:2:0:0:
9,219,148943,2,0,P|12:180|19:141,1,78.2249976127625,2|0,1:2|1:2,0:0:0:0:
75,70,149258,1,10,0:2:0:0:
75,70,149416,1,0,0:2:0:0:
163,124,149574,6,0,B|169:182|169:182|147:216|147:216|150:284,1,156.449995225525,6|8,1:2|0:2,0:2:0:0:
204,346,150048,2,0,B|238:359|277:361|277:361|313:330|366:335,1,156.449995225525,2|0,0:2|1:2,0:2:0:0:
435,369,150522,1,8,0:2:0:0:
486,281,150679,6,0,B|492:223|492:223|470:188|470:188|473:131,1,156.449995225525,6|0,1:2|1:2,0:2:0:0:
413,62,151153,1,8,0:2:0:0:
351,127,151311,1,2,3:2:0:0:
351,127,151390,1,0,3:2:0:0:
351,127,151469,2,0,L|344:237,1,78.2249976127625,0|0,1:2|1:2,0:2:0:0:
285,272,151785,2,0,B|240:265|240:265|225:271|225:271|161:262,1,117.337496419144,10|0,0:2|0:2,0:2:0:0:
155,277,152100,6,0,P|111:288|36:192,1,163.900005001831,6|10,1:2|0:2,0:0:0:0:
22,124,152574,1,0,1:2:0:0:
83,61,152732,2,0,P|122:52|163:55,1,81.9500025009156,10|0,0:2|1:2,0:0:0:0:
235,114,153048,1,10,0:2:0:0:
235,114,153206,1,0,1:2:0:0:
333,81,153364,6,0,P|319:121|310:169,1,81.9500025009156,14|0,0:2|1:2,0:0:0:0:
370,229,153679,2,0,L|455:250,1,81.9500025009156,10|0,0:2|1:2,0:0:0:0:
491,330,153995,1,10,0:2:0:0:
409,360,154153,1,0,1:2:0:0:
409,360,154232,1,0,1:2:0:0:
409,361,154311,2,0,L|329:341,1,81.9500025009156,8|8,0:2|0:3,0:0:0:0:
227,373,154627,6,0,L|221:302,3,40.9750012504578,4|0|0|0,3:2|3:2|3:2|3:2,3:2:0:0:
202,296,154943,2,0,L|196:225,3,40.9750012504578,0|0|0|0,3:2|3:2|3:2|3:2,3:2:0:0:
177,219,155258,2,0,L|171:148,3,40.9750012504578,0|0|0|0,3:2|3:2|3:2|3:2,3:2:0:0:
152,142,155574,5,10,0:2:0:0:
94,234,155732,1,10,0:2:0:0:
312,353,157153,5,6,1:2:0:0:
140,203,162206,6,0,L|51:197,1,74.5,2|0,0:2|0:2,0:2:0:0:
36,296,162837,2,0,L|110:301,1,74.5,0|0,3:2|0:2,0:2:0:0:
230,368,163469,5,2,0:2:0:0:
230,368,163785,1,0,0:2:0:0:
230,368,164100,2,0,P|234:319|244:262,1,89.3999972717286,0|0,3:2|0:2,0:2:0:0:
352,204,164732,6,0,P|433:203|472:151,1,134.099995907593,6|8,1:2|0:2,0:2:0:0:
505,96,165206,1,2,1:2:0:0:
363,19,165522,1,2,1:2:0:0:
253,156,165837,6,0,L|242:319,1,134.099995907593,12|10,0:2|0:2,0:2:0:0:
197,364,166311,1,10,0:2:0:0:
129,308,166469,1,10,0:2:0:0:
253,156,167258,6,0,L|316:167,1,44.6999986358643,2|0,2:2|1:2,2:2:0:0:
359,253,167574,6,0,P|401:261|452:252,1,74.5,12|0,0:2|1:2,0:2:0:0:
510,201,167890,1,8,0:2:0:0:
510,201,167969,1,8,0:2:0:0:
510,201,168048,2,0,L|495:101,1,74.5,8|4,0:3|0:3,0:0:0:0:
416,52,168364,6,0,B|353:24|349:87|270:51,1,134.099995907593,6|0,1:2|0:2,0:2:0:0:
286,57,168679,2,0,P|251:38|197:40,1,74.5,2|8,1:2|0:2,0:2:0:0:
143,81,168995,1,2,3:2:0:0:
143,81,169074,1,0,3:2:0:0:
143,81,169153,2,0,P|106:84|73:102,1,74.5,0|0,1:2|1:2,0:0:0:0:
44,191,169469,2,0,P|19:245|43:324,1,111.75,8|0,0:2|0:0,0:0:0:0:
35,313,169785,6,0,B|129:300|98:357|175:343,1,149,6|8,1:2|0:2,0:2:0:0:
231,273,170258,2,0,L|242:194,1,74.5,2|0,0:2|1:2,0:2:0:0:
330,190,170574,2,0,L|319:263,1,74.5,2|8,1:2|0:2,0:2:0:0:
392,355,170890,6,0,P|455:366|504:322,1,111.75,6|0,1:2|0:2,0:2:0:0:
492,341,171206,2,0,P|491:300|476:247,1,74.5,2|8,1:2|0:2,0:2:0:0:
512,182,171522,1,2,3:2:0:0:
512,182,171600,1,0,3:2:0:0:
512,182,171679,2,0,P|488:148|447:111,1,74.5,0|0,1:2|1:2,0:2:0:0:
396,57,171995,2,0,P|344:80|284:69,1,111.75,10|0,0:0|0:0,0:0:0:0:
278,86,172311,6,0,P|203:57|112:74,2,149,6|10|2,1:2|0:2|1:2,0:2:0:0:
341,171,173100,1,0,1:2:0:0:
249,208,173258,1,8,0:2:0:0:
337,289,173416,6,0,P|262:318|171:301,1,149,6|0,1:2|1:2,2:2:0:0:
102,379,173890,2,0,B|93:329|93:329|103:293|103:293|90:222,1,149,10|2,0:2|1:2,0:2:0:0:
26,171,174364,1,0,1:2:0:0:
50,84,174522,2,0,P|88:73|134:72,1,74.5,10|0,0:2|0:0,0:2:0:0:
223,29,174837,6,0,B|274:43|274:43|299:87|299:87|366:109,1,149,6|8,1:2|0:2,0:2:0:0:
433,125,175311,1,2,1:2:0:0:
433,125,175469,1,8,0:2:0:0:
405,45,175627,1,2,1:2:0:0:
405,45,175785,1,8,0:2:0:0:
362,187,175943,6,0,B|347:232|347:232|366:283|340:340,1,149,6|0,1:2|1:2,0:2:0:0:
267,378,176416,2,0,P|225:372|189:349,1,74.5,10|0,1:2|1:2,0:2:0:0:
161,284,176732,1,8,2:3:0:0:
161,284,176811,1,8,2:3:0:0:
161,284,176890,1,4,2:3:0:0:
226,223,177048,2,0,L|242:163,3,37.25,8|8|8|8,2:2|2:2|2:2|2:2,0:0:0:0:
247,181,177364,6,0,P|312:193|363:114,1,149,6|8,1:2|0:2,0:2:0:0:
348,47,177837,2,0,L|258:31,1,74.5,2|0,0:2|1:2,0:2:0:0:
192,70,178153,2,0,L|102:54,1,74.5,2|8,1:2|0:2,0:2:0:0:
117,163,178469,6,0,P|52:151|1:230,1,149,14|2,0:2|1:2,0:2:0:0:
31,293,178943,2,0,P|71:295|104:283,1,74.5,8|2,0:2|3:2,0:0:0:0:
102,283,179179,1,0,3:2:0:0:
102,283,179258,1,0,1:2:0:0:
177,235,179416,1,0,1:2:0:0:
253,282,179574,2,0,L|257:359,1,74.5,8|0,0:2|0:2,0:0:0:0:
386,380,179890,6,0,L|394:224,1,149,6|8,1:2|0:2,0:2:0:0:
415,142,180364,2,0,P|451:135|484:119,1,74.5,2|0,0:2|1:2,0:2:0:0:
330,170,180679,2,0,P|296:153|260:146,1,74.5,2|8,1:2|0:2,0:0:0:0:
164,217,180995,6,0,B|140:244|140:244|103:257|64:237,1,111.75,6|0,1:2|0:2,0:2:0:0:
66,238,181311,2,0,P|51:197|47:143,1,74.5,2|8,1:2|0:2,0:2:0:0:
86,83,181627,1,2,3:2:0:0:
86,83,181706,1,0,3:2:0:0:
86,83,181785,2,0,P|126:74|169:50,1,74.5,0|0,1:2|1:2,0:2:0:0:
235,14,182100,1,10,0:2:0:0:
235,14,182258,1,0,0:2:0:0:
305,102,182416,6,0,B|293:159|293:159|300:191|300:191|285:264,1,149,6|8,1:2|0:2,0:0:0:0:
266,337,182890,1,2,1:2:0:0:
266,337,183048,1,8,0:2:0:0:
183,363,183206,1,2,1:2:0:0:
183,363,183364,1,8,2:2:0:0:
96,273,183522,6,0,P|92:310|102:359,2,74.5,2|12|0,1:2|0:2|1:2,0:0:0:0:
133,178,183995,2,0,P|96:174|47:184,1,74.5,10|0,2:2|1:2,0:0:0:0:
228,215,184311,2,0,P|232:178|222:129,1,74.5,10|0,2:2|1:2,0:0:0:0:
191,310,184627,2,0,P|228:314|245:309,3,37.25,10|8|8|8,0:2|0:2|0:3|0:3,0:0:0:0:
243,330,184943,6,0,B|333:327|315:365|393:356,1,149,6|8,1:2|0:2,0:0:0:0:
478,336,185416,1,8,0:2:0:0:
505,252,185574,1,8,0:3:0:0:
505,252,185653,1,8,0:3:0:0:
505,252,185732,2,0,L|493:174,1,74.5,4|8,0:3|0:2,0:0:0:0:
418,99,186048,6,0,B|348:81|354:135|272:112,1,149,6|10,1:2|0:2,0:2:0:0:
185,70,186522,1,10,0:2:0:0:
265,16,186679,1,10,0:2:0:0:
353,161,186995,5,0,1:2:0:0:
353,161,187074,1,0,1:2:0:0:
353,161,187153,2,0,L|344:235,1,55.8750021314622,10|0,0:2|0:2,0:1:0:0:
256,297,187469,6,0,B|211:290|211:290|178:339|112:325,1,149,6|8,1:2|0:2,0:2:0:0:
52,277,187943,1,2,0:2:0:0:
52,277,188100,2,0,L|44:202,1,74.5,0|0,1:2|0:2,0:0:0:0:
136,245,188416,2,0,L|128:170,1,74.5,10|0,0:2|0:0,0:2:0:0:
171,59,188732,6,0,B|253:49|243:101|314:85,1,149,2|8,1:2|0:2,0:2:0:0:
394,123,189206,2,0,P|440:132|479:245,1,149,2|0,0:2|0:2,0:2:0:0:
471,302,189679,2,0,L|332:273,1,111.75,10|0,0:2|0:0,0:0:0:0:
348,273,189995,6,0,P|323:340|255:365,1,149,6|8,1:2|0:2,0:2:0:0:
169,317,190469,1,2,3:2:0:0:
169,317,190548,1,0,3:2:0:0:
169,317,190627,2,0,L|184:213,1,74.5,0|0,1:2|0:2,0:2:0:0:
271,210,190943,2,0,L|260:284,1,74.5,8|0,0:2|0:2,0:2:0:0:
161,222,191258,6,0,L|182:75,2,149,2|8|2,1:2|0:2|1:2,0:2:0:0:
105,292,192048,1,0,1:2:0:0:
166,356,192206,2,0,P|197:366|251:362,1,74.5,8|0,0:2|1:2,0:0:0:0:
345,338,192522,6,0,L|356:264,1,74.5,6|0,1:2|0:2,0:2:0:0:
434,318,192837,2,0,L|455:171,1,149,8|0,2:2|1:2,2:2:0:0:
493,89,193311,1,0,1:2:0:0:
428,26,193469,2,0,B|368:11|378:49|316:36,1,111.75,10|0,0:2|0:2,0:2:0:0:
308,30,193785,6,0,P|275:47|240:76,1,74.5,2|0,1:2|0:2,0:2:0:0:
361,184,194100,2,0,P|344:151|315:116,1,74.5,10|0,0:2|0:2,0:2:0:0:
207,237,194416,2,0,P|240:220|275:191,1,74.5,2|0,1:2|0:2,0:2:0:0:
154,83,194732,2,0,P|171:116|200:151,1,74.5,10|0,0:2|0:2,0:2:0:0:
321,121,195048,6,0,P|363:86|474:87,1,149,6|8,1:2|0:2,0:2:0:0:
498,155,195522,2,0,L|457:317,1,149,2|0,0:2|0:2,0:2:0:0:
399,364,195995,1,10,0:2:0:0:
399,364,196153,1,0,0:2:0:0:
318,289,196311,6,0,B|250:259|246:312|173:285,1,149,6|8,1:2|0:2,0:0:0:0:
112,351,196785,1,8,0:2:0:0:
25,332,196943,1,8,0:2:0:0:
11,252,197100,1,8,0:2:0:0:
11,252,197179,1,8,0:2:0:0:
11,252,197258,2,0,P|17:214|35:180,1,74.5,8|4,0:3|0:3,0:0:0:0:
135,138,197574,5,6,1:2:0:0:
256,192,197653,12,0,203890,0:2:0:0:
