osu file format v14

[General]
AudioFilename: audio.mp3
AudioLeadIn: 0
PreviewTime: 52607
Countdown: 0
SampleSet: Soft
StackLeniency: 0.6
Mode: 0
LetterboxInBreaks: 0
WidescreenStoryboard: 1

[Editor]
Bookmarks: 10627,20732,30837,40943,45995,53574,63679,72995,73785,83890,93995,104100,109153,116732,126837,136153,136943,141995,147048,152100,155732,157153,162206,164732,167258,168364,186679,197574,203890
DistanceSpacing: 0.9
BeatDivisor: 4
GridSize: 32
TimelineZoom: 1.8

[Metadata]
Title:PROMISiNG
TitleUnicode:PROMISiNG
Artist:Sakura Yuno
ArtistUnicode:咲良ゆの
Creator:Lasse
Version:Affection
Source:
Tags:futurize me japanese pop rock amelia
BeatmapID:4037319
BeatmapSetID:1950038

[Difficulty]
HPDrainRate:5
CircleSize:4
OverallDifficulty:9
ApproachRate:9.3
SliderMultiplier:1.8
SliderTickRate:1

[Events]
//Background and Video events
0,0,"102793945_p0_3.jpg",0,0
//Break Periods
2,157353,161652
//Storyboard Layer 0 (Background)
//Storyboard Layer 1 (Fail)
//Storyboard Layer 2 (Pass)
//Storyboard Layer 3 (Foreground)
//Storyboard Layer 4 (Overlay)
//Storyboard Sound Samples

[TimingPoints]
522,315.789473684211,4,2,1,32,1,0
522,-200,4,2,1,32,0,0
2416,-200,4,2,1,34,0,0
3048,-200,4,2,1,36,0,0
5574,-200,4,2,1,38,0,0
6837,-200,4,2,1,40,0,0
8100,-200,4,2,1,45,0,0
9048,-200,4,2,1,50,0,0
9916,-200,4,2,1,20,0,0
9995,-200,4,2,1,60,0,0
10311,-133.333333333333,4,2,1,50,0,0
10627,-100,4,2,3,65,0,0
10706,-100,4,2,1,65,0,0
11811,-100,4,2,1,30,0,0
11890,-100,4,2,1,65,0,0
14653,-100,4,2,1,30,0,0
14732,-100,4,2,1,65,0,0
15679,-100,4,2,2,65,0,0
15837,-100,4,2,1,65,0,0
16864,-100,4,2,1,30,0,0
16943,-100,4,2,1,65,0,0
20653,-100,4,2,1,30,0,0
20732,-166.666666666667,4,2,1,50,0,0
21048,-166.666666666667,4,2,2,50,0,0
22153,-166.666666666667,4,2,2,40,0,0
22311,-166.666666666667,4,2,2,50,0,0
22469,-166.666666666667,4,2,2,40,0,0
22627,-166.666666666667,4,2,2,50,0,0
22785,-166.666666666667,4,2,2,40,0,0
22943,-166.666666666667,4,2,2,50,0,0
24679,-166.666666666667,4,2,2,40,0,0
24837,-166.666666666667,4,2,2,50,0,0
24995,-166.666666666667,4,2,2,40,0,0
25153,-166.666666666667,4,2,2,50,0,0
25311,-166.666666666667,4,2,2,40,0,0
25469,-166.666666666667,4,2,2,50,0,0
25627,-166.666666666667,4,2,2,40,0,0
27048,-166.666666666667,4,2,2,50,0,0
27206,-166.666666666667,4,2,2,40,0,0
27364,-166.666666666667,4,2,2,50,0,0
27522,-166.666666666667,4,2,2,40,0,0
27679,-166.666666666667,4,2,2,50,0,0
27837,-166.666666666667,4,2,2,40,0,0
27995,-166.666666666667,4,2,2,50,0,0
28153,-166.666666666667,4,2,2,40,0,0
28311,-166.666666666667,4,2,2,50,0,0
28785,-166.666666666667,4,2,1,50,0,0
29732,-166.666666666667,4,2,1,55,0,0
30837,-125,4,2,1,60,0,0
32022,-125,4,2,1,30,0,0
32100,-125,4,2,1,60,0,0
33285,-125,4,2,1,30,0,0
33364,-125,4,2,1,60,0,0
35811,-125,4,2,1,30,0,0
35890,-125,4,2,1,60,0,0
37074,-125,4,2,1,30,0,0
37153,-125,4,2,1,60,0,0
38653,-125,4,2,1,30,0,0
38732,-125,4,2,1,60,0,0
40943,-111.111111111111,4,2,4,60,0,0
41100,-111.111111111111,4,2,1,60,0,0
42285,-111.111111111111,4,2,1,30,0,0
42364,-111.111111111111,4,2,1,60,0,0
42679,-166.666666666666,4,2,1,60,0,0
43469,-111.111111111111,4,2,2,60,0,0
43627,-111.111111111111,4,2,1,60,0,0
45995,-105.263157894737,4,2,4,65,0,0
46153,-105.263157894737,4,2,1,65,0,0
47179,-105.263157894737,4,2,1,30,0,0
47258,-105.263157894737,4,2,1,65,0,0
48522,-105.263157894737,4,2,2,65,0,0
48679,-105.263157894737,4,2,1,65,0,0
52074,-105.263157894737,4,2,1,30,0,0
52153,-105.263157894737,4,2,1,65,0,0
52232,-105.263157894737,4,2,1,30,0,0
53258,-105.263157894737,4,2,1,50,0,0
53574,-100,4,2,3,70,0,1
53653,-100,4,2,1,70,0,1
54916,-100,4,2,1,35,0,1
54995,-100,4,2,1,70,0,1
56100,-100,4,2,2,70,0,1
56179,-100,4,2,1,70,0,1
57443,-100,4,2,1,35,0,1
57522,-100,4,2,1,70,0,1
58627,-100,4,2,4,70,0,1
58706,-100,4,2,1,70,0,1
61074,-100,4,2,1,35,0,1
61153,-100,4,2,2,70,0,1
61390,-100,4,2,1,35,0,1
61469,-100,4,2,1,70,0,1
63640,-100,4,2,1,70,0,0
63679,-100,4,2,3,70,0,1
63758,-100,4,2,1,70,0,1
65022,-100,4,2,1,35,0,1
65100,-100,4,2,1,70,0,1
66206,-100,4,2,2,70,0,1
66285,-100,4,2,1,70,0,1
67548,-100,4,2,1,35,0,1
67627,-100,4,2,1,70,0,1
68653,-100,4,2,1,35,0,1
68732,-100,4,2,4,70,0,1
68811,-100,4,2,1,70,0,1
71258,-100,4,2,2,70,0,1
71337,-100,4,2,1,70,0,1
72285,-100,4,2,1,35,0,1
72364,-100,4,2,1,70,0,1
72600,-100,4,2,1,35,0,1
72679,-100,4,2,1,70,0,1
72995,-100,4,2,1,70,0,0
73311,-133.333333333333,4,2,1,60,0,0
73785,-100,4,2,3,65,0,0
73864,-100,4,2,1,65,0,0
77811,-100,4,2,1,30,0,0
77890,-100,4,2,1,65,0,0
78837,-100,4,2,2,65,0,0
79074,-100,4,2,1,30,0,0
79153,-100,4,2,1,65,0,0
80022,-100,4,2,1,30,0,0
80100,-100,4,2,1,65,0,0
83811,-100,4,2,1,30,0,0
83890,-142.857142857143,4,2,1,55,0,0
92653,-142.857142857143,4,2,1,30,0,0
92732,-142.857142857143,4,2,1,55,0,0
93995,-125,4,2,1,60,0,0
95179,-125,4,2,1,30,0,0
95258,-125,4,2,1,60,0,0
96443,-125,4,2,1,30,0,0
96522,-125,4,2,1,60,0,0
98969,-125,4,2,1,30,0,0
99048,-125,4,2,1,60,0,0
100232,-125,4,2,1,30,0,0
100311,-125,4,2,1,60,0,0
104100,-111.111111111111,4,2,4,60,0,0
104258,-111.111111111111,4,2,1,60,0,0
105443,-111.111111111111,4,2,1,30,0,0
105522,-111.111111111111,4,2,1,60,0,0
105837,-166.666666666666,4,2,1,60,0,0
106627,-111.111111111111,4,2,2,60,0,0
106785,-111.111111111111,4,2,1,60,0,0
109153,-105.263157894737,4,2,4,65,0,0
109311,-105.263157894737,4,2,1,65,0,0
110337,-105.263157894737,4,2,1,30,0,0
110416,-105.263157894737,4,2,1,65,0,0
111679,-105.263157894737,4,2,2,65,0,0
111837,-105.263157894737,4,2,1,65,0,0
115232,-105.263157894737,4,2,1,30,0,0
115311,-105.263157894737,4,2,1,65,0,0
115390,-105.263157894737,4,2,1,30,0,0
116416,-105.263157894737,4,2,1,50,0,0
116732,-100,4,2,3,70,0,1
116811,-100,4,2,1,70,0,1
118074,-100,4,2,1,35,0,1
118153,-100,4,2,1,70,0,1
119258,-100,4,2,2,70,0,1
119337,-100,4,2,1,70,0,1
120600,-100,4,2,1,35,0,1
120679,-100,4,2,1,70,0,1
121785,-100,4,2,4,70,0,1
121864,-100,4,2,1,70,0,1
124232,-100,4,2,1,35,0,1
124311,-100,4,2,2,70,0,1
124548,-100,4,2,1,35,0,1
124627,-100,4,2,1,70,0,1
126798,-100,4,2,1,70,0,0
126837,-100,4,2,3,70,0,1
126916,-100,4,2,1,70,0,1
128179,-100,4,2,1,35,0,1
128258,-100,4,2,1,70,0,1
129364,-100,4,2,2,70,0,1
129443,-100,4,2,1,70,0,1
130706,-100,4,2,1,35,0,1
130785,-100,4,2,1,70,0,1
131890,-100,4,2,4,70,0,1
131969,-100,4,2,1,70,0,1
134416,-100,4,2,2,70,0,1
134495,-100,4,2,1,70,0,1
135443,-100,4,2,1,35,0,1
135522,-100,4,2,1,70,0,1
135758,-100,4,2,1,35,0,1
135837,-100,4,2,1,70,0,1
136153,-133.333333333333,4,2,1,70,0,0
136469,-133.333333333333,4,2,1,60,0,0
136943,-100,4,2,3,65,0,0
137022,-100,4,2,1,60,0,0
139469,-100,4,2,2,65,0,0
139548,-100,4,2,1,65,0,0
141995,-100,4,2,4,65,0,0
142074,-100,4,2,1,65,0,0
144522,-100,4,2,2,65,0,0
144601,-100,4,2,1,65,0,0
144758,-100,4,2,1,35,0,0
144837,-100,4,2,1,65,0,0
147048,-95.2380952380952,4,2,3,70,0,0
147127,-95.2380952380952,4,2,1,70,0,0
147285,-95.2380952380952,4,2,1,35,0,0
147364,-95.2380952380952,4,2,1,70,0,0
149574,-95.2380952380952,4,2,2,70,0,0
149653,-95.2380952380952,4,2,1,70,0,0
152022,-95.2380952380952,4,2,1,35,0,0
152100,-90.9090909090909,4,2,4,70,0,0
152179,-90.9090909090909,4,2,1,70,0,0
154627,-90.9090909090909,4,2,2,70,0,0
154706,-90.9090909090909,4,2,1,70,0,0
157153,-200,4,2,3,45,0,0
162206,-200,4,2,1,40,0,0
163469,-166.666666666667,4,2,1,45,0,0
164732,-111.111111111111,4,2,2,60,0,0
164811,-111.111111111111,4,2,1,60,0,0
166074,-111.111111111111,4,2,1,30,0,0
166153,-111.111111111111,4,2,1,65,0,0
167258,-166.666666666667,4,2,1,50,0,0
167337,-166.666666666667,4,2,1,25,0,0
167416,-166.666666666667,4,2,1,60,0,0
167574,-100,4,2,3,70,0,1
167653,-100,4,2,1,30,0,1
167732,-83.3333333333333,4,2,1,65,0,0
167811,-83.3333333333333,4,2,1,30,0,0
167890,-100,4,2,1,65,0,0
168364,-83.3333333333333,4,2,1,70,0,1
168600,-83.3333333333333,4,2,1,35,0,1
168679,-90.9090909090909,4,2,1,70,0,1
169785,-90.9090909090909,4,2,2,70,0,1
169864,-90.9090909090909,4,2,1,70,0,1
171127,-90.9090909090909,4,2,1,35,0,1
171206,-90.9090909090909,4,2,1,70,0,1
172232,-90.9090909090909,4,2,1,35,0,1
172311,-90.9090909090909,4,2,4,70,0,1
172390,-90.9090909090909,4,2,1,70,0,1
172864,-90.9090909090909,4,2,1,35,0,1
172943,-90.9090909090909,4,2,1,70,0,1
174758,-90.9090909090909,4,2,1,35,0,1
174837,-90.9090909090909,4,2,2,70,0,1
175074,-90.9090909090909,4,2,1,35,0,1
175153,-90.9090909090909,4,2,1,70,0,1
176732,-90.9090909090909,4,2,1,70,0,1
177324,-100,4,2,1,70,0,0
177364,-90.9090909090909,4,2,3,70,0,1
177443,-90.9090909090909,4,2,1,70,0,1
178706,-90.9090909090909,4,2,1,35,0,1
178785,-90.9090909090909,4,2,1,70,0,1
179890,-90.9090909090909,4,2,2,70,0,1
179969,-90.9090909090909,4,2,1,70,0,1
181232,-90.9090909090909,4,2,1,35,0,1
181311,-90.9090909090909,4,2,1,70,0,1
182416,-90.9090909090909,4,2,4,70,0,1
182495,-90.9090909090909,4,2,1,70,0,1
184943,-90.9090909090909,4,2,2,70,0,1
185022,-90.9090909090909,4,2,1,70,0,1
185969,-90.9090909090909,4,2,1,35,0,1
186048,-90.9090909090909,4,2,1,70,0,1
186285,-90.9090909090909,4,2,1,35,0,1
186364,-90.9090909090909,4,2,1,70,0,1
186679,-133.333333333333,4,2,1,70,0,0
186995,-133.333333333333,4,2,1,60,0,0
187469,-100,4,2,3,65,0,0
187548,-100,4,2,1,65,0,0
188653,-100,4,2,1,30,0,0
188732,-100,4,2,1,65,0,0
191495,-100,4,2,1,30,0,0
191574,-100,4,2,1,65,0,0
192522,-100,4,2,2,65,0,0
192600,-100,4,2,1,65,0,0
193706,-100,4,2,1,30,0,0
193785,-100,4,2,1,65,0,0
197495,-100,4,2,1,30,0,0
197574,-465.116279069767,4,2,3,55,0,0
197732,-465.116279069767,4,2,99,5,0,0
203890,-465.116279069767,4,2,99,7,0,0

[Colours]
Combo1 : 250,180,240
Combo2 : 120,200,230
Combo3 : 255,230,130
Combo4 : 160,230,150

[HitObjects]
7,165,522,6,0,L|-3:228,1,45,2|0,0:2|0:2,0:2:0:0:
73,231,837,2,0,L|83:168,1,45,0|0,0:2|0:2,0:2:0:0:
251,28,2416,5,0,0:2:0:0:
230,46,2732,1,0,0:2:0:0:
230,80,3048,2,0,P|262:100|283:112,1,45,2|0,0:2|0:2,0:2:0:0:
315,165,3364,2,0,P|334:153|353:141,1,45,0|0,0:2|0:2,0:2:0:0:
512,360,5574,6,0,B|461:351|436:315|436:315|385:295|349:313,1,180,2|0,0:2|0:2,0:2:0:0:
249,139,6837,5,2,0:2:0:0:
234,173,7153,1,0,0:2:0:0:
178,225,7469,1,0,0:2:0:0:
100,240,7785,1,0,0:2:0:0:
59,87,8100,6,0,P|42:128|32:172,1,90,2|0,0:2|0:2,0:2:0:0:
216,156,8574,2,0,P|174:139|130:129,1,90,2|0,0:2|0:2,0:2:0:0:
37,260,9048,2,0,P|136:307|110:213,1,247.5,2|0,0:2|0:2,0:2:0:0:
115,226,9995,5,10,0:2:0:0:
286,141,10153,1,10,0:2:0:0:
142,124,10311,6,0,P|173:151|208:166,1,67.5000025749208,2|0,0:2|0:2,0:2:0:0:
362,25,10627,6,0,P|276:15|214:90,1,180,6|8,1:2|0:2,0:2:0:0:
381,169,11100,1,2,0:2:0:0:
299,229,11258,2,0,P|288:178|285:138,1,90,0|0,1:2|0:2,0:2:0:0:
430,288,11574,2,0,B|398:293|398:293|373:286|373:286|348:315|303:317,1,135,10|0,0:2|0:2,0:2:0:0:
234,374,11890,6,0,B|189:374|151:336|151:336|104:325|67:350,1,180,2|8,1:2|0:2,0:2:0:0:
234,261,12364,2,0,P|257:217|281:72,1,180,2|0,0:2|0:2,0:2:0:0:
231,0,12837,1,10,0:2:0:0:
378,52,12995,1,0,0:2:0:0:
171,179,13153,6,0,B|117:152|117:152|56:155|56:155|-6:122,1,180,6|8,1:2|0:2,0:2:0:0:
289,98,13627,1,2,3:2:0:0:
289,98,13706,1,0,3:2:0:0:
289,98,13785,2,0,P|327:119|376:164,1,90,0|0,1:2|0:2,0:2:0:0:
170,292,14100,2,0,P|201:266|248:243,1,90,8|0,0:2|0:2,0:2:0:0:
457,339,14416,6,0,B|432:331|432:331|414:313|414:313|373:320|330:296,1,135,2|0,1:2|0:2,0:2:0:0:
286,361,14732,2,0,P|246:367|194:383,1,90,8|0,0:2|0:2,0:2:0:0:
404,223,15048,1,2,1:2:0:0:
293,174,15206,1,0,1:2:0:0:
366,327,15364,1,8,0:2:0:0:
469,162,15522,1,0,1:2:0:0:
281,266,15679,6,0,P|320:259|370:240,1,90,6|0,1:2|0:2,0:2:0:0:
511,75,15995,2,0,B|452:61|452:61|406:78|406:78|331:62,1,180,8|0,2:2|1:2,2:2:0:0:
184,115,16469,1,0,1:2:0:0:
236,2,16627,2,0,B|247:25|247:25|241:53|241:53|267:83|264:131,1,135,10|0,0:2|0:2,0:2:0:0:
218,193,16943,6,0,P|178:199|125:219,1,90,2|0,1:2|0:2,0:2:0:0:
351,344,17258,2,0,P|312:331|258:322,1,90,10|0,0:2|0:2,0:2:0:0:
400,189,17574,2,0,P|410:150|430:103,1,90,2|0,1:2|0:2,0:2:0:0:
129,253,17890,2,0,P|118:213|97:166,1,90,10|0,0:2|0:2,0:2:0:0:
372,0,18206,6,0,P|286:43|271:138,1,180,6|8,1:2|0:2,0:2:0:0:
357,275,18679,2,0,B|411:275|445:313|445:313|496:323|530:288,1,180,2|0,0:2|0:2,0:2:0:0:
447,191,19153,1,10,0:2:0:0:
367,376,19311,1,0,0:2:0:0:
234,221,19469,5,6,1:2:0:0:
357,275,19627,1,8,0:2:0:0:
317,143,19785,1,8,0:2:0:0:
253,336,19943,1,8,0:2:0:0:
129,178,20100,1,8,0:2:0:0:
333,127,20258,5,8,0:2:0:0:
348,103,20337,1,8,0:2:0:0:
355,75,20416,1,8,0:3:0:0:
352,46,20495,1,8,0:3:0:0:
343,18,20574,2,0,P|325:6|287:5,1,45,4|0,0:3|0:2,0:2:0:0:
233,76,20732,6,0,P|243:132|262:192,1,107.999996704102,6|8,1:2|1:2,0:2:0:0:
303,323,21364,2,0,P|251:347|197:377,1,107.999996704102,2|8,1:2|1:2,0:2:0:0:
10,302,21995,2,0,P|39:320|66:349,1,53.9999983520508,2|0,1:2|0:2,0:2:0:0:
129,304,22311,2,0,P|154:294|177:281,1,53.9999983520508,8|0,1:2|0:2,0:2:0:0:
62,193,22627,2,0,P|63:219|71:245,1,53.9999983520508,2|0,1:2|0:2,0:2:0:0:
243,220,22943,2,0,P|185:197|133:208,2,107.999996704102,8|2|8,1:2|1:2|1:2,0:2:0:0:
411,106,23890,6,0,P|469:129|521:118,1,107.999996704102,2|8,1:2|1:2,0:2:0:0:
346,161,24522,2,0,P|331:125|318:100,1,53.9999983520508,2|0,1:2|0:2,0:2:0:0:
211,142,24837,2,0,P|247:159|270:182,1,53.9999983520508,8|0,1:2|0:2,0:2:0:0:
290,33,25153,2,0,P|262:62|248:79,1,53.9999983520508,0|0,1:2|0:2,0:2:0:0:
376,122,25469,2,0,P|348:113|321:111,1,53.9999983520508,8|0,1:2|0:2,0:2:0:0:
254,245,25785,2,0,P|323:218|338:183,2,107.999996704102,2|8|0,1:2|1:2|1:2,0:2:0:0:
110,105,26732,6,0,P|97:87|77:62,1,53.9999983520508,8|0,1:2|0:2,0:2:0:0:
42,194,27048,2,0,P|74:189|99:179,1,53.9999983520508,2|0,1:2|0:2,0:2:0:0:
185,144,27364,2,0,P|175:182|170:212,1,53.9999983520508,8|0,1:2|0:2,0:2:0:0:
141,297,27679,2,0,P|122:266|105:243,1,53.9999983520508,0|0,1:2|0:2,0:2:0:0:
6,332,27995,2,0,P|30:321|56:314,1,53.9999983520508,8|0,1:2|0:2,0:2:0:0:
219,268,28311,6,0,P|253:288|321:307,1,107.999996704102,2|8,1:2|1:2,0:2:0:0:
421,384,28785,2,0,P|427:357|436:325,1,53.9999983520508,10|0,0:2|1:2,0:2:0:0:
501,287,29100,1,2,0:2:0:0:
413,189,29258,2,0,P|472:162|519:145,1,107.999996704102,12|0,0:2|1:2,0:2:0:0:
374,11,29732,5,2,0:2:0:0:
443,66,29890,1,12,0:2:0:0:
370,109,30048,1,8,0:3:0:0:
370,109,30127,1,8,0:3:0:0:
370,109,30206,1,4,0:3:0:0:
290,49,30364,5,8,0:3:0:0:
239,170,30522,1,8,0:2:0:0:
144,72,30679,1,4,0:3:0:0:
129,227,30837,6,0,P|58:226|8:274,2,144,6|8|2,1:2|0:2|0:2,0:2:0:0:
197,344,31627,1,0,1:2:0:0:
321,288,31785,2,0,P|332:248|341:182,1,108,10|0,0:2|0:2,0:2:0:0:
396,122,32100,6,0,P|440:111|478:109,1,72,2|0,1:2|1:2,0:2:0:0:
299,7,32416,2,0,P|332:19|363:37,1,72,8|0,0:2|3:2,0:2:0:0:
363,37,32653,1,0,3:2:0:0:
363,37,32732,1,2,3:2:0:0:
340,182,32890,1,0,1:2:0:0:
260,81,33048,2,0,B|236:81|236:81|217:93|217:93|186:89|157:98,1,108,8|0,0:2|0:2,0:2:0:0:
86,143,33364,6,0,P|44:130|10:123,1,72,2|0,1:2|0:2,0:2:0:0:
140,279,33679,2,0,B|89:290|89:290|48:280|48:280|-25:295,1,144,8|2,0:2|0:2,0:2:0:0:
193,360,34153,1,0,1:2:0:0:
225,232,34311,1,8,0:2:0:0:
140,279,34469,1,0,0:2:0:0:
283,319,34627,6,0,P|322:309|367:297,1,72,2|0,1:2|1:2,0:2:0:0:
508,279,34943,2,0,P|497:313|488:348,1,72,8|0,0:2|3:2,0:2:0:0:
488,348,35179,1,0,3:2:0:0:
488,348,35258,1,2,3:2:0:0:
422,236,35416,1,0,1:2:0:0:
511,178,35574,2,0,B|480:159|480:159|447:159|447:159|400:138,1,108,10|0,0:2|0:2,0:2:0:0:
348,82,35890,6,0,P|309:24|237:17,1,144,2|8,1:2|0:2,0:2:0:0:
329,161,36364,1,0,0:2:0:0:
242,162,36522,2,0,P|248:127|264:94,1,72,2|0,0:2|1:2,0:2:0:0:
305,254,36837,2,0,B|284:250|284:250|269:240|269:240|230:254|178:223,1,108,10|0,0:2|0:2,0:2:0:0:
118,195,37153,5,2,1:2:0:0:
242,162,37311,1,0,1:2:0:0:
198,326,37469,1,8,0:2:0:0:
209,243,37627,5,2,3:2:0:0:
209,243,37706,1,0,3:2:0:0:
209,243,37785,1,0,3:2:0:0:
278,354,37943,1,0,1:2:0:0:
142,384,38100,1,8,0:2:0:0:
299,276,38258,5,0,3:2:0:0:
299,276,38337,1,0,3:2:0:0:
299,276,38416,2,0,B|336:267|336:267|356:248|356:248|409:240,1,108,6|0,1:2|0:2,0:2:0:0:
408,253,38732,1,8,0:2:0:0:
306,173,38890,2,0,P|289:134|275:76,1,72,12|0,0:2|0:2,0:2:0:0:
363,17,39206,1,2,1:2:0:0:
512,138,39364,2,0,B|457:120|457:120|424:126|424:126|373:109,1,144,12|0,0:2|1:2,0:2:0:0:
226,2,39837,5,14,0:2:0:0:
189,165,39995,1,10,0:2:0:0:
38,85,40153,5,8,0:2:0:0:
22,117,40232,1,8,0:2:0:0:
19,152,40311,1,8,0:2:0:0:
29,187,40390,1,8,0:2:0:0:
50,216,40469,1,8,0:2:0:0:
80,235,40548,1,8,0:2:0:0:
115,242,40627,5,8,0:3:0:0:
135,226,40706,1,8,0:3:0:0:
158,218,40785,1,4,0:3:0:0:
183,215,40864,1,4,0:3:0:0:
208,219,40943,6,0,P|199:263|194:303,1,80.9999975280763,4|0,1:2|1:2,0:2:0:0:
458,317,41416,5,2,1:2:0:0:
380,384,41574,2,0,P|372:341|367:296,1,80.9999975280763,8|0,0:2|0:2,0:2:0:0:
448,150,41890,5,10,0:2:0:0:
512,247,42048,2,0,B|475:230|475:230|436:232|436:232|387:212,1,121.499996292114,4|0,1:2|0:2,0:2:0:0:
324,240,42364,2,0,P|311:207|296:154,1,80.9999975280763,0|8,1:2|0:2,0:2:0:0:
306,32,42679,5,2,0:2:0:0:
230,113,42837,1,8,0:2:0:0:
128,49,42995,2,0,B|133:77|133:77|147:92|147:92|145:123|158:152,1,107.999996704102,0|0,1:2|0:2,0:2:0:0:
0,257,43469,6,0,P|49:247|103:231,1,80.9999975280763,6|0,1:2|1:2,0:2:0:0:
283,353,43943,5,2,1:2:0:0:
191,380,44100,2,0,P|200:338|211:297,1,80.9999975280763,8|0,0:2|0:2,0:2:0:0:
353,206,44416,5,10,0:2:0:0:
416,309,44574,2,0,P|360:363|282:352,1,161.999995056153,4|0,1:2|1:2,0:2:0:0:
361,179,45048,2,0,P|417:164|451:161,1,80.9999975280763,10|0,0:2|0:2,0:2:0:0:
235,275,45364,5,10,0:2:0:0:
119,223,45522,1,0,1:2:0:0:
224,164,45679,1,8,0:3:0:0:
147,320,45837,1,4,0:3:0:0:
23,177,45995,6,0,P|11:218|7:260,1,85.4999977169037,4|0,1:2|0:2,0:2:0:0:
250,358,46311,2,0,P|245:315|234:274,1,85.4999977169037,10|0,0:2|0:2,0:2:0:0:
62,334,46627,2,0,P|124:325|166:313,1,85.4999977169037,2|0,0:2|1:2,0:2:0:0:
315,184,46943,2,0,B|280:169|280:169|236:179|236:179|186:161,1,128.249996575356,10|0,0:2|0:2,0:2:0:0:
117,193,47258,6,0,P|107:145|103:104,1,85.4999977169037,6|0,1:2|1:2,0:2:0:0:
290,26,47574,1,8,0:2:0:0:
369,112,47732,2,0,P|361:176|337:288,1,170.999995433807,2|0,0:2|1:2,0:2:0:0:
234,369,48206,1,10,0:2:0:0:
203,249,48364,1,0,0:2:0:0:
361,309,48522,6,0,P|397:302|463:256,1,85.4999977169037,6|0,1:2|0:2,0:2:0:0:
374,91,48837,2,0,P|461:96|508:189,1,170.999995433807,8|0,0:2|0:2,0:2:0:0:
320,236,49311,1,0,1:2:0:0:
416,179,49469,1,10,0:2:0:0:
282,51,49627,5,2,3:2:0:0:
282,51,49706,1,0,3:2:0:0:
282,51,49785,2,0,P|245:38|197:31,1,85.4999977169037,4|0,1:2|1:2,0:2:0:0:
33,72,50100,1,10,0:2:0:0:
151,188,50258,1,2,3:2:0:0:
151,188,50337,1,0,3:2:0:0:
151,188,50416,1,0,3:2:0:0:
130,89,50574,5,2,1:2:0:0:
58,275,50732,1,8,0:2:0:0:
248,232,50890,1,2,0:2:0:0:
151,188,51048,5,12,0:2:0:0:
142,229,51127,1,8,0:2:0:0:
150,271,51206,1,8,0:2:0:0:
174,306,51285,1,8,0:2:0:0:
209,329,51364,1,8,0:2:0:0:
251,336,51443,1,8,0:2:0:0:
292,326,51522,1,8,0:2:0:0:
327,301,51600,1,8,0:2:0:0:
348,265,51679,5,8,0:3:0:0:
327,251,51758,1,8,0:3:0:0:
308,227,51837,1,4,0:3:0:0:
296,199,51916,1,4,0:3:0:0:
294,168,51995,6,0,P|322:150|370:142,1,42.7499988584519,10|0,0:2|0:2,0:2:0:0:
464,85,52153,6,0,P|492:103|540:111,1,42.7499988584519,10|0,0:2|0:2,0:2:0:0:
35,220,53258,5,0,2:2:0:0:
35,220,53337,1,0,2:2:0:0:
35,220,53416,1,0,2:2:0:0:
35,220,53495,1,0,2:2:0:0:
35,220,53574,6,0,B|73:225|115:185|115:185|167:173|208:203,1,180,6|8,1:2|0:2,0:2:0:0:
64,42,54048,2,0,P|49:85|44:130,1,90,2|0,0:2|1:2,0:2:0:0:
263,128,54364,2,0,P|257:83|243:40,1,90,2|8,1:2|0:2,0:2:0:0:
511,89,54679,6,0,B|483:83|453:69|453:69|406:68|374:109,1,135,4|0,1:2|0:2,0:2:0:0:
360,170,54995,2,0,P|365:214|379:257,1,90,2|8,1:2|0:2,0:2:0:0:
512,354,55311,1,2,3:2:0:0:
512,354,55390,1,0,3:2:0:0:
512,354,55469,1,0,1:2:0:0:
471,223,55627,1,0,1:2:0:0:
381,384,55785,1,8,0:2:0:0:
379,257,55943,1,0,0:2:0:0:
179,353,56100,6,0,B|120:337|120:337|87:290|87:290|22:272,1,180,6|8,1:2|0:2,0:2:0:0:
227,229,56574,2,0,P|271:220|335:203,1,90,2|0,0:2|1:2,0:2:0:0:
118,95,56890,2,0,P|74:83|30:74,1,90,2|8,1:2|0:2,0:2:0:0:
254,138,57206,6,0,B|250:92|226:66|226:66|238:33|225:-10,1,135,6|0,1:2|0:2,0:2:0:0:
316,49,57522,2,0,P|382:65|443:69,1,90,2|8,1:2|0:2,0:2:0:0:
174,138,57837,1,2,3:2:0:0:
174,138,57916,1,0,3:2:0:0:
174,138,57995,2,0,P|129:144|86:156,1,90,0|0,1:2|1:2,0:2:0:0:
273,241,58311,1,10,0:2:0:0:
110,343,58469,1,0,0:2:0:0:
235,379,58627,6,0,P|214:339|199:297,1,90,6|0,1:2|0:2,0:2:0:0:
476,193,58943,2,0,P|457:251|327:275,1,180,10|2,0:2|1:2,0:2:0:0:
221,181,59416,1,0,1:2:0:0:
388,102,59574,1,8,0:2:0:0:
378,198,59732,6,0,P|303:152|294:66,1,180,6|0,1:2|1:2,2:2:0:0:
183,290,60206,2,0,P|227:271|273:259,1,90,10|0,0:2|0:2,0:2:0:0:
115,72,60522,2,0,P|156:90|199:101,1,90,2|0,1:2|1:2,0:2:0:0:
42,183,60837,2,0,P|0:247|8:324,1,135,10|0,0:2|0:2,0:2:0:0:
67,381,61153,6,0,P|150:363|205:366,1,135,6|0,1:2|0:2,0:2:0:0:
220,375,61469,5,8,0:2:0:0:
167,218,61627,1,0,1:2:0:0:
397,236,61785,5,8,0:2:0:0:
233,286,61943,1,0,1:2:0:0:
280,96,62100,5,8,0:2:0:0:
413,251,62258,2,0,B|453:263|453:263|525:242|511:141,1,180,6|0,1:2|1:2,0:2:0:0:
406,19,62732,6,0,P|399:46|394:71,1,45,10|0,1:2|1:2,0:2:0:0:
277,194,62890,2,0,P|299:182|333:170,1,45,0|0,1:2|1:2,0:2:0:0:
243,67,63048,5,8,2:3:0:0:
201,51,63127,1,8,2:3:0:0:
156,49,63206,1,4,2:3:0:0:
113,63,63285,1,4,2:3:0:0:
77,89,63364,1,8,2:2:0:0:
51,126,63443,1,8,2:2:0:0:
38,169,63522,1,8,2:2:0:0:
40,213,63600,1,8,2:2:0:0:
57,255,63679,6,0,B|118:276|118:276|163:257|163:257|235:283,1,180,6|8,1:2|0:2,0:2:0:0:
422,366,64153,2,0,P|466:359|505:338,1,90,2|0,0:2|1:2,0:2:0:0:
332,298,64469,2,0,P|316:338|307:397,1,90,2|8,1:2|0:2,0:2:0:0:
431,251,64785,6,0,B|459:229|459:229|474:177|453:126,1,135,14|0,0:2|0:2,0:2:0:0:
420,50,65100,2,0,P|458:26|504:12,1,90,2|8,1:2|0:2,0:2:0:0:
354,185,65416,1,2,3:2:0:0:
354,185,65495,1,0,3:2:0:0:
354,185,65574,1,0,1:2:0:0:
217,71,65732,1,0,1:2:0:0:
323,15,65890,1,8,0:2:0:0:
239,209,66048,1,0,0:2:0:0:
54,68,66206,6,0,B|93:82|93:82|127:72|127:72|173:108|233:96,1,180,6|8,1:2|0:2,0:2:0:0:
86,298,66679,2,0,P|39:307|-19:331,1,90,2|0,0:2|1:2,0:2:0:0:
195,214,66995,2,0,P|152:198|108:190,1,90,2|8,1:2|0:2,0:2:0:0:
313,350,67311,6,0,P|389:375|446:357,1,135,6|0,1:2|0:2,0:2:0:0:
512,296,67627,2,0,P|502:255|489:185,1,90,2|8,1:2|0:2,0:2:0:0:
294,244,67943,1,2,3:2:0:0:
294,244,68022,1,0,3:2:0:0:
294,244,68100,2,0,P|334:259|381:285,1,90,0|0,1:2|1:2,0:2:0:0:
499,47,68416,2,0,B|476:75|435:85|435:85|412:106|406:139,1,135,10|0,0:2|0:2,0:2:0:0:
415,214,68732,5,6,1:2:0:0:
283,148,68890,1,0,1:2:0:0:
375,281,69048,5,8,0:2:0:0:
260,133,69206,1,0,1:2:0:0:
323,338,69364,5,8,0:2:0:0:
238,118,69522,1,0,1:2:0:0:
247,355,69679,5,8,2:2:0:0:
216,103,69837,1,0,1:2:0:0:
194,88,69916,1,0,1:2:0:0:
172,73,69995,2,0,P|125:55|65:49,1,90,12|0,0:2|1:2,0:2:0:0:
0,288,70311,5,10,2:2:0:0:
225,231,70469,1,0,1:2:0:0:
55,191,70627,5,10,2:2:0:0:
241,344,70785,1,0,1:2:0:0:
367,147,70943,5,10,0:2:0:0:
333,161,71022,1,8,0:2:0:0:
317,192,71100,1,8,0:3:0:0:
318,227,71179,1,8,0:3:0:0:
338,256,71258,5,6,1:2:0:0:
467,204,71416,1,0,1:2:0:0:
254,141,71574,1,8,0:2:0:0:
448,63,71732,1,8,0:2:0:0:
367,147,71890,5,8,0:3:0:0:
363,102,71969,1,8,0:3:0:0:
342,61,72048,1,4,0:3:0:0:
305,34,72127,1,4,0:3:0:0:
260,24,72206,2,0,P|234:26|200:39,1,45,8|0,0:2|0:2,0:2:0:0:
201,255,72364,6,0,B|165:248|165:248|145:232|145:232|104:240|61:209,1,135,6|0,1:2|0:2,0:2:0:0:
10,173,72679,1,10,0:2:0:0:
254,119,72837,1,10,0:2:0:0:
121,378,72995,1,10,0:2:0:0:
255,330,73311,5,0,1:2:0:0:
255,330,73390,1,0,1:2:0:0:
255,330,73469,2,0,P|251:287|240:247,1,67.5000025749208,10|0,0:2|0:2,0:1:0:0:
170,75,73785,6,0,B|130:50|85:66|85:66|44:99|0:80,1,180,6|8,1:2|0:2,0:2:0:0:
141,189,74258,1,2,0:2:0:0:
1,276,74416,2,0,P|6:236|33:179,1,90,0|0,1:2|0:2,0:2:0:0:
160,344,74732,2,0,P|107:350|60:368,1,90,10|0,0:2|0:2,0:2:0:0:
297,261,75048,6,0,B|324:294|324:294|401:312|443:243,1,180,2|8,1:2|0:2,0:2:0:0:
329,105,75522,2,0,B|277:90|277:90|215:108|215:108|124:85,1,180,2|0,0:2|0:2,0:2:0:0:
23,113,75995,1,10,0:2:0:0:
61,0,76153,1,0,0:2:0:0:
161,204,76311,6,0,P|96:263|13:239,1,180,6|8,1:2|0:2,0:2:0:0:
163,100,76785,1,2,3:2:0:0:
163,100,76864,1,0,3:2:0:0:
163,100,76943,2,0,P|198:87|251:76,1,90,0|0,1:2|0:2,0:2:0:0:
298,264,77258,2,0,P|342:272|384:287,1,90,8|0,0:2|0:2,0:2:0:0:
204,384,77574,6,0,B|193:354|193:354|196:329|196:329|176:301|175:253,1,135,2|0,1:2|0:2,0:2:0:0:
113,188,77890,2,0,P|68:196|26:211,1,90,8|0,0:2|0:2,0:2:0:0:
268,265,78206,1,2,1:2:0:0:
161,100,78364,1,0,1:2:0:0:
175,255,78522,1,8,0:2:0:0:
304,110,78679,1,0,1:2:0:0:
353,316,78837,6,0,P|406:347|493:317,1,135,6|0,1:2|0:2,0:2:0:0:
512,244,79153,2,0,B|493:181|493:181|463:154|463:154|439:80,1,180,8|0,2:2|1:2,2:2:0:0:
318,23,79627,1,0,1:2:0:0:
275,202,79785,2,0,B|303:217|303:217|337:209|337:209|368:230|408:228,1,135,10|0,0:2|0:2,0:2:0:0:
455,172,80100,6,0,P|447:115|437:75,1,90,2|0,1:2|0:2,0:2:0:0:
188,201,80416,2,0,P|196:144|206:104,1,90,10|0,0:2|0:2,0:2:0:0:
417,293,80732,2,0,P|377:277|319:263,1,90,2|0,1:2|0:2,0:2:0:0:
117,384,81048,2,0,P|158:367|202:356,1,90,10|0,0:2|0:2,0:2:0:0:
81,134,81364,6,0,P|18:178|37:291,1,180,6|8,1:2|0:2,0:2:0:0:
272,185,81837,2,0,B|289:143|289:143|284:109|284:109|308:65|313:13,1,180,2|0,0:2|0:2,0:2:0:0:
191,72,82311,1,10,0:2:0:0:
380,171,82469,1,0,0:2:0:0:
163,240,82627,5,6,1:2:0:0:
302,381,82785,1,8,0:2:0:0:
272,185,82943,1,8,0:2:0:0:
182,361,83100,1,8,0:2:0:0:
358,270,83258,1,8,0:2:0:0:
180,148,83416,5,8,0:2:0:0:
165,122,83495,1,8,0:2:0:0:
160,95,83574,1,8,0:3:0:0:
161,65,83653,1,8,0:3:0:0:
171,37,83732,2,0,P|189:24|226:23,1,45,4|0,0:3|0:2,0:2:0:0:
312,62,83890,6,0,P|386:82|458:90,2,125.999996154785,4|0|2,1:2|1:2|1:2,0:2:0:0:
357,203,84679,1,0,0:2:0:0:
232,157,84837,2,0,P|271:149|315:145,1,62.9999980773926,8|0,0:2|0:2,0:2:0:0:
444,191,85153,6,0,P|456:238|467:316,1,125.999996154785,2|0,1:2|1:2,0:2:0:0:
406,370,85627,1,8,0:2:0:0:
331,334,85785,1,0,1:2:0:0:
354,255,85943,1,8,0:3:0:0:
287,207,86100,1,0,1:2:0:0:
224,260,86258,1,4,0:3:0:0:
139,189,86416,6,0,B|98:181|98:181|63:192|63:192|9:183,1,125.999996154785,2|0,1:2|1:2,0:2:0:0:
228,71,87048,2,0,P|245:47|268:-3,1,62.9999980773926,2|0,1:2|0:2,0:2:0:0:
319,126,87364,2,0,P|345:145|380:162,1,62.9999980773926,8|0,0:2|0:2,0:2:0:0:
512,209,87679,6,0,B|481:211|481:211|456:232|456:232|425:227|387:245,1,125.999996154785,2|0,1:2|1:2,0:2:0:0:
320,275,88153,1,8,0:2:0:0:
305,355,88311,1,0,1:2:0:0:
224,365,88469,1,8,0:3:0:0:
189,291,88627,1,0,1:2:0:0:
248,235,88785,1,4,0:3:0:0:
136,167,88943,6,0,P|75:185|10:183,2,125.999996154785,2|0|0,1:2|1:2|1:2,0:2:0:0:
199,114,89732,1,0,0:2:0:0:
121,88,89890,1,10,0:2:0:0:
87,229,90048,5,0,3:2:0:0:
87,229,90127,1,0,3:2:0:0:
87,229,90206,2,0,P|88:300|112:360,1,125.999996154785,2|0,1:2|1:2,0:2:0:0:
186,371,90679,1,8,0:2:0:0:
255,328,90837,1,0,1:2:0:0:
333,351,90995,1,8,0:3:0:0:
395,297,91153,1,0,1:2:0:0:
470,328,91311,1,4,0:3:0:0:
362,218,91469,6,0,P|361:155|381:95,1,125.999996154785,2|0,1:2|1:2,0:2:0:0:
216,46,91943,1,8,0:2:0:0:
291,0,92100,2,0,P|300:41|302:88,1,62.9999980773926,2|0,1:2|0:2,0:2:0:0:
185,143,92416,2,0,B|165:138|165:138|150:128|150:128|119:133|74:110,1,94.499997116089,12|0,0:2|0:2,0:2:0:0:
80,111,92732,5,2,1:2:0:0:
127,207,92890,1,0,0:2:0:0:
20,205,93048,1,12,0:2:0:0:
77,296,93206,1,8,0:3:0:0:
77,296,93285,1,8,0:3:0:0:
77,296,93364,1,4,0:3:0:0:
147,192,93522,5,8,0:3:0:0:
219,356,93679,1,8,0:2:0:0:
319,208,93837,1,4,0:3:0:0:
476,326,93995,6,0,B|432:313|432:313|385:324|385:324|332:306,1,144,6|8,1:2|0:2,0:2:0:0:
279,207,94469,1,0,0:0:0:0:
409,172,94627,2,0,P|402:213|392:247,1,72,2|0,2:2|1:2,2:2:0:0:
276,363,94943,2,0,B|249:351|249:351|231:353|231:353|213:339|162:333,1,108,10|0,0:2|0:2,0:2:0:0:
98,361,95258,6,0,P|66:364|10:377,1,72,2|0,1:2|1:2,0:2:0:0:
136,215,95574,2,0,P|102:202|67:193,1,72,8|0,0:2|3:2,0:2:0:0:
67,193,95811,1,0,3:2:0:0:
67,193,95890,1,2,3:2:0:0:
160,303,96048,1,0,1:2:0:0:
224,173,96206,2,0,B|216:142|216:142|225:106|225:106|213:59,1,108,8|0,0:2|0:2,0:2:0:0:
145,28,96522,6,0,P|110:37|76:49,1,72,2|0,1:2|0:2,0:2:0:0:
296,141,96837,2,0,B|327:143|327:143|352:124|352:124|396:139|454:105,1,144,8|2,0:2|0:2,0:2:0:0:
512,25,97311,1,0,1:2:0:0:
375,8,97469,1,8,0:2:0:0:
445,131,97627,1,0,0:2:0:0:
222,91,97785,6,0,P|214:126|208:161,1,72,2|0,1:2|1:2,0:2:0:0:
358,290,98100,2,0,P|326:272|293:258,1,72,8|0,0:2|3:2,0:2:0:0:
293,258,98337,1,0,3:2:0:0:
293,258,98416,1,2,3:2:0:0:
237,371,98574,1,0,1:2:0:0:
114,312,98732,2,0,B|142:313|142:313|156:300|156:300|194:305|227:283,1,108,10|0,0:2|0:2,0:2:0:0:
229,213,99048,6,0,P|209:146|196:43,1,144,2|8,1:2|0:2,0:2:0:0:
322,11,99522,1,0,0:2:0:0:
361,145,99679,2,0,P|324:141|284:131,1,72,2|0,0:2|1:2,0:2:0:0:
126,230,99995,2,0,P|176:209|229:213,1,108,10|0,0:2|0:2,0:2:0:0:
325,253,100311,5,2,1:2:0:0:
290,132,100469,1,0,1:2:0:0:
226,304,100627,1,8,0:2:0:0:
332,261,100785,5,2,3:2:0:0:
332,261,100864,1,0,3:2:0:0:
332,261,100943,1,0,3:2:0:0:
201,185,101100,1,0,1:2:0:0:
205,384,101258,1,8,0:2:0:0:
140,258,101416,5,0,3:2:0:0:
140,258,101495,1,0,3:2:0:0:
140,258,101574,2,0,B|109:249|109:249|93:223|93:223|52:229|3:194,1,144,6|8,1:2|0:2,0:2:0:0:
164,115,102048,2,0,P|172:85|200:28,1,72,12|0,0:2|0:2,0:2:0:0:
303,15,102364,1,2,1:2:0:0:
429,116,102522,2,0,P|423:167|393:260,1,144,12|0,0:2|1:2,0:2:0:0:
309,377,102995,5,14,0:2:0:0:
263,190,103153,1,10,0:2:0:0:
79,302,103311,5,8,0:2:0:0:
112,316,103390,1,8,0:2:0:0:
146,318,103469,1,8,0:2:0:0:
180,310,103548,1,8,0:2:0:0:
210,288,103627,1,8,0:2:0:0:
229,259,103706,1,8,0:2:0:0:
236,223,103785,5,8,0:3:0:0:
221,204,103864,1,8,0:3:0:0:
212,180,103943,1,4,0:3:0:0:
209,156,104022,1,4,0:3:0:0:
213,130,104100,6,0,P|234:92|259:37,1,80.9999975280763,4|0,1:2|1:2,0:2:0:0:
495,103,104574,5,2,1:2:0:0:
432,14,104732,2,0,P|411:52|386:107,1,80.9999975280763,8|0,0:2|0:2,0:2:0:0:
413,256,105048,5,10,0:2:0:0:
481,188,105206,2,0,B|454:182|435:169|435:169|393:161|357:194,1,121.499996292114,4|0,1:2|0:2,0:2:0:0:
301,225,105522,2,0,P|262:215|215:200,1,80.9999975280763,0|8,1:2|0:2,0:2:0:0:
133,117,105837,5,2,0:2:0:0:
29,181,105995,1,8,0:2:0:0:
77,300,106153,2,0,B|99:299|99:299|119:285|119:285|147:287|181:275,1,107.999996704102,0|0,1:2|0:2,0:2:0:0:
301,370,106627,6,0,P|262:357|223:347,1,80.9999975280763,6|0,1:2|1:2,0:2:0:0:
141,164,107100,5,2,1:2:0:0:
240,195,107258,2,0,P|279:184|317:172,1,80.9999975280763,8|0,0:2|0:2,0:2:0:0:
194,72,107574,5,10,0:2:0:0:
118,182,107732,2,0,P|102:262|129:345,1,161.999995056153,4|0,1:2|1:2,0:2:0:0:
257,378,108206,2,0,P|295:365|334:355,1,80.9999975280763,10|0,0:2|0:2,0:2:0:0:
398,176,108522,5,10,0:2:0:0:
512,240,108679,1,0,1:2:0:0:
494,124,108837,1,8,0:3:0:0:
423,281,108995,1,4,0:3:0:0:
294,133,109153,6,0,P|341:153|387:164,1,85.4999977169037,4|0,1:2|0:2,0:2:0:0:
198,260,109469,2,0,P|193:216|182:176,1,85.4999977169037,10|0,0:2|0:2,0:2:0:0:
0,263,109785,2,0,P|39:245|80:234,1,85.4999977169037,2|0,0:2|1:2,0:2:0:0:
294,133,110100,2,0,B|255:124|255:124|229:100|229:100|170:88,1,128.249996575356,10|0,0:2|0:2,0:2:0:0:
110,45,110416,6,0,P|68:56|29:73,1,85.4999977169037,6|0,1:2|1:2,0:2:0:0:
182,177,110732,1,8,0:2:0:0:
59,304,110890,2,0,P|77:218|103:135,1,170.999995433807,2|0,0:2|1:2,0:2:0:0:
246,98,111364,1,10,0:2:0:0:
226,254,111522,1,0,0:2:0:0:
410,208,111679,6,0,P|371:191|321:184,1,85.4999977169037,6|0,1:2|0:2,0:2:0:0:
510,273,111995,2,0,P|492:189|467:107,1,170.999995433807,8|0,0:2|0:2,0:2:0:0:
366,27,112469,1,0,1:2:0:0:
328,184,112627,1,10,0:2:0:0:
176,99,112785,5,2,3:2:0:0:
176,99,112864,1,0,3:2:0:0:
176,99,112943,2,0,P|219:96|265:79,1,85.4999977169037,4|0,1:2|1:2,0:2:0:0:
87,0,113258,1,10,0:2:0:0:
103,197,113416,1,2,3:2:0:0:
103,197,113495,1,0,3:2:0:0:
103,197,113574,1,0,3:2:0:0:
177,99,113732,5,2,1:2:0:0:
0,167,113890,1,8,0:2:0:0:
170,275,114048,1,2,0:2:0:0:
103,197,114206,5,12,0:2:0:0:
79,231,114285,1,8,0:2:0:0:
71,273,114364,1,8,0:2:0:0:
81,314,114443,1,8,0:2:0:0:
105,348,114522,1,8,0:2:0:0:
142,370,114600,1,8,0:2:0:0:
184,375,114679,1,8,0:2:0:0:
226,365,114758,1,8,0:2:0:0:
258,339,114837,5,8,0:3:0:0:
255,313,114916,1,8,0:3:0:0:
262,283,114995,1,4,0:3:0:0:
277,256,115074,1,4,0:3:0:0:
299,236,115153,6,0,P|327:229|364:224,1,42.7499988584519,10|0,0:2|0:2,0:2:0:0:
471,279,115311,6,0,P|492:282|512:288,1,42.7499988584519,10|0,0:2|0:2,0:2:0:0:
410,36,116416,5,0,2:2:0:0:
410,36,116495,1,0,2:2:0:0:
410,36,116574,1,0,2:2:0:0:
410,36,116653,1,0,2:2:0:0:
410,36,116732,6,0,B|393:100|393:100|353:130|353:130|335:191,1,180,6|8,1:2|0:2,0:2:0:0:
318,41,117206,2,0,P|277:26|228:20,1,90,2|0,0:2|1:2,0:2:0:0:
426,183,117522,2,0,P|471:178|513:163,1,90,2|8,1:2|0:2,0:2:0:0:
246,104,117837,6,0,B|218:103|218:103|193:123|193:123|156:118|118:141,1,135,4|0,1:2|0:2,0:2:0:0:
46,119,118153,2,0,P|28:151|17:208,1,90,2|8,1:2|0:2,0:2:0:0:
165,330,118469,1,2,3:2:0:0:
165,330,118548,1,0,3:2:0:0:
165,330,118627,1,0,1:2:0:0:
174,204,118785,1,0,1:2:0:0:
44,367,118943,1,8,0:2:0:0:
91,255,119100,1,0,0:2:0:0:
293,352,119258,6,0,B|332:341|356:345|356:345|390:308|390:308|429:311|470:301,1,180,6|8,1:2|0:2,0:2:0:0:
307,172,119732,2,0,P|291:227|285:269,1,90,2|0,0:2|1:2,0:2:0:0:
429,151,120048,1,2,1:2:0:0:
304,41,120206,1,8,0:2:0:0:
188,188,120364,6,0,P|109:202|54:175,1,135,6|0,1:2|0:2,0:2:0:0:
11,120,120679,2,0,P|28:60|59:17,1,90,2|8,1:2|0:2,0:2:0:0:
134,303,120995,1,2,3:2:0:0:
134,303,121074,1,0,3:2:0:0:
134,303,121153,2,0,P|89:309|47:328,1,90,0|0,1:2|1:2,0:2:0:0:
240,380,121469,1,10,0:2:0:0:
208,195,121627,1,0,0:2:0:0:
408,324,121785,6,0,P|363:313|324:290,1,90,6|0,1:2|0:2,0:2:0:0:
510,153,122100,2,0,P|486:217|375:229,1,180,10|2,0:2|1:2,0:2:0:0:
319,89,122574,1,0,1:2:0:0:
447,15,122732,1,8,0:2:0:0:
419,155,122890,6,0,B|381:139|381:139|351:146|351:146|309:117|239:119,1,180,6|0,1:2|1:2,2:2:0:0:
112,281,123364,2,0,P|169:271|210:257,1,90,10|0,0:2|0:2,0:2:0:0:
50,135,123679,2,0,P|91:152|134:163,1,90,2|0,1:2|1:2,0:2:0:0:
325,26,123995,2,0,P|266:56|252:133,1,135,10|0,0:2|0:2,0:2:0:0:
313,201,124311,6,0,B|366:215|366:215|387:236|387:236|446:250,1,135,6|0,1:2|0:2,0:2:0:0:
446,264,124627,5,8,0:2:0:0:
390,122,124785,1,0,1:2:0:0:
454,281,124943,5,8,0:2:0:0:
300,217,125100,1,0,1:2:0:0:
464,297,125258,5,8,0:2:0:0:
256,345,125416,2,0,B|202:326|202:326|143:339|143:339|74:318,1,180,6|0,1:2|1:2,0:2:0:0:
0,176,125890,6,0,P|31:170|74:154,1,45,10|0,1:2|1:2,0:2:0:0:
175,36,126048,2,0,P|152:32|131:26,1,45,0|0,1:2|1:2,0:2:0:0:
224,222,126206,5,8,2:3:0:0:
263,243,126285,1,8,2:3:0:0:
307,253,126364,1,4,2:3:0:0:
351,250,126443,1,4,2:3:0:0:
394,234,126522,1,8,2:2:0:0:
430,208,126600,1,8,2:2:0:0:
457,172,126679,1,8,2:2:0:0:
474,131,126758,1,8,2:2:0:0:
478,86,126837,6,0,B|440:66|440:66|405:72|405:72|360:48|303:44,1,180,6|8,1:2|0:2,0:2:0:0:
102,111,127311,2,0,P|97:155|93:200,1,90,2|0,0:2|1:2,0:2:0:0:
344,230,127627,2,0,P|340:185|335:140,1,90,2|8,1:2|0:2,0:2:0:0:
80,285,127943,6,0,B|131:277|131:277|160:254|160:254|220:243,1,135,14|0,0:2|0:2,0:2:0:0:
267,294,128258,2,0,P|309:308|352:322,1,90,2|8,1:2|0:2,0:2:0:0:
488,189,128574,1,2,3:2:0:0:
488,189,128653,1,0,3:2:0:0:
488,189,128732,1,0,1:2:0:0:
344,117,128890,1,0,1:2:0:0:
436,267,129048,1,8,0:2:0:0:
420,62,129206,1,0,0:2:0:0:
235,153,129364,6,0,B|212:213|207:261|207:261|233:292|236:321,1,180,6|8,1:2|0:2,0:2:0:0:
66,361,129837,2,0,P|111:340|161:329,1,90,2|0,0:2|1:2,0:2:0:0:
383,276,130153,2,0,P|339:264|298:245,1,90,2|8,1:2|0:2,0:2:0:0:
94,139,130469,6,0,B|84:198|141:224|141:224|178:209,1,135,6|0,1:2|0:2,0:2:0:0:
226,159,130785,2,0,P|218:114|198:49,1,90,2|8,1:2|0:2,0:2:0:0:
395,12,131100,1,2,3:2:0:0:
395,12,131179,1,0,3:2:0:0:
395,12,131258,2,0,P|359:40|325:78,1,90,0|0,1:2|1:2,0:2:0:0:
512,188,131574,2,0,P|479:156|443:130,1,90,10|0,0:2|0:2,0:2:0:0:
248,234,131890,5,6,1:2:0:0:
394,288,132048,1,0,1:2:0:0:
235,210,132206,5,8,0:2:0:0:
168,379,132364,1,0,1:2:0:0:
259,197,132522,5,8,0:2:0:0:
80,128,132679,1,0,1:2:0:0:
272,221,132837,5,8,2:2:0:0:
349,19,132995,1,0,1:2:0:0:
349,19,133074,1,0,1:2:0:0:
349,19,133153,2,0,P|318:61|302:107,1,90,12|0,0:2|1:2,0:2:0:0:
344,323,133469,5,10,2:2:0:0:
173,160,133627,1,0,1:2:0:0:
211,365,133785,5,10,2:2:0:0:
350,175,133943,1,0,1:2:0:0:
113,236,134100,5,10,0:2:0:0:
144,254,134179,1,8,0:2:0:0:
179,260,134258,1,8,0:3:0:0:
214,252,134337,1,8,0:3:0:0:
243,232,134416,5,6,1:2:0:0:
79,154,134574,1,0,1:2:0:0:
266,95,134732,1,8,0:2:0:0:
144,2,134890,1,8,0:2:0:0:
300,123,135048,5,8,0:3:0:0:
343,131,135127,1,8,0:3:0:0:
386,120,135206,1,4,0:3:0:0:
421,92,135285,1,4,0:3:0:0:
440,51,135364,2,0,P|422:16|407:2,1,45,8|0,0:2|0:2,0:2:0:0:
214,100,135522,6,0,B|219:145|219:145|200:189|200:189|207:230,1,135,6|0,1:2|0:2,0:2:0:0:
218,310,135837,1,10,0:2:0:0:
368,121,135995,1,10,0:2:0:0:
121,5,136153,1,10,0:2:0:0:
221,108,136469,5,0,1:2:0:0:
221,108,136548,1,0,1:2:0:0:
221,108,136627,2,0,P|253:98|291:73,1,67.5000025749208,10|0,0:2|0:2,0:1:0:0:
122,200,136943,6,0,P|103:231|87:266,1,60,6|2,1:2|0:2,0:2:0:0:
138,376,137153,1,2,0:2:0:0:
197,324,137258,6,0,P|182:284|167:253,1,60,10|2,0:2|0:2,0:2:0:0:
302,181,137469,1,2,0:2:0:0:
322,252,137574,6,0,P|260:273|230:278,1,60,2|2,1:2|0:2,0:2:0:0:
233,140,137785,1,2,0:2:0:0:
296,100,137890,6,0,P|324:108|352:119,1,60,10|2,0:2|0:2,0:2:0:0:
430,218,138100,1,2,0:2:0:0:
491,174,138206,6,0,P|505:141|516:101,1,60,2|2,2:2|0:2,0:2:0:0:
477,5,138416,1,2,0:2:0:0:
414,52,138522,6,0,P|422:76|436:114,1,60,10|2,0:2|0:2,0:2:0:0:
350,214,138732,1,2,0:2:0:0:
384,283,138837,6,0,P|412:294|458:303,1,60,2|2,1:2|0:2,0:2:0:0:
304,374,139048,1,2,0:2:0:0:
246,321,139153,6,0,P|218:310|172:301,1,60,10|2,0:2|0:2,0:2:0:0:
31,323,139364,1,2,0:2:0:0:
97,364,139469,6,2,B|114:328|114:328|107:298|107:298|132:250|129:189,1,180,6|10,1:2|0:2,0:2:0:0:
24,30,139943,2,0,P|42:77|65:115,1,90,2|0,0:2|1:2,0:2:0:0:
226,187,140258,1,2,1:2:0:0:
45,235,140416,1,8,0:2:0:0:
200,76,140574,6,0,B|269:63|269:63|295:34|295:34|384:21,1,180,6|0,1:2|1:2,0:2:0:0:
512,129,141048,1,8,0:2:0:0:
357,210,141206,1,2,3:2:0:0:
357,210,141285,1,0,3:2:0:0:
357,210,141364,1,0,1:2:0:0:
371,47,141522,1,0,1:2:0:0:
490,138,141679,1,8,0:2:0:0:
266,118,141837,5,0,3:2:0:0:
266,118,141916,1,0,3:2:0:0:
266,118,141995,2,0,P|250:179|248:234,1,90,6|0,1:2|0:2,0:2:0:0:
372,358,142311,1,8,0:2:0:0:
225,324,142469,2,0,B|256:313|284:310|284:310|320:264|320:264|341:266|380:255,1,180,2|0,0:2|1:2,0:2:0:0:
512,206,142943,1,8,0:2:0:0:
396,77,143100,6,0,B|365:66|336:63|336:63|300:17|300:17|280:19|240:8,1,180,6|0,1:2|1:2,0:2:0:0:
82,78,143574,1,8,0:2:0:0:
209,184,143732,2,0,P|198:117|185:69,1,90,2|0,0:2|1:2,0:2:0:0:
7,195,144048,1,2,1:2:0:0:
169,293,144206,1,8,0:2:0:0:
114,217,144364,5,0,3:2:0:0:
114,217,144443,1,0,3:2:0:0:
114,217,144522,2,0,P|82:258|107:355,1,135,6|0,1:2|0:2,0:2:0:0:
164,381,144837,5,8,0:2:0:0:
332,258,144995,1,2,1:2:0:0:
169,293,145153,5,8,0:2:0:0:
377,332,145311,1,2,1:2:0:0:
231,191,145469,5,8,0:2:0:0:
270,347,145627,2,0,P|288:285|332:176,1,180,6|0,1:2|1:2,0:2:0:0:
277,34,146100,1,10,0:2:0:0:
368,76,146258,6,0,P|387:65|407:49,1,45,8|0,3:3|3:2,3:2:0:0:
230,115,146416,2,0,P|199:100|154:87,1,45,8|0,3:2|3:2,3:2:0:0:
335,196,146574,2,0,P|347:218|374:252,1,45,4|0,3:3|3:2,3:2:0:0:
111,166,146732,5,8,0:2:0:0:
70,185,146811,1,8,0:2:0:0:
42,220,146890,1,8,0:2:0:0:
32,263,146969,1,8,0:2:0:0:
42,307,147048,6,0,B|81:312|81:312|107:331|107:331|146:326|186:347,1,141.749995674133,6|0,1:2|0:2,0:2:0:0:
241,384,147364,1,8,0:2:0:0:
361,287,147522,2,0,P|346:242|333:184,1,94.499997116089,2|0,0:2|1:2,0:2:0:0:
441,37,147837,1,0,1:2:0:0:
296,67,147995,1,8,0:2:0:0:
455,155,148153,6,0,B|388:129|388:129|361:90|361:90|279:60,1,188.999994232178,14|0,0:2|1:2,0:2:0:0:
117,133,148627,2,0,P|70:142|26:159,1,94.499997116089,10|0,0:2|3:2,0:2:0:0:
26,159,148864,1,0,3:2:0:0:
26,159,148943,1,2,1:2:0:0:
204,209,149100,1,0,1:2:0:0:
160,31,149258,1,10,0:2:0:0:
117,133,149416,1,0,0:2:0:0:
396,195,149574,6,0,B|330:175|330:175|306:138|306:138|197:104,1,188.999994232178,6|8,1:2|0:2,0:2:0:0:
53,334,150048,2,0,B|86:364|86:364|162:384|207:299,1,188.999994232178,2|0,0:2|1:2,0:2:0:0:
6,165,150522,1,8,0:2:0:0:
152,84,150679,6,0,P|129:184|115:283,1,188.999994232178,6|0,1:2|1:2,0:2:0:0:
267,377,151153,1,8,0:2:0:0:
385,319,151311,1,2,3:2:0:0:
385,319,151390,1,0,3:2:0:0:
385,319,151469,2,0,P|378:270|363:221,1,94.499997116089,0|0,1:2|1:2,0:2:0:0:
116,269,151785,2,0,B|145:265|145:265|165:244|165:244|205:243|256:212,1,141.749995674133,10|0,0:2|0:2,0:2:0:0:
310,157,152100,5,6,1:2:0:0:
113,104,152258,1,0,1:2:0:0:
243,219,152416,5,10,0:2:0:0:
164,29,152574,1,0,1:2:0:0:
159,240,152732,5,10,0:2:0:0:
254,19,152890,1,0,1:2:0:0:
85,193,153048,5,10,0:2:0:0:
329,71,153206,1,0,1:2:0:0:
58,102,153364,5,14,0:2:0:0:
347,160,153522,1,0,1:2:0:0:
107,12,153679,5,10,0:2:0:0:
308,248,153837,1,0,1:2:0:0:
215,2,153995,5,10,0:2:0:0:
202,265,154153,1,0,1:2:0:0:
219,312,154232,1,0,1:2:0:0:
256,344,154311,1,8,0:2:0:0:
303,357,154390,1,8,0:2:0:0:
351,348,154469,1,8,0:3:0:0:
391,318,154548,1,8,0:3:0:0:
413,273,154627,6,0,P|405:245|393:215,1,49.5000015106202,4|0,3:2|3:2,3:2:0:0:
268,137,154785,2,0,P|243:143|200:157,1,49.5000015106202,0|0,3:2|3:2,3:2:0:0:
404,80,154943,2,0,P|417:60|434:22,1,49.5000015106202,0|0,3:2|3:2,3:2:0:0:
319,227,155100,2,0,P|302:252|289:285,1,49.5000015106202,0|0,3:2|3:2,3:2:0:0:
461,151,155258,2,0,P|485:156|509:159,1,49.5000015106202,0|0,3:2|3:2,3:2:0:0:
315,59,155416,2,0,P|304:37|285:5,1,49.5000015106202,0|0,3:2|3:2,3:2:0:0:
50,235,155574,5,10,0:2:0:0:
358,153,155732,1,10,0:2:0:0:
256,192,157153,5,6,1:2:0:0:
88,283,162206,6,0,P|44:292|0:296,1,90,2|0,0:2|0:2,0:2:0:0:
140,181,162837,2,0,P|149:137|168:96,1,90,0|0,3:2|0:2,0:2:0:0:
307,3,163469,5,2,0:2:0:0:
449,82,163785,1,0,0:2:0:0:
271,165,164100,2,0,P|341:143|396:135,1,107.999996704102,0|0,3:2|0:2,0:2:0:0:
512,345,164732,6,0,B|476:336|476:336|459:317|459:317|405:321|349:280,1,161.999995056153,6|8,1:2|0:2,0:2:0:0:
271,165,165206,5,2,1:2:0:0:
161,384,165522,5,2,1:2:0:0:
18,295,165837,6,0,B|48:294|48:294|65:281|65:281|107:282|153:252,1,121.499996292114,12|0,0:2|0:2,0:2:0:0:
188,202,166153,5,10,0:2:0:0:
0,135,166311,1,10,0:2:0:0:
152,6,166469,1,10,0:2:0:0:
333,237,167258,6,0,L|312:194,1,26.9999991760254,2|0,2:2|2:2,2:2:0:0:
373,137,167416,5,0,1:2:0:0:
373,137,167495,1,0,1:2:0:0:
373,137,167574,2,0,P|398:132|429:120,1,45,12|0,0:2|0:2,0:2:0:0:
244,269,167732,6,0,P|216:278|185:294,1,53.9999983520508,0|0,1:2|0:2,0:2:0:0:
318,323,167890,5,8,0:2:0:0:
334,281,167969,1,8,0:2:0:0:
333,237,168048,1,8,0:3:0:0:
309,200,168127,1,8,0:3:0:0:
285,162,168206,1,4,0:3:0:0:
281,117,168285,1,4,0:3:0:0:
300,77,168364,6,0,P|392:37|461:67,1,161.999995056153,6|0,1:2|0:2,0:2:0:0:
487,151,168679,2,0,P|479:192|470:260,1,99.0000030212403,2|8,1:2|0:2,0:2:0:0:
294,305,168995,1,2,3:2:0:0:
294,305,169074,1,0,3:2:0:0:
294,305,169153,1,0,1:2:0:0:
394,382,169311,1,0,1:2:0:0:
316,198,169469,1,8,0:2:0:0:
189,361,169627,1,0,2:2:0:0:
25,192,169785,6,0,P|53:298|70:387,1,198.000006042481,6|8,1:2|0:2,0:2:0:0:
249,268,170258,2,0,P|205:256|152:231,1,99.0000030212403,2|0,0:2|1:2,0:2:0:0:
347,79,170574,2,0,P|307:98|251:112,1,99.0000030212403,2|8,1:2|0:2,0:2:0:0:
512,278,170890,6,0,P|469:220|373:218,1,148.50000453186,6|0,1:2|0:2,0:2:0:0:
344,279,171206,2,0,P|349:323|366:382,1,99.0000030212403,2|8,1:2|0:2,0:2:0:0:
179,196,171522,1,2,3:2:0:0:
179,196,171600,1,0,3:2:0:0:
179,196,171679,2,0,P|130:176|76:166,1,99.0000030212403,0|0,1:2|1:2,0:2:0:0:
217,293,171995,2,0,P|265:239|272:143,1,148.50000453186,10|0,0:0|0:0,0:0:0:0:
240,95,172311,6,0,P|191:75|137:65,1,99.0000030212403,6|0,1:2|0:2,0:2:0:0:
347,255,172627,2,0,P|410:260|470:178,1,148.50000453186,10|0,0:2|2:2,0:2:0:0:
475,183,172943,1,2,1:2:0:0:
358,75,173100,1,0,1:2:0:0:
508,27,173258,1,8,0:2:0:0:
377,177,173416,6,0,B|315:152|315:152|251:169|251:169|166:137,1,198.000006042481,6|0,1:2|1:2,2:2:0:0:
1,258,173890,2,0,P|44:254|101:226,1,99.0000030212403,10|0,0:2|0:2,0:2:0:0:
306,375,174206,2,0,P|263:352|214:344,1,99.0000030212403,2|0,1:2|1:2,0:2:0:0:
426,129,174522,2,0,B|412:156|412:156|412:185|412:185|370:208|365:267,1,148.50000453186,10|0,0:2|0:2,0:2:0:0:
388,337,174837,6,0,B|421:355|421:355|480:325|447:254,1,148.50000453186,6|0,1:2|0:2,0:2:0:0:
363,178,175153,5,8,0:2:0:0:
219,231,175311,1,0,1:2:0:0:
291,286,175469,5,8,0:2:0:0:
98,192,175627,1,0,1:2:0:0:
206,131,175785,5,8,0:2:0:0:
15,247,175943,2,0,B|-3:340|84:363|84:363|129:344,1,198.000006042481,6|0,1:2|1:2,0:2:0:0:
289,191,176416,6,0,P|265:202|224:213,1,49.5000015106202,10|0,1:2|1:2,0:2:0:0:
336,382,176574,2,0,P|312:371|271:360,1,49.5000015106202,0|0,1:2|1:2,0:2:0:0:
429,268,176732,5,8,2:3:0:0:
471,243,176811,1,8,2:3:0:0:
500,205,176890,1,4,2:3:0:0:
512,156,176969,1,4,2:3:0:0:
503,108,177048,1,8,2:2:0:0:
474,68,177127,1,8,2:2:0:0:
432,43,177206,1,8,2:2:0:0:
383,38,177285,1,8,2:2:0:0:
336,52,177364,6,0,P|316:134|301:259,1,198.000006042481,6|8,1:2|0:2,0:2:0:0:
18,191,177837,2,0,P|68:182|118:169,1,99.0000030212403,2|0,0:2|1:2,0:2:0:0:
221,384,178153,2,0,P|201:331|179:286,1,99.0000030212403,2|8,1:2|0:2,0:2:0:0:
402,90,178469,6,0,B|384:117|384:117|381:149|381:149|345:168|331:217,1,148.50000453186,14|0,0:2|0:2,0:2:0:0:
347,295,178785,2,0,P|393:318|442:335,1,99.0000030212403,2|8,1:2|0:2,0:2:0:0:
506,107,179100,1,2,3:2:0:0:
506,107,179179,1,0,3:2:0:0:
506,107,179258,1,0,1:2:0:0:
297,92,179416,1,0,1:2:0:0:
456,210,179574,1,8,0:2:0:0:
405,11,179732,1,0,0:2:0:0:
197,116,179890,6,0,B|156:176|170:243|170:243|200:275|214:323,1,198.000006042481,6|8,1:2|0:2,0:2:0:0:
20,362,180364,2,0,P|68:353|113:325,1,99.0000030212403,2|0,0:2|1:2,0:2:0:0:
267,189,180679,1,2,1:2:0:0:
93,101,180837,1,8,0:2:0:0:
204,297,180995,6,0,B|259:289|259:289|290:307|290:307|378:295,1,148.50000453186,6|0,1:2|0:2,0:2:0:0:
415,352,181311,2,0,P|457:353|515:331,1,99.0000030212403,2|8,1:2|0:2,0:2:0:0:
302,117,181627,1,2,3:2:0:0:
302,117,181706,1,0,3:2:0:0:
302,117,181785,2,0,P|281:166|278:218,1,99.0000030212403,0|0,1:2|1:2,0:2:0:0:
492,229,182100,2,0,P|445:212|385:194,1,99.0000030212403,10|0,0:2|0:2,0:2:0:0:
124,59,182416,5,6,1:2:0:0:
71,277,182574,1,0,1:2:0:0:
215,37,182732,5,8,0:2:0:0:
33,197,182890,1,0,1:2:0:0:
306,56,183048,5,8,0:2:0:0:
51,110,183206,1,0,1:2:0:0:
355,127,183364,5,8,2:2:0:0:
94,37,183522,1,0,1:2:0:0:
94,37,183600,1,0,1:2:0:0:
94,37,183679,2,0,P|108:90|150:129,1,99.0000030212403,12|0,0:2|1:2,0:2:0:0:
406,199,183995,5,10,2:2:0:0:
96,346,184153,1,0,1:2:0:0:
411,330,184311,5,10,2:2:0:0:
90,218,184469,1,0,1:2:0:0:
244,377,184627,5,10,0:2:0:0:
268,343,184706,1,8,0:2:0:0:
281,305,184785,1,8,0:3:0:0:
278,265,184864,1,8,0:3:0:0:
261,228,184943,5,6,1:2:0:0:
76,189,185100,1,0,1:2:0:0:
257,88,185258,1,8,0:2:0:0:
133,1,185416,1,8,0:2:0:0:
331,155,185574,5,8,0:3:0:0:
378,145,185652,1,8,0:3:0:0:
412,110,185731,1,4,0:3:0:0:
417,61,185810,1,4,0:3:0:0:
392,19,185890,2,0,P|357:5|337:4,1,49.5000015106202,8|0,0:2|0:2,0:2:0:0:
210,191,186048,6,0,B|177:180|177:180|152:187|152:187|109:154|56:168,1,148.50000453186,6|0,1:2|0:2,0:2:0:0:
0,202,186364,1,10,0:2:0:0:
278,376,186522,1,10,0:2:0:0:
217,18,186679,1,10,0:2:0:0:
509,201,186995,5,0,1:2:0:0:
509,201,187074,1,0,1:2:0:0:
509,201,187153,2,0,P|471:186|433:177,1,67.5000025749208,10|0,0:2|0:2,0:1:0:0:
267,352,187469,6,0,B|333:340|333:340|369:302|369:302|429:292,1,180,6|8,1:2|0:2,0:2:0:0:
309,120,187943,1,2,0:2:0:0:
278,261,188100,1,0,1:2:0:0:
401,204,188258,1,0,0:2:0:0:
301,98,188416,2,0,B|277:89|277:89|249:96|249:96|217:73|174:69,1,135,10|0,0:2|0:2,0:2:0:0:
66,105,188732,6,0,P|28:175|38:291,1,180,2|8,1:2|0:2,0:2:0:0:
216,354,189206,2,0,B|251:332|305:343|305:343|342:379|392:369,1,180,2|0,0:2|0:2,0:2:0:0:
482,298,189679,1,10,0:2:0:0:
308,207,189837,1,0,0:2:0:0:
440,130,189995,6,0,B|432:164|432:164|403:186|403:186|406:240|372:288,1,180,6|8,1:2|0:2,0:2:0:0:
200,105,190469,1,2,3:2:0:0:
200,105,190548,1,0,3:2:0:0:
200,105,190627,2,0,P|211:61|228:20,1,90,0|0,1:2|0:2,0:2:0:0:
50,204,190943,2,0,P|31:162|18:119,1,90,8|0,0:2|0:2,0:2:0:0:
231,240,191258,6,0,B|193:230|193:230|133:258|160:320,1,135,2|0,1:2|0:2,0:2:0:0:
203,371,191574,2,0,P|248:367|290:350,1,90,8|0,0:2|0:2,0:2:0:0:
433,205,191890,1,2,1:2:0:0:
340,154,192048,1,0,1:2:0:0:
455,307,192206,1,8,0:2:0:0:
446,99,192364,1,0,1:2:0:0:
273,246,192522,6,0,P|314:261|359:265,1,90,6|0,1:2|0:2,0:2:0:0:
295,66,192837,2,0,B|255:53|255:53|215:63|215:63|176:35|123:35,1,180,8|0,2:2|1:2,2:2:0:0:
193,195,193311,1,0,1:2:0:0:
24,170,193469,2,0,B|78:159|78:159|99:132|99:132|159:121,1,135,10|0,0:2|0:2,0:2:0:0:
219,189,193785,6,0,P|230:232|237:280,1,90,2|0,1:2|0:2,0:2:0:0:
44,297,194100,2,0,P|32:340|26:388,1,90,10|0,0:2|0:2,0:2:0:0:
372,315,194416,2,0,P|365:270|354:227,1,90,2|0,1:2|0:2,0:2:0:0:
83,152,194732,2,0,P|89:107|100:64,1,90,10|0,0:2|0:2,0:2:0:0:
473,95,195048,6,0,B|411:80|411:80|385:35|385:35|309:14,1,180,6|8,1:2|0:2,0:2:0:0:
176,275,195522,2,0,P|260:286|323:217,1,180,2|0,0:2|0:2,0:2:0:0:
95,125,195995,1,10,0:2:0:0:
230,198,196153,1,0,0:2:0:0:
219,74,196311,5,6,1:2:0:0:
36,233,196469,1,8,0:2:0:0:
276,290,196627,1,8,0:2:0:0:
95,125,196785,1,8,0:2:0:0:
198,369,196943,1,8,0:2:0:0:
370,208,197100,5,8,0:2:0:0:
393,169,197178,1,8,0:2:0:0:
400,125,197257,1,8,0:3:0:0:
389,82,197336,1,8,0:3:0:0:
363,46,197416,2,0,P|324:33|299:32,1,45,4|0,0:3|0:2,0:2:0:0:
193,80,197574,6,0,B|178:96|171:122|198:154|257:156|305:120|291:54|258:22|258:22|329:63|319:175|260:251|226:187|175:224|125:360|214:430|299:404|332:387|343:320|315:300|287:292,1,774.000011810303,6|0,1:2|0:2,0:2:0:0:
