osu file format v14

[General]
AudioFilename: audio.ogg
AudioLeadIn: 0
PreviewTime: 9024
Countdown: 0
SampleSet: None
StackLeniency: 0.7
Mode: 0
LetterboxInBreaks: 0
WidescreenStoryboard: 1

[Editor]
Bookmarks: 9104,14210,19317,29530,39742,49955,55062,57615,61445,71657,84423,89530,94636,104849,107402,112508,117615,120008,123998
DistanceSpacing: 0.9
BeatDivisor: 4
GridSize: 4
TimelineZoom: 2.1

[Metadata]
Title:Kiss me! Choose me!
TitleUnicode:Kiss me! Choose me!
Artist:Sakura Miko, Houshou Marine, AZKi
ArtistUnicode:さくらみこ、宝鐘マリン、AZKi
Creator:tomatas95
Version:iyasine's Extra
Source:アイキス2
Tags:eroge Ai Kiss 2 giga アイキス2 新入生はお好きですか? アイキス2/ゼロ Zero Ai Kiss 2 Shinnyuusei wa Osuki Desu ka? 戏画社 visual novel galgame buckfro cutefro iyasine Loneight l1106188 L18 frey vn opening op video game Hololive vtuber virtual youtuber virtual singer v-tuber japanese j-pop jpop pop
BeatmapID:4547546
BeatmapSetID:2105253

[Difficulty]
HPDrainRate:5
CircleSize:4
OverallDifficulty:8
ApproachRate:9.3
SliderMultiplier:1.8
SliderTickRate:1

[Events]
//Background and Video events
0,0,"towakocutest.jpg",0,0
Video,0,"recheckmymaptomachan.mp4"
//Break Periods
2,84623,88656
//Storyboard Layer 0 (Background)
//Storyboard Layer 1 (Fail)
//Storyboard Layer 2 (Pass)
//Storyboard Layer 3 (Foreground)
//Storyboard Layer 4 (Overlay)
//Storyboard Sound Samples

[TimingPoints]
7828,319.148936170213,4,2,1,60,1,0
9104,-100,4,2,1,60,0,0
10062,-100,4,2,2,60,0,0
10221,-100,4,2,1,60,0,0
11338,-100,4,2,2,60,0,0
11498,-100,4,2,1,60,0,0
11897,-100,4,2,2,60,0,0
12136,-100,4,2,1,60,0,0
12216,-100,4,2,2,60,0,0
12455,-100,4,2,1,60,0,0
12535,-100,4,2,2,60,0,0
12774,-100,4,2,1,60,0,0
12854,-100,4,2,2,60,0,0
13093,-100,4,2,1,60,0,0
13173,-100,4,2,2,60,0,0
13413,-100,4,2,1,60,0,0
14051,-100,4,2,3,60,0,0
14210,-100,4,2,4,55,0,0
16764,-100,4,2,1,65,0,0
18040,-100,4,2,6,65,0,0
18359,-100,4,2,1,65,0,0
18519,-100,4,2,2,65,0,0
18679,-100,4,2,7,65,0,0
19317,-100,4,2,6,75,0,1
19556,-100,4,2,1,75,0,1
19796,-100,4,2,6,75,0,1
19875,-100,4,2,1,75,0,1
20115,-100,4,2,6,75,0,1
20354,-100,4,2,1,75,0,1
20434,-100,4,2,6,75,0,1
20514,-100,4,2,1,75,0,1
20593,-100,4,2,6,75,0,1
20833,-100,4,2,1,75,0,1
21072,-100,4,2,6,75,0,1
21790,-100,4,2,1,75,0,1
21870,-100,4,2,6,75,0,1
22429,-100,4,2,1,75,0,1
22508,-100,4,2,6,75,0,1
23067,-100,4,2,1,75,0,1
23147,-100,4,2,6,75,0,1
24343,-100,4,2,1,75,0,1
24583,-100,4,2,2,75,0,1
24902,-100,4,2,3,75,0,1
25221,-100,4,2,6,75,0,1
25301,-100,4,2,1,75,0,1
25540,-100,4,2,4,75,0,1
25700,-100,4,2,5,75,0,1
25859,-100,4,2,6,75,0,1
26179,-100,4,2,13,75,0,1
26338,-100,4,2,1,75,0,1
26498,-100,4,2,6,75,0,1
26657,-100,4,2,1,75,0,1
26817,-100,4,2,4,75,0,1
27296,-100,4,2,6,75,0,1
27535,-100,4,2,1,75,0,1
28093,-100,4,2,6,75,0,1
28173,-100,4,2,1,75,0,1
28413,-100,4,2,6,75,0,1
28492,-100,4,2,1,75,0,1
28732,-100,4,2,6,75,0,1
28891,-100,4,2,1,75,0,1
29210,-100,4,2,6,75,0,1
29290,-100,4,2,5,75,0,1
29370,-100,4,2,8,75,0,1
29450,-100,4,2,7,75,0,1
29530,-133.333333333333,4,2,6,60,0,0
29689,-133.333333333333,4,2,1,60,0,0
34636,-133.333333333333,4,2,1,60,0,0
39423,-100,4,2,2,60,0,0
39583,-100,4,2,3,70,0,0
39742,-100,4,2,1,70,0,0
39902,-100,4,2,2,70,0,0
40939,-100,4,2,1,70,0,0
41019,-100,4,2,2,70,0,0
42056,-100,4,2,1,70,0,0
42136,-100,4,2,2,70,0,0
42216,-100,4,2,1,70,0,0
42296,-100,4,2,2,70,0,0
42854,-100,4,2,1,70,0,0
42934,-100,4,2,2,70,0,0
43492,-100,4,2,1,70,0,0
43572,-100,4,2,2,70,0,0
44609,-100,4,2,1,70,0,0
44689,-100,4,2,2,70,0,0
44769,-100,4,2,1,70,0,0
45008,-100,4,2,2,70,0,0
46684,-100,4,2,1,70,0,0
46764,-100,4,2,2,70,0,0
47322,-100,4,2,1,70,0,0
47402,-100,4,2,4,70,0,0
47562,-100,4,2,2,70,0,0
47960,-100,4,2,1,70,0,0
48200,-100,4,2,2,70,0,0
48519,-100,4,2,1,70,0,0
49317,-100,4,2,5,70,0,0
49636,-100,4,2,2,70,0,0
49955,-133.333333333333,4,2,7,60,0,0
50274,-133.333333333333,4,2,2,60,0,0
50381,-133.333333333333,4,2,5,60,0,0
50487,-133.333333333333,4,2,1,60,0,0
50913,-133.333333333333,4,2,12,60,0,0
51019,-133.333333333333,4,2,15,60,0,0
51125,-133.333333333333,4,2,11,60,0,0
51551,-133.333333333333,4,2,2,60,0,0
51657,-133.333333333333,4,2,5,60,0,0
51764,-133.333333333333,4,2,1,60,0,0
52189,-133.333333333333,4,2,12,60,0,0
52296,-133.333333333333,4,2,15,60,0,0
52402,-133.333333333333,4,2,11,60,0,0
52828,-133.333333333333,4,2,2,60,0,0
52934,-133.333333333333,4,2,5,60,0,0
53040,-133.333333333333,4,2,1,60,0,0
53466,-133.333333333333,4,2,12,60,0,0
53572,-133.333333333333,4,2,15,60,0,0
53679,-133.333333333333,4,2,11,60,0,0
54742,-133.333333333333,4,2,4,60,0,0
54982,-133.333333333333,4,2,4,5,0,0
55062,-100,4,2,1,70,0,0
55221,-100,4,2,2,70,0,0
55301,-100,4,2,1,70,0,0
55381,-100,4,2,2,70,0,0
56019,-100,4,2,1,70,0,0
56179,-100,4,2,2,70,0,0
56258,-100,4,2,1,70,0,0
56338,-100,4,2,2,70,0,0
56578,-100,4,2,1,70,0,0
56657,-100,4,2,2,70,0,0
57535,-100,4,2,1,70,0,0
57615,-100,4,2,2,75,0,0
59530,-100,4,2,2,75,0,0
60088,-100,4,2,2,75,0,0
60168,-200,4,2,4,75,0,0
60726,-333.333333333333,4,2,4,5,0,0
60806,-100,4,2,7,75,0,0
61445,-100,4,2,6,75,0,1
61684,-100,4,2,1,75,0,1
61923,-100,4,2,6,75,0,1
62641,-100,4,2,1,75,0,1
62721,-100,4,2,6,75,0,1
62960,-100,4,2,1,75,0,1
63200,-100,4,2,6,75,0,1
63918,-100,4,2,1,75,0,1
63998,-100,4,2,6,75,0,1
65195,-100,4,2,1,75,0,1
65274,-100,4,2,6,75,0,1
65833,-100,4,2,1,75,0,1
65913,-100,4,2,6,75,0,1
66471,-100,4,2,1,75,0,1
66551,-100,4,2,6,75,0,1
66790,-100,4,2,1,75,0,1
67030,-100,4,2,6,75,0,1
67429,-100,4,2,1,75,0,1
67668,-100,4,2,6,75,0,1
68705,-100,4,2,1,75,0,1
68785,-100,4,2,6,75,0,1
69104,-100,4,2,1,75,0,1
69264,-100,4,2,6,75,0,1
69663,-100,4,2,1,75,0,1
69742,-100,4,2,4,75,0,1
69902,-100,4,2,6,75,0,1
70301,-100,4,2,1,75,0,1
70381,-100,4,2,6,75,0,1
70620,-100,4,2,1,75,0,1
70700,-100,4,2,6,75,0,1
71019,-100,4,2,5,75,0,1
71179,-100,4,2,1,75,0,1
71338,-100,4,2,6,75,0,0
71418,-100,4,2,5,75,0,0
71498,-100,4,2,8,75,0,0
71578,-100,4,2,7,75,0,0
71657,-100,4,2,6,75,0,1
71897,-100,4,2,1,75,0,1
72136,-100,4,2,6,75,0,1
72854,-100,4,2,1,75,0,1
72934,-100,4,2,6,75,0,1
73173,-100,4,2,1,75,0,1
73413,-100,4,2,6,75,0,1
74131,-100,4,2,1,75,0,1
74210,-100,4,2,6,75,0,1
75407,-100,4,2,1,75,0,1
75487,-100,4,2,6,75,0,1
76046,-100,4,2,1,75,0,1
76125,-100,4,2,6,75,0,1
76684,-100,4,2,1,75,0,1
76923,-100,4,2,2,75,0,1
77243,-100,4,2,3,75,0,1
77482,-100,4,2,1,75,0,1
77881,-100,4,2,4,75,0,1
78040,-100,4,2,5,75,0,1
78200,-100,4,2,6,75,0,1
78519,-100,4,2,13,75,0,1
78838,-100,4,2,6,75,0,1
78998,-100,4,2,1,75,0,1
79476,-100,4,2,6,75,0,1
79716,-100,4,2,1,75,0,1
79796,-100,4,2,6,75,0,1
80514,-100,4,2,1,75,0,1
80593,-100,4,2,6,75,0,1
81790,-100,4,2,1,75,0,1
81870,-100,4,2,22,75,0,1
83306,-100,4,2,1,70,0,0
83466,-100,4,2,1,60,0,0
83945,-100,4,2,1,60,0,0
84104,-100,4,2,1,60,0,0
84423,-100,4,2,1,60,0,0
89210,-133.333333333333,4,2,1,60,0,0
89450,-133.333333333333,4,2,1,5,0,0
89530,-133.333333333333,4,2,8,60,0,0
89689,-133.333333333333,4,2,1,60,0,0
92402,-133.333333333333,4,2,2,65,0,0
92562,-133.333333333333,4,2,1,65,0,0
92721,-100,4,2,6,65,0,0
92881,-100,4,2,1,65,0,0
93040,-100,4,2,7,65,0,0
93200,-100,4,2,1,65,0,0
94636,-100,4,2,6,75,0,1
94875,-100,4,2,1,75,0,1
94955,-100,4,2,6,75,0,1
95195,-100,4,2,1,75,0,1
95434,-100,4,2,6,75,0,1
95833,-100,4,2,1,75,0,1
95913,-100,4,2,6,75,0,1
96152,-100,4,2,1,75,0,1
96391,-100,4,2,6,75,0,1
97109,-100,4,2,1,75,0,1
97189,-100,4,2,6,75,0,1
98386,-100,4,2,1,75,0,1
98466,-100,4,2,6,75,0,1
99024,-100,4,2,1,75,0,1
99104,-100,4,2,6,75,0,1
99663,-100,4,2,1,75,0,1
99902,-100,4,2,2,75,0,1
100221,-100,4,2,3,75,0,1
100460,-100,4,2,1,75,0,1
100859,-100,4,2,4,75,0,1
101019,-100,4,2,5,75,0,1
101179,-100,4,2,6,75,0,1
101498,-100,4,2,13,75,0,1
101976,-100,4,2,1,75,0,1
102296,-100,4,2,6,75,0,1
102695,-100,4,2,1,75,0,1
102774,-100,4,2,6,75,0,1
103492,-100,4,2,1,75,0,1
103572,-100,4,2,6,75,0,1
104769,-100,4,2,1,75,0,1
104849,-100,4,2,1,70,0,0
105487,-200,4,2,1,60,0,0
106125,-100,4,2,1,20,0,0
106923,-100,4,2,1,60,0,0
107322,-100,4,2,1,60,0,0
107402,-133.333333333333,4,2,7,60,0,0
107562,-133.333333333333,4,2,1,60,0,0
112030,-100,4,2,1,60,0,0
112189,-100,4,2,8,60,0,0
112429,-100,4,2,8,5,0,0
112508,-100,4,2,1,70,0,0
112828,-100,4,2,13,70,0,0
116019,-100,4,2,2,70,0,0
116179,-100,4,2,4,70,0,0
116418,-100,4,2,8,5,0,0
116498,-100,4,2,2,70,0,0
117136,-100,4,2,3,70,0,0
117296,-100,4,2,5,70,0,0
117455,-100,4,2,9,70,0,0
117615,-100,4,2,2,75,0,0
119210,-100,4,2,4,75,0,0
119689,-100,4,2,2,75,0,0
120008,-100,4,2,7,70,0,0
120328,-100,4,2,2,70,0,0
120487,-100,4,2,5,70,0,0
120647,-100,4,2,1,70,0,0
120966,-100,4,2,2,70,0,0
121285,-100,4,2,6,70,0,0
121445,-100,4,2,2,70,0,0
121923,-100,4,2,4,70,0,0
122242,-100,4,2,1,70,0,0
122402,-100,4,2,2,70,0,0
122562,-100,4,2,9,70,0,0
122721,-100,4,2,3,70,0,0
123040,-83.3333333333333,4,2,9,70,0,0
123359,-83.3333333333333,4,2,6,70,0,0
123519,-90.9090909090909,4,2,1,65,0,0
123679,-90.9090909090909,4,2,9,60,0,0
123838,-90.9090909090909,4,2,4,55,0,0
123998,-100,4,2,1,50,0,0

[Colours]
Combo1 : 249,164,189
Combo2 : 245,221,135
Combo3 : 231,169,243
Combo4 : 145,214,236

[HitObjects]
427,93,9104,5,4,3:2:0:0:
422,189,9264,2,0,P|417:237|403:283,1,90,2|8,0:2|0:2,0:0:0:0:
214,252,9583,1,10,0:2:0:0:
307,198,9742,2,0,L|278:95,1,90,2|2,3:2|3:2,0:0:0:0:
112,305,10062,2,0,P|165:326|217:333,1,90,10|2,0:2|3:2,0:0:0:0:
387,352,10381,5,0,0:0:0:0:
293,286,10540,2,0,P|304:236|306:191,1,90,2|10,3:2|0:2,0:0:0:0:
195,85,10859,1,10,0:2:0:0:
213,195,11019,1,0,3:0:0:0:
372,105,11179,1,2,3:2:0:0:
456,157,11338,2,0,L|478:245,1,90,10|2,0:2|0:2,0:0:0:0:
292,286,11657,5,2,3:2:0:0:
386,342,11817,2,0,L|402:277,1,45,8|8,0:2|0:2,0:0:0:0:
329,187,11976,2,0,P|283:199|241:208,1,90,2|8,3:2|0:2,0:0:0:0:
90,321,12216,1,8,0:2:0:0:
125,307,12296,2,0,P|139:247|147:203,1,90,2|10,3:2|0:2,0:0:0:0:
2,80,12535,1,8,0:2:0:0:
13,114,12615,2,0,L|34:204,1,90,2|10,3:2|0:2,0:0:0:0:
44,236,12854,5,8,0:2:0:0:
74,208,12934,1,0,3:0:0:0:
112,194,13014,1,8,0:2:0:0:
152,190,13093,1,10,0:2:0:0:
190,203,13173,1,8,0:2:0:0:
222,227,13253,1,2,3:2:0:0:
255,250,13333,1,0,0:0:0:0:
293,261,13413,1,8,0:2:0:0:
333,255,13492,1,8,0:2:0:0:
369,237,13572,6,0,L|381:187,1,45,2|0,3:2|0:0,0:0:0:0:
471,80,13732,2,0,L|423:114,1,45,0|8,3:0|0:2,0:0:0:0:
198,65,13891,2,0,L|332:114,1,135,2|8,3:2|0:2,0:0:0:0:
355,120,14210,5,6,3:2:0:0:
39,263,14530,2,0,P|2:182|29:96,1,180,2|0,0:2|3:0,0:0:0:0:
136,59,15009,2,0,L|161:152,1,90,2|8,3:2|0:2,0:0:0:0:
198,303,15328,1,0,3:0:0:0:
431,247,15487,2,0,P|379:239|328:225,1,90,2|0,0:2|3:0,0:0:0:0:
248,202,15807,1,8,0:2:0:0:
453,72,15966,2,0,P|468:122|471:164,1,90,2|0,0:2|3:0,0:0:0:0:
361,16,16285,1,0,3:0:0:0:
161,145,16445,2,0,P|146:94|142:53,1,90,10|0,0:2|0:0,0:0:0:0:
251,67,16684,5,0,0:0:0:0:
251,67,16764,2,0,L|243:126,1,45,6|0,3:2|0:0,0:0:0:0:
324,186,16924,2,0,L|370:172,1,45,10|8,0:2|0:2,0:0:0:0:
278,287,17083,2,0,L|235:301,1,45,8|0,0:2|0:0,0:0:0:0:
127,380,17243,2,0,P|155:374|177:369,1,45,8|0,0:2|0:0,0:0:0:0:
151,203,17402,5,2,3:2:0:0:
112,189,17482,1,0,0:0:0:0:
71,189,17562,1,10,0:2:0:0:
34,206,17642,1,8,0:2:0:0:
10,238,17722,2,0,P|5:259|-1:284,1,45,8|8,3:2|0:2,0:0:0:0:
77,93,17881,2,0,P|98:85|119:77,1,45,8|8,0:2|0:2,0:0:0:0:
382,215,18041,5,10,3:2:0:0:
352,243,18121,1,8,0:2:0:0:
313,254,18201,1,8,0:2:0:0:
273,252,18281,1,8,0:2:0:0:
236,237,18360,2,0,L|224:192,1,45,8|0,3:3|0:0,0:0:0:0:
186,26,18519,2,0,L|199:82,1,45,8|0,3:3|0:0,0:0:0:0:
125,281,18679,6,0,P|112:206|161:157,1,135,2|0,3:2|0:0,0:0:0:0:
229,136,18998,2,0,P|257:126|289:113,1,45,10|0,0:2|0:0,0:0:0:0:
360,194,19158,2,0,P|365:166|368:138,1,45
500,114,19317,6,0,P|464:81|421:42,1,90,6|8,3:2|0:2,0:0:0:0:
307,305,19636,2,0,P|359:296|396:281,1,90,2|8,3:2|0:2,0:0:0:0:
203,248,19956,1,2,3:2:0:0:
281,133,20115,1,10,0:2:0:0:
112,270,20275,2,0,P|69:287|24:297,1,90,2|8,3:2|0:2,0:0:0:0:
223,335,20594,2,0,P|211:271|193:229,1,90,2|8,3:2|0:2,0:0:0:0:
106,59,20913,2,0,P|118:122|135:166,1,90,2|8,3:2|0:2,0:0:0:0:
141,171,21152,5,0,0:0:0:0:
141,171,21232,1,2,3:2:0:0:
23,134,21392,1,10,0:2:0:0:
206,56,21551,2,0,P|261:46|297:37,1,90,2|8,3:2|0:2,0:0:0:0:
160,306,21870,6,0,P|112:303|63:293,1,90,2|8,3:2|0:2,0:0:0:0:
294,38,22190,2,0,P|305:91|309:134,1,90,0|10,3:0|0:2,0:0:0:0:
242,259,22509,1,2,3:2:0:0:
367,318,22668,1,10,0:2:0:0:
460,153,22828,2,0,L|471:201,2,45,2|0|8,3:2|0:0|0:2,0:0:0:0:
161,213,23147,6,0,P|227:218|289:187,1,135,2|0,3:2|0:0,0:0:0:0:
97,295,23466,2,0,P|77:217|50:145,1,135,2|0,3:2|0:0,0:0:0:0:
18,37,23785,2,0,P|31:96|58:165,1,135,2|0,3:2|0:0,0:0:0:0:
0,309,24105,2,0,P|13:277|20:251,1,45,2|0,3:2|0:0,0:0:0:0:
190,161,24264,2,0,P|166:168|127:179,1,45,8|8,0:2|0:2,0:0:0:0:
58,165,24424,5,10,3:2:0:0:
261,88,24583,1,10,3:2:0:0:
166,44,24743,1,2,0:2:0:0:
392,226,24902,2,0,P|419:150|389:52,1,180,4|8,3:3|0:2,0:0:0:0:
392,57,25381,6,0,P|371:65|342:75,1,45,2|8,3:2|0:2,0:0:0:0:
244,187,25541,2,0,P|263:194|293:204,1,45,10|0,3:2|0:0,0:0:0:0:
451,144,25700,1,8,3:2:0:0:
451,144,25860,1,8,3:2:0:0:
271,305,26019,1,0,3:0:0:0:
370,334,26179,2,0,P|386:280|390:239,1,90,4|8,3:3|0:2,0:0:0:0:
388,216,26418,5,8,0:2:0:0:
388,216,26498,1,8,3:2:0:0:
167,168,26658,1,2,3:2:0:0:
154,206,26737,1,8,0:2:0:0:
140,245,26817,1,0,3:3:0:0:
58,178,26977,5,2,3:2:0:0:
245,237,27136,1,2,3:2:0:0:
58,178,27296,2,0,P|77:113|100:34,1,135,10|8,0:2|0:2,0:0:0:0:
103,21,27615,1,4,3:2:0:0:
291,141,27775,2,0,P|244:130|205:117,1,90,2|8,3:2|0:2,0:0:0:0:
14,259,28094,5,10,0:2:0:0:
23,288,28174,1,8,0:2:0:0:
33,317,28253,2,0,P|82:297|122:274,1,90,0|10,3:0|0:2,0:0:0:0:
355,299,28573,2,0,P|383:258|406:202,1,90,2|8,3:2|0:2,0:0:0:0:
114,191,28892,2,0,P|89:196|60:202,1,45,2|8,3:2|0:2,0:0:0:0:
206,288,29051,2,0,P|235:281|263:273,1,45,8|8,0:2|0:2,0:0:0:0:
362,159,29211,1,8,3:3:0:0:
374,130,29291,1,8,3:3:0:0:
380,99,29370,1,8,3:3:0:0:
375,67,29450,1,8,3:3:0:0:
357,40,29530,6,0,P|323:35|286:30,1,67.5000025749208,4|2,3:2|0:2,0:0:0:0:
75,66,29849,2,0,P|60:98|54:152,1,67.5000025749208,2|2,3:2|0:2,0:0:0:0:
233,203,30168,2,0,P|248:171|254:117,1,67.5000025749208,2|2,3:2|0:2,0:0:0:0:
166,140,30487,1,2,3:2:0:0:
41,224,30647,2,0,L|55:297,1,67.5000025749208,2|0,0:2|3:0,0:0:0:0:
139,327,30966,1,2,0:2:0:0:
158,233,31126,1,2,3:2:0:0:
299,303,31285,2,0,P|259:295|222:286,1,67.5000025749208,2|0,0:2|3:0,0:0:0:0:
374,192,31605,2,0,P|408:198|447:204,1,67.5000025749208,2|0,0:2|3:0,0:0:0:0:
301,35,31924,2,0,P|295:76|288:113,1,67.5000025749208,2|0,0:2|3:0,0:0:0:0:
212,159,32243,5,2,0:2:0:0:
187,64,32402,1,2,3:2:0:0:
53,196,32562,2,0,P|108:186|134:177,1,67.5000025749208,2|0,0:2|3:0,0:0:0:0:
289,112,32881,1,2,0:2:0:0:
251,303,33041,2,0,P|239:266|228:237,1,67.5000025749208,2|2,3:2|0:2,0:0:0:0:
141,193,33360,1,2,3:2:0:0:
349,227,33519,2,0,P|390:238|439:248,1,67.5000025749208,2|2,0:2|3:2,0:0:0:0:
477,175,33839,1,2,0:2:0:0:
348,327,33998,1,0,3:0:0:0:
348,327,34158,2,0,P|313:318|262:301,1,67.5000025749208,2|0,0:2|3:0,0:0:0:0:
176,268,34477,1,2,0:2:0:0:
363,154,34636,6,0,P|358:189|349:223,1,67.5000025749208,4|2,3:2|0:2,0:0:0:0:
197,96,34956,2,0,P|201:60|210:25,1,67.5000025749208,2|2,3:2|0:2,0:0:0:0:
108,43,35275,1,2,3:2:0:0:
291,73,35434,2,0,P|287:104|274:153,1,67.5000025749208,2|2,0:2|3:2,0:0:0:0:
241,301,35753,2,0,P|245:270|258:221,1,67.5000025749208,2|0,0:2|3:0,0:0:0:0:
346,214,36073,1,2,0:2:0:0:
136,247,36232,1,2,3:2:0:0:
105,161,36392,2,0,P|93:133|79:93,1,67.5000025749208,2|0,0:2|3:0,0:0:0:0:
284,88,36711,2,0,P|296:50|302:22,1,67.5000025749208,2|0,0:2|3:0,0:0:0:0:
273,260,37030,2,0,P|276:293|284:330,1,67.5000025749208,2|0,0:2|3:0,0:0:0:0:
364,373,37349,5,2,0:2:0:0:
186,305,37509,2,0,P|177:268|173:219,1,67.5000025749208,2|0,3:2|0:0,0:0:0:0:
105,173,37828,1,2,3:2:0:0:
44,256,37987,1,2,0:2:0:0:
130,165,38147,5,2,3:2:0:0:
28,103,38307,1,2,0:2:0:0:
231,147,38466,6,0,P|263:139|296:130,1,67.5000025749208,2|2,3:2|0:2,0:0:0:0:
367,347,38785,2,0,P|325:341|287:331,1,67.5000025749208,2|2,3:2|0:2,0:0:0:0:
451,274,39105,1,10,3:2:0:0:
293,238,39264,6,0,L|275:250,2,22.5000008583069,8|0|0,0:2|0:0|0:0,0:0:0:0:
357,194,39424,2,0,P|373:122|386:49,1,135,8|8,3:2|0:2,0:0:0:0:
389,30,39743,5,6,3:2:0:0:
470,108,39902,1,10,0:2:0:0:
181,83,40062,1,2,3:2:0:0:
284,60,40222,2,0,P|280:104|263:146,1,90,10|0,0:2|3:0,0:0:0:0:
161,194,40541,1,10,0:2:0:0:
242,347,40700,1,2,3:2:0:0:
438,241,40859,6,0,P|357:260|286:263,1,135,10|0,0:2|0:0,0:0:0:0:
272,262,41179,1,10,0:0:0:0:
161,194,41339,2,0,P|140:142|129:101,1,90,2|8,3:2|0:2,0:0:0:0:
68,28,41658,1,2,3:2:0:0:
233,78,41817,1,10,0:2:0:0:
130,109,41977,1,2,3:2:0:0:
296,198,42136,2,0,P|345:187|389:162,1,90,10|0,0:2|3:0,0:0:0:0:
442,105,42456,1,10,0:2:0:0:
232,259,42615,2,0,P|205:292|184:349,1,90,2|8,3:2|0:2,0:0:0:0:
102,358,42934,5,0,3:0:0:0:
77,243,43094,1,10,0:2:0:0:
273,345,43253,2,0,L|327:367,2,45,2|0|10,3:2|0:0|0:2,0:0:0:0:
375,209,43573,2,0,L|406:310,1,90,2|10,3:2|0:2,0:0:0:0:
401,295,43812,1,0,0:0:0:0:
401,295,43892,1,2,3:2:0:0:
463,144,44051,1,10,0:2:0:0:
463,144,44370,1,10,0:2:0:0:
306,274,44530,2,0,L|262:287,2,45,2|8|10,3:2|0:2|0:2,0:0:0:0:
67,180,44849,6,0,P|120:167|158:154,1,90,6|10,3:2|0:2,0:0:0:0:
317,83,45168,1,2,3:2:0:0:
360,207,45328,1,10,0:2:0:0:
153,155,45487,2,0,P|164:110|173:67,1,90,2|10,3:2|0:2,0:0:0:0:
68,90,45806,1,2,3:2:0:0:
249,144,45966,1,10,0:2:0:0:
249,144,46046,1,0,0:0:0:0:
249,144,46125,1,0,3:0:0:0:
305,338,46285,5,10,0:2:0:0:
462,306,46445,2,0,P|399:263|329:253,1,135,2|8,3:2|0:2,0:0:0:0:
250,272,46764,2,0,P|203:289|156:301,1,90,2|10,3:2|0:2,0:0:0:0:
18,229,47083,1,2,3:2:0:0:
118,83,47242,2,0,P|135:130|144:170,1,90,10|4,0:2|3:2,0:0:0:0:
25,52,47562,1,2,3:2:0:0:
144,201,47721,5,10,0:2:0:0:
140,236,47801,1,0,0:0:0:0:
136,271,47881,1,0,3:0:0:0:
132,306,47960,1,0,3:0:0:0:
126,341,48040,1,4,3:2:0:0:
25,310,48200,1,2,3:2:0:0:
237,264,48359,2,0,L|262:359,1,90,10|8,0:2|0:2,0:0:0:0:
319,207,48679,5,2,3:2:0:0:
147,164,48838,1,10,0:2:0:0:
119,67,48998,1,2,3:2:0:0:
37,269,49157,1,10,0:2:0:0:
218,223,49317,5,2,3:2:0:0:
236,187,49397,1,8,0:2:0:0:
239,147,49476,1,8,0:2:0:0:
229,107,49556,1,8,0:2:0:0:
207,72,49636,2,0,P|202:51|196:23,1,45,8|8,3:3|3:3,0:0:0:0:
195,256,49796,2,0,P|202:282|206:299,1,45,8|8,3:3|3:3,0:0:0:0:
325,340,49955,6,0,P|378:317|404:284,1,90.0000034332277,6|0,3:2|0:0,0:0:0:0:
405,206,50274,2,0,L|390:146,2,45.0000017166138,10|8|8,1:2|1:2|1:2,0:0:0:0:
456,75,50593,2,0,P|475:134|480:168,1,90.0000034332277,2|0,3:2|0:0,0:0:0:0:
415,243,50913,5,10,3:2:0:0:
342,290,51019,1,8,3:2:0:0:
389,363,51125,1,10,3:2:0:0:
389,363,51232,1,2,3:2:0:0:
126,178,51551,5,10,1:2:0:0:
45,201,51657,2,0,P|24:209|1:216,1,45.0000017166138,8|8,1:2|1:2,0:0:0:0:
165,99,51870,1,0,3:0:0:0:
247,114,51976,2,0,L|268:72,1,45.0000017166138
376,27,52189,1,10,3:2:0:0:
460,10,52296,2,0,L|481:63,1,45.0000017166138,8|8,3:2|3:2,0:0:0:0:
352,224,52508,6,0,P|397:240|440:253,1,90.0000034332277,2|0,3:2|0:0,0:0:0:0:
502,187,52828,2,0,P|507:165|513:140,2,45.0000017166138,10|8|8,1:2|1:2|1:2,0:0:0:0:
454,259,53147,1,2,3:2:0:0:
69,234,53466,1,10,3:2:0:0:
147,213,53572,1,8,3:2:0:0:
225,233,53679,1,8,3:2:0:0:
275,300,53785,5,2,3:2:0:0:
303,305,54104,1,2,3:2:0:0:
334,310,54423,1,0,3:0:0:0:
364,317,54742,2,0,P|385:253|377:197,1,101.250003862381,8|0,3:3|0:0,0:0:0:0:
381,193,55062,6,0,P|374:151|366:97,1,90,4|10,3:2|0:2,0:0:0:0:
137,225,55381,2,0,P|144:267|152:321,1,90,2|10,3:2|0:2,0:0:0:0:
43,202,55700,1,2,3:2:0:0:
198,124,55859,1,10,0:2:0:0:
38,231,56019,2,0,L|28:279,2,45,2|8|8,3:2|0:2|0:2,0:0:0:0:
229,325,56338,6,0,P|168:329|113:309,1,90,0|10,3:0|0:2,0:0:0:0:
296,145,56657,2,0,P|315:205|316:243,1,90,2|10,3:2|0:2,0:0:0:0:
382,310,56976,1,2,3:2:0:0:
463,243,57136,1,10,0:2:0:0:
228,222,57296,2,0,L|181:235,2,45,2|0|8,3:2|0:0|0:2,0:0:0:0:
380,139,57615,5,6,3:2:0:0:
380,139,57774,2,0,L|385:91,1,45
270,291,57934,1,12,3:2:0:0:
270,291,58093,2,0,L|227:326,1,45,2|0,3:2|0:0,0:0:0:0:
139,314,58253,2,0,P|110:278|84:239,1,90,14|0,3:2|3:0,0:0:0:0:
33,172,58492,1,0,3:0:0:0:
49,153,58572,1,12,3:2:0:0:
201,146,58732,1,2,3:2:0:0:
206,119,58812,1,0,3:0:0:0:
210,92,58891,5,14,3:2:0:0:
322,7,59051,1,10,0:2:0:0:
367,141,59210,1,14,3:2:0:0:
491,40,59370,1,10,0:2:0:0:
365,252,59530,2,0,B|300:296|205:326|212:201|122:217|65:265,1,315,14|8,3:2|3:2,0:0:0:0:
47,275,60168,6,0,P|42:217|-4:130,1,157.5,8|0,3:3|0:0,0:0:0:0:
2,115,60806,6,0,P|9:89|16:63,1,45,2|2,0:2|0:2,0:0:0:0:
135,140,60966,2,0,P|118:154|101:169,1,45,2|2,3:2|0:2,0:0:0:0:
139,275,61125,2,0,P|164:283|184:288,1,45,10|2,3:2|0:2,0:0:0:0:
348,321,61285,1,2,0:2:0:0:
348,321,61365,1,2,0:2:0:0:
348,321,61445,6,0,P|401:331|442:335,1,90,6|8,3:2|0:2,0:0:0:0:
289,177,61764,2,0,P|238:170|195:163,1,90,2|8,3:2|0:2,0:0:0:0:
19,236,62083,1,2,3:2:0:0:
180,161,62242,1,10,0:2:0:0:
63,64,62402,2,0,P|72:107|81:152,1,90,2|8,3:2|0:2,0:0:0:0:
321,204,62721,2,0,P|308:158|297:107,1,90,2|8,3:2|0:2,0:0:0:0:
104,326,63040,2,0,P|149:318|193:309,1,90,2|8,3:2|0:2,0:0:0:0:
221,303,63280,5,0,0:0:0:0:
221,303,63359,1,2,3:2:0:0:
324,348,63519,1,10,0:2:0:0:
458,213,63679,2,0,P|451:245|437:301,1,90,2|8,3:2|0:2,0:0:0:0:
197,133,63998,6,0,P|207:176|220:219,1,90,2|8,3:2|0:2,0:0:0:0:
350,323,64317,2,0,P|400:312|451:294,1,90,0|10,3:0|0:2,0:0:0:0:
462,121,64636,1,2,3:2:0:0:
308,193,64796,1,10,0:2:0:0:
440,283,64955,2,0,L|456:332,2,45,2|0|8,3:2|0:0|0:2,0:0:0:0:
177,353,65274,6,0,P|192:288|255:246,1,135,2|0,3:2|0:0,0:0:0:0:
396,355,65593,2,0,P|319:357|259:318,1,135,2|8,3:2|0:2,0:0:0:0:
273,160,65913,2,0,P|324:218|332:280,1,135,2|0,3:2|0:0,0:0:0:0:
256,312,66232,2,0,L|241:258,1,45,2|0,3:2|0:0,0:0:0:0:
46,246,66391,2,0,L|25:289,1,45,8|8,0:2|0:2,0:0:0:0:
134,339,66551,6,0,P|147:286|156:237,1,90,6|8,3:2|0:2,0:0:0:0:
188,110,66870,1,2,3:2:0:0:
74,70,67030,1,8,0:2:0:0:
216,104,67189,2,0,P|267:92|309:80,1,90,2|8,3:2|0:2,0:0:0:0:
449,278,67508,1,2,3:2:0:0:
414,298,67588,1,8,0:2:0:0:
374,306,67668,1,10,0:2:0:0:
333,300,67748,1,0,0:0:0:0:
295,284,67828,6,0,P|248:275|194:257,1,90,2|8,3:2|0:2,0:0:0:0:
0,304,68147,2,0,P|50:317|96:330,1,90,2|8,3:2|0:2,0:0:0:0:
256,190,68466,1,2,3:2:0:0:
154,166,68625,1,8,0:2:0:0:
335,126,68785,2,0,L|350:74,1,45,2|0,3:2|0:0,0:0:0:0:
472,99,68945,2,0,L|428:109,1,45,10|0,0:2|0:0,0:0:0:0:
378,4,69104,5,6,3:2:0:0:
426,194,69264,2,0,L|437:237,1,45,0|0,3:0|0:0,0:0:0:0:
270,350,69423,2,0,P|271:301|326:235,1,135,10|8,0:2|0:2,0:0:0:0:
347,226,69742,1,6,3:2:0:0:
49,272,69902,2,0,P|83:264|99:258,1,45,0|0,3:0|0:0,0:0:0:0:
217,182,70062,2,0,P|195:109|148:66,1,135,10|8,0:2|0:2,0:0:0:0:
129,59,70381,5,2,3:2:0:0:
106,181,70540,1,10,0:2:0:0:
12,128,70700,1,2,3:2:0:0:
246,78,70859,1,10,0:2:0:0:
204,347,71019,5,10,3:2:0:0:
173,320,71099,1,10,0:2:0:0:
158,282,71179,1,10,3:2:0:0:
164,242,71258,1,10,0:2:0:0:
188,209,71338,1,8,3:3:0:0:
225,192,71418,1,8,3:3:0:0:
248,159,71498,1,8,3:3:0:0:
258,119,71578,1,8,3:3:0:0:
246,78,71657,6,0,P|232:30|220:-12,1,90,6|8,3:2|0:2,0:0:0:0:
256,282,71976,2,0,P|296:303|342:322,1,90,2|8,3:2|0:2,0:0:0:0:
471,202,72296,1,2,3:2:0:0:
355,230,72455,1,10,0:2:0:0:
485,180,72615,2,0,P|475:124|463:75,1,90,2|8,3:2|0:2,0:0:0:0:
176,104,72934,2,0,P|184:61|192:10,1,90,2|8,3:2|0:2,0:0:0:0:
372,141,73253,2,0,P|366:184|354:229,1,90,2|8,3:2|0:2,0:0:0:0:
342,255,73492,5,0,0:0:0:0:
342,255,73572,1,2,3:2:0:0:
246,200,73732,1,10,0:2:0:0:
334,352,73891,2,0,P|383:346|419:325,1,90,2|8,3:2|0:2,0:0:0:0:
197,124,74210,6,0,P|222:170|253:207,1,90,2|8,3:2|0:2,0:0:0:0:
413,127,74530,2,0,P|434:87|446:33,1,90,0|10,3:0|0:2,0:0:0:0:
349,51,74849,1,2,3:2:0:0:
512,120,75008,1,10,0:2:0:0:
315,58,75168,2,0,L|264:67,2,45,2|0|8,3:2|0:0|0:2,0:0:0:0:
438,322,75487,6,0,P|394:286|311:280,1,135,2|0,3:2|0:0,0:0:0:0:
143,203,75806,2,0,P|215:205|280:186,1,135,2|8,3:2|0:2,0:0:0:0:
483,131,76125,2,0,P|423:134|346:160,1,135,2|0,3:2|0:0,0:0:0:0:
290,97,76445,2,0,L|275:45,1,45,2|0,3:2|0:0,0:0:0:0:
159,97,76604,2,0,P|191:89|210:83,1,45,8|8,0:2|0:2,0:0:0:0:
376,16,76764,5,10,3:2:0:0:
352,156,76923,1,10,3:2:0:0:
447,224,77083,1,2,0:2:0:0:
186,310,77242,2,0,P|270:326|356:272,1,180,4|8,3:3|0:2,0:0:0:0:
348,281,77721,2,0,L|361:230,1,45,2|8,3:2|0:2,0:0:0:0:
333,65,77881,2,0,L|345:116,1,45,0|0,3:3|0:0,0:0:0:0:
441,132,78040,5,10,3:2:0:0:
442,132,78200,1,10,3:2:0:0:
268,193,78359,1,2,0:2:0:0:
441,321,78519,2,0,P|425:265|409:222,1,90,4|0,3:3|0:0,0:0:0:0:
405,209,78758,5,2,0:2:0:0:
405,209,78838,1,10,0:2:0:0:
152,85,78998,1,10,0:2:0:0:
182,93,79078,1,8,0:2:0:0:
211,101,79157,2,0,P|239:108|266:116,1,45,10|8,0:2|0:2,0:0:0:0:
386,50,79317,6,0,P|332:40|281:29,1,90,6|10,3:2|0:2,0:0:0:0:
115,185,79636,1,2,3:2:0:0:
115,185,79796,2,0,P|70:194|25:200,1,90,10|0,0:2|3:0,0:0:0:0:
234,346,80115,2,0,P|278:339|322:332,1,90,10|0,0:2|3:0,0:0:0:0:
464,223,80434,1,10,0:2:0:0:
436,238,80514,1,8,0:2:0:0:
408,252,80593,2,0,L|378:119,1,135,2|0,3:2|0:0,0:0:0:0:
373,89,80913,5,2,3:2:0:0:
276,109,81072,1,10,0:2:0:0:
466,130,81232,2,0,P|473:78|477:38,1,90,0|10,3:0|0:2,0:0:0:0:
300,227,81551,2,0,P|289:273|281:328,1,90,0|10,3:0|0:2,0:0:0:0:
413,356,81870,5,12,3:2:0:0:
413,356,82030,2,0,L|391:288,1,45,2|0,0:2|0:0,0:0:0:0:
154,265,82189,1,14,3:2:0:0:
154,265,82349,2,0,L|168:309,1,45,0|0,3:0|0:0,0:0:0:0:
443,209,82508,1,12,3:2:0:0:
443,209,82668,2,0,L|427:158,1,45,0|0,3:0|0:0,0:0:0:0:
392,46,82828,5,12,3:2:0:0:
258,164,82987,1,0,3:0:0:0:
258,164,83067,1,0,0:0:0:0:
258,164,83147,1,12,3:2:0:0:
487,101,83306,1,2,3:2:0:0:
487,101,83945,5,0,3:0:0:0:
362,221,84104,2,0,L|351:326,2,90,8|0|6,0:2|0:0|3:2,0:0:0:0:
69,295,89210,6,0,P|123:305|156:277,1,101.250003862381
171,253,89530,6,0,P|219:245|261:232,1,67.5000025749208,4|2,3:2|0:2,0:0:0:0:
42,209,89849,2,0,P|28:173|19:139,1,67.5000025749208,2|2,3:2|0:2,0:0:0:0:
270,81,90168,2,0,P|264:120|255:159,1,67.5000025749208,0|2,3:0|0:2,0:0:0:0:
155,318,90487,2,0,P|164:279|171:252,1,67.5000025749208,2|2,3:2|0:2,0:0:0:0:
349,164,90806,5,0,3:0:0:0:
349,164,90966,1,2,0:2:0:0:
429,227,91125,1,2,3:2:0:0:
429,227,91285,1,2,0:2:0:0:
234,286,91445,1,0,3:0:0:0:
234,286,91604,1,2,0:2:0:0:
256,197,91764,1,2,3:2:0:0:
256,197,91923,1,2,0:2:0:0:
377,68,92083,6,0,L|287:87,1,67.5000025749208,0|0,3:0|0:2,0:0:0:0:
143,110,92322,1,8,0:2:0:0:
136,141,92402,2,0,P|129:171|116:211,1,67.5000025749208,10|8,3:2|0:2,0:0:0:0:
308,341,92641,5,8,0:2:0:0:
343,349,92721,2,0,P|362:296|373:258,1,90,10|8,3:2|0:2,0:0:0:0:
470,172,92960,1,8,0:2:0:0:
470,172,93040,2,0,P|462:201|455:222,1,45,10|0,3:2|0:0,0:0:0:0:
260,261,93200,2,0,P|271:228|279:208,1,45,8|8,0:2|0:2,0:0:0:0:
84,111,94476,5,8,0:2:0:0:
84,111,94556,1,8,0:2:0:0:
84,111,94636,2,0,P|136:103|179:94,1,90,6|8,3:2|0:2,0:0:0:0:
441,202,94955,2,0,P|399:161|372:143,1,90,2|8,3:2|0:2,0:0:0:0:
182,200,95274,1,2,3:2:0:0:
266,297,95434,1,10,0:2:0:0:
87,219,95593,2,0,P|40:230|0:238,1,90,2|8,3:2|0:2,0:0:0:0:
146,362,95913,2,0,P|163:323|178:275,1,90,2|8,3:2|0:2,0:0:0:0:
329,82,96232,2,0,P|312:121|297:169,1,90,2|8,3:2|0:2,0:0:0:0:
295,196,96471,5,0,0:0:0:0:
295,196,96551,1,2,3:2:0:0:
334,331,96710,1,10,0:2:0:0:
145,295,96870,2,0,P|195:279|243:261,1,90,2|8,3:2|0:2,0:0:0:0:
419,302,97189,6,0,P|368:317|321:336,1,90,2|8,3:2|0:2,0:0:0:0:
62,223,97508,2,0,P|41:177|31:125,1,90,0|10,3:0|0:2,0:0:0:0:
136,140,97828,1,2,3:2:0:0:
109,324,97987,1,10,0:2:0:0:
25,118,98147,2,0,L|-34:100,2,45,2|0|8,3:2|0:0|0:2,0:0:0:0:
234,219,98466,6,0,P|307:221|366:174,1,135,2|0,3:2|0:0,0:0:0:0:
419,303,98785,2,0,P|392:229|349:181,1,135,2|8,3:2|0:2,0:0:0:0:
93,252,99104,2,0,P|128:187|191:146,1,135,2|0,3:2|0:0,0:0:0:0:
244,96,99423,2,0,L|263:38,1,45,2|0,3:2|0:0,0:0:0:0:
277,236,99583,2,0,L|312:282,1,45,8|8,0:2|0:2,0:0:0:0:
426,126,99742,5,2,3:2:0:0:
331,151,99902,1,2,3:2:0:0:
501,53,100062,1,2,0:2:0:0:
372,264,100221,2,0,P|291:328|211:309,1,180,4|8,3:3|0:2,0:0:0:0:
221,315,100700,2,0,L|196:267,1,45,2|8,3:2|0:2,0:0:0:0:
66,218,100859,2,0,L|88:263,1,45,0|0,3:3|0:0,0:0:0:0:
221,137,101019,5,10,3:2:0:0:
221,137,101179,1,10,3:2:0:0:
92,57,101338,1,2,0:2:0:0:
315,116,101498,2,0,P|329:72|334:28,1,90,4|0,3:3|1:0,0:0:0:0:
336,0,101737,5,0,1:0:0:0:
336,0,101817,1,0,3:0:0:0:
212,225,101976,1,2,3:2:0:0:
206,251,102056,1,8,0:2:0:0:
199,276,102136,2,0,P|193:304|188:328,1,45,10|8,0:2|0:2,0:0:0:0:
25,327,102296,6,0,P|78:323|113:291,1,90,6|10,3:2|0:2,0:0:0:0:
164,81,102615,1,2,3:2:0:0:
49,113,102774,2,0,P|36:166|23:212,1,90,10|0,0:2|3:0,0:0:0:0:
275,343,103093,2,0,P|288:290|301:244,1,90,10|0,0:2|3:0,0:0:0:0:
452,77,103413,1,10,0:2:0:0:
452,77,103492,1,8,0:2:0:0:
452,77,103572,2,0,P|486:146|491:208,1,135,2|0,3:2|0:0,0:0:0:0:
488,234,103891,5,2,3:2:0:0:
311,121,104051,1,10,0:2:0:0:
232,241,104210,2,0,P|290:230|336:215,1,90,0|10,3:0|0:2,0:0:0:0:
216,45,104530,2,0,P|165:58|128:64,1,90,0|10,3:0|0:2,0:0:0:0:
25,208,104849,6,0,P|91:222|142:185,1,135,4|0,3:2|0:0,0:0:0:0:
79,148,105168,2,0,L|97:260,1,90
304,374,105487,6,0,P|361:299|333:254,1,157.5
255,252,106125,6,0,L|262:285,1,22.5,2|0,0:0|0:0,0:0:0:0:
259,286,106923,1,2,3:2:0:0:
114,256,107083,2,0,P|84:189|118:134,1,135,8|0,0:2|0:0,0:0:0:0:
172,83,107402,6,0,P|208:93|246:104,1,67.5000025749208,4|0,3:2|0:0,0:0:0:0:
356,244,107721,2,0,P|392:236|428:227,1,67.5000025749208,0|0,3:0|0:0,0:0:0:0:
306,335,108040,2,0,P|277:344|227:355,1,67.5000025749208,0|0,3:0|0:0,0:0:0:0:
402,153,108359,2,0,P|439:142|470:132,1,67.5000025749208,0|0,3:0|0:0,0:0:0:0:
266,104,108679,5,0,3:0:0:0:
398,62,108838,1,0,0:0:0:0:
266,104,108998,2,0,L|237:32,1,67.5000025749208,0|0,3:0|0:0,0:0:0:0:
107,185,109317,1,0,3:0:0:0:
237,225,109476,1,0,0:0:0:0:
107,185,109636,2,0,L|81:261,1,67.5000025749208,0|0,3:0|0:0,0:0:0:0:
47,332,109955,5,0,3:0:0:0:
47,332,110115,1,0,0:0:0:0:
221,352,110274,1,0,3:0:0:0:
221,352,110434,1,0,0:0:0:0:
133,378,110593,1,0,3:0:0:0:
133,378,110753,1,0,0:0:0:0:
255,271,110913,1,0,3:0:0:0:
255,271,111072,1,0,0:0:0:0:
238,177,111232,6,0,P|227:135|219:100,1,67.5000025749208,0|0,3:0|0:0,0:0:0:0:
428,133,111551,2,0,P|436:94|444:48,1,67.5000025749208,0|0,3:0|0:0,0:0:0:0:
372,0,111870,1,0,3:0:0:0:
341,197,112030,2,0,L|371:187,2,22.5,8|0|8,0:2|0:0|0:2,0:0:0:0:
261,197,112189,2,0,P|192:195|125:178,1,135,8|0,3:2|0:0,0:0:0:0:
86,109,112508,6,0,P|41:123|-4:134,1,90,4|0,3:2|0:0,0:0:0:0:
283,106,112828,2,0,P|267:59|247:20,1,90,10|0,3:2|0:0,0:0:0:0:
112,282,113147,2,0,P|155:301|207:315,1,90,2|2,3:2|0:2,0:0:0:0:
394,239,113466,1,10,3:2:0:0:
181,185,113625,2,0,P|140:183|18:244,1,180,2|0,0:2|0:0,0:0:0:0:
218,190,114104,1,8,3:2:0:0:
87,152,114264,2,0,P|74:102|66:63,1,90,2|0,0:2|3:0,0:0:0:0:
245,283,114583,2,0,P|256:328|266:370,1,90,2|10,0:2|3:2,0:0:0:0:
316,217,114902,1,2,0:2:0:0:
149,300,115062,6,0,P|106:311|60:320,1,90,0|0,3:0|0:0,0:0:0:0:
345,350,115381,2,0,P|389:341|434:330,1,90,10|0,3:2|0:0,0:0:0:0:
484,258,115700,1,2,3:2:0:0:
333,147,115859,1,0,0:0:0:0:
363,241,116019,1,10,3:2:0:0:
452,109,116179,2,0,P|387:113|316:93,1,135,6|0,3:2|0:0,0:0:0:0:
244,69,116498,6,0,L|233:117,2,45,8|0|0,0:2|0:0|3:0,0:0:0:0:
90,287,116817,2,0,L|116:190,1,90,2|0,0:2|3:0,0:0:0:0:
120,173,117056,1,0,0:0:0:0:
120,173,117136,1,8,3:3:0:0:
323,221,117296,1,8,3:3:0:0:
178,288,117455,1,8,3:3:0:0:
282,319,117615,6,0,L|326:330,1,45,14|0,3:2|0:0,0:0:0:0:
141,86,117934,2,0,L|194:99,1,45,14|0,3:2|0:0,0:0:0:0:
405,293,118253,1,14,3:2:0:0:
352,148,118413,1,2,3:2:0:0:
490,261,118572,6,0,L|470:211,1,45,14|8,3:2|0:2,0:0:0:0:
418,37,118732,2,0,L|435:86,1,45,8|8,0:2|0:2,0:0:0:0:
512,130,118891,1,6,3:2:0:0:
2,242,119210,1,12,3:3:0:0:
2,242,119689,5,2,0:2:0:0:
134,185,119849,1,10,0:2:0:0:
156,326,120008,2,0,P|221:330|280:260,1,135,6|0,3:2|0:0,0:0:0:0:
349,258,120328,2,0,L|333:194,1,45,10|0,0:2|0:0,0:0:0:0:
299,82,120487,2,0,L|313:134,1,45,8|0,3:3|0:0,0:0:0:0:
512,197,120647,6,0,P|468:158|394:152,1,135,6|0,3:2|0:0,0:0:0:0:
310,174,120966,2,0,P|288:179|265:187,1,45,10|0,0:2|0:0,0:0:0:0:
156,276,121125,2,0,L|210:262,1,45,8|0,3:3|0:0,0:0:0:0:
209,88,121285,2,0,P|166:99|73:119,1,135,6|8,3:2|0:2,0:0:0:0:
8,243,121604,1,10,0:2:0:0:
47,234,121684,1,8,0:2:0:0:
88,238,121764,1,10,0:2:0:0:
125,253,121843,1,8,0:2:0:0:
156,276,121923,6,0,P|222:290|298:279,1,135,6|0,3:2|0:0,0:0:0:0:
383,353,122242,2,0,P|364:359|340:365,1,45,8|8,3:3|3:3,0:0:0:0:
452,211,122402,2,0,P|470:257|485:302,2,90,8|8|8,3:3|3:3|3:3,0:0:0:0:
0,134,123040,2,0,P|107:136|213:96,1,215.999993408203,6|8,3:2|0:2,0:0:0:0:
277,62,123439,5,10,0:2:0:0:
277,62,123519,2,0,L|301:117,1,49.5000015106202,10|10,0:2|0:2,0:0:0:0:
361,253,123679,2,0,L|373:190,1,49.5000015106202,8|8,3:3|3:3,0:0:0:0:
509,96,123838,2,0,L|454:117,1,49.5000015106202,8|8,3:3|3:3,0:0:0:0:
245,181,123998,5,6,3:2:0:0:
