osu file format v14

[General]
AudioFilename: audio.ogg
AudioLeadIn: 0
PreviewTime: 9024
Countdown: 0
SampleSet: None
StackLeniency: 0.7
Mode: 0
LetterboxInBreaks: 0
WidescreenStoryboard: 0

[Editor]
Bookmarks: 9104,14210,19317,29530,39742,49955,55062,57615,61445,71657,84423,89530,94636,104849,107402,112508,117615,120008,123998
DistanceSpacing: 0.9
BeatDivisor: 4
GridSize: 32
TimelineZoom: 1

[Metadata]
Title:Kiss me! Choose me!
TitleUnicode:Kiss me! Choose me!
Artist:Sakura Miko, Houshou Marine, AZKi
ArtistUnicode:さくらみこ、宝鐘マリン、AZKi
Creator:tomatas95
Version:Normal
Source:アイキス2
Tags:eroge Ai Kiss 2 giga アイキス2 新入生はお好きですか? アイキス2/ゼロ Zero Ai Kiss 2 Shinnyuusei wa Osuki Desu ka? 戏画社 visual novel galgame buckfro cutefro iyasine Loneight l1106188 L18 frey vn opening op video game Hololive vtuber virtual youtuber virtual singer v-tuber japanese j-pop jpop pop
BeatmapID:4547550
BeatmapSetID:2105253

[Difficulty]
HPDrainRate:2
CircleSize:3
OverallDifficulty:4
ApproachRate:5.5
SliderMultiplier:1.1
SliderTickRate:1

[Events]
//Background and Video events
0,0,"majusenpai.jpg",0,0
Video,0,"recheckmymaptomachan.mp4"
//Break Periods
2,84623,88330
//Storyboard Layer 0 (Background)
//Storyboard Layer 1 (Fail)
//Storyboard Layer 2 (Pass)
//Storyboard Layer 3 (Foreground)
//Storyboard Layer 4 (Overlay)
//Storyboard Sound Samples

[TimingPoints]
7828,319.148936170213,4,2,1,60,1,0
9104,-111.111111111111,4,2,1,60,0,0
10062,-111.111111111111,4,2,2,60,0,0
10221,-111.111111111111,4,2,1,60,0,0
11338,-111.111111111111,4,2,2,60,0,0
11498,-111.111111111111,4,2,1,60,0,0
11897,-111.111111111111,4,2,2,60,0,0
12136,-111.111111111111,4,2,1,60,0,0
12216,-111.111111111111,4,2,2,60,0,0
12455,-111.111111111111,4,2,1,60,0,0
12535,-111.111111111111,4,2,2,60,0,0
12774,-111.111111111111,4,2,1,60,0,0
12854,-111.111111111111,4,2,2,60,0,0
13093,-111.111111111111,4,2,1,60,0,0
13173,-111.111111111111,4,2,2,60,0,0
13413,-111.111111111111,4,2,1,60,0,0
14051,-111.111111111111,4,2,3,60,0,0
14210,-111.111111111111,4,2,4,55,0,0
16764,-111.111111111111,4,2,1,65,0,0
18040,-111.111111111111,4,2,6,65,0,0
18359,-111.111111111111,4,2,1,65,0,0
18519,-111.111111111111,4,2,2,65,0,0
18679,-111.111111111111,4,2,7,65,0,0
19317,-90.9090909090909,4,2,6,75,0,1
19556,-90.9090909090909,4,2,1,75,0,1
19796,-90.9090909090909,4,2,6,75,0,1
19875,-90.9090909090909,4,2,1,75,0,1
20115,-90.9090909090909,4,2,6,75,0,1
20354,-90.9090909090909,4,2,1,75,0,1
20434,-90.9090909090909,4,2,6,75,0,1
20514,-90.9090909090909,4,2,1,75,0,1
20593,-90.9090909090909,4,2,6,75,0,1
20833,-90.9090909090909,4,2,1,75,0,1
21072,-90.9090909090909,4,2,6,75,0,1
21790,-90.9090909090909,4,2,1,75,0,1
21870,-90.9090909090909,4,2,6,75,0,1
22429,-90.9090909090909,4,2,1,75,0,1
22508,-90.9090909090909,4,2,6,75,0,1
23067,-90.9090909090909,4,2,1,75,0,1
23147,-90.9090909090909,4,2,6,75,0,1
24343,-90.9090909090909,4,2,1,75,0,1
24583,-90.9090909090909,4,2,2,75,0,1
24902,-90.9090909090909,4,2,3,75,0,1
25221,-90.9090909090909,4,2,6,75,0,1
25301,-90.9090909090909,4,2,1,75,0,1
25540,-90.9090909090909,4,2,4,75,0,1
25700,-90.9090909090909,4,2,5,75,0,1
25859,-90.9090909090909,4,2,6,75,0,1
26179,-90.9090909090909,4,2,13,75,0,1
26338,-90.9090909090909,4,2,1,75,0,1
26498,-90.9090909090909,4,2,6,75,0,1
26657,-90.9090909090909,4,2,1,75,0,1
26817,-90.9090909090909,4,2,4,75,0,1
27296,-90.9090909090909,4,2,6,75,0,1
27535,-90.9090909090909,4,2,1,75,0,1
28093,-90.9090909090909,4,2,6,75,0,1
28173,-90.9090909090909,4,2,1,75,0,1
28413,-90.9090909090909,4,2,6,75,0,1
28492,-90.9090909090909,4,2,1,75,0,1
28732,-90.9090909090909,4,2,6,75,0,1
28891,-90.9090909090909,4,2,1,75,0,1
29210,-90.9090909090909,4,2,6,75,0,1
29290,-90.9090909090909,4,2,5,75,0,1
29370,-90.9090909090909,4,2,8,75,0,1
29450,-90.9090909090909,4,2,7,75,0,1
29530,-111.111111111111,4,2,6,60,0,0
29689,-111.111111111111,4,2,1,60,0,0
39423,-111.111111111111,4,2,2,60,0,0
39583,-111.111111111111,4,2,3,70,0,0
39742,-100,4,2,1,70,0,0
39902,-100,4,2,2,70,0,0
40939,-100,4,2,1,70,0,0
41019,-100,4,2,2,70,0,0
42056,-100,4,2,1,70,0,0
42136,-100,4,2,2,70,0,0
42216,-100,4,2,1,70,0,0
42296,-100,4,2,2,70,0,0
42854,-100,4,2,1,70,0,0
42934,-100,4,2,2,70,0,0
43492,-100,4,2,1,70,0,0
43572,-100,4,2,2,70,0,0
44609,-100,4,2,1,70,0,0
44689,-100,4,2,2,70,0,0
44769,-100,4,2,1,70,0,0
45008,-100,4,2,2,70,0,0
46684,-100,4,2,1,70,0,0
46764,-100,4,2,2,70,0,0
47322,-100,4,2,1,70,0,0
47402,-100,4,2,4,70,0,0
47562,-100,4,2,2,70,0,0
47960,-100,4,2,1,70,0,0
48200,-100,4,2,2,70,0,0
48519,-100,4,2,1,70,0,0
49317,-100,4,2,5,70,0,0
49636,-100,4,2,2,70,0,0
49955,-111.111111111111,4,2,7,60,0,0
50274,-111.111111111111,4,2,2,60,0,0
50381,-111.111111111111,4,2,5,60,0,0
50487,-111.111111111111,4,2,1,60,0,0
50913,-111.111111111111,4,2,12,60,0,0
51019,-111.111111111111,4,2,15,60,0,0
51125,-111.111111111111,4,2,11,60,0,0
51551,-111.111111111111,4,2,2,60,0,0
51657,-111.111111111111,4,2,5,60,0,0
51764,-111.111111111111,4,2,1,60,0,0
52189,-111.111111111111,4,2,12,60,0,0
52296,-111.111111111111,4,2,15,60,0,0
52402,-111.111111111111,4,2,11,60,0,0
52828,-111.111111111111,4,2,2,60,0,0
52934,-111.111111111111,4,2,5,60,0,0
53040,-111.111111111111,4,2,1,60,0,0
53466,-111.111111111111,4,2,12,60,0,0
53572,-111.111111111111,4,2,15,60,0,0
53679,-111.111111111111,4,2,11,60,0,0
54742,-111.111111111111,4,2,4,60,0,0
55062,-100,4,2,1,70,0,0
55221,-100,4,2,2,70,0,0
55301,-100,4,2,1,70,0,0
55381,-100,4,2,2,70,0,0
56019,-100,4,2,1,70,0,0
56179,-100,4,2,2,70,0,0
56258,-100,4,2,1,70,0,0
56338,-100,4,2,2,70,0,0
56578,-100,4,2,1,70,0,0
56657,-100,4,2,2,70,0,0
57535,-100,4,2,1,70,0,0
57615,-100,4,2,2,75,0,0
59530,-100,4,2,2,75,0,0
60168,-100,4,2,4,75,0,0
60806,-100,4,2,7,75,0,0
61445,-90.9090909090909,4,2,6,75,0,1
61684,-90.9090909090909,4,2,1,75,0,1
61923,-90.9090909090909,4,2,6,75,0,1
62641,-90.9090909090909,4,2,1,75,0,1
62721,-90.9090909090909,4,2,6,75,0,1
62960,-90.9090909090909,4,2,1,75,0,1
63200,-90.9090909090909,4,2,6,75,0,1
63918,-90.9090909090909,4,2,1,75,0,1
63998,-90.9090909090909,4,2,6,75,0,1
65195,-90.9090909090909,4,2,1,75,0,1
65274,-90.9090909090909,4,2,6,75,0,1
65833,-90.9090909090909,4,2,1,75,0,1
65913,-90.9090909090909,4,2,6,75,0,1
66471,-90.9090909090909,4,2,1,75,0,1
66551,-90.9090909090909,4,2,6,75,0,1
66790,-90.9090909090909,4,2,1,75,0,1
67030,-90.9090909090909,4,2,6,75,0,1
67429,-90.9090909090909,4,2,1,75,0,1
67668,-90.9090909090909,4,2,6,75,0,1
68705,-90.9090909090909,4,2,1,75,0,1
68785,-90.9090909090909,4,2,6,75,0,1
69104,-90.9090909090909,4,2,1,75,0,1
69264,-90.9090909090909,4,2,6,75,0,1
69663,-90.9090909090909,4,2,1,75,0,1
69742,-90.9090909090909,4,2,4,75,0,1
69902,-90.9090909090909,4,2,6,75,0,1
70301,-90.9090909090909,4,2,1,75,0,1
70381,-90.9090909090909,4,2,6,75,0,1
70620,-90.9090909090909,4,2,1,75,0,1
70700,-90.9090909090909,4,2,6,75,0,1
71019,-90.9090909090909,4,2,5,75,0,1
71179,-90.9090909090909,4,2,1,75,0,1
71338,-90.9090909090909,4,2,6,75,0,0
71418,-90.9090909090909,4,2,5,75,0,0
71498,-90.9090909090909,4,2,8,75,0,0
71578,-90.9090909090909,4,2,7,75,0,0
71657,-90.9090909090909,4,2,6,75,0,1
71897,-90.9090909090909,4,2,1,75,0,1
72136,-90.9090909090909,4,2,6,75,0,1
72854,-90.9090909090909,4,2,1,75,0,1
72934,-90.9090909090909,4,2,6,75,0,1
73173,-90.9090909090909,4,2,1,75,0,1
73413,-90.9090909090909,4,2,6,75,0,1
74131,-90.9090909090909,4,2,1,75,0,1
74210,-90.9090909090909,4,2,6,75,0,1
75407,-90.9090909090909,4,2,1,75,0,1
75487,-90.9090909090909,4,2,6,75,0,1
76046,-90.9090909090909,4,2,1,75,0,1
76125,-90.9090909090909,4,2,6,75,0,1
76684,-90.9090909090909,4,2,1,75,0,1
76923,-90.9090909090909,4,2,2,75,0,1
77243,-90.9090909090909,4,2,3,75,0,1
77482,-90.9090909090909,4,2,1,75,0,1
77881,-90.9090909090909,4,2,4,75,0,1
78040,-90.9090909090909,4,2,5,75,0,1
78200,-90.9090909090909,4,2,6,75,0,1
78519,-90.9090909090909,4,2,13,75,0,1
78838,-90.9090909090909,4,2,6,75,0,1
78998,-90.9090909090909,4,2,1,75,0,1
79476,-90.9090909090909,4,2,6,75,0,1
79716,-90.9090909090909,4,2,1,75,0,1
79796,-90.9090909090909,4,2,6,75,0,1
80514,-90.9090909090909,4,2,1,75,0,1
80593,-90.9090909090909,4,2,6,75,0,1
81790,-90.9090909090909,4,2,1,75,0,1
81870,-90.9090909090909,4,2,22,75,0,1
83306,-100,4,2,1,70,0,0
83466,-100,4,2,1,60,0,0
83945,-111.111111111111,4,2,1,60,0,0
84423,-100,4,2,1,60,0,0
89530,-111.111111111111,4,2,8,60,0,0
89689,-111.111111111111,4,2,1,60,0,0
92402,-111.111111111111,4,2,2,65,0,0
92562,-111.111111111111,4,2,1,65,0,0
92721,-111.111111111111,4,2,6,65,0,0
92881,-111.111111111111,4,2,1,65,0,0
93040,-111.111111111111,4,2,7,65,0,0
93200,-111.111111111111,4,2,1,65,0,0
93359,-111.111111111111,4,2,1,30,0,0
94636,-90.9090909090909,4,2,6,75,0,1
94875,-90.9090909090909,4,2,1,75,0,1
94955,-90.9090909090909,4,2,6,75,0,1
95195,-90.9090909090909,4,2,1,75,0,1
95434,-90.9090909090909,4,2,6,75,0,1
95833,-90.9090909090909,4,2,1,75,0,1
95913,-90.9090909090909,4,2,6,75,0,1
96152,-90.9090909090909,4,2,1,75,0,1
96391,-90.9090909090909,4,2,6,75,0,1
97109,-90.9090909090909,4,2,1,75,0,1
97189,-90.9090909090909,4,2,6,75,0,1
98386,-90.9090909090909,4,2,1,75,0,1
98466,-90.9090909090909,4,2,6,75,0,1
99024,-90.9090909090909,4,2,1,75,0,1
99104,-90.9090909090909,4,2,6,75,0,1
99663,-90.9090909090909,4,2,1,75,0,1
99902,-90.9090909090909,4,2,2,75,0,1
100221,-90.9090909090909,4,2,3,75,0,1
100460,-90.9090909090909,4,2,1,75,0,1
100859,-90.9090909090909,4,2,4,75,0,1
101019,-90.9090909090909,4,2,5,75,0,1
101179,-90.9090909090909,4,2,6,75,0,1
101498,-90.9090909090909,4,2,13,75,0,1
101976,-90.9090909090909,4,2,1,75,0,1
102296,-90.9090909090909,4,2,6,75,0,1
102695,-90.9090909090909,4,2,1,75,0,1
102774,-90.9090909090909,4,2,6,75,0,1
103492,-90.9090909090909,4,2,1,75,0,1
103572,-90.9090909090909,4,2,6,75,0,1
104769,-90.9090909090909,4,2,1,75,0,1
104849,-111.111111111111,4,2,1,70,0,0
106125,-111.111111111111,4,2,1,20,0,0
106923,-111.111111111111,4,2,1,60,0,0
107402,-111.111111111111,4,2,7,60,0,0
107562,-111.111111111111,4,2,1,60,0,0
112189,-111.111111111111,4,2,8,60,0,0
112508,-100,4,2,1,70,0,0
112828,-100,4,2,13,70,0,0
116019,-100,4,2,2,70,0,0
116179,-100,4,2,4,70,0,0
116498,-100,4,2,2,70,0,0
117136,-100,4,2,3,70,0,0
117296,-100,4,2,5,70,0,0
117455,-100,4,2,9,70,0,0
117615,-100,4,2,2,75,0,0
119210,-100,4,2,4,75,0,0
119689,-100,4,2,2,75,0,0
120008,-100,4,2,7,70,0,0
120328,-100,4,2,2,70,0,0
120487,-100,4,2,5,70,0,0
120647,-100,4,2,1,70,0,0
120966,-100,4,2,2,70,0,0
121285,-100,4,2,6,70,0,0
121445,-100,4,2,2,70,0,0
121923,-100,4,2,4,70,0,0
122242,-100,4,2,1,70,0,0
122402,-100,4,2,2,70,0,0
122562,-100,4,2,9,70,0,0
122721,-100,4,2,3,70,0,0
123040,-100,4,2,9,70,0,0
123359,-100,4,2,6,70,0,0
123519,-100,4,2,1,65,0,0
123679,-100,4,2,9,60,0,0
123838,-100,4,2,4,55,0,0
123998,-100,4,2,1,50,0,0

[Colours]
Combo1 : 249,164,189
Combo2 : 245,221,135
Combo3 : 231,169,243
Combo4 : 145,214,236

[HitObjects]
3,44,9104,6,0,L|116:22,1,98.9999969787599,4|8,3:2|0:2,0:0:0:0:
93,113,9742,2,0,L|36:124,2,49.4999984893799,2|2|10,3:2|3:2|0:2,0:0:0:0:
131,134,10221,2,0,P|141:182|146:231,1,98.9999969787599,2|2,3:2|3:2,0:0:0:0:
163,318,10859,2,0,B|125:334|94:305|94:305|62:276|22:292,1,148.49999546814,10|10,0:2|0:2,0:0:0:0:
2,204,11657,5,2,3:2:0:0:
44,125,11976,1,2,3:2:0:0:
133,136,12296,2,0,P|186:127|234:117,1,98.9999969787599,2|2,3:2|3:2,0:0:0:0:
262,87,12774,2,0,P|342:103|422:116,1,148.49999546814,10|2,0:2|3:2,0:0:0:0:
487,155,13572,1,2,3:2:0:0:
424,217,13891,1,2,3:2:0:0:
489,276,14210,5,6,3:2:0:0:
433,346,14530,2,0,P|380:337|332:327,1,98.9999969787599,2|0,0:2|3:0,0:0:0:0:
297,304,15008,2,0,P|248:313|199:322,1,98.9999969787599,2|0,3:2|3:0,0:0:0:0:
158,338,15487,2,0,P|103:343|88:250,2,148.49999546814,2|2|10,0:2|0:2|0:2,0:0:0:0:
163,248,16764,6,0,P|156:204|187:150,1,98.9999969787599,6|8,3:2|0:2,0:0:0:0:
132,87,17402,1,2,3:2:0:0:
132,87,17562,2,0,P|97:115|35:115,1,98.9999969787599,10|8,0:2|0:2,0:0:0:0:
3,134,18040,2,0,P|14:174|27:242,1,98.9999969787599,10|8,3:2|3:3,0:0:0:0:
68,308,18679,1,2,3:2:0:0:
149,272,18998,2,0,P|174:280|215:292,1,49.4999984893799,10|0,0:2|0:0,0:0:0:0:
244,312,19317,6,0,P|295:308|323:247,1,121.000003692627,6|2,3:2|3:2,0:0:0:0:
415,308,19955,2,0,P|396:334|397:378,2,60.5000018463135,2|10|2,3:2|0:2|3:2,0:0:0:0:
471,215,20593,6,0,P|420:211|392:150,1,121.000003692627,2|2,3:2|3:2,0:0:0:0:
301,197,21231,2,0,P|320:223|319:267,2,60.5000018463135,2|10|2,3:2|0:2|3:2,0:0:0:0:
215,269,21870,6,0,P|155:256|96:244,1,121.000003692627,2|0,3:2|3:0,0:0:0:0:
51,272,22349,1,10,0:2:0:0:
51,272,22508,2,0,L|69:335,2,60.5000018463135,2|10|2,3:2|0:2|3:2,0:0:0:0:
33,164,23147,2,0,P|41:108|-14:62,1,121.000003692627,2|2,3:2|3:2,0:0:0:0:
34,25,23625,1,8,0:2:0:0:
34,25,23785,2,0,P|78:59|145:35,1,121.000003692627,2|2,3:2|3:2,0:0:0:0:
249,58,24423,5,10,3:2:0:0:
249,58,24583,1,10,3:2:0:0:
198,134,24902,2,0,P|145:155|133:225,1,121.000003692627,4|8,3:3|0:2,0:0:0:0:
142,265,25381,2,0,L|207:249,1,60.5000018463135,2|10,3:2|3:2,0:0:0:0:
259,249,25700,1,8,3:2:0:0:
259,249,25859,1,8,3:2:0:0:
302,348,26179,2,0,P|362:337|423:327,1,121.000003692627,4|8,3:3|3:2,0:0:0:0:
474,335,26657,1,2,3:2:0:0:
484,226,26976,6,0,P|494:193|498:161,1,60.5000018463135,2|2,3:2|3:2,0:0:0:0:
508,113,27296,1,10,0:2:0:0:
400,128,27615,2,0,P|389:95|385:63,1,60.5000018463135,4|2,3:2|3:2,0:0:0:0:
410,19,27935,1,8,0:2:0:0:
302,7,28253,2,0,P|274:25|240:28,1,60.5000018463135,0|10,3:0|0:2,0:0:0:0:
204,62,28572,2,0,P|176:43|142:40,1,60.5000018463135,2|8,3:2|0:2,0:0:0:0:
96,46,28891,2,0,P|54:40|30:114,1,121.000003692627,2|8,3:2|3:3,0:0:0:0:
97,173,29530,6,0,P|48:183|1:193,1,98.9999969787599,4|2,3:2|3:2,0:0:0:0:
16,279,30168,2,0,P|64:268|112:258,1,98.9999969787599,2|2,3:2|3:2,0:0:0:0:
155,245,30647,2,0,P|203:255|251:265,1,98.9999969787599,2|2,0:2|0:2,0:0:0:0:
331,226,31285,2,0,P|343:273|327:319,2,98.9999969787599,2|2|2,0:2|0:2|0:2,0:0:0:0:
259,183,32242,5,2,0:2:0:0:
259,183,32402,2,0,P|249:135|267:90,1,98.9999969787599,2|0,3:2|3:0,0:0:0:0:
296,6,33040,1,2,3:2:0:0:
366,60,33359,2,0,L|464:72,1,98.9999969787599,2|2,3:2|3:2,0:0:0:0:
494,105,33838,2,0,P|497:59|518:-2,2,98.9999969787599,2|2|2,0:2|0:2|0:2,0:0:0:0:
490,149,34636,5,4,3:2:0:0:
504,236,34955,1,2,3:2:0:0:
453,309,35274,2,0,P|403:296|357:318,1,98.9999969787599,2|2,3:2|3:2,0:0:0:0:
319,329,35753,2,0,L|304:210,1,98.9999969787599,2|2,0:2|0:2,0:0:0:0:
217,237,36391,2,0,L|232:356,2,98.9999969787599,2|2|2,0:2|0:2|0:2,0:0:0:0:
257,159,37349,5,2,0:2:0:0:
257,159,37508,2,0,P|209:148|152:177,1,98.9999969787599,2|2,3:2|3:2,0:0:0:0:
74,167,38147,1,2,3:2:0:0:
110,85,38466,2,0,P|143:48|146:-15,1,98.9999969787599,2|2,3:2|3:2,0:0:0:0:
238,11,39104,2,0,P|252:58|306:92,1,98.9999969787599,10|8,3:2|3:2,0:0:0:0:
340,2,39742,6,0,P|391:15|450:30,1,110,6|2,3:2|3:2,0:0:0:0:
490,51,40221,2,0,P|468:94|490:149,1,110,10|10,0:2|0:2,0:0:0:0:
424,221,40859,2,0,P|397:180|339:172,1,110,10|10,0:2|0:2,0:0:0:0:
293,190,41338,1,2,3:2:0:0:
302,288,41657,2,0,L|355:299,2,55,2|10|2,3:2|0:2|3:2,0:0:0:0:
252,286,42136,6,0,L|125:313,1,110,10|2,0:2|0:2,0:0:0:0:
100,332,42615,2,0,P|104:274|63:221,1,110,2|0,3:2|3:0,0:0:0:0:
6,162,43253,1,2,3:2:0:0:
57,77,43572,2,0,L|45:23,2,55,2|10|2,3:2|0:2|3:2,0:0:0:0:
96,107,44051,2,0,L|203:83,1,110,10|10,0:2|0:2,0:0:0:0:
252,91,44530,1,2,3:2:0:0:
338,138,44849,6,0,P|353:94|321:24,1,110,6|2,3:2|3:2,0:0:0:0:
371,4,45328,1,10,0:2:0:0:
371,4,45487,2,0,P|401:38|478:46,1,110,2|2,3:2|3:2,0:0:0:0:
510,41,45966,1,10,0:2:0:0:
509,143,46285,1,10,0:2:0:0:
509,143,46445,2,0,P|463:152|418:214,1,110,2|2,3:2|3:2,0:0:0:0:
464,288,47083,1,2,3:2:0:0:
385,347,47402,6,0,P|333:339|314:271,1,110,4|10,3:2|0:2,0:0:0:0:
210,295,48040,2,0,P|204:242|265:206,1,110,4|10,3:2|0:2,0:0:0:0:
299,125,48679,2,0,P|274:111|223:119,2,55,2|10|2,3:2|0:2|3:2,0:0:0:0:
338,163,49157,1,10,0:2:0:0:
338,163,49317,1,2,3:2:0:0:
425,209,49636,1,8,3:3:0:0:
493,152,49955,6,0,P|483:108|470:48,1,98.9999969787599,6|10,3:2|1:2,0:0:0:0:
396,6,50593,2,0,P|352:16|292:29,1,98.9999969787599,2|10,3:2|3:2,0:0:0:0:
217,62,51232,2,0,P|177:18|84:29,2,148.49999546814,2|0|10,3:2|0:0|3:2,0:0:0:0:
135,97,52508,6,0,P|126:143|121:197,1,98.9999969787599,2|10,3:2|1:2,0:0:0:0:
32,184,53147,2,0,P|40:229|46:284,1,98.9999969787599,2|10,3:2|3:2,0:0:0:0:
92,357,53785,1,2,3:2:0:0:
159,298,54104,1,2,3:2:0:0:
159,298,54264,2,0,L|318:326,1,148.49999546814,0|8,0:0|3:3,0:0:0:0:
402,342,55062,6,0,P|444:342|465:273,1,110,4|2,3:2|3:2,0:0:0:0:
447,249,55540,1,10,0:2:0:0:
447,249,55700,2,0,L|389:240,2,55,2|10|2,3:2|0:2|3:2,0:0:0:0:
474,153,56338,6,0,P|432:153|411:84,1,110,0|2,3:0|3:2,0:0:0:0:
429,60,56816,1,10,0:2:0:0:
429,60,56976,2,0,L|487:51,2,55,2|10|2,3:2|0:2|3:2,0:0:0:0:
342,11,57615,5,6,3:2:0:0:
256,56,57934,1,12,3:2:0:0:
252,153,58253,1,14,3:2:0:0:
329,200,58572,1,12,3:2:0:0:
325,290,58891,2,0,L|265:303,1,55,14|0,3:2|3:0,0:0:0:0:
232,332,59210,2,0,L|172:319,1,55,14|0,3:2|3:0,0:0:0:0:
133,298,59530,6,0,B|37:319|37:319|-19:273|16:205,1,220,14|8,3:2|3:3,0:0:0:0:
15,22,61445,6,0,P|73:35|133:45,1,121.000003692627,6|2,3:2|3:2,0:0:0:0:
202,130,62083,2,0,P|231:123|261:118,1,60.5000018463135,2|10,3:2|0:2,0:0:0:0:
315,111,62402,1,2,3:2:0:0:
365,207,62721,6,0,P|306:220|246:230,1,121.000003692627,2|2,3:2|3:2,0:0:0:0:
178,315,63359,2,0,P|148:308|118:303,1,60.5000018463135,2|10,3:2|0:2,0:0:0:0:
64,293,63678,1,2,3:2:0:0:
4,201,63998,6,0,P|-12:155|42:92,1,121.000003692627,2|0,3:2|3:0,0:0:0:0:
62,60,64476,1,10,0:2:0:0:
62,60,64636,2,0,L|49:-3,2,60.5000018463135,2|10|2,3:2|0:2|3:2,0:0:0:0:
114,155,65274,2,0,P|173:165|227:127,1,121.000003692627,2|2,3:2|3:2,0:0:0:0:
221,83,65753,1,8,0:2:0:0:
221,83,65913,2,0,P|271:51|329:61,1,121.000003692627,2|2,3:2|3:2,0:0:0:0:
426,12,66551,6,0,P|475:13|504:87,1,121.000003692627,6|2,3:2|3:2,0:0:0:0:
417,130,67189,1,2,3:2:0:0:
502,197,67508,1,2,3:2:0:0:
400,236,67828,1,2,3:2:0:0:
484,304,68147,1,2,3:2:0:0:
382,343,68466,2,0,P|320:332|255:321,1,121.000003692627,2|2,3:2|3:2,0:0:0:0:
155,349,69104,6,0,P|149:318|144:285,1,60.5000018463135,6|0,3:2|3:0,0:0:0:0:
132,236,69423,1,10,0:2:0:0:
238,214,69742,2,0,P|243:183|249:150,1,60.5000018463135,6|0,3:2|3:0,0:0:0:0:
261,101,70061,1,10,0:2:0:0:
200,9,70381,2,0,L|133:23,1,60.5000018463135,2|10,3:2|0:2,0:0:0:0:
122,72,70700,2,0,L|55:58,1,60.5000018463135,2|10,3:2|0:2,0:0:0:0:
10,76,71019,2,0,P|21:128|36:205,1,121.000003692627,10|8,3:2|3:3,0:0:0:0:
52,297,71657,6,0,P|103:293|131:232,1,121.000003692627,6|2,3:2|3:2,0:0:0:0:
225,289,72295,2,0,P|206:315|207:359,2,60.5000018463135,2|10|2,3:2|0:2|3:2,0:0:0:0:
282,189,72934,6,0,P|231:185|203:124,1,121.000003692627,2|2,3:2|3:2,0:0:0:0:
109,181,73572,2,0,P|128:207|127:251,2,60.5000018463135,2|10|2,3:2|0:2|3:2,0:0:0:0:
21,115,74210,6,0,P|26:59|81:34,1,121.000003692627,2|0,3:2|3:0,0:0:0:0:
136,53,74689,1,10,0:2:0:0:
136,53,74849,2,0,P|195:43|255:31,1,121.000003692627,2|2,3:2|3:2,0:0:0:0:
359,0,75487,1,2,3:2:0:0:
437,75,75806,1,2,3:2:0:0:
412,181,76125,1,2,3:2:0:0:
308,213,76445,1,2,3:2:0:0:
229,139,76764,5,10,3:2:0:0:
229,139,76923,1,10,3:2:0:0:
125,171,77242,2,0,P|90:211|116:279,1,121.000003692627,4|8,3:3|0:2,0:0:0:0:
146,308,77721,2,0,L|210:299,1,60.5000018463135,10|10,0:0|3:2,0:0:0:0:
251,267,78040,1,10,3:2:0:0:
251,267,78200,1,10,3:2:0:0:
323,347,78519,2,0,L|451:329,1,121.000003692627,4|8,3:3|0:2,0:0:0:0:
493,309,78998,1,10,0:2:0:0:
483,200,79317,6,0,P|460:150|495:86,1,121.000003692627,6|2,3:2|3:2,0:0:0:0:
505,45,79796,1,10,0:2:0:0:
404,4,80115,1,10,0:2:0:0:
318,71,80434,1,10,0:2:0:0:
318,71,80593,2,0,P|331:125|346:205,1,121.000003692627,2|2,3:2|3:2,0:0:0:0:
349,243,81072,2,0,P|296:224|236:264,1,121.000003692627,10|10,0:2|0:2,0:0:0:0:
161,325,81710,1,10,0:2:0:0:
161,325,81870,5,12,3:2:0:0:
87,245,82189,1,14,3:2:0:0:
157,175,82508,1,12,3:2:0:0:
87,105,82828,1,12,3:2:0:0:
157,35,83147,1,12,3:2:0:0:
157,35,83306,1,2,3:2:0:0:
336,119,83945,1,0,3:0:0:0:
336,119,84104,2,0,L|444:99,1,98.9999969787599,8|6,0:2|3:2,0:0:0:0:
46,150,89530,6,0,P|47:97|22:53,1,98.9999969787599,4|2,3:2|3:2,0:0:0:0:
100,10,90168,2,0,P|144:36|195:37,1,98.9999969787599,0|2,3:0|3:2,0:0:0:0:
194,126,90806,2,0,P|148:151|122:194,2,98.9999969787599,0|2|0,3:0|3:2|3:0,0:0:0:0:
213,213,91764,1,2,3:2:0:0:
239,297,92083,2,0,L|341:280,1,98.9999969787599,0|10,3:0|3:2,0:0:0:0:
385,287,92562,1,8,0:2:0:0:
385,287,92721,2,0,L|365:227,1,49.4999984893799,10|8,3:2|0:2,0:0:0:0:
341,205,93040,2,0,L|376:99,1,98.9999969787599,10|0,3:2|0:0,0:0:0:0:
405,9,94636,6,0,P|442:11|478:79,1,121.000003692627,6|2,3:2|3:2,0:0:0:0:
374,112,95274,2,0,L|288:90,1,60.5000018463135,2|10,3:2|0:2,0:0:0:0:
262,82,95593,1,2,3:2:0:0:
173,146,95913,6,0,P|136:148|100:216,1,121.000003692627,2|2,3:2|3:2,0:0:0:0:
204,244,96551,2,0,L|290:222,1,60.5000018463135,2|10,3:2|0:2,0:0:0:0:
316,214,96870,1,2,3:2:0:0:
353,316,97189,6,0,L|224:349,1,121.000003692627,2|0,3:2|3:0,0:0:0:0:
185,352,97668,1,10,0:2:0:0:
185,352,97828,2,0,L|126:337,2,60.5000018463135,2|10|2,3:2|0:2|3:2,0:0:0:0:
204,244,98466,2,0,P|207:183|224:110,1,121.000003692627,2|2,3:2|3:2,0:0:0:0:
252,81,98945,1,8,0:2:0:0:
252,81,99104,2,0,P|217:33|149:47,1,121.000003692627,2|2,3:2|3:2,0:0:0:0:
135,146,99742,5,2,3:2:0:0:
135,146,99902,1,2,3:2:0:0:
73,235,100221,2,0,P|21:228|16:152,1,121.000003692627,4|8,3:3|0:2,0:0:0:0:
3,113,100700,1,2,3:2:0:0:
77,34,101019,1,10,3:2:0:0:
77,34,101179,1,10,3:2:0:0:
185,35,101498,2,0,L|315:18,1,121.000003692627,4|0,3:3|3:0,0:0:0:0:
358,10,101976,1,2,3:2:0:0:
463,39,102296,6,0,P|450:91|437:175,1,121.000003692627,6|2,3:2|3:2,0:0:0:0:
443,214,102774,2,0,P|394:196|324:222,1,121.000003692627,10|10,0:2|0:2,0:0:0:0:
276,312,103413,1,10,0:2:0:0:
276,312,103572,2,0,P|227:330|157:304,1,121.000003692627,2|2,3:2|3:2,0:0:0:0:
130,266,104051,2,0,P|120:206|105:147,1,121.000003692627,10|10,0:2|0:2,0:0:0:0:
91,44,104689,1,10,0:2:0:0:
91,44,104849,6,0,B|176:37|207:126|207:126|246:183|344:180|368:68|309:39,1,395.999987915039,4|2,3:2|0:0,0:0:0:0:
92,43,107402,6,0,P|84:89|76:143,1,98.9999969787599,4|0,3:2|3:0,0:0:0:0:
26,214,108040,2,0,P|72:221|126:230,1,98.9999969787599,0|0,3:0|3:0,0:0:0:0:
197,280,108679,2,0,P|204:233|213:180,1,98.9999969787599,0|0,3:0|3:0,0:0:0:0:
263,109,109317,2,0,P|216:101|163:93,1,98.9999969787599,0|0,3:0|3:0,0:0:0:0:
92,43,109955,5,0,3:0:0:0:
26,214,110593,1,0,3:0:0:0:
197,280,111232,1,0,3:0:0:0:
263,109,111870,2,0,P|299:80|357:97,1,98.9999969787599,0|8,3:0|3:2,0:0:0:0:
429,144,112508,6,0,P|418:193|404:269,1,110,4|10,3:2|3:2,0:0:0:0:
307,242,113147,2,0,P|312:214|318:188,2,55,2|2|10,3:2|0:2|3:2,0:0:0:0:
299,293,113625,2,0,P|249:270|189:284,1,110,2|0,0:2|0:0,0:0:0:0:
120,343,114264,1,2,0:2:0:0:
58,265,114583,2,0,P|31:270|4:276,2,55,2|10|2,0:2|3:2|0:2,0:0:0:0:
73,217,115062,6,0,P|63:169|50:107,1,110,0|10,3:0|3:2,0:0:0:0:
129,49,115700,2,0,P|139:97|152:159,1,110,2|10,3:2|3:2,0:0:0:0:
181,196,116179,2,0,L|305:169,1,110,6|8,3:2|0:2,0:0:0:0:
264,76,116817,2,0,L|371:52,1,110,2|8,0:2|3:3,0:0:0:0:
417,34,117296,1,8,3:3:0:0:
508,70,117615,5,14,3:2:0:0:
429,130,117934,1,14,3:2:0:0:
508,190,118253,1,14,3:2:0:0:
429,250,118572,1,14,3:2:0:0:
508,310,118891,1,6,3:2:0:0:
425,364,119210,2,0,P|349:355|256:340,1,165,12|2,3:3|0:2,0:0:0:0:
164,322,120008,6,0,P|141:288|177:220,1,110,6|10,3:2|0:2,0:0:0:0:
201,195,120487,1,8,3:3:0:0:
201,195,120647,2,0,P|256:202|309:210,1,110,6|10,3:2|0:2,0:0:0:0:
404,181,121285,2,0,P|427:147|391:79,1,110,6|10,3:2|0:2,0:0:0:0:
367,54,121764,1,10,0:2:0:0:
367,54,121923,2,0,P|286:66|198:78,1,165,6|8,3:2|3:3,0:0:0:0:
10,30,123040,6,0,B|33:75|7:126|7:126|-18:185|29:251|29:251|85:220|84:175,1,330,6|6,3:2|3:2,0:0:0:0:
