osu file format v14

[General]
AudioFilename: audio.ogg
AudioLeadIn: 0
PreviewTime: 9024
Countdown: 0
SampleSet: None
StackLeniency: 0.7
Mode: 0
LetterboxInBreaks: 0
WidescreenStoryboard: 1

[Editor]
Bookmarks: 9104,14210,19317,29530,39742,49955,55062,57615,61445,71657,84423,89530,94636,104849,107402,112508,117615,120008,123998
DistanceSpacing: 0.9
BeatDivisor: 4
GridSize: 32
TimelineZoom: 1

[Metadata]
Title:Kiss me! Choose me!
TitleUnicode:Kiss me! Choose me!
Artist:Sakura Miko, Houshou Marine, AZKi
ArtistUnicode:さくらみこ、宝鐘マリン、AZKi
Creator:tomatas95
Version:Light Insane
Source:アイキス2
Tags:eroge Ai Kiss 2 giga アイキス2 新入生はお好きですか? アイキス2/ゼロ Zero Ai Kiss 2 Shinnyuusei wa Osuki Desu ka? 戏画社 visual novel galgame buckfro cutefro iyasine Loneight l1106188 L18 frey vn opening op video game Hololive vtuber virtual youtuber virtual singer v-tuber japanese j-pop jpop pop
BeatmapID:4547549
BeatmapSetID:2105253

[Difficulty]
HPDrainRate:4
CircleSize:3.5
OverallDifficulty:7.5
ApproachRate:8.2
SliderMultiplier:1.5
SliderTickRate:1

[Events]
//Background and Video events
0,0,"ayamesukiii.jpg",0,0
Video,0,"recheckmymaptomachan.mp4"
//Break Periods
2,84623,88810
//Storyboard Layer 0 (Background)
//Storyboard Layer 1 (Fail)
//Storyboard Layer 2 (Pass)
//Storyboard Layer 3 (Foreground)
//Storyboard Layer 4 (Overlay)
//Storyboard Sound Samples

[TimingPoints]
7828,319.148936170213,4,2,1,60,1,0
9104,-142.857142857143,4,2,1,60,0,0
10062,-142.857142857143,4,2,2,60,0,0
10221,-142.857142857143,4,2,1,60,0,0
11338,-142.857142857143,4,2,2,60,0,0
11498,-142.857142857143,4,2,1,60,0,0
11897,-142.857142857143,4,2,2,60,0,0
12136,-142.857142857143,4,2,1,60,0,0
12216,-142.857142857143,4,2,2,60,0,0
12455,-142.857142857143,4,2,1,60,0,0
12535,-142.857142857143,4,2,2,60,0,0
12774,-142.857142857143,4,2,1,60,0,0
12854,-142.857142857143,4,2,2,60,0,0
13093,-142.857142857143,4,2,1,60,0,0
13173,-142.857142857143,4,2,2,60,0,0
13413,-142.857142857143,4,2,1,60,0,0
14051,-142.857142857143,4,2,3,60,0,0
14210,-125,4,2,4,55,0,0
14450,-125,4,2,4,5,0,0
14530,-125,4,2,4,55,0,0
16764,-125,4,2,1,65,0,0
18040,-125,4,2,6,65,0,0
18359,-125,4,2,1,65,0,0
18519,-125,4,2,2,65,0,0
18679,-125,4,2,7,65,0,0
19317,-90.9090909090909,4,2,6,75,0,1
19556,-90.9090909090909,4,2,1,75,0,1
19796,-90.9090909090909,4,2,6,75,0,1
19875,-90.9090909090909,4,2,1,75,0,1
20115,-90.9090909090909,4,2,6,75,0,1
20354,-90.9090909090909,4,2,1,75,0,1
20434,-90.9090909090909,4,2,6,75,0,1
20514,-90.9090909090909,4,2,1,75,0,1
20593,-90.9090909090909,4,2,6,75,0,1
20833,-90.9090909090909,4,2,1,75,0,1
21072,-90.9090909090909,4,2,6,75,0,1
21790,-90.9090909090909,4,2,1,75,0,1
21870,-90.9090909090909,4,2,6,75,0,1
22429,-90.9090909090909,4,2,1,75,0,1
22508,-90.9090909090909,4,2,6,75,0,1
23067,-90.9090909090909,4,2,1,75,0,1
23147,-90.9090909090909,4,2,6,75,0,1
24343,-90.9090909090909,4,2,1,75,0,1
24583,-90.9090909090909,4,2,2,75,0,1
24902,-90.9090909090909,4,2,3,75,0,1
25221,-90.9090909090909,4,2,6,75,0,1
25301,-90.9090909090909,4,2,1,75,0,1
25540,-90.9090909090909,4,2,4,75,0,1
25700,-90.9090909090909,4,2,5,75,0,1
25859,-90.9090909090909,4,2,6,75,0,1
26179,-90.9090909090909,4,2,13,75,0,1
26338,-90.9090909090909,4,2,1,75,0,1
26498,-90.9090909090909,4,2,6,75,0,1
26657,-90.9090909090909,4,2,1,75,0,1
26817,-90.9090909090909,4,2,4,75,0,1
27296,-90.9090909090909,4,2,6,75,0,1
27535,-90.9090909090909,4,2,1,75,0,1
28093,-90.9090909090909,4,2,6,75,0,1
28173,-90.9090909090909,4,2,1,75,0,1
28413,-90.9090909090909,4,2,6,75,0,1
28492,-90.9090909090909,4,2,1,75,0,1
28732,-90.9090909090909,4,2,6,75,0,1
28891,-90.9090909090909,4,2,1,75,0,1
29210,-90.9090909090909,4,2,6,75,0,1
29290,-90.9090909090909,4,2,5,75,0,1
29370,-90.9090909090909,4,2,8,75,0,1
29450,-90.9090909090909,4,2,7,75,0,1
29530,-125,4,2,6,60,0,0
29689,-125,4,2,1,60,0,0
33280,-125,4,2,4,5,0,0
33359,-125,4,2,1,60,0,0
34636,-111.111111111111,4,2,1,60,0,0
39423,-111.111111111111,4,2,2,60,0,0
39583,-111.111111111111,4,2,3,70,0,0
39742,-100,4,2,1,70,0,0
39902,-100,4,2,2,70,0,0
40939,-100,4,2,1,70,0,0
41019,-100,4,2,2,70,0,0
42056,-100,4,2,1,70,0,0
42136,-100,4,2,2,70,0,0
42216,-100,4,2,1,70,0,0
42296,-100,4,2,2,70,0,0
42854,-100,4,2,1,70,0,0
42934,-100,4,2,2,70,0,0
43492,-100,4,2,1,70,0,0
43572,-100,4,2,2,70,0,0
44609,-100,4,2,1,70,0,0
44689,-100,4,2,2,70,0,0
44769,-100,4,2,1,70,0,0
45008,-100,4,2,2,70,0,0
46684,-100,4,2,1,70,0,0
46764,-100,4,2,2,70,0,0
47322,-100,4,2,1,70,0,0
47402,-100,4,2,4,70,0,0
47562,-100,4,2,2,70,0,0
47960,-100,4,2,1,70,0,0
48200,-100,4,2,2,70,0,0
48519,-100,4,2,1,70,0,0
49317,-100,4,2,5,70,0,0
49636,-100,4,2,2,70,0,0
49955,-111.111111111111,4,2,7,60,0,0
50274,-111.111111111111,4,2,2,60,0,0
50381,-111.111111111111,4,2,5,60,0,0
50487,-111.111111111111,4,2,1,60,0,0
50913,-111.111111111111,4,2,12,60,0,0
51019,-111.111111111111,4,2,15,60,0,0
51125,-111.111111111111,4,2,11,60,0,0
51551,-111.111111111111,4,2,2,60,0,0
51657,-111.111111111111,4,2,5,60,0,0
51764,-111.111111111111,4,2,1,60,0,0
52189,-111.111111111111,4,2,12,60,0,0
52296,-111.111111111111,4,2,15,60,0,0
52402,-111.111111111111,4,2,11,60,0,0
52828,-111.111111111111,4,2,2,60,0,0
52934,-111.111111111111,4,2,5,60,0,0
53040,-111.111111111111,4,2,1,60,0,0
53466,-111.111111111111,4,2,12,60,0,0
53572,-111.111111111111,4,2,15,60,0,0
53679,-111.111111111111,4,2,11,60,0,0
54742,-111.111111111111,4,2,4,60,0,0
55062,-100,4,2,1,70,0,0
55221,-100,4,2,2,70,0,0
55301,-100,4,2,1,70,0,0
55381,-100,4,2,2,70,0,0
56019,-100,4,2,1,70,0,0
56179,-100,4,2,2,70,0,0
56258,-100,4,2,1,70,0,0
56338,-100,4,2,2,70,0,0
56578,-100,4,2,1,70,0,0
56657,-100,4,2,2,70,0,0
57535,-100,4,2,1,70,0,0
57615,-100,4,2,2,75,0,0
59530,-111.111111111111,4,2,2,75,0,0
60168,-111.111111111111,4,2,4,75,0,0
60806,-111.111111111111,4,2,7,75,0,0
61445,-90.9090909090909,4,2,6,75,0,1
61684,-90.9090909090909,4,2,1,75,0,1
61923,-90.9090909090909,4,2,6,75,0,1
62641,-90.9090909090909,4,2,1,75,0,1
62721,-90.9090909090909,4,2,6,75,0,1
62960,-90.9090909090909,4,2,1,75,0,1
63200,-90.9090909090909,4,2,6,75,0,1
63918,-90.9090909090909,4,2,1,75,0,1
63998,-90.9090909090909,4,2,6,75,0,1
65195,-90.9090909090909,4,2,1,75,0,1
65274,-90.9090909090909,4,2,6,75,0,1
65833,-90.9090909090909,4,2,1,75,0,1
65913,-90.9090909090909,4,2,6,75,0,1
66471,-90.9090909090909,4,2,1,75,0,1
66551,-90.9090909090909,4,2,6,75,0,1
66790,-90.9090909090909,4,2,1,75,0,1
67030,-90.9090909090909,4,2,6,75,0,1
67429,-90.9090909090909,4,2,1,75,0,1
67668,-90.9090909090909,4,2,6,75,0,1
68705,-90.9090909090909,4,2,1,75,0,1
68785,-90.9090909090909,4,2,6,75,0,1
69104,-90.9090909090909,4,2,1,75,0,1
69264,-90.9090909090909,4,2,6,75,0,1
69663,-90.9090909090909,4,2,1,75,0,1
69742,-90.9090909090909,4,2,4,75,0,1
69902,-90.9090909090909,4,2,6,75,0,1
70301,-90.9090909090909,4,2,1,75,0,1
70381,-90.9090909090909,4,2,6,75,0,1
70620,-90.9090909090909,4,2,1,75,0,1
70700,-90.9090909090909,4,2,6,75,0,1
71019,-90.9090909090909,4,2,5,75,0,1
71179,-90.9090909090909,4,2,1,75,0,1
71338,-90.9090909090909,4,2,6,75,0,0
71418,-90.9090909090909,4,2,5,75,0,0
71498,-90.9090909090909,4,2,8,75,0,0
71578,-90.9090909090909,4,2,7,75,0,0
71657,-90.9090909090909,4,2,6,75,0,1
71897,-90.9090909090909,4,2,1,75,0,1
72136,-90.9090909090909,4,2,6,75,0,1
72854,-90.9090909090909,4,2,1,75,0,1
72934,-90.9090909090909,4,2,6,75,0,1
73173,-90.9090909090909,4,2,1,75,0,1
73413,-90.9090909090909,4,2,6,75,0,1
74131,-90.9090909090909,4,2,1,75,0,1
74210,-90.9090909090909,4,2,6,75,0,1
75407,-90.9090909090909,4,2,1,75,0,1
75487,-90.9090909090909,4,2,6,75,0,1
76046,-90.9090909090909,4,2,1,75,0,1
76125,-90.9090909090909,4,2,6,75,0,1
76684,-90.9090909090909,4,2,1,75,0,1
76923,-90.9090909090909,4,2,2,75,0,1
77243,-90.9090909090909,4,2,3,75,0,1
77482,-90.9090909090909,4,2,1,75,0,1
77881,-90.9090909090909,4,2,4,75,0,1
78040,-90.9090909090909,4,2,5,75,0,1
78200,-90.9090909090909,4,2,6,75,0,1
78519,-90.9090909090909,4,2,13,75,0,1
78838,-90.9090909090909,4,2,6,75,0,1
78998,-90.9090909090909,4,2,1,75,0,1
79476,-90.9090909090909,4,2,6,75,0,1
79716,-90.9090909090909,4,2,1,75,0,1
79796,-90.9090909090909,4,2,6,75,0,1
80514,-90.9090909090909,4,2,1,75,0,1
80593,-90.9090909090909,4,2,6,75,0,1
81790,-90.9090909090909,4,2,1,75,0,1
81870,-90.9090909090909,4,2,22,75,0,1
83306,-100,4,2,1,70,0,0
83466,-100,4,2,1,60,0,0
83945,-142.857142857143,4,2,1,60,0,0
84423,-100,4,2,1,60,0,0
89530,-125,4,2,8,60,0,0
89689,-125,4,2,1,60,0,0
92402,-125,4,2,2,65,0,0
92562,-125,4,2,1,65,0,0
92721,-125,4,2,6,65,0,0
92881,-125,4,2,1,65,0,0
93040,-125,4,2,7,65,0,0
93200,-125,4,2,1,65,0,0
94636,-90.9090909090909,4,2,6,75,0,1
94875,-90.9090909090909,4,2,1,75,0,1
94955,-90.9090909090909,4,2,6,75,0,1
95195,-90.9090909090909,4,2,1,75,0,1
95434,-90.9090909090909,4,2,6,75,0,1
95833,-90.9090909090909,4,2,1,75,0,1
95913,-90.9090909090909,4,2,6,75,0,1
96152,-90.9090909090909,4,2,1,75,0,1
96391,-90.9090909090909,4,2,6,75,0,1
97109,-90.9090909090909,4,2,1,75,0,1
97189,-90.9090909090909,4,2,6,75,0,1
98386,-90.9090909090909,4,2,1,75,0,1
98466,-90.9090909090909,4,2,6,75,0,1
99024,-90.9090909090909,4,2,1,75,0,1
99104,-90.9090909090909,4,2,6,75,0,1
99663,-90.9090909090909,4,2,1,75,0,1
99902,-90.9090909090909,4,2,2,75,0,1
100221,-90.9090909090909,4,2,3,75,0,1
100460,-90.9090909090909,4,2,1,75,0,1
100859,-90.9090909090909,4,2,4,75,0,1
101019,-90.9090909090909,4,2,5,75,0,1
101179,-90.9090909090909,4,2,6,75,0,1
101498,-90.9090909090909,4,2,13,75,0,1
101976,-90.9090909090909,4,2,1,75,0,1
102296,-90.9090909090909,4,2,6,75,0,1
102695,-90.9090909090909,4,2,1,75,0,1
102774,-90.9090909090909,4,2,6,75,0,1
103492,-90.9090909090909,4,2,1,75,0,1
103572,-90.9090909090909,4,2,6,75,0,1
104769,-90.9090909090909,4,2,1,75,0,1
104849,-125,4,2,1,70,0,0
106125,-125,4,2,1,20,0,0
106923,-125,4,2,1,60,0,0
107322,-125,4,2,4,5,0,0
107402,-111.111111111111,4,2,7,60,0,0
107562,-111.111111111111,4,2,1,60,0,0
107881,-125,4,2,1,60,0,0
112189,-125,4,2,8,60,0,0
112429,-125,4,2,4,5,0,0
112508,-100,4,2,1,70,0,0
112828,-100,4,2,13,70,0,0
116019,-100,4,2,2,70,0,0
116179,-100,4,2,4,70,0,0
116498,-100,4,2,2,70,0,0
117136,-100,4,2,3,70,0,0
117296,-100,4,2,5,70,0,0
117455,-100,4,2,9,70,0,0
117535,-125,4,2,4,5,0,0
117615,-100,4,2,2,75,0,0
119210,-100,4,2,4,75,0,0
119689,-100,4,2,2,75,0,0
120008,-100,4,2,7,70,0,0
120328,-100,4,2,2,70,0,0
120487,-100,4,2,5,70,0,0
120647,-100,4,2,1,70,0,0
120966,-100,4,2,2,70,0,0
121285,-100,4,2,6,70,0,0
121445,-100,4,2,2,70,0,0
121923,-100,4,2,4,70,0,0
122242,-100,4,2,1,70,0,0
122402,-100,4,2,2,70,0,0
122562,-100,4,2,9,70,0,0
122721,-100,4,2,3,70,0,0
123040,-100,4,2,9,70,0,0
123359,-100,4,2,6,70,0,0
123519,-100,4,2,1,65,0,0
123679,-100,4,2,9,60,0,0
123838,-100,4,2,4,55,0,0
123998,-100,4,2,1,50,0,0

[Colours]
Combo1 : 249,164,189
Combo2 : 245,221,135
Combo3 : 231,169,243
Combo4 : 145,214,236

[HitObjects]
51,33,9104,6,0,P|101:30|130:74,1,104.999996795654,4|8,3:2|0:2,0:0:0:0:
59,123,9583,1,10,0:2:0:0:
59,123,9742,2,0,L|-12:139,2,52.4999983978272,2|2|10,3:2|3:2|0:2,0:0:0:0:
139,159,10221,1,2,3:2:0:0:
185,290,10540,6,0,P|155:280|133:257,1,52.4999983978272,2|10,3:2|0:2,0:0:0:0:
61,317,10859,2,0,P|44:263|63:210,1,104.999996795654,10|2,0:2|3:2,0:0:0:0:
10,140,11338,2,0,P|37:124|69:124,1,52.4999983978272,10|2,0:2|0:2,0:0:0:0:
140,171,11657,1,2,3:2:0:0:
185,290,11976,6,0,P|215:280|237:257,1,52.4999983978272,2|8,3:2|0:2,0:0:0:0:
317,242,12296,2,0,P|321:268|315:294,2,52.4999983978272,2|10|2,3:2|0:2|3:2,0:0:0:0:
410,221,12774,2,0,P|386:175|338:154,1,104.999996795654,10|10,0:2|0:2,0:0:0:0:
242,127,13253,2,0,L|255:193,1,52.4999983978272,2|8,3:2|0:2,0:0:0:0:
184,64,13572,2,0,L|120:42,1,52.4999983978272,2|0,3:2|3:0,0:0:0:0:
267,45,13891,2,0,L|317:1,1,52.4999983978272,2|8,3:2|0:2,0:0:0:0:
403,0,14210,6,0,P|394:45|386:110,1,90,6|0,3:2|0:0,0:0:0:0:
389,97,14530,2,0,P|441:108|510:123,1,120,2|0,0:2|3:0,0:0:0:0:
484,211,15008,2,0,P|425:198|366:185,1,120,2|0,3:2|3:0,0:0:0:0:
204,198,15487,6,0,P|180:234|236:293,1,120,2|8,0:2|0:2,0:0:0:0:
304,328,15966,2,0,P|296:244|266:86,1,240,2|0,0:2|0:0,0:0:0:0:
322,28,16764,6,0,P|267:7|212:28,2,120,6|8|2,3:2|0:2|3:2,0:0:0:0:
267,91,17562,2,0,P|212:112|157:91,1,120,10|8,0:2|0:2,0:0:0:0:
61,106,18040,6,0,P|55:66|42:37,1,60,10|8,3:2|0:2,0:0:0:0:
157,91,18359,2,0,P|147:119|143:149,1,60,8|8,3:3|3:3,0:0:0:0:
75,212,18679,6,0,L|25:223,3,30,2|0|0|0,3:2|0:0|0:0|0:0,0:0:0:0:
164,226,18998,2,0,L|193:232,1,30,10|0,0:2|0:0,0:0:0:0:
260,288,19157,2,0,L|295:280,1,30
364,235,19317,6,0,P|377:282|364:323,1,82.5000025177003,6|8,3:2|0:2,0:0:0:0:
287,194,19636,2,0,P|274:147|287:106,1,82.5000025177003,2|8,3:2|0:2,0:0:0:0:
313,29,19955,5,2,3:2:0:0:
222,44,20115,1,10,0:2:0:0:
372,100,20274,2,0,L|457:83,1,82.5000025177003,2|8,3:2|0:2,0:0:0:0:
287,194,20593,6,0,P|274:147|287:106,1,82.5000025177003,2|8,3:2|0:2,0:0:0:0:
364,235,20912,2,0,P|377:282|364:323,1,82.5000025177003,2|8,3:2|0:2,0:0:0:0:
436,188,21232,5,2,3:2:0:0:
436,188,21391,1,10,0:2:0:0:
294,280,21551,2,0,L|209:297,1,82.5000025177003,2|8,3:2|0:2,0:0:0:0:
124,332,21870,6,0,P|115:268|91:157,1,165.000005035401,2|0,3:2|3:0,0:0:0:0:
11,55,22349,5,10,0:2:0:0:
145,98,22508,1,2,3:2:0:0:
11,141,22668,1,10,0:2:0:0:
94,27,22828,1,2,3:2:0:0:
94,169,22987,1,8,0:2:0:0:
94,169,23067,1,8,0:2:0:0:
94,169,23147,6,0,P|102:209|114:260,1,82.5000025177003,2|8,3:2|0:2,0:0:0:0:
204,263,23466,2,0,P|195:222|184:172,1,82.5000025177003,2|8,3:2|0:2,0:0:0:0:
393,120,23785,6,0,P|384:160|373:211,1,82.5000025177003,2|8,3:2|0:2,0:0:0:0:
283,214,24104,2,0,P|291:173|303:123,1,82.5000025177003,2|8,3:2|0:2,0:0:0:0:
336,46,24423,5,10,3:2:0:0:
486,108,24583,1,10,3:2:0:0:
300,133,24902,6,0,P|242:101|260:4,1,165.000005035401,4|8,3:3|0:2,0:0:0:0:
335,45,25381,2,0,P|375:37|415:28,1,82.5000025177003,2|10,3:2|3:2,0:0:0:0:
512,18,25700,5,8,3:2:0:0:
393,120,25859,1,8,3:2:0:0:
463,312,26179,6,0,P|520:280|502:183,1,165.000005035401,4|8,3:3|3:2,0:0:0:0:
427,225,26658,2,0,P|386:216|346:207,1,82.5000025177003,2|0,3:2|3:3,0:0:0:0:
176,202,26976,5,2,3:2:0:0:
176,202,27136,1,2,3:2:0:0:
255,241,27296,2,0,P|264:193|250:156,1,82.5000025177003,10|2,0:2|0:2,0:0:0:0:
191,24,27615,5,4,3:2:0:0:
191,24,27775,1,2,3:2:0:0:
117,72,27935,2,0,P|154:103|193:110,1,82.5000025177003,8|10,0:2|0:2,0:0:0:0:
331,36,28253,6,0,P|284:52|259:82,1,82.5000025177003,0|10,3:0|0:2,0:0:0:0:
176,202,28572,2,0,P|147:231|108:242,1,82.5000025177003,2|8,3:2|0:2,0:0:0:0:
186,110,28891,5,2,3:2:0:0:
260,249,29051,1,8,0:2:0:0:
260,249,29131,1,8,0:2:0:0:
260,249,29210,2,0,L|303:257,1,41.2500012588501,8|8,3:3|3:3,0:0:0:0:
370,305,29370,2,0,L|413:297,1,41.2500012588501,8|8,3:3|3:3,0:0:0:0:
470,238,29530,6,0,P|496:290|482:347,2,120,4|2|2,3:2|3:2|3:2,0:0:0:0:
423,162,30328,2,0,L|489:149,1,60,2|2,0:2|3:2,0:0:0:0:
487,56,30647,2,0,L|341:84,1,120,2|2,0:2|0:2,0:0:0:0:
294,112,31125,1,2,3:2:0:0:
294,112,31285,2,0,P|274:67|326:13,2,120,2|2|2,0:2|0:2|0:2,0:0:0:0:
313,256,32242,6,0,P|337:243|374:246,2,60,2|2|2,0:2|3:2|0:2,0:0:0:0:
231,254,32721,2,0,P|232:224|248:199,1,60,0|2,3:0|0:2,0:0:0:0:
187,323,33040,2,0,P|151:297|140:254,1,90,2|0,3:2|0:0,0:0:0:0:
142,246,33359,2,0,P|110:252|81:262,2,60,2|2|2,3:2|0:2|3:2,0:0:0:0:
123,161,33838,2,0,P|94:170|65:175,1,60,2|0,0:2|3:0,0:0:0:0:
7,104,34157,2,0,P|-12:61|52:13,1,120,2|2,0:2|0:2,0:0:0:0:
92,78,34636,6,0,P|165:61|239:44,1,134.999995880127,4|2,3:2|3:2,0:0:0:0:
301,0,35115,1,2,0:2:0:0:
381,45,35274,2,0,P|424:37|463:30,2,67.4999979400635,2|2|2,3:2|0:2|3:2,0:0:0:0:
303,92,35753,2,0,P|311:135|328:235,1,134.999995880127,2|2,0:2|0:2,0:0:0:0:
311,312,36232,1,2,3:2:0:0:
311,312,36391,2,0,P|346:313|378:295,1,67.4999979400635,2|0,0:2|3:0,0:0:0:0:
440,357,36710,2,0,P|459:327|459:290,1,67.4999979400635,2|0,0:2|3:0,0:0:0:0:
459,201,37030,6,0,P|416:209|316:226,1,134.999995880127,2|2,0:2|0:2,0:0:0:0:
311,312,37508,2,0,P|268:304|168:287,1,134.999995880127,2|2,3:2|3:2,0:0:0:0:
89,319,37987,1,2,0:2:0:0:
18,258,38147,2,0,P|10:225|18:193,1,67.4999979400635,2|2,3:2|0:2,0:0:0:0:
115,159,38466,6,0,L|106:226,1,67.4999979400635,2|2,3:2|0:2,0:0:0:0:
78,83,38785,2,0,L|24:41,1,67.4999979400635,2|2,3:2|0:2,0:0:0:0:
163,88,39104,2,0,L|225:62,1,67.4999979400635,10|8,3:2|0:2,0:0:0:0:
354,20,39423,6,0,P|348:39|347:60,1,33.7499989700318,8|0,3:2|0:0,0:0:0:0:
296,118,39583,2,0,P|301:137|303:158,1,33.7499989700318,8|8,0:2|0:2,0:0:0:0:
338,231,39742,6,0,P|271:234|222:155,1,150,6|2,3:2|3:2,0:0:0:0:
347,52,40221,2,0,L|501:73,1,150,10|10,0:2|0:2,0:0:0:0:
510,167,40700,2,0,L|435:156,1,75,2|10,3:2|0:2,0:0:0:0:
424,156,40939,1,8,0:2:0:0:
412,154,41019,6,0,P|421:192|431:246,1,75,0|10,3:0|0:2,0:0:0:0:
354,304,41338,2,0,P|346:267|337:230,1,75,2|8,3:2|0:2,0:0:0:0:
211,81,41657,5,2,3:2:0:0:
296,118,41817,1,10,0:2:0:0:
222,173,41976,2,0,P|184:183|148:189,1,75,2|10,3:2|0:2,0:0:0:0:
137,192,42216,1,8,0:2:0:0:
126,195,42296,6,0,P|115:159|121:121,1,75,0|2,3:0|0:2,0:0:0:0:
37,101,42615,2,0,P|30:175|52:246,1,150,2|0,3:2|3:0,0:0:0:0:
59,335,43093,2,0,P|13:328|-8:298,2,75,10|2|10,0:2|3:2|0:2,0:0:0:0:
134,284,43572,5,2,3:2:0:0:
126,195,43732,1,10,0:2:0:0:
52,246,43891,1,2,3:2:0:0:
137,297,44051,2,0,L|285:272,1,150,10|10,0:2|0:2,0:0:0:0:
437,217,44530,2,0,L|511:229,1,75,2|10,3:2|0:2,0:0:0:0:
377,315,44849,6,0,P|363:249|342:162,1,150,6|2,3:2|3:2,0:0:0:0:
327,77,45328,1,10,0:2:0:0:
414,109,45487,2,0,P|451:102|489:93,2,75,2|10|2,3:2|0:2|3:2,0:0:0:0:
256,136,45966,2,0,P|182:150|109:167,1,150,10|10,0:2|0:2,0:0:0:0:
37,215,46445,2,0,P|21:173|33:130,1,75,2|8,3:2|0:2,0:0:0:0:
71,1,46764,5,2,3:2:0:0:
90,84,46923,1,10,0:2:0:0:
109,167,47083,2,0,P|122:209|108:252,1,75,2|10,3:2|0:2,0:0:0:0:
117,249,47322,1,8,0:2:0:0:
117,260,47402,6,0,P|193:244|268:229,1,150,4|10,3:2|0:2,0:0:0:0:
195,165,47881,1,0,3:0:0:0:
298,305,48040,2,0,P|337:275|328:176,1,150,4|10,3:2|0:2,0:0:0:0:
234,78,48519,5,8,0:2:0:0:
234,78,48599,1,8,0:2:0:0:
234,78,48679,1,2,3:2:0:0:
263,229,48838,1,10,0:2:0:0:
328,91,48997,1,2,3:2:0:0:
195,165,49157,1,10,0:2:0:0:
333,181,49316,5,2,3:2:0:0:
333,181,49397,1,8,0:2:0:0:
333,181,49476,2,0,L|382:191,1,37.5,8|8,0:2|0:2,0:0:0:0:
449,231,49636,2,0,L|498:221,3,37.5,8|8|8|8,3:3|3:3|3:3|3:3,0:0:0:0:
409,313,49955,6,0,P|380:285|323:287,1,89.999997253418,6|0,3:2|0:0,0:0:0:0:
253,314,50274,2,0,L|262:358,2,44.999998626709,10|8|8,1:2|1:2|1:2,0:0:0:0:
188,260,50593,6,0,P|218:233|276:237,1,89.999997253418,2|0,3:2|0:0,0:0:0:0:
332,282,50912,2,0,L|341:326,2,44.999998626709,10|8|8,3:2|3:2|3:2,0:0:0:0:
266,233,51232,6,0,P|257:182|239:96,1,134.999995880127,2|10,3:2|1:2,0:0:0:0:
219,20,51710,2,0,P|264:17|320:94,1,134.999995880127
240,100,52189,2,0,L|165:113,1,67.4999979400635,10|0,3:2|0:0,0:0:0:0:
92,59,52508,6,0,P|48:61|6:92,1,89.999997253418,2|0,3:2|0:0,0:0:0:0:
56,152,52828,2,0,P|74:139|96:138,2,44.999998626709,10|8|8,1:2|1:2|1:2,0:0:0:0:
4,233,53147,6,0,P|48:235|90:266,1,89.999997253418,2|0,3:2|0:0,0:0:0:0:
40,326,53467,2,0,P|21:313|0:312,2,44.999998626709,10|8|8,3:2|3:2|3:2,0:0:0:0:
121,332,53785,6,0,L|255:311,1,134.999995880127,2|2,3:2|3:2,0:0:0:0:
347,318,54264,2,0,B|414:280|397:205|347:182|307:201|294:241|313:258,1,202.499993820191,0|8,0:0|3:3,0:0:0:0:
306,243,55062,6,0,P|301:188|280:95,1,150,4|2,3:2|3:2,0:0:0:0:
262,4,55540,1,10,0:2:0:0:
350,34,55700,2,0,L|428:21,1,75,2|10,3:2|0:2,0:0:0:0:
192,65,56019,2,0,L|114:78,1,75,2|8,3:2|0:2,0:0:0:0:
293,169,56338,6,0,P|290:141|280:95,1,75,0|10,3:0|0:2,0:0:0:0:
423,21,56657,2,0,P|414:57|410:94,1,75,2|10,3:2|0:2,0:0:0:0:
391,188,56976,5,2,3:2:0:0:
481,156,57136,1,10,0:2:0:0:
373,281,57296,2,0,L|287:269,1,75,2|8,3:2|0:2,0:0:0:0:
218,179,57615,6,0,L|304:167,1,75,6|0,3:2|0:0,0:0:0:0:
139,113,57934,5,12,3:2:0:0:
179,264,58093,1,2,3:2:0:0:
125,134,58253,5,14,3:2:0:0:
165,285,58412,1,0,3:0:0:0:
111,155,58573,5,12,3:2:0:0:
151,306,58732,1,2,3:2:0:0:
96,177,58891,6,0,P|58:170|24:183,1,75,14|10,3:2|0:2,0:0:0:0:
65,332,59210,2,0,P|103:339|137:326,1,75,14|10,3:2|0:2,0:0:0:0:
218,179,59530,6,0,B|202:61|202:61|264:-2|337:61,1,269.999991760254,14|8,3:2|3:3,0:0:0:0:
335,59,60806,6,0,L|322:15,3,33.7499989700318,2|2|2|2,0:2|0:2|3:2|0:2,0:0:0:0:
389,127,61125,1,10,3:2:0:0:
391,138,61205,1,2,0:2:0:0:
393,147,61285,1,2,0:2:0:0:
395,156,61365,1,2,0:2:0:0:
398,167,61445,6,0,P|438:160|481:154,1,82.5000025177003,6|8,3:2|0:2,0:0:0:0:
301,236,61764,2,0,P|260:229|219:223,1,82.5000025177003,2|8,3:2|0:2,0:0:0:0:
307,149,62083,1,2,3:2:0:0:
307,149,62242,1,10,0:2:0:0:
388,242,62402,2,0,P|428:247|469:254,1,82.5000025177003,2|8,3:2|0:2,0:0:0:0:
301,236,62721,6,0,P|260:229|219:223,1,82.5000025177003,2|8,3:2|0:2,0:0:0:0:
394,155,63040,2,0,P|434:148|475:142,1,82.5000025177003,2|8,3:2|0:2,0:0:0:0:
345,46,63359,5,2,3:2:0:0:
259,7,63519,1,10,0:2:0:0:
220,93,63679,2,0,P|179:86|138:80,1,82.5000025177003,2|8,3:2|0:2,0:0:0:0:
38,11,63998,6,0,P|84:-4|132:92,1,165.000005035401,2|0,3:2|3:0,0:0:0:0:
137,199,64476,5,10,0:2:0:0:
49,97,64636,1,2,3:2:0:0:
19,239,64796,1,10,0:2:0:0:
53,108,64955,1,2,3:2:0:0:
104,284,65115,1,8,0:2:0:0:
104,284,65195,1,8,0:2:0:0:
104,284,65274,6,0,P|149:288|199:259,1,82.5000025177003,2|8,3:2|0:2,0:0:0:0:
215,190,65593,2,0,P|169:185|119:214,1,82.5000025177003,2|8,3:2|0:2,0:0:0:0:
268,309,65913,6,0,P|313:313|363:284,1,82.5000025177003,2|8,3:2|0:2,0:0:0:0:
379,215,66232,2,0,P|333:210|283:239,1,82.5000025177003,2|8,3:2|0:2,0:0:0:0:
214,189,66551,6,0,P|206:149|197:109,1,82.5000025177003,6|8,3:2|0:2,0:0:0:0:
270,42,66870,2,0,P|279:82|287:122,1,82.5000025177003,2|8,3:2|0:2,0:0:0:0:
454,161,67189,6,0,P|462:120|471:80,1,82.5000025177003,2|8,3:2|0:2,0:0:0:0:
387,30,67508,2,0,P|378:69|369:112,1,82.5000025177003,2|10,3:2|0:2,0:0:0:0:
370,123,67748,1,0,0:0:0:0:
368,135,67828,6,0,L|285:122,1,82.5000025177003,2|8,3:2|0:2,0:0:0:0:
429,245,68147,2,0,L|510:257,1,82.5000025177003,2|8,3:2|0:2,0:0:0:0:
330,300,68466,2,0,L|342:218,1,82.5000025177003,2|8,3:2|0:2,0:0:0:0:
286,122,68785,5,2,3:2:0:0:
255,206,68945,1,10,0:2:0:0:
119,138,69104,6,0,P|160:125|204:142,1,82.5000025177003,6|0,3:2|3:0,0:0:0:0:
79,219,69423,2,0,P|38:232|-6:215,1,82.5000025177003,10|8,0:2|0:2,0:0:0:0:
160,208,69742,6,0,L|172:290,1,82.5000025177003,6|0,3:2|3:0,0:0:0:0:
38,148,70062,2,0,L|26:66,1,82.5000025177003,10|8,0:2|0:2,0:0:0:0:
134,77,70381,5,2,3:2:0:0:
251,196,70540,1,10,0:2:0:0:
225,65,70700,5,2,3:2:0:0:
160,208,70859,1,10,0:2:0:0:
132,64,71019,5,10,3:2:0:0:
260,204,71179,1,10,3:2:0:0:
217,24,71338,5,8,3:3:0:0:
217,24,71418,1,8,3:3:0:0:
217,24,71498,2,0,L|228:85,1,41.2500012588501,8|8,3:3|3:3,0:0:0:0:
297,118,71657,6,0,L|382:103,1,82.5000025177003,6|8,3:2|0:2,0:0:0:0:
412,268,71976,2,0,L|327:283,1,82.5000025177003,2|8,3:2|0:2,0:0:0:0:
260,204,72296,5,2,3:2:0:0:
351,192,72455,1,10,0:2:0:0:
442,180,72615,2,0,L|525:167,1,82.5000025177003,2|8,3:2|0:2,0:0:0:0:
378,103,72934,6,0,L|297:118,1,82.5000025177003,2|8,3:2|0:2,0:0:0:0:
330,282,73253,2,0,L|412:268,1,82.5000025177003,2|8,3:2|0:2,0:0:0:0:
442,180,73572,5,2,3:2:0:0:
351,192,73731,1,10,0:2:0:0:
260,204,73891,2,0,L|177:217,1,82.5000025177003,2|8,3:2|0:2,0:0:0:0:
44,304,74210,6,0,P|17:252|36:143,1,165.000005035401,2|0,3:2|3:0,0:0:0:0:
115,101,74689,1,10,0:2:0:0:
178,216,74849,2,0,P|195:252|187:292,1,82.5000025177003,2|10,3:2|0:2,0:0:0:0:
112,260,75168,2,0,P|95:224|103:184,1,82.5000025177003,2|8,3:2|0:2,0:0:0:0:
194,81,75487,6,0,P|150:95|98:102,1,82.5000025177003,2|8,3:2|0:2,0:0:0:0:
97,19,75806,2,0,P|137:11|176:0,1,82.5000025177003,2|8,3:2|0:2,0:0:0:0:
331,89,76125,6,0,P|375:103|427:110,1,82.5000025177003,2|8,3:2|0:2,0:0:0:0:
428,27,76444,2,0,P|387:19|348:7,1,82.5000025177003,2|8,3:2|0:2,0:0:0:0:
263,33,76764,5,10,3:2:0:0:
317,176,76923,1,10,3:2:0:0:
225,328,77242,6,0,P|174:302|212:198,1,165.000005035401,4|8,3:3|0:2,0:0:0:0:
270,256,77721,2,0,P|311:266|366:277,1,82.5000025177003,2|0,3:2|3:3,0:0:0:0:
452,286,78040,5,10,3:2:0:0:
317,176,78200,1,10,3:2:0:0:
428,44,78519,6,0,P|483:50|483:161,1,165.000005035401,4|8,3:3|0:2,0:0:0:0:
403,207,78998,2,0,P|413:166|424:111,1,82.5000025177003,10|10,0:2|0:2,0:0:0:0:
345,0,79317,5,6,3:2:0:0:
348,93,79476,1,10,0:2:0:0:
428,44,79636,1,2,3:2:0:0:
265,49,79796,2,0,L|180:62,1,82.5000025177003,10|0,0:2|3:0,0:0:0:0:
153,200,80115,2,0,L|322:174,1,165.000005035401,10|10,0:2|0:2,0:0:0:0:
501,144,80593,6,0,P|501:67|428:44,1,165.000005035401,2|2,3:2|3:2,0:0:0:0:
421,126,81072,2,0,P|412:166|402:207,1,82.5000025177003,10|0,0:2|3:0,0:0:0:0:
297,255,81391,2,0,P|305:214|315:174,1,82.5000025177003,10|0,0:2|3:0,0:0:0:0:
338,83,81710,1,10,0:2:0:0:
224,199,81870,6,0,P|183:208|143:217,1,82.5000025177003,12|2,3:2|0:2,0:0:0:0:
167,125,82189,5,14,3:2:0:0:
209,290,82349,1,0,3:0:0:0:
179,120,82508,5,12,3:2:0:0:
221,285,82668,1,0,3:0:0:0:
191,116,82827,5,12,3:2:0:0:
233,280,82987,1,0,3:0:0:0:
143,217,83147,5,12,3:2:0:0:
315,174,83306,1,2,3:2:0:0:
166,14,83945,5,0,3:0:0:0:
166,14,84104,2,0,P|179:57|190:116,1,104.999996795654,8|6,0:2|3:2,0:0:0:0:
0,84,89530,5,4,3:2:0:0:
77,37,89849,1,2,3:2:0:0:
156,80,90168,1,0,3:0:0:0:
158,169,90487,1,2,3:2:0:0:
52,283,90806,5,0,3:0:0:0:
72,194,91125,1,2,3:2:0:0:
158,169,91444,1,0,3:0:0:0:
223,231,91763,1,2,3:2:0:0:
357,142,92083,6,0,P|386:147|416:152,1,60,0|0,3:0|0:2,0:0:0:0:
369,229,92402,2,0,P|363:262|357:297,1,60,10|8,3:2|0:2,0:0:0:0:
282,241,92721,2,0,P|252:235|222:230,1,60,10|8,3:2|0:2,0:0:0:0:
270,154,93040,2,0,P|275:124|280:94,1,60,10|8,3:2|0:2,0:0:0:0:
127,171,94636,6,0,P|117:127|143:77,1,82.5000025177003,6|8,3:2|0:2,0:0:0:0:
273,94,94955,2,0,P|285:132|274:172,1,82.5000025177003,2|8,3:2|0:2,0:0:0:0:
199,216,95274,5,2,3:2:0:0:
203,131,95434,1,10,0:2:0:0:
271,261,95593,2,0,L|367:239,1,82.5000025177003,2|8,3:2|0:2,0:0:0:0:
127,171,95913,6,0,P|117:127|143:77,1,82.5000025177003,2|8,3:2|0:2,0:0:0:0:
273,93,96232,2,0,P|285:131|274:171,1,82.5000025177003,2|8,3:2|0:2,0:0:0:0:
199,216,96551,5,2,3:2:0:0:
203,131,96711,1,10,0:2:0:0:
125,256,96870,2,0,L|44:237,1,82.5000025177003,2|8,3:2|0:2,0:0:0:0:
271,261,97189,6,0,L|460:217,1,165.000005035401,2|0,3:2|3:0,0:0:0:0:
494,156,97668,1,10,0:2:0:0:
467,68,97828,2,0,P|426:47|371:65,1,82.5000025177003,2|10,3:2|0:2,0:0:0:0:
326,119,98147,2,0,P|366:139|421:121,1,82.5000025177003,2|8,3:2|0:2,0:0:0:0:
303,31,98466,6,0,L|216:45,1,82.5000025177003,2|8,3:2|0:2,0:0:0:0:
156,149,98785,2,0,L|75:163,1,82.5000025177003,2|8,3:2|0:2,0:0:0:0:
52,75,99104,6,0,L|134:62,1,82.5000025177003,2|8,3:2|0:2,0:0:0:0:
244,132,99423,2,0,L|326:119,1,82.5000025177003,2|8,3:2|0:2,0:0:0:0:
219,210,99742,5,2,3:2:0:0:
221,44,99902,1,2,3:2:0:0:
288,270,100221,6,0,P|213:240|125:266,1,165.000005035401,4|8,3:3|0:2,0:0:0:0:
168,334,100700,2,0,P|207:324|245:339,1,82.5000025177003,2|0,3:2|3:3,0:0:0:0:
332,342,101019,5,10,3:2:0:0:
219,210,101179,1,10,3:2:0:0:
376,79,101498,6,0,P|427:105|389:209,1,165.000005035401,4|0,3:3|3:0,0:0:0:0:
331,151,101977,2,0,P|290:141|235:130,1,82.5000025177003,2|10,3:2|0:2,0:0:0:0:
120,22,102296,5,6,3:2:0:0:
159,142,102455,1,10,0:2:0:0:
200,63,102615,1,2,3:2:0:0:
79,101,102774,2,0,P|38:110|-1:119,1,82.5000025177003,10|0,0:2|3:0,0:0:0:0:
5,279,103093,2,0,P|18:214|119:227,1,165.000005035401,10|10,0:2|0:2,0:0:0:0:
95,302,103572,6,0,P|186:279|278:260,1,165.000005035401,2|2,3:2|3:2,0:0:0:0:
441,220,104051,2,0,P|436:260|449:298,1,82.5000025177003,10|0,0:2|3:0,0:0:0:0:
341,297,104370,2,0,P|346:257|333:219,1,82.5000025177003,10|0,0:2|3:0,0:0:0:0:
225,70,104689,1,10,0:2:0:0:
276,148,104849,6,0,B|210:181|151:127|151:127|227:227|135:320|135:320|71:252|111:194,1,480,4|2,3:2|0:0,0:0:0:0:
26,33,106923,5,2,3:2:0:0:
26,33,107083,2,0,P|37:76|52:137,1,90,8|0,0:2|0:0,0:0:0:0:
49,130,107402,6,0,P|122:115|186:98,1,134.999995880127,4|0,3:2|3:0,0:0:0:0:
277,61,107881,38,0,B|294:51|331:65|331:65|321:13|276:-14|231:-14|196:3|160:57|188:119|258:146|258:146|329:172|357:235|321:288|286:306|241:306|213:291|213:291|233:239|201:207,1,720
131,259,109955,6,0,P|73:273|10:289,1,120,0|0,3:0|3:0,0:0:0:0:
139,109,110593,2,0,P|197:94|255:80,1,120,0|0,3:0|3:0,0:0:0:0:
60,180,111232,2,0,P|45:121|31:63,1,120,0|0,3:0|3:0,0:0:0:0:
210,188,111870,6,0,P|217:218|225:252,1,60,0|8,3:0|0:2,0:0:0:0:
228,254,112109,1,8,0:2:0:0:
230,262,112189,2,0,P|271:249|315:283,1,90,8|0,3:2|0:0,0:0:0:0:
315,281,112508,6,0,L|465:248,2,150,4|10|2,3:2|3:2|3:2,0:0:0:0:
249,345,113306,1,2,0:2:0:0:
249,345,113466,1,10,3:2:0:0:
158,302,113625,6,0,P|152:250|128:147,1,150,2|0,0:2|0:0,0:0:0:0:
82,79,114104,1,8,3:2:0:0:
171,75,114264,2,0,L|334:55,1,150,2|2,0:2|0:2,0:0:0:0:
290,156,114742,2,0,L|215:165,1,75,10|2,3:2|0:2,0:0:0:0:
41,160,115062,6,0,P|-1:113|28:16,2,150,0|10|2,3:0|3:2|3:2,0:0:0:0:
130,154,115859,1,0,0:0:0:0:
80,79,116019,1,10,3:2:0:0:
90,234,116179,6,0,P|158:241|247:253,1,150,6|8,3:2|0:2,0:0:0:0:
401,254,116657,1,0,3:0:0:0:
341,312,116817,2,0,P|319:253|364:178,1,150,2|8,0:2|3:3,0:0:0:0:
379,21,117296,2,0,P|415:30|408:103,1,112.5,8|0,3:3|0:0,0:0:0:0:
410,103,117615,6,0,L|323:87,1,75,14|0,3:2|0:0,0:0:0:0:
214,85,117934,5,14,3:2:0:0:
253,239,118093,1,0,3:0:0:0:
218,74,118253,5,14,3:2:0:0:
257,228,118412,1,2,3:2:0:0:
222,63,118573,5,14,3:2:0:0:
261,217,118732,1,8,0:2:0:0:
336,89,118891,1,6,3:2:0:0:
142,116,119210,6,0,P|108:62|162:4,1,150,12|0,3:3|0:0,0:0:0:0:
222,63,119689,2,0,L|237:153,1,75,2|10,0:2|0:2,0:0:0:0:
197,254,120008,6,0,P|270:237|344:225,1,150,6|10,3:2|0:2,0:0:0:0:
505,199,120487,1,8,3:3:0:0:
434,279,120647,6,0,P|422:204|406:131,1,150,6|10,3:2|0:2,0:0:0:0:
391,41,121126,1,8,3:3:0:0:
284,104,121285,6,0,P|211:121|137:133,1,150,6|10,3:2|0:2,0:0:0:0:
43,104,121764,1,10,3:2:0:0:
43,104,121843,1,8,3:2:0:0:
43,104,121923,6,0,P|67:49|165:62,1,150,6|8,3:2|0:0,0:0:0:0:
136,133,122402,2,0,B|170:185|134:240|134:240|99:296|134:352,1,225,8|0,3:3|0:2,0:0:0:0:
211,295,123040,6,0,P|266:285|377:262,1,150,6|8,3:2|0:2,0:0:0:0:
432,211,123519,1,10,0:0:0:0:
432,211,123599,1,10,0:0:0:0:
432,211,123679,2,0,L|420:165,1,37.5,8|8,3:3|3:3,0:0:0:0:
341,141,123838,2,0,L|353:95,1,37.5,8|8,3:3|3:3,0:0:0:0:
417,48,123998,1,6,3:2:0:0:
