osu file format v14

[General]
AudioFilename: audio.ogg
AudioLeadIn: 0
PreviewTime: 9024
Countdown: 0
SampleSet: None
StackLeniency: 0.3
Mode: 0
LetterboxInBreaks: 0
WidescreenStoryboard: 1

[Editor]
Bookmarks: 9104,14210,19317,29530,39742,49955,55062,57615,61445,71657,84423,89530,94636,104849,107402,112508,117615,120008,123998
DistanceSpacing: 0.9
BeatDivisor: 4
GridSize: 32
TimelineZoom: 1.6

[Metadata]
Title:Kiss me! Choose me!
TitleUnicode:Kiss me! Choose me!
Artist:Sakura Miko, Houshou Marine, AZKi
ArtistUnicode:さくらみこ、宝鐘マリン、AZKi
Creator:tomatas95
Version:L18's Extra
Source:アイキス2
Tags:eroge Ai Kiss 2 giga アイキス2 新入生はお好きですか? アイキス2/ゼロ Zero Ai Kiss 2 Shinnyuusei wa Osuki Desu ka? 戏画社 visual novel galgame buckfro cutefro iyasine Loneight l1106188 L18 frey vn opening op video game Hololive vtuber virtual youtuber virtual singer v-tuber japanese j-pop jpop pop
BeatmapID:4547548
BeatmapSetID:2105253

[Difficulty]
HPDrainRate:6
CircleSize:4
OverallDifficulty:8.5
ApproachRate:9.2
SliderMultiplier:2.8
SliderTickRate:2

[Events]
//Background and Video events
0,0,"Anmybeloved.jpg",0,0
Video,0,"recheckmymaptomachan.mp4"
//Break Periods
2,86976,88891
//Storyboard Layer 0 (Background)
//Storyboard Layer 1 (Fail)
//Storyboard Layer 2 (Pass)
//Storyboard Layer 3 (Foreground)
//Storyboard Layer 4 (Overlay)
//Storyboard Sound Samples

[TimingPoints]
7828,319.148936170213,4,2,1,60,1,0
8945,-500,4,2,1,60,0,0
9184,-500,4,2,1,5,0,0
9264,-153.846153846154,4,2,1,60,0,0
10062,-153.846153846154,4,2,2,60,0,0
10221,-153.846153846154,4,2,1,60,0,0
11338,-153.846153846154,4,2,2,60,0,0
11498,-153.846153846154,4,2,1,60,0,0
11657,-147.058823529412,4,2,1,60,0,0
11897,-147.058823529412,4,2,2,60,0,0
11976,-142.857142857143,4,2,2,60,0,0
12136,-142.857142857143,4,2,1,60,0,0
12216,-142.857142857143,4,2,2,60,0,0
12296,-136.986301369863,4,2,2,60,0,0
12455,-136.986301369863,4,2,1,60,0,0
12535,-136.986301369863,4,2,2,60,0,0
12615,-133.333333333333,4,2,2,60,0,0
12774,-133.333333333333,4,2,1,60,0,0
12854,-133.333333333333,4,2,2,60,0,0
12934,-128.205128205128,4,2,2,60,0,0
13093,-128.205128205128,4,2,1,60,0,0
13173,-128.205128205128,4,2,2,60,0,0
13253,-125,4,2,2,60,0,0
13413,-125,4,2,1,60,0,0
13891,-76.9230769230769,4,2,1,60,0,0
14051,-76.9230769230769,4,2,3,60,0,0
14210,-66.6666666666667,4,2,4,55,0,0
14530,-153.846153846154,4,2,4,55,0,0
15008,-181.818181818182,4,2,4,55,0,0
15487,-200,4,2,4,55,0,0
15966,-212.765957446809,4,2,4,55,0,0
16445,-222.222222222222,4,2,4,55,0,0
16764,-153.846153846154,4,2,1,65,0,0
17083,-142.857142857143,4,2,1,65,0,0
17402,-133.333333333333,4,2,1,65,0,0
17721,-125,4,2,1,65,0,0
18040,-111.111111111111,4,2,6,65,0,0
18359,-111.111111111111,4,2,1,65,0,0
18519,-111.111111111111,4,2,2,65,0,0
18679,-111.111111111111,4,2,7,65,0,0
19317,-83.3333333333333,4,2,6,75,0,1
19556,-83.3333333333333,4,2,1,75,0,1
19636,-66.6666666666667,4,2,1,75,0,1
19796,-66.6666666666667,4,2,6,75,0,1
19875,-66.6666666666667,4,2,1,75,0,1
19955,-133.333333333333,4,2,1,75,0,1
20115,-133.333333333333,4,2,6,75,0,1
20354,-133.333333333333,4,2,1,75,0,1
20434,-133.333333333333,4,2,6,75,0,1
20514,-133.333333333333,4,2,1,75,0,1
20593,-83.3333333333333,4,2,6,75,0,1
20833,-83.3333333333333,4,2,1,75,0,1
20913,-66.6666666666667,4,2,1,75,0,1
21072,-66.6666666666667,4,2,6,75,0,1
21232,-133.333333333333,4,2,6,75,0,1
21790,-133.333333333333,4,2,1,75,0,1
21870,-181.818181818182,4,2,6,75,0,1
22429,-200,4,2,1,75,0,1
22508,-200,4,2,6,75,0,1
23067,-200,4,2,1,75,0,1
23147,-66.6666666666667,4,2,6,75,0,1
23466,-133.333333333333,4,2,6,75,0,1
23785,-66.6666666666667,4,2,6,75,0,1
24104,-133.333333333333,4,2,6,75,0,1
24343,-133.333333333333,4,2,1,75,0,1
24423,-100,4,2,1,75,0,1
24583,-100,4,2,2,75,0,1
24902,-166.666666666667,4,2,3,75,0,1
25221,-166.666666666667,4,2,6,75,0,1
25301,-166.666666666667,4,2,1,75,0,1
25540,-166.666666666667,4,2,4,75,0,1
25700,-100,4,2,5,75,0,1
25859,-100,4,2,6,75,0,1
26179,-166.666666666667,4,2,13,75,0,1
26338,-166.666666666667,4,2,1,75,0,1
26498,-166.666666666667,4,2,6,75,0,1
26657,-166.666666666667,4,2,1,75,0,1
26817,-166.666666666667,4,2,4,75,0,1
26976,-100,4,2,4,75,0,1
27296,-100,4,2,6,75,0,1
27535,-100,4,2,1,75,0,1
27774,-166.666666666667,4,2,1,75,0,1
28093,-166.666666666667,4,2,6,75,0,1
28173,-166.666666666667,4,2,1,75,0,1
28413,-100,4,2,6,75,0,1
28492,-100,4,2,1,75,0,1
28572,-125,4,2,1,75,0,1
28732,-125,4,2,6,75,0,1
28891,-125,4,2,1,75,0,1
29210,-125,4,2,6,75,0,1
29290,-125,4,2,5,75,0,1
29370,-125,4,2,8,75,0,1
29450,-125,4,2,7,75,0,1
29530,-166.666666666667,4,2,6,60,0,0
29689,-166.666666666667,4,2,1,60,0,0
39423,-666.666666666667,4,2,2,60,0,0
39583,-666.666666666667,4,2,3,70,0,0
39663,-666.666666666667,4,2,3,70,0,0
39742,-100,4,2,1,70,0,0
39902,-100,4,2,2,70,0,0
40141,-100,4,2,2,5,0,0
40221,-166.666666666667,4,2,2,70,0,0
40540,-66.6666666666667,4,2,2,70,0,0
40620,-66.6666666666667,4,2,2,5,0,0
40700,-66.6666666666667,4,2,2,70,0,0
40859,-111.111111111111,4,2,2,70,0,0
40939,-111.111111111111,4,2,1,70,0,0
41019,-111.111111111111,4,2,2,70,0,0
42056,-111.111111111111,4,2,1,70,0,0
42136,-111.111111111111,4,2,2,70,0,0
42216,-111.111111111111,4,2,1,70,0,0
42296,-111.111111111111,4,2,2,70,0,0
42854,-111.111111111111,4,2,1,70,0,0
42934,-111.111111111111,4,2,2,70,0,0
43093,-250,4,2,2,70,0,0
43173,-250,4,2,2,5,0,0
43253,-250,4,2,2,70,0,0
43333,-250,4,2,2,5,0,0
43413,-250,4,2,2,70,0,0
43492,-250,4,2,1,70,0,0
43572,-111.111111111111,4,2,2,70,0,0
44530,-250,4,2,2,70,0,0
44609,-250,4,2,1,70,0,0
44689,-250,4,2,2,70,0,0
44769,-250,4,2,1,70,0,0
44849,-111.111111111111,4,2,1,70,0,0
44929,-111.111111111111,4,2,1,5,0,0
45008,-111.111111111111,4,2,2,70,0,0
45088,-111.111111111111,4,2,2,5,0,0
45168,-111.111111111111,4,2,2,70,0,0
45248,-111.111111111111,4,2,2,5,0,0
45328,-111.111111111111,4,2,2,70,0,0
45407,-111.111111111111,4,2,2,5,0,0
45487,-111.111111111111,4,2,2,70,0,0
45726,-111.111111111111,4,2,2,5,0,0
45806,-111.111111111111,4,2,2,70,0,0
45886,-111.111111111111,4,2,2,5,0,0
45966,-111.111111111111,4,2,2,70,0,0
46684,-111.111111111111,4,2,1,70,0,0
46764,-111.111111111111,4,2,2,70,0,0
47322,-111.111111111111,4,2,1,70,0,0
47402,-111.111111111111,4,2,4,70,0,0
47562,-111.111111111111,4,2,2,70,0,0
47960,-111.111111111111,4,2,1,70,0,0
48200,-111.111111111111,4,2,2,70,0,0
48439,-111.111111111111,4,2,2,5,0,0
48519,-111.111111111111,4,2,1,70,0,0
48758,-111.111111111111,4,2,1,5,0,0
48838,-111.111111111111,4,2,1,70,0,0
48918,-111.111111111111,4,2,1,5,0,0
48998,-111.111111111111,4,2,1,70,0,0
49078,-111.111111111111,4,2,1,5,0,0
49157,-111.111111111111,4,2,1,70,0,0
49237,-111.111111111111,4,2,1,5,0,0
49317,-111.111111111111,4,2,5,70,0,0
49636,-111.111111111111,4,2,2,70,0,0
49955,-142.857142857143,4,2,7,60,0,0
50274,-90.9090909090909,4,2,2,60,0,0
50381,-90.9090909090909,4,2,5,60,0,0
50487,-90.9090909090909,4,2,1,60,0,0
50593,-142.857142857143,4,2,1,60,0,0
50913,-90.9090909090909,4,2,12,60,0,0
51019,-90.9090909090909,4,2,15,60,0,0
51125,-90.9090909090909,4,2,11,60,0,0
51232,-142.857142857143,4,2,11,60,0,0
51551,-90.9090909090909,4,2,2,60,0,0
51657,-90.9090909090909,4,2,5,60,0,0
51764,-90.9090909090909,4,2,1,60,0,0
51870,-142.857142857143,4,2,1,60,0,0
52189,-90.9090909090909,4,2,12,60,0,0
52296,-90.9090909090909,4,2,15,60,0,0
52402,-90.9090909090909,4,2,11,60,0,0
52508,-142.857142857143,4,2,11,60,0,0
52828,-90.9090909090909,4,2,2,60,0,0
52934,-90.9090909090909,4,2,5,60,0,0
53040,-90.9090909090909,4,2,1,60,0,0
53147,-142.857142857143,4,2,1,60,0,0
53466,-90.9090909090909,4,2,12,60,0,0
53572,-90.9090909090909,4,2,15,60,0,0
53679,-90.9090909090909,4,2,11,60,0,0
53785,-166.666666666667,4,2,11,60,0,0
53998,-166.666666666667,4,2,11,5,0,0
54104,-250,4,2,11,60,0,0
54317,-250,4,2,11,5,0,0
54423,-400,4,2,11,60,0,0
54636,-400,4,2,11,5,0,0
54742,-500,4,2,4,60,0,0
54902,-500,4,2,4,5,0,0
55062,-100,4,2,1,70,0,0
55221,-100,4,2,2,70,0,0
55301,-100,4,2,1,70,0,0
55381,-100,4,2,2,70,0,0
56019,-100,4,2,1,70,0,0
56179,-100,4,2,2,70,0,0
56258,-100,4,2,1,70,0,0
56338,-100,4,2,2,70,0,0
56578,-100,4,2,1,70,0,0
56657,-100,4,2,2,70,0,0
57535,-100,4,2,1,70,0,0
57615,-333.333333333333,4,2,2,75,0,0
57774,-333.333333333333,4,2,2,5,0,0
57934,-333.333333333333,4,2,2,75,0,0
58891,-142.857142857143,4,2,2,75,0,0
58971,-142.857142857143,4,2,2,5,0,0
59051,-142.857142857143,4,2,2,75,0,0
59131,-142.857142857143,4,2,2,5,0,0
59210,-142.857142857143,4,2,2,75,0,0
59290,-142.857142857143,4,2,2,5,0,0
59370,-142.857142857143,4,2,2,75,0,0
59450,-142.857142857143,4,2,2,75,0,0
59530,-142.857142857143,4,2,2,75,0,0
60168,-666.666666666667,4,2,4,75,0,0
60248,-666.666666666667,4,2,4,75,0,0
60726,-666.666666666667,4,2,4,5,0,0
60806,-100,4,2,7,75,0,0
61445,-83.3333333333333,4,2,6,75,0,1
61684,-83.3333333333333,4,2,1,75,0,1
61764,-66.6666666666667,4,2,1,75,0,1
61923,-66.6666666666667,4,2,6,75,0,1
62083,-133.333333333333,4,2,6,75,0,1
62641,-133.333333333333,4,2,1,75,0,1
62721,-83.3333333333333,4,2,6,75,0,1
62960,-83.3333333333333,4,2,1,75,0,1
63040,-66.6666666666667,4,2,1,75,0,1
63200,-66.6666666666667,4,2,6,75,0,1
63359,-83.3333333333333,4,2,6,75,0,1
63679,-133.333333333333,4,2,6,75,0,1
63918,-133.333333333333,4,2,1,75,0,1
63998,-181.818181818182,4,2,6,75,0,1
65195,-200,4,2,1,75,0,1
65274,-66.6666666666667,4,2,6,75,0,1
65593,-133.333333333333,4,2,6,75,0,1
65833,-133.333333333333,4,2,1,75,0,1
65913,-66.6666666666667,4,2,6,75,0,1
66232,-133.333333333333,4,2,6,75,0,1
66471,-133.333333333333,4,2,1,75,0,1
66551,-200,4,2,6,75,0,1
66790,-200,4,2,1,75,0,1
67030,-200,4,2,6,75,0,1
67429,-200,4,2,1,75,0,1
67668,-200,4,2,6,75,0,1
68705,-200,4,2,1,75,0,1
68785,-200,4,2,6,75,0,1
69104,-100,4,2,1,75,0,1
69264,-100,4,2,6,75,0,1
69423,-666.666666666667,4,2,6,75,0,1
69663,-666.666666666667,4,2,1,75,0,1
69742,-100,4,2,4,75,0,1
69902,-100,4,2,6,75,0,1
70062,-666.666666666667,4,2,6,75,0,1
70301,-666.666666666667,4,2,1,75,0,1
70381,-100,4,2,6,75,0,1
70620,-100,4,2,1,75,0,1
70700,-100,4,2,6,75,0,1
71019,-100,4,2,5,75,0,1
71179,-100,4,2,1,75,0,1
71338,-83.3333333333333,4,2,6,75,0,0
71418,-83.3333333333333,4,2,5,75,0,0
71498,-83.3333333333333,4,2,8,75,0,0
71578,-83.3333333333333,4,2,7,75,0,0
71657,-83.3333333333333,4,2,6,75,0,1
71897,-83.3333333333333,4,2,1,75,0,1
71976,-66.6666666666667,4,2,1,75,0,1
72136,-66.6666666666667,4,2,6,75,0,1
72296,-133.333333333333,4,2,6,75,0,1
72854,-133.333333333333,4,2,1,75,0,1
72934,-83.3333333333333,4,2,6,75,0,1
73173,-83.3333333333333,4,2,1,75,0,1
73253,-66.6666666666667,4,2,1,75,0,1
73413,-66.6666666666667,4,2,6,75,0,1
73572,-133.333333333333,4,2,6,75,0,1
74131,-133.333333333333,4,2,1,75,0,1
74210,-181.818181818182,4,2,6,75,0,1
75407,-200,4,2,1,75,0,1
75487,-66.6666666666667,4,2,6,75,0,1
75806,-133.333333333333,4,2,6,75,0,1
76046,-133.333333333333,4,2,1,75,0,1
76125,-66.6666666666667,4,2,6,75,0,1
76445,-133.333333333333,4,2,6,75,0,1
76684,-133.333333333333,4,2,1,75,0,1
76764,-100,4,2,1,75,0,1
76923,-100,4,2,2,75,0,1
77242,-166.666666666667,4,2,3,75,0,1
77482,-166.666666666667,4,2,1,75,0,1
77881,-166.666666666667,4,2,1,75,0,1
78040,-100,4,2,5,75,0,1
78200,-100,4,2,6,75,0,1
78519,-166.666666666667,4,2,13,75,0,1
78758,-166.666666666667,4,2,13,5,0,1
78838,-166.666666666667,4,2,6,75,0,1
78998,-166.666666666667,4,2,1,75,0,1
79317,-111.111111111111,4,2,1,75,0,1
79397,-111.111111111111,4,2,1,5,0,1
79476,-111.111111111111,4,2,6,75,0,1
79556,-111.111111111111,4,2,6,5,0,1
79636,-111.111111111111,4,2,6,75,0,1
79716,-111.111111111111,4,2,1,75,0,1
79796,-166.666666666667,4,2,6,75,0,1
80035,-166.666666666667,4,2,6,5,0,1
80115,-166.666666666667,4,2,6,75,0,1
80354,-166.666666666667,4,2,6,5,0,1
80434,-166.666666666667,4,2,6,75,0,1
80514,-166.666666666667,4,2,1,75,0,1
80593,-166.666666666667,4,2,6,75,0,1
80833,-166.666666666667,4,2,6,5,0,1
80913,-166.666666666667,4,2,6,75,0,1
81790,-166.666666666667,4,2,1,75,0,1
81870,-333.333333333333,4,2,22,75,0,1
83306,-666.666666666667,4,2,1,70,0,0
83466,-666.666666666667,4,2,1,60,0,0
83865,-666.666666666667,4,2,1,5,0,0
83945,-100,4,2,1,60,0,0
84024,-100,4,2,1,5,0,0
84104,-166.666666666667,4,2,1,60,0,0
89530,-200,4,2,8,60,0,0
89689,-200,4,2,1,60,0,0
90168,-142.857142857143,4,2,1,60,0,0
90806,-117.647058823529,4,2,1,60,0,0
91445,-100,4,2,1,60,0,0
92083,-166.666666666667,4,2,1,60,0,0
92402,-166.666666666667,4,2,2,65,0,0
92562,-166.666666666667,4,2,1,65,0,0
92721,-166.666666666667,4,2,6,65,0,0
92881,-166.666666666667,4,2,1,65,0,0
93040,-166.666666666667,4,2,7,65,0,0
93200,-166.666666666667,4,2,1,65,0,0
94476,-166.666666666667,4,2,1,65,0,0
94636,-83.3333333333333,4,2,6,75,0,1
94875,-83.3333333333333,4,2,1,75,0,1
94955,-66.6666666666667,4,2,6,75,0,1
95195,-66.6666666666667,4,2,1,75,0,1
95274,-133.333333333333,4,2,1,75,0,1
95434,-133.333333333333,4,2,6,75,0,1
95833,-133.333333333333,4,2,1,75,0,1
95913,-83.3333333333333,4,2,6,75,0,1
96152,-83.3333333333333,4,2,1,75,0,1
96232,-66.6666666666667,4,2,1,75,0,1
96391,-66.6666666666667,4,2,6,75,0,1
96551,-133.333333333333,4,2,6,75,0,1
97109,-133.333333333333,4,2,1,75,0,1
97189,-200,4,2,6,75,0,1
98386,-200,4,2,1,75,0,1
98466,-66.6666666666667,4,2,6,75,0,1
98785,-133.333333333333,4,2,6,75,0,1
99024,-133.333333333333,4,2,1,75,0,1
99104,-66.6666666666667,4,2,6,75,0,1
99423,-133.333333333333,4,2,6,75,0,1
99663,-133.333333333333,4,2,1,75,0,1
99742,-100,4,2,1,75,0,1
99902,-100,4,2,2,75,0,1
99982,-100,4,2,2,5,0,1
100221,-166.666666666667,4,2,3,75,0,1
100460,-166.666666666667,4,2,1,75,0,1
100859,-166.666666666667,4,2,4,75,0,1
101019,-100,4,2,5,75,0,1
101179,-100,4,2,6,75,0,1
101258,-100,4,2,2,5,0,1
101498,-166.666666666667,4,2,13,75,0,1
101737,-100,4,2,2,5,0,1
101817,-166.666666666667,4,2,13,75,0,1
101976,-166.666666666667,4,2,1,75,0,1
102296,-100,4,2,6,75,0,1
102695,-100,4,2,1,75,0,1
102774,-166.666666666667,4,2,6,75,0,1
103014,-166.666666666667,4,2,6,5,0,1
103093,-166.666666666667,4,2,6,75,0,1
103333,-166.666666666667,4,2,6,5,0,1
103413,-166.666666666667,4,2,6,75,0,1
103492,-166.666666666667,4,2,1,75,0,1
103572,-166.666666666667,4,2,6,75,0,1
103812,-166.666666666667,4,2,6,5,0,1
103891,-166.666666666667,4,2,6,75,0,1
104290,-166.666666666667,4,2,6,5,0,1
104370,-166.666666666667,4,2,6,75,0,1
104769,-166.666666666667,4,2,1,75,0,1
104849,-333.333333333333,4,2,1,70,0,0
106125,-333.333333333333,4,2,1,20,0,0
106923,-100,4,2,1,60,0,0
107003,-100,4,2,1,5,0,0
107083,-166.666666666667,4,2,1,60,0,0
107322,-166.666666666667,4,2,1,5,0,0
107402,-166.666666666667,4,2,7,60,0,0
107562,-166.666666666667,4,2,1,60,0,0
108040,-142.857142857143,4,2,1,60,0,0
108679,-125,4,2,1,60,0,0
109317,-111.111111111111,4,2,1,60,0,0
109955,-100,4,2,1,60,0,0
110593,-90.9090909090909,4,2,1,60,0,0
111232,-83.3333333333333,4,2,1,60,0,0
111870,-125,4,2,1,60,0,0
112189,-166.666666666667,4,2,8,60,0,0
112508,-111.111111111111,4,2,1,70,0,0
112828,-111.111111111111,4,2,13,70,0,0
113147,-111.111111111111,4,2,13,70,0,0
113865,-111.111111111111,4,2,13,5,0,0
113945,-111.111111111111,4,2,13,70,0,0
114503,-111.111111111111,4,2,13,5,0,0
114583,-111.111111111111,4,2,13,70,0,0
115062,-166.666666666667,4,2,13,70,0,0
115301,-166.666666666667,4,2,11,5,0,0
115381,-111.111111111111,4,2,13,70,0,0
116019,-111.111111111111,4,2,2,70,0,0
116179,-166.666666666667,4,2,4,70,0,0
116418,-166.666666666667,4,2,11,5,0,0
116498,-111.111111111111,4,2,2,70,0,0
116737,-111.111111111111,4,2,2,70,0,0
116817,-111.111111111111,4,2,2,70,0,0
117136,-111.111111111111,4,2,3,70,0,0
117296,-166.666666666667,4,2,5,70,0,0
117455,-166.666666666667,4,2,9,70,0,0
117535,-166.666666666667,4,2,11,5,0,0
117615,-100,4,2,2,75,0,0
118891,-333.333333333333,4,2,2,75,0,0
119210,-83.3333333333333,4,2,4,75,0,0
119290,-166.666666666667,4,2,11,5,0,0
119370,-125,4,2,4,75,0,0
119609,-125,4,2,4,5,0,0
119689,-166.666666666667,4,2,2,75,0,0
120008,-166.666666666667,4,2,7,70,0,0
120248,-166.666666666667,4,2,7,5,0,0
120328,-100,4,2,2,70,0,0
120407,-100,4,2,2,5,0,0
120487,-100,4,2,5,70,0,0
120567,-100,4,2,5,5,0,0
120647,-166.666666666667,4,2,1,70,0,0
120886,-166.666666666667,4,2,1,5,0,0
120966,-100,4,2,2,70,0,0
121046,-100,4,2,2,5,0,0
121125,-100,4,2,2,70,0,0
121205,-100,4,2,2,5,0,0
121285,-166.666666666667,4,2,6,70,0,0
121445,-166.666666666667,4,2,2,70,0,0
121923,-166.666666666667,4,2,4,70,0,0
122163,-166.666666666667,4,2,4,5,0,0
122242,-166.666666666667,4,2,1,70,0,0
122402,-166.666666666667,4,2,2,70,0,0
122562,-166.666666666667,4,2,9,70,0,0
122721,-166.666666666667,4,2,3,70,0,0
122960,-166.666666666667,4,2,3,5,0,0
123040,-125,4,2,9,70,0,0
123359,-125,4,2,6,70,0,0
123519,-125,4,2,1,65,0,0
123679,-125,4,2,9,60,0,0
123838,-125,4,2,4,55,0,0
123998,-125,4,2,1,50,0,0

[Colours]
Combo1 : 249,164,189
Combo2 : 245,221,135
Combo3 : 231,169,243
Combo4 : 145,214,236

[HitObjects]
332,348,9104,6,0,P|338:356|338:372,1,14,4|4,3:2|0:0,0:0:0:0:
339,360,9264,6,0,P|388:305|343:209,1,181.999991668702,2|10,0:2|0:2,0:0:0:0:
461,157,9742,2,0,B|473:140|466:114|466:114|443:126|438:148,1,90.9999958343508,2|2,3:2|3:2,0:0:0:0:
512,226,10062,1,10,0:2:0:0:
402,60,10221,1,2,3:2:0:0:
407,50,10540,5,2,3:2:0:0:
315,83,10700,2,0,L|213:58,1,90.9999958343508,10|10,0:2|0:2,0:0:0:0:
209,228,11019,2,0,B|212:247|237:259|237:259|244:232|230:215,1,90.9999958343508,0|2,3:0|3:2,0:0:0:0:
144,28,11338,2,0,P|143:77|96:115,1,90.9999958343508,10|2,0:2|0:2,0:0:0:0:
9,128,11657,6,0,P|46:146|69:200,1,95.2000005810547,2|8,3:2|0:2,0:0:0:0:
118,273,11897,1,8,0:2:0:0:
118,273,11976,2,0,P|77:250|12:268,1,97.9999970092774,2|8,3:2|0:2,0:0:0:0:
21,352,12216,1,8,0:2:0:0:
21,352,12296,2,0,P|48:366|117:351,1,102.200002807007,2|10,3:2|0:2,0:0:0:0:
215,326,12535,1,8,0:2:0:0:
215,326,12615,2,0,L|201:218,1,105.000004005432,2|10,3:2|0:2,0:0:0:0:
161,134,12854,1,8,0:2:0:0:
161,134,12934,6,0,L|277:119,1,109.200003665772,0|10,3:0|0:2,0:0:0:0:
315,261,13253,1,2,3:2:0:0:
392,92,13413,1,8,0:2:0:0:
315,261,13572,6,0,P|317:299|361:246,1,168,2|8,3:2|0:2,0:0:0:0:
372,227,13891,6,0,P|362:335|294:251,1,272.999987503052,2|8,3:2|0:2,0:0:0:0:
275,250,14210,6,0,B|296:355|296:355|398:320,1,210.000008010865,6|0,3:2|0:0,0:0:0:0:
461,378,14530,6,0,P|471:287|497:200,1,181.999991668702,2|0,0:2|3:0,0:0:0:0:
350,39,15008,2,0,P|370:107|414:182,1,154.000004699707,2|0,3:2|3:0,0:0:0:0:
219,313,15487,2,0,P|258:248|309:203,1,140,2|8,0:2|0:2,0:0:0:0:
111,90,15966,2,0,P|153:145|206:182,1,131.599997991943,2|0,0:2|3:0,0:0:0:0:
65,261,16445,2,0,P|93:249|144:242,1,62.9999980773926,10|0,0:2|0:0,0:0:0:0:
124,242,16764,6,0,P|124:282|107:344,1,90.9999958343508,6|10,3:2|0:2,0:0:0:0:
18,257,17003,1,8,0:2:0:0:
18,257,17083,2,0,P|0:217|-13:145,1,97.9999970092774,8|8,0:2|0:2,0:0:0:0:
82,80,17322,1,0,0:0:0:0:
82,80,17402,2,0,P|127:101|188:112,1,105.000004005432,2|10,3:2|0:2,0:0:0:0:
291,224,17641,1,8,0:2:0:0:
291,224,17721,2,0,P|283:174|261:110,1,112,8|8,3:2|0:2,0:0:0:0:
326,14,18040,5,10,3:2:0:0:
349,4,18120,1,8,0:2:0:0:
378,9,18200,1,8,0:2:0:0:
400,30,18280,1,8,0:2:0:0:
382,56,18359,1,8,3:3:0:0:
369,86,18439,1,0,0:0:0:0:
369,120,18519,1,8,3:3:0:0:
384,152,18599,1,0,0:0:0:0:
408,179,18679,1,2,3:2:0:0:
446,194,18758,1,0,0:0:0:0:
480,218,18838,1,0,0:0:0:0:
500,257,18918,1,0,0:0:0:0:
493,303,18998,1,10,0:2:0:0:
455,336,19078,1,8,0:0:0:0:
403,329,19157,1,8,0:0:0:0:
372,282,19237,1,8,0:0:0:0:
380,229,19317,6,0,B|410:196|416:154|416:154|448:182|492:187,1,167.999994873047,6|8,3:2|0:2,0:0:0:0:
329,125,19636,2,0,B|367:84|375:32|375:32|414:67|469:73,1,210.000008010865,2|8,3:2|0:2,0:0:0:0:
292,259,19955,1,2,3:2:0:0:
296,161,20115,1,10,0:2:0:0:
299,63,20274,2,0,P|311:117|333:174,1,105.000004005432,2|8,3:2|0:2,0:0:0:0:
132,229,20593,6,0,B|102:196|96:154|96:154|64:182|20:187,1,167.999994873047,2|8,3:2|0:2,0:0:0:0:
183,125,20913,2,0,B|145:84|137:32|137:32|98:67|43:73,1,210.000008010865,2|8,3:2|0:2,0:0:0:0:
220,259,21231,1,2,3:2:0:0:
216,161,21391,1,10,0:2:0:0:
213,63,21551,2,0,P|201:117|179:174,1,105.000004005432,2|8,3:2|0:2,0:0:0:0:
25,323,21870,6,0,B|19:297|42:294|42:294|161:317,1,154.000004699707,2|0,3:2|3:0,0:0:0:0:
245,334,22349,1,10,0:2:0:0:
433,257,22508,1,2,3:2:0:0:
336,239,22668,1,10,0:2:0:0:
240,219,22828,1,2,3:2:0:0:
221,190,22907,1,0,0:0:0:0:
230,158,22987,1,8,0:2:0:0:
261,144,23067,1,8,0:2:0:0:
292,158,23147,6,0,B|342:167|385:138|385:138|435:107|494:121,1,210.000008010865,2|8,3:2|0:2,0:0:0:0:
398,37,23466,2,0,P|342:37|296:63,1,105.000004005432,2|8,3:2|0:2,0:0:0:0:
224,229,23785,6,0,B|174:238|131:209|131:209|81:178|22:192,1,210.000008010865,2|8,3:2|0:2,0:0:0:0:
118,108,24104,2,0,P|174:108|220:134,1,105.000004005432,2|8,3:2|0:2,0:0:0:0:
127,337,24423,5,10,3:2:0:0:
332,298,24583,2,0,P|380:251|415:175,1,140,10|2,3:2|0:2,0:0:0:0:
340,338,24902,6,0,L|186:257,1,167.999994873047,4|8,3:3|0:2,0:0:0:0:
98,212,25381,1,2,3:2:0:0:
56,217,25460,1,8,0:2:0:0:
27,247,25540,1,10,3:2:0:0:
32,342,25700,5,8,3:2:0:0:
196,178,25859,2,0,P|185:107|147:49,1,140,8|0,3:2|0:0,0:0:0:0:
178,211,26179,6,0,L|270:183,1,83.9999974365235,4|8,3:3|0:2,0:0:0:0:
270,183,26418,1,8,0:2:0:0:
282,180,26498,1,8,3:2:0:0:
315,267,26657,1,2,3:2:0:0:
303,271,26737,1,8,0:2:0:0:
291,275,26817,1,0,3:3:0:0:
348,354,26976,5,2,3:2:0:0:
427,279,27136,1,2,3:2:0:0:
378,191,27296,1,10,0:2:0:0:
408,28,27455,2,0,P|476:7|501:67,1,140,2|4,0:2|3:2,0:0:0:0:
283,38,27774,2,0,L|186:69,1,83.9999974365235,2|8,3:2|0:2,0:0:0:0:
281,349,28093,6,0,L|184:318,1,83.9999974365235,10|0,0:2|3:0,0:0:0:0:
100,255,28413,2,0,P|90:226|117:236,1,70,10|0,0:2|0:0,0:0:0:0:
208,227,28572,5,2,3:2:0:0:
154,241,28651,1,8,0:2:0:0:
100,255,28732,2,0,L|33:238,1,56,8|0,0:2|0:0,0:0:0:0:
23,161,28891,1,2,3:2:0:0:
79,163,28971,1,8,0:2:0:0:
133,162,29051,1,8,0:2:0:0:
158,112,29131,1,8,0:2:0:0:
180,61,29210,1,8,3:3:0:0:
217,36,29290,1,8,3:3:0:0:
250,38,29370,1,8,3:3:0:0:
265,61,29450,1,8,3:3:0:0:
265,80,29530,6,0,L|285:171,1,83.9999974365235,4|2,3:2|0:2,0:0:0:0:
350,65,29849,1,2,3:2:0:0:
448,127,30008,1,2,0:2:0:0:
366,143,30168,1,2,3:2:0:0:
284,161,30327,1,2,0:2:0:0:
350,65,30487,1,2,3:2:0:0:
448,127,30647,2,0,L|472:216,1,83.9999974365235,2|0,0:2|3:0,0:0:0:0:
353,257,30966,5,2,0:2:0:0:
374,339,31125,1,2,3:2:0:0:
266,282,31285,2,0,L|244:200,1,83.9999974365235,2|0,0:2|3:0,0:0:0:0:
165,151,31604,2,0,L|83:129,1,83.9999974365235,2|0,0:2|3:0,0:0:0:0:
246,107,31923,2,0,L|305:47,1,83.9999974365235,2|0,0:2|3:0,0:0:0:0:
143,32,32242,5,2,0:2:0:0:
114,112,32402,1,2,3:2:0:0:
86,192,32562,1,2,0:2:0:0:
191,141,32721,1,0,3:0:0:0:
143,32,32881,1,2,0:2:0:0:
114,112,33040,2,0,L|83:202,1,83.9999974365235,2|2,3:2|0:2,0:0:0:0:
58,272,33359,5,2,3:2:0:0:
191,141,33519,1,2,0:2:0:0:
86,192,33679,1,2,3:2:0:0:
165,227,33838,2,0,P|200:224|259:264,1,83.9999974365235,2|0,0:2|3:0,0:0:0:0:
302,104,34157,2,0,P|338:75|348:20,1,83.9999974365235,2|0,0:2|3:0,0:0:0:0:
329,212,34476,2,0,P|349:240|341:294,1,83.9999974365235,2|4,0:2|3:2,0:0:0:0:
263,309,34796,5,2,0:2:0:0:
238,228,34955,1,2,3:2:0:0:
213,147,35115,1,2,0:2:0:0:
160,251,35274,1,2,3:2:0:0:
263,309,35434,1,2,0:2:0:0:
238,228,35593,1,2,3:2:0:0:
213,147,35753,1,2,0:2:0:0:
328,42,36072,5,2,0:2:0:0:
213,147,36232,1,2,3:2:0:0:
313,164,36391,2,0,P|353:156|384:128,1,83.9999974365235,2|0,0:2|3:0,0:0:0:0:
247,224,36710,2,0,P|233:263|243:304,1,83.9999974365235,2|0,0:2|3:0,0:0:0:0:
160,93,37030,2,0,P|199:104|226:136,1,83.9999974365235,2|0,0:2|3:0,0:0:0:0:
188,250,37349,5,2,0:2:0:0:
113,288,37508,2,0,L|32:322,1,83.9999974365235,2|0,3:2|0:0,0:0:0:0:
79,211,37828,1,2,3:2:0:0:
188,250,37987,1,2,0:2:0:0:
113,288,38146,1,2,3:2:0:0:
35,321,38306,1,2,0:2:0:0:
99,375,38466,5,2,3:2:0:0:
79,211,38625,1,2,0:2:0:0:
186,336,38785,1,2,3:2:0:0:
175,219,38945,1,2,0:2:0:0:
273,297,39104,1,10,3:2:0:0:
322,304,39184,1,0,0:0:0:0:
368,284,39264,1,8,0:2:0:0:
401,288,39343,1,8,0:2:0:0:
420,304,39423,2,0,L|414:344,1,31.4999990386963,8|8,3:2|0:2,0:0:0:0:
439,372,39742,6,0,L|461:218,1,140,6|10,3:2|0:2,0:0:0:0:
393,90,40062,2,0,P|421:74|418:103,1,70,2|0,3:2|0:0,0:0:0:0:
384,171,40221,2,0,L|279:143,1,83.9999974365235,10|0,0:2|3:0,0:0:0:0:
385,90,40540,2,0,P|427:66|422:109,1,105.000004005432,10|0,0:2|0:0,0:0:0:0:
224,125,40700,1,2,3:2:0:0:
343,253,40859,2,0,P|265:218|215:216,1,125.999996154785,10|0,0:2|3:0,0:0:0:0:
345,342,41179,1,10,0:2:0:0:
152,265,41338,2,0,P|81:300|47:334,1,125.999996154785,2|8,3:2|0:2,0:0:0:0:
171,359,41657,5,2,3:2:0:0:
235,294,41817,1,10,0:2:0:0:
223,206,41976,1,2,3:2:0:0:
355,44,42136,2,0,P|311:101|253:147,1,125.999996154785,10|0,0:2|3:0,0:0:0:0:
443,38,42455,1,2,0:2:0:0:
372,180,42615,2,0,P|386:246|423:307,1,125.999996154785,2|8,3:2|0:2,0:0:0:0:
414,296,42934,1,0,3:0:0:0:
458,130,43093,6,0,L|424:119,1,28,10|0,0:2|0:0,0:0:0:0:
372,180,43253,2,0,L|353:159,1,28,2|0,3:2|0:0,0:0:0:0:
272,180,43413,2,0,L|264:145,1,28,10|8,0:2|0:2,0:0:0:0:
215,79,43572,5,2,3:2:0:0:
280,270,43732,1,10,0:2:0:0:
192,279,43891,1,2,3:2:0:0:
134,129,44051,2,0,B|159:102|169:73|169:73|165:39|151:15,1,125.999996154785,10|0,0:2|3:0,0:0:0:0:
113,221,44370,1,10,0:2:0:0:
41,133,44530,2,0,L|31:93,1,28,2|8,3:2|0:2,0:0:0:0:
117,68,44689,2,0,L|123:95,1,28,10|8,0:2|0:2,0:0:0:0:
155,174,44849,6,0,P|172:208|195:252,1,62.9999980773926,6|0,3:2|0:0,0:0:0:0:
238,293,45008,2,0,P|272:276|316:253,1,62.9999980773926,10|0,0:2|0:0,0:0:0:0:
357,210,45168,2,0,P|340:176|317:132,1,62.9999980773926,2|0,3:2|0:0,0:0:0:0:
274,91,45328,2,0,P|240:108|196:131,1,62.9999980773926,10|0,0:2|0:0,0:0:0:0:
177,270,45487,5,2,3:2:0:0:
254,201,45647,2,0,P|222:192|170:193,1,62.9999980773926,10|0,0:2|0:0,0:0:0:0:
177,270,45806,2,0,P|209:279|261:278,1,62.9999980773926,2|0,3:2|0:0,0:0:0:0:
115,333,45966,2,0,P|76:276|11:219,1,125.999996154785,10|0,0:2|3:0,0:0:0:0:
196,373,46285,1,10,0:2:0:0:
256,171,46445,2,0,P|194:148|128:138,1,125.999996154785,2|8,3:2|0:2,0:0:0:0:
248,62,46764,1,2,3:2:0:0:
327,99,46923,1,10,0:2:0:0:
409,68,47083,1,2,3:2:0:0:
470,225,47242,5,10,0:2:0:0:
469,242,47322,1,8,0:2:0:0:
467,258,47402,2,0,P|423:206|396:152,1,125.999996154785,4|2,3:2|3:2,0:0:0:0:
383,316,47721,1,10,0:2:0:0:
283,195,47881,1,0,3:0:0:0:
276,211,47960,1,0,3:0:0:0:
269,226,48040,2,0,P|249:191|224:166,1,62.9999980773926,4|0,3:2|0:0,0:0:0:0:
163,255,48200,2,0,P|143:220|118:195,1,62.9999980773926,2|0,3:2|0:0,0:0:0:0:
43,136,48359,2,0,L|117:117,1,62.9999980773926,10|0,0:2|0:0,0:0:0:0:
26,141,48519,5,8,0:2:0:0:
24,161,48599,1,8,0:2:0:0:
22,179,48679,2,0,L|33:256,1,62.9999980773926,2|0,3:2|0:0,0:0:0:0:
141,263,48838,2,0,L|133:326,1,62.9999980773926,10|0,0:2|0:0,0:0:0:0:
232,127,48998,2,0,L|243:204,1,62.9999980773926,2|0,3:2|0:0,0:0:0:0:
351,273,49157,2,0,L|343:336,1,62.9999980773926,10|0,0:2|0:0,0:0:0:0:
404,83,49317,5,2,3:2:0:0:
449,104,49397,1,8,0:2:0:0:
465,149,49476,1,8,0:2:0:0:
443,191,49556,1,8,0:2:0:0:
398,205,49636,1,8,3:3:0:0:
375,192,49716,1,8,3:3:0:0:
370,167,49796,1,8,3:3:0:0:
388,150,49875,1,8,3:3:0:0:
408,156,49955,6,0,P|436:223|452:286,1,130.666662679037,6|0,3:2|0:0,0:0:0:0:
323,256,50274,2,0,P|318:310|296:358,2,102.666669799805,10|8|8,1:2|1:2|1:2,0:0:0:0:
176,147,50593,2,0,P|193:83|218:23,1,130.666662679037,2|0,3:2|0:0,0:0:0:0:
73,127,50913,2,0,P|52:76|21:35,2,102.666669799805,10|8|8,3:2|3:2|3:2,0:0:0:0:
172,316,51232,6,0,P|110:313|18:283,1,130.666662679037,2|0,3:2|0:0,0:0:0:0:
121,209,51551,2,0,P|171:200|225:173,2,102.666669799805,10|8|8,1:2|1:2|1:2,0:0:0:0:
299,274,51870,2,0,P|360:285|439:312,1,130.666662679037,0|0,3:0|0:0,0:0:0:0:
394,167,52189,2,0,P|448:153|494:149,2,102.666669799805,10|8|8,3:2|3:2|3:2,0:0:0:0:
263,52,52508,6,0,P|188:61|117:88,1,130.666662679037,2|0,3:2|0:0,0:0:0:0:
48,136,52828,2,0,P|87:173|119:213,1,102.666669799805,10|8,1:2|1:2,0:0:0:0:
76,304,53040,1,8,1:2:0:0:
214,321,53147,2,0,P|229:257|238:193,1,130.666662679037,2|0,3:2|0:0,0:0:0:0:
314,261,53466,2,0,P|365:283|421:300,1,102.666669799805,10|8,3:2|3:2,0:0:0:0:
473,215,53679,1,8,3:2:0:0:
326,156,53785,6,0,L|305:22,1,111.999996582031,2|0,3:2|0:0,0:0:0:0:
286,52,54104,2,0,L|273:125,1,74.6666666666667,2|0,3:2|0:0,0:0:0:0:
247,120,54423,2,0,L|237:61,1,46.6666666666667,0|0,3:0|0:0,0:0:0:0:
219,78,54742,2,0,L|212:111,1,28,8|0,0:0|0:0,0:0:0:0:
238,214,55062,5,4,3:2:0:0:
420,137,55221,1,10,0:2:0:0:
265,232,55381,1,2,3:2:0:0:
385,148,55540,1,10,0:2:0:0:
390,330,55700,1,2,3:2:0:0:
350,159,55859,1,10,0:2:0:0:
397,294,56019,1,2,3:2:0:0:
292,256,56179,1,8,0:2:0:0:
279,261,56258,1,8,0:2:0:0:
265,266,56338,1,0,3:0:0:0:
88,319,56498,5,10,0:2:0:0:
188,353,56657,1,2,3:2:0:0:
89,216,56817,1,10,0:2:0:0:
195,178,56976,1,2,3:2:0:0:
88,319,57136,1,10,0:2:0:0:
0,121,57296,1,2,3:2:0:0:
7,134,57375,1,0,0:0:0:0:
13,147,57455,2,0,L|25:78,1,70,8|8,0:2|0:2,0:0:0:0:
127,26,57615,6,0,L|177:35,1,41.9999987182618,6|0,3:2|0:0,0:0:0:0:
422,63,57934,2,0,L|413:113,1,41.9999987182618,12|2,3:2|3:2,0:0:0:0:
385,358,58253,2,0,L|335:349,1,41.9999987182618,14|0,3:2|3:0,0:0:0:0:
90,321,58572,2,0,L|99:271,1,41.9999987182618,12|2,3:2|3:2,0:0:0:0:
156,107,58891,6,0,L|216:121,1,48.9999985046387,14|0,3:2|0:0,0:0:0:0:
341,92,59051,2,0,L|327:152,1,48.9999985046387,10|0,0:2|0:0,0:0:0:0:
356,277,59210,2,0,L|296:263,1,48.9999985046387,14|0,3:2|0:0,0:0:0:0:
171,292,59370,2,0,L|185:232,1,48.9999985046387,10|0,0:2|3:0,0:0:0:0:
256,192,59530,6,0,B|284:188|306:215|295:253|267:275|231:287|194:275|150:221|159:161|182:121|255:94|309:137,1,342.999989532471,14|8,3:2|3:2,0:0:0:0:
276,121,60168,6,0,P|306:121|292:88,1,73.4999977569581,8|0,3:3|0:0,0:0:0:0:
283,83,60806,5,2,0:2:0:0:
272,71,60886,1,2,0:2:0:0:
267,54,60966,1,2,3:2:0:0:
273,37,61046,1,2,0:2:0:0:
291,29,61125,1,10,3:2:0:0:
315,30,61205,1,2,0:2:0:0:
343,61,61285,1,2,0:2:0:0:
341,103,61365,1,2,0:2:0:0:
309,142,61445,6,0,P|316:228|380:277,1,167.999994873047,6|8,3:2|0:2,0:0:0:0:
441,164,61764,2,0,P|407:77|490:20,1,210.000008010865,2|8,3:2|0:2,0:0:0:0:
476,258,62083,1,2,3:2:0:0:
388,298,62242,1,10,0:2:0:0:
300,260,62402,2,0,B|290:191|290:191|311:162,1,105.000004005432,2|8,3:2|0:2,0:0:0:0:
195,129,62641,1,8,0:2:0:0:
203,142,62721,6,0,P|196:228|132:277,1,167.999994873047,2|8,3:2|0:2,0:0:0:0:
71,164,63040,2,0,P|105:77|22:20,1,210.000008010865,2|8,3:2|0:2,0:0:0:0:
36,258,63359,1,2,3:2:0:0:
124,298,63518,1,10,0:2:0:0:
211,260,63679,2,0,B|221:329|221:329|201:358,1,105.000004005432,2|8,3:2|0:2,0:0:0:0:
113,208,63918,1,8,0:2:0:0:
109,192,63998,6,0,B|101:174|117:153|117:153|137:126|141:79|108:46,1,154.000004699707,2|0,3:2|3:0,0:0:0:0:
28,108,64476,1,10,0:2:0:0:
218,196,64636,1,2,3:2:0:0:
282,121,64796,1,10,0:2:0:0:
346,46,64955,1,2,3:2:0:0:
357,78,65034,1,0,0:0:0:0:
378,105,65114,1,8,0:2:0:0:
409,121,65194,1,8,0:2:0:0:
443,124,65274,6,0,B|461:149|447:181|447:181|402:174|402:174|385:216|385:216|351:213|338:183,1,210.000008010865,2|8,3:2|0:2,0:0:0:0:
269,75,65593,2,0,P|216:35|149:42,1,105.000004005432,2|8,3:2|0:2,0:0:0:0:
66,198,65913,6,0,B|47:223|61:255|61:255|106:248|106:248|123:290|123:290|157:287|170:257,1,210.000008010865,2|8,3:2|0:2,0:0:0:0:
240,149,66232,2,0,P|293:109|360:116,1,105.000004005432,2|8,3:2|0:2,0:0:0:0:
447,262,66551,6,0,L|433:336,1,70,6|8,3:2|0:2,0:0:0:0:
329,106,66870,2,0,L|315:32,1,70,2|8,3:2|0:2,0:0:0:0:
185,185,67189,2,0,L|171:253,1,70,2|8,3:2|0:2,0:0:0:0:
45,351,67508,2,0,L|31:282,1,70,2|10,3:2|0:2,0:0:0:0:
175,170,67748,1,0,0:0:0:0:
185,185,67828,2,0,L|171:253,1,70,2|8,3:2|0:2,0:0:0:0:
329,106,68147,2,0,L|315:32,1,70,2|8,3:2|0:2,0:0:0:0:
447,262,68466,2,0,L|433:336,1,70,2|8,3:2|0:2,0:0:0:0:
335,309,68785,1,2,3:2:0:0:
332,298,68865,1,0,0:0:0:0:
329,287,68945,1,10,0:2:0:0:
326,276,69024,1,0,0:0:0:0:
323,265,69104,6,0,P|292:239|255:230,1,70,6|0,3:2|0:0,0:0:0:0:
189,271,69264,2,0,P|153:269|110:243,1,70,0|0,3:0|0:0,0:0:0:0:
58,180,69423,2,0,L|63:158,1,20.9999993591309,10|8,0:2|0:2,0:0:0:0:
45,128,69663,1,8,0:2:0:0:
37,114,69742,6,0,P|59:90|108:84,1,70,6|0,3:2|0:0,0:0:0:0:
174,123,69902,2,0,P|205:136|251:130,1,70,0|0,3:0|0:0,0:0:0:0:
313,66,70062,2,0,L|321:36,1,31.4999990386963,10|8,0:2|0:2,0:0:0:0:
318,174,70381,5,2,3:2:0:0:
472,234,70540,1,10,0:2:0:0:
365,281,70700,1,2,3:2:0:0:
425,127,70859,1,10,0:2:0:0:
456,24,71019,5,10,3:2:0:0:
441,19,71099,1,10,0:2:0:0:
424,18,71179,1,10,3:2:0:0:
407,24,71258,1,10,0:2:0:0:
387,37,71338,1,8,3:3:0:0:
360,80,71418,1,8,3:3:0:0:
313,98,71498,1,8,3:3:0:0:
262,92,71578,1,8,3:3:0:0:
224,59,71657,6,0,P|165:22|110:91,1,167.999994873047,6|8,3:2|0:2,0:0:0:0:
157,221,71976,2,0,P|103:142|18:186,1,210.000008010865,2|8,3:2|0:2,0:0:0:0:
115,370,72296,1,2,3:2:0:0:
81,282,72455,1,10,0:2:0:0:
157,221,72615,2,0,L|270:198,1,105.000004005432,2|8,3:2|0:2,0:0:0:0:
398,103,72854,1,8,0:2:0:0:
402,85,72934,6,0,P|356:23|288:59,1,167.999994873047,2|8,3:2|0:2,0:0:0:0:
494,186,73253,2,0,P|408:141|354:221,1,210.000008010865,2|8,3:2|0:2,0:0:0:0:
312,370,73573,1,2,3:2:0:0:
278,282,73732,1,10,0:2:0:0:
353,219,73891,2,0,L|466:196,1,105.000004005432,2|8,3:2|0:2,0:0:0:0:
306,43,74131,1,8,0:2:0:0:
320,37,74210,6,0,B|346:40|341:62|341:62|282:165,1,154.000004699707,2|0,3:2|3:0,0:0:0:0:
234,237,74689,1,10,0:2:0:0:
39,177,74849,1,2,3:2:0:0:
181,313,75008,1,10,0:2:0:0:
110,245,75168,1,2,3:2:0:0:
135,221,75248,1,0,0:0:0:0:
148,188,75328,1,8,0:2:0:0:
144,153,75407,1,8,0:2:0:0:
121,125,75487,6,0,B|145:80|126:28|126:28|65:26|35:78,1,210.000008010865,2|8,3:2|0:2,0:0:0:0:
110,245,75806,2,0,L|217:259,1,105.000004005432,2|8,3:2|0:2,0:0:0:0:
371,135,76125,6,0,B|395:90|376:38|376:38|315:36|285:88,1,210.000008010865,2|8,3:2|0:2,0:0:0:0:
366,313,76445,2,0,L|473:327,1,105.000004005432,2|8,3:2|0:2,0:0:0:0:
480,232,76764,5,10,3:2:0:0:
282,300,76923,2,0,P|260:236|247:161,1,140,10|2,3:2|0:2,0:0:0:0:
277,327,77242,6,0,L|126:313,1,125.999996154785,4|8,3:3|0:2,0:0:0:0:
138,274,77562,1,8,0:2:0:0:
58,219,77721,1,2,3:2:0:0:
21,239,77801,1,8,0:2:0:0:
0,275,77881,1,8,0:2:0:0:
37,360,78040,5,10,3:2:0:0:
203,229,78200,2,0,L|287:358,1,140,10|2,3:2|0:2,0:0:0:0:
208,202,78519,6,0,P|242:160|256:76,1,125.999996154785,4|0,3:3|0:0,0:0:0:0:
249,49,78838,1,8,0:2:0:0:
134,20,78998,1,10,0:2:0:0:
129,40,79078,1,8,0:2:0:0:
121,63,79157,1,10,0:2:0:0:
101,90,79237,1,8,0:2:0:0:
70,104,79317,6,0,L|3:87,1,62.9999980773926,6|0,3:2|0:0,0:0:0:0:
4,173,79476,2,0,L|26:253,1,62.9999980773926,10|0,0:2|0:0,0:0:0:0:
105,219,79636,2,0,L|153:169,1,62.9999980773926,2|8,3:2|0:2,0:0:0:0:
242,127,79796,6,0,P|234:192|215:256,1,125.999996154785,10|0,0:2|0:0,0:0:0:0:
305,322,80115,2,0,P|313:257|332:193,1,125.999996154785,10|0,0:2|0:0,0:0:0:0:
412,238,80434,1,10,0:2:0:0:
218,330,80593,2,0,P|147:308|80:298,1,125.999996154785,2|0,3:2|0:0,0:0:0:0:
18,342,80913,1,2,3:2:0:0:
139,213,81072,2,0,P|179:201|220:192,1,83.9999974365235,10|0,0:2|3:0,0:0:0:0:
433,132,81391,2,0,P|392:120|351:111,1,83.9999974365235,10|0,0:2|3:0,0:0:0:0:
375,208,81710,1,10,0:2:0:0:
281,36,81870,6,0,L|233:46,1,41.9999987182618,12|2,3:2|0:2,0:0:0:0:
412,217,82189,2,0,L|402:169,1,41.9999987182618,14|0,3:2|3:0,0:0:0:0:
231,348,82508,2,0,L|279:338,1,41.9999987182618,12|0,3:2|3:0,0:0:0:0:
100,167,82828,2,0,L|110:215,1,41.9999987182618,12|0,3:2|3:0,0:0:0:0:
281,36,83147,5,12,3:2:0:0:
231,348,83306,2,0,L|216:273,1,73.4999977569581,2|0,3:2|0:0,0:0:0:0:
203,281,83945,6,0,P|172:265|130:264,1,70,0|0,3:0|0:0,0:0:0:0:
57,300,84104,2,0,P|120:266|100:181,1,167.999994873047,8|6,0:2|3:2,0:0:0:0:
175,353,89530,6,0,L|106:341,1,70,4|2,3:2|0:2,0:0:0:0:
95,326,89849,1,2,3:2:0:0:
192,342,90008,1,2,0:2:0:0:
333,267,90168,6,0,L|429:251,1,97.9999970092774,0|2,3:0|0:2,0:0:0:0:
445,226,90487,1,2,3:2:0:0:
309,251,90646,1,2,0:2:0:0:
161,182,90806,6,0,L|43:162,1,119.000002269745,0|2,3:0|0:2,0:0:0:0:
24,132,91125,1,2,3:2:0:0:
188,159,91284,1,2,0:2:0:0:
333,88,91445,6,0,L|471:64,1,140,0|2,3:0|0:2,0:0:0:0:
493,29,91764,1,2,3:2:0:0:
300,61,91923,1,2,0:2:0:0:
107,93,92083,6,0,L|59:78,1,41.9999987182618,0|0,3:0|0:0,0:0:0:0:
55,207,92242,1,0,0:2:0:0:
55,207,92322,1,8,0:2:0:0:
55,207,92402,2,0,P|79:185|83:147,1,41.9999987182618,10|0,3:2|0:0,0:0:0:0:
187,147,92562,1,8,0:2:0:0:
187,147,92641,1,8,0:2:0:0:
187,147,92721,2,0,L|232:177,1,41.9999987182618,10|0,3:2|0:0,0:0:0:0:
290,273,92881,1,8,0:2:0:0:
290,273,92960,1,8,0:2:0:0:
290,273,93040,6,0,L|233:258,1,41.9999987182618,10|0,3:2|0:0,0:0:0:0:
374,255,93200,2,0,L|358:198,1,41.9999987182618,8|8,0:2|0:2,0:0:0:0:
458,237,94476,2,0,L|499:195,1,41.9999987182618,8|8,0:2|0:2,0:0:0:0:
487,206,94636,6,0,B|461:231|414:247|414:247|370:245|330:227,1,167.999994873047,6|8,3:2|0:2,0:0:0:0:
175,312,94955,2,0,B|221:293|276:296|276:296|326:319|361:361,1,210.000008010865,2|8,3:2|0:2,0:0:0:0:
175,312,95274,1,2,3:2:0:0:
196,219,95434,1,10,0:2:0:0:
297,194,95593,2,0,L|277:316,1,105.000004005432,2|8,3:2|0:2,0:0:0:0:
97,173,95833,1,8,0:2:0:0:
93,157,95913,6,0,B|119:132|166:116|166:116|210:118|250:136,1,167.999994873047,2|8,3:2|0:2,0:0:0:0:
405,51,96232,2,0,B|359:70|304:67|304:67|254:44|219:2,1,210.000008010865,2|8,3:2|0:2,0:0:0:0:
405,51,96551,1,2,3:2:0:0:
384,144,96711,1,10,0:2:0:0:
283,169,96870,2,0,L|303:47,1,105.000004005432,2|8,3:2|0:2,0:0:0:0:
369,227,97109,1,8,0:2:0:0:
372,241,97189,6,0,B|355:273|368:306|368:306|429:361,1,140,2|0,3:2|3:0,0:0:0:0:
506,304,97668,1,10,0:2:0:0:
290,356,97828,1,2,3:2:0:0:
254,164,97987,1,10,0:2:0:0:
272,260,98147,1,2,3:2:0:0:
270,294,98226,1,0,0:0:0:0:
244,315,98306,1,8,0:2:0:0:
211,309,98386,1,8,0:2:0:0:
192,281,98466,6,0,B|188:221|118:212|90:255|90:255|68:289|26:287,1,210.000008010865,2|8,3:2|0:2,0:0:0:0:
86,143,98785,2,0,P|148:132|217:154,1,105.000004005432,2|8,3:2|0:2,0:0:0:0:
335,208,99104,6,0,B|338:267|408:276|436:233|436:233|459:200|501:202,1,210.000008010865,2|8,3:2|0:2,0:0:0:0:
317,112,99423,2,0,P|353:60|418:27,1,105.000004005432,2|8,3:2|0:2,0:0:0:0:
427,75,99663,1,8,0:2:0:0:
444,92,99742,5,2,3:2:0:0:
225,102,99902,2,0,P|209:73|219:18,1,70,2|0,3:2|0:0,0:0:0:0:
197,314,100221,2,0,L|313:255,1,125.999996154785,4|8,3:3|0:2,0:0:0:0:
329,218,100540,1,8,0:2:0:0:
413,173,100700,1,2,3:2:0:0:
454,179,100780,1,8,0:2:0:0:
480,210,100859,1,0,3:3:0:0:
487,300,101019,5,10,3:2:0:0:
264,331,101179,2,0,L|196:313,1,70,10|0,3:2|0:0,0:0:0:0:
332,27,101498,2,0,P|302:91|237:94,1,125.999996154785,4|0,3:3|0:0,0:0:0:0:
212,91,101817,1,0,3:0:0:0:
96,51,101976,1,2,3:2:0:0:
71,57,102056,1,8,0:2:0:0:
49,77,102136,1,10,0:2:0:0:
35,112,102216,1,8,0:2:0:0:
38,157,102296,6,0,L|53:226,1,70,6|0,3:2|0:0,0:0:0:0:
111,280,102455,2,0,L|163:232,1,70,10|0,0:2|0:0,0:0:0:0:
187,149,102615,2,0,L|119:127,1,70,2|8,3:2|0:2,0:0:0:0:
210,65,102774,6,0,P|277:89|333:81,1,125.999996154785,10|0,0:2|0:0,0:0:0:0:
474,186,103093,2,0,P|415:194|347:157,1,125.999996154785,10|0,0:2|0:0,0:0:0:0:
418,105,103413,1,10,0:2:0:0:
292,230,103572,2,0,P|315:292|356:350,1,125.999996154785,2|0,3:2|0:0,0:0:0:0:
432,338,103891,1,2,3:2:0:0:
217,276,104051,2,0,P|194:214|153:156,1,125.999996154785,10|0,0:2|0:0,0:0:0:0:
228,85,104370,2,0,P|293:96|363:89,1,125.999996154785,10|0,0:2|0:0,0:0:0:0:
434,49,104689,1,10,0:2:0:0:
442,39,104769,1,8,0:2:0:0:
450,29,104849,6,0,B|508:80|446:164|446:164|407:215|414:255|449:278|491:261|500:240|484:212,1,335.999989746094,4|2,3:2|0:0,0:0:0:0:
483,211,106923,6,0,P|455:235|412:222,1,70,2|0,3:2|0:0,0:0:0:0:
340,152,107083,2,0,P|376:122|361:167,1,125.999996154785,8|0,0:2|0:0,0:0:0:0:
335,251,107402,5,4,3:2:0:0:
252,233,107562,1,0,0:0:0:0:
322,335,107721,2,0,L|417:320,1,83.9999974365235,0|0,3:0|0:0,0:0:0:0:
252,233,108040,5,0,3:0:0:0:
270,150,108200,1,0,0:0:0:0:
161,257,108359,2,0,L|179:371,1,97.9999970092774,0|0,3:0|0:0,0:0:0:0:
270,150,108679,5,0,3:0:0:0:
353,168,108839,1,0,0:0:0:0:
258,47,108998,2,0,L|144:65,1,112,0|0,3:0|0:0,0:0:0:0:
353,168,109317,5,0,3:0:0:0:
335,251,109477,1,0,0:0:0:0:
471,125,109636,2,0,L|447:-21,1,125.999996154785,0|0,3:0|0:0,0:0:0:0:
270,150,109955,5,0,3:0:0:0:
335,251,110115,1,0,0:0:0:0:
160,168,110274,2,0,L|3:198,1,140,0|0,3:0|0:0,0:0:0:0:
252,233,110593,5,0,3:0:0:0:
353,168,110753,1,0,0:0:0:0:
322,335,110913,2,0,L|474:311,1,154.000004699707,0|0,3:0|0:0,0:0:0:0:
204,238,111232,6,0,P|172:268|223:364,1,167.999994873047,0|0,3:0|0:0,0:0:0:0:
353,168,111551,2,0,P|385:138|334:42,1,167.999994873047,0|0,3:0|0:0,0:0:0:0:
311,263,111870,2,0,L|427:290,1,112,0|8,3:0|0:2,0:0:0:0:
488,358,112109,1,8,0:2:0:0:
484,346,112189,2,0,P|498:304|501:241,1,83.9999974365235,8|0,3:2|0:0,0:0:0:0:
452,183,112429,1,0,0:0:0:0:
458,167,112508,6,0,L|328:139,1,125.999996154785,4|0,3:2|0:0,0:0:0:0:
196,58,112828,2,0,P|141:104|86:109,1,125.999996154785,10|0,3:2|0:0,0:0:0:0:
204,41,113147,1,2,3:2:0:0:
212,128,113306,1,2,0:2:0:0:
221,215,113466,1,10,3:2:0:0:
230,302,113625,6,0,P|170:248|60:299,1,188.999994232178,2|0,0:2|0:0,0:0:0:0:
64,320,113945,1,0,0:0:0:0:
143,356,114104,1,8,3:2:0:0:
187,177,114264,2,0,P|249:140|339:196,1,188.999994232178,2|0,0:2|0:0,0:0:0:0:
350,239,114583,1,2,0:2:0:0:
367,152,114742,1,10,3:2:0:0:
384,65,114902,1,2,0:2:0:0:
437,251,115062,6,0,P|470:314|518:362,1,125.999996154785,0|0,3:0|0:0,0:0:0:0:
294,267,115381,2,0,P|314:203|323:136,1,125.999996154785,10|0,3:2|0:0,0:0:0:0:
302,60,115620,1,0,0:0:0:0:
297,51,115700,1,2,3:2:0:0:
392,65,115859,1,0,0:0:0:0:
225,118,116019,1,10,3:2:0:0:
414,188,116179,6,0,P|399:246|353:325,1,125.999996154785,6|0,3:2|0:0,0:0:0:0:
327,287,116498,1,8,0:2:0:0:
188,208,116657,1,0,3:0:0:0:
170,364,116817,1,2,0:2:0:0:
132,359,116897,1,0,0:0:0:0:
94,355,116976,1,0,3:0:0:0:
13,293,117136,1,8,3:3:0:0:
94,101,117296,2,0,P|72:152|25:203,1,125.999996154785,8|0,3:3|0:0,0:0:0:0:
45,284,117615,6,0,L|211:313,1,140,14|0,3:2|0:0,0:0:0:0:
126,126,117934,2,0,L|292:97,1,140,14|0,3:2|3:0,0:0:0:0:
386,34,118253,1,14,3:2:0:0:
300,205,118413,1,2,3:2:0:0:
395,193,118572,1,14,3:2:0:0:
433,223,118652,1,8,0:2:0:0:
472,202,118732,1,8,0:2:0:0:
475,168,118812,1,8,0:2:0:0:
464,148,118891,6,0,P|447:129|444:80,1,62.9999980773926,6|0,3:2|0:0,0:0:0:0:
440,92,119210,6,0,P|403:57|347:56,1,83.9999974365235,12|0,3:3|0:0,0:0:0:0:
309,93,119370,2,0,B|296:141|331:181|331:181|363:217|350:257,1,168,2|0,0:0|0:0,0:0:0:0:
304,309,119689,1,2,0:2:0:0:
270,302,119769,1,0,0:0:0:0:
237,295,119849,1,10,0:2:0:0:
115,340,120008,6,0,P|149:287|152:205,1,125.999996154785,6|0,3:2|0:0,0:0:0:0:
103,160,120328,2,0,P|71:175|21:180,1,70,10|0,0:2|0:0,0:0:0:0:
13,101,120487,2,0,P|45:86|95:81,1,70,8|0,3:3|0:0,0:0:0:0:
218,15,120647,6,0,P|204:85|240:156,1,125.999996154785,6|0,3:2|0:0,0:0:0:0:
287,188,120966,2,0,P|310:166|377:159,1,70,10|0,0:2|0:0,0:0:0:0:
387,228,121125,2,0,P|364:250|297:257,1,70,8|0,3:3|0:0,0:0:0:0:
237,272,121285,6,0,L|179:250,1,41.9999987182618,6|0,3:2|0:0,0:0:0:0:
161,228,121445,1,8,0:2:0:0:
151,180,121524,1,8,0:2:0:0:
152,130,121604,1,10,0:2:0:0:
174,85,121684,1,8,0:2:0:0:
217,58,121764,1,10,0:2:0:0:
266,51,121843,1,8,0:2:0:0:
315,59,121923,2,0,L|458:94,1,125.999996154785,6|0,3:2|0:0,0:0:0:0:
385,174,122242,5,8,3:0:0:0:
378,162,122322,1,8,3:3:0:0:
330,144,122402,1,8,3:3:0:0:
282,160,122482,1,8,3:3:0:0:
266,208,122562,1,8,3:3:0:0:
290,252,122642,1,8,3:3:0:0:
335,272,122721,1,8,3:3:0:0:
363,313,122801,1,8,3:3:0:0:
359,363,122881,2,0,L|298:344,1,41.9999987182618,8|0,3:0|0:0,0:0:0:0:
228,325,123040,6,0,P|162:366|85:251,1,224,6|8,3:2|0:2,0:0:0:0:
82,224,123439,1,10,0:2:0:0:
124,195,123519,1,10,0:2:0:0:
172,180,123599,1,10,0:2:0:0:
201,154,123679,1,8,3:3:0:0:
207,121,123758,1,8,3:3:0:0:
190,91,123838,1,8,3:3:0:0:
163,83,123918,1,8,3:3:0:0:
141,91,123998,1,6,3:2:0:0:
