osu file format v14

[General]
AudioFilename: audio.ogg
AudioLeadIn: 0
PreviewTime: 9024
Countdown: 0
SampleSet: Soft
StackLeniency: 0.3
Mode: 0
LetterboxInBreaks: 0
WidescreenStoryboard: 1

[Editor]
Bookmarks: 9104,14210,19317,29530,39742,49955,55062,57615,61445,71657,84423,89530,94636,104849,107402,112508,117615,120008,123998
DistanceSpacing: 0.9
BeatDivisor: 4
GridSize: 32
TimelineZoom: 1

[Metadata]
Title:Kiss me! Choose me!
TitleUnicode:Kiss me! Choose me!
Artist:Sakura Miko, Houshou Marine, AZKi
ArtistUnicode:さくらみこ、宝鐘マリン、AZKi
Creator:tomatas95
Version:Kiss is only the first step to prove your love for me...
Source:アイキス2
Tags:eroge Ai Kiss 2 giga アイキス2 新入生はお好きですか? アイキス2/ゼロ Zero Ai Kiss 2 Shinnyuusei wa Osuki Desu ka? 戏画社 visual novel galgame buckfro cutefro iyasine Loneight l1106188 L18 frey vn opening op video game Hololive vtuber virtual youtuber virtual singer v-tuber japanese j-pop jpop pop
BeatmapID:4417333
BeatmapSetID:2105253

[Difficulty]
HPDrainRate:5
CircleSize:4
OverallDifficulty:9
ApproachRate:9.4
SliderMultiplier:1.8
SliderTickRate:1

[Events]
//Background and Video events
0,0,"Nanasemywife.jpg",0,0
Video,0,"recheckmymaptomachan.mp4"
//Break Periods
2,84623,88976
//Storyboard Layer 0 (Background)
//Storyboard Layer 1 (Fail)
//Storyboard Layer 2 (Pass)
//Storyboard Layer 3 (Foreground)
//Storyboard Layer 4 (Overlay)
//Storyboard Sound Samples

[TimingPoints]
7828,319.148936170213,4,2,1,60,1,0
9104,-111.111111111111,4,2,1,60,0,0
9264,-100,4,2,1,60,0,0
10062,-100,4,2,2,60,0,0
10221,-100,4,2,1,60,0,0
11338,-100,4,2,2,60,0,0
11498,-100,4,2,1,60,0,0
11897,-100,4,2,2,60,0,0
12136,-100,4,2,1,60,0,0
12216,-100,4,2,2,60,0,0
12455,-100,4,2,1,60,0,0
12535,-100,4,2,2,60,0,0
12774,-100,4,2,1,60,0,0
12854,-100,4,2,2,60,0,0
13093,-100,4,2,1,60,0,0
13173,-100,4,2,2,60,0,0
13413,-71.4285714285714,4,2,1,60,0,0
13891,-100,4,2,1,60,0,0
14051,-100,4,2,3,60,0,0
14210,-90.9090909090909,4,2,4,55,0,0
14370,-100,4,2,4,55,0,0
14530,-125,4,2,4,55,0,0
15487,-111.111111111111,4,2,4,55,0,0
15966,-125,4,2,4,55,0,0
16764,-66.6666666666667,4,2,1,65,0,0
17083,-100,4,2,1,65,0,0
18040,-66.6666666666667,4,2,6,65,0,0
18359,-83.3333333333333,4,2,1,65,0,0
18519,-83.3333333333333,4,2,2,65,0,0
18679,-83.3333333333333,4,2,7,65,0,0
19317,-55.5555555555556,4,2,6,75,0,1
19556,-55.5555555555556,4,2,1,75,0,1
19796,-55.5555555555556,4,2,6,75,0,1
19875,-55.5555555555556,4,2,1,75,0,1
20115,-55.5555555555556,4,2,6,75,0,1
20274,-66.6666666666667,4,2,6,75,0,1
20354,-66.6666666666667,4,2,1,75,0,1
20434,-66.6666666666667,4,2,6,75,0,1
20514,-66.6666666666667,4,2,1,75,0,1
20593,-71.4285714285714,4,2,6,75,0,1
20833,-66.6666666666667,4,2,1,75,0,1
21072,-66.6666666666667,4,2,6,75,0,1
21232,-100,4,2,6,75,0,1
21551,-55.5555555555556,4,2,6,75,0,1
21790,-55.5555555555556,4,2,1,75,0,1
21870,-66.6666666666667,4,2,6,75,0,1
22189,-100,4,2,6,75,0,1
22429,-100,4,2,1,75,0,1
22508,-100,4,2,6,75,0,1
23067,-100,4,2,1,75,0,1
23147,-76.9230769230769,4,2,6,75,0,1
24343,-76.9230769230769,4,2,1,75,0,1
24583,-76.9230769230769,4,2,2,75,0,1
24902,-66.6666666666667,4,2,3,75,0,1
25221,-66.6666666666667,4,2,6,75,0,1
25301,-66.6666666666667,4,2,1,75,0,1
25381,-100,4,2,1,75,0,1
25540,-100,4,2,4,75,0,1
25700,-100,4,2,5,75,0,1
25859,-100,4,2,6,75,0,1
26179,-66.6666666666665,4,2,13,75,0,1
26338,-66.6666666666665,4,2,1,75,0,1
26498,-66.6666666666665,4,2,6,75,0,1
26657,-66.6666666666665,4,2,1,75,0,1
26817,-66.6666666666665,4,2,4,75,0,1
26976,-66.6666666666665,4,2,4,75,0,1
27296,-83.3333333333333,4,2,6,75,0,1
27535,-83.3333333333333,4,2,1,75,0,1
27615,-66.6666666666665,4,2,1,75,0,1
27935,-83.3333333333333,4,2,1,75,0,1
28093,-83.3333333333333,4,2,6,75,0,1
28173,-83.3333333333333,4,2,1,75,0,1
28253,-55.5555555555556,4,2,1,75,0,1
28413,-55.5555555555556,4,2,6,75,0,1
28492,-55.5555555555556,4,2,1,75,0,1
28572,-62.5,4,2,1,75,0,1
28732,-62.5,4,2,6,75,0,1
28891,-62.5,4,2,1,75,0,1
29210,-62.5,4,2,6,75,0,1
29290,-62.5,4,2,5,75,0,1
29370,-62.5,4,2,8,75,0,1
29450,-62.5,4,2,7,75,0,1
29530,-111.111111111111,4,2,6,60,0,0
29689,-111.111111111111,4,2,1,60,0,0
39423,-111.111111111111,4,2,2,60,0,0
39583,-111.111111111111,4,2,3,70,0,0
39742,-66.6666666666665,4,2,1,70,0,0
39902,-66.6666666666665,4,2,2,70,0,0
40939,-66.6666666666665,4,2,1,70,0,0
41019,-66.6666666666665,4,2,2,70,0,0
41338,-83.3333333333335,4,2,2,70,0,0
42056,-83.3333333333335,4,2,1,70,0,0
42135,-66.6666666666665,4,2,2,70,0,0
42216,-66.6666666666665,4,2,1,70,0,0
42296,-66.6666666666665,4,2,2,70,0,0
42615,-83.3333333333335,4,2,2,70,0,0
42854,-83.3333333333335,4,2,1,70,0,0
42934,-100,4,2,2,70,0,0
43253,-66.6666666666665,4,2,2,70,0,0
43492,-66.6666666666665,4,2,1,70,0,0
43572,-100,4,2,2,70,0,0
44051,-66.6666666666665,4,2,2,70,0,0
44609,-66.6666666666665,4,2,1,70,0,0
44689,-66.6666666666665,4,2,2,70,0,0
44769,-66.6666666666665,4,2,1,70,0,0
44849,-83.3333333333333,4,2,1,70,0,0
45008,-66.6666666666667,4,2,2,70,0,0
45487,-83.3333333333335,4,2,2,70,0,0
46684,-83.3333333333335,4,2,1,70,0,0
46764,-83.3333333333335,4,2,2,70,0,0
47322,-83.3333333333335,4,2,1,70,0,0
47402,-71.4285714285714,4,2,4,70,0,0
47562,-71.4285714285714,4,2,2,70,0,0
47960,-71.4285714285714,4,2,1,70,0,0
48200,-71.4285714285714,4,2,2,70,0,0
48519,-71.4285714285714,4,2,1,70,0,0
49317,-71.4285714285714,4,2,5,70,0,0
49636,-71.4285714285714,4,2,2,70,0,0
49955,-90.909090909091,4,2,7,60,0,0
50274,-90.909090909091,4,2,2,60,0,0
50381,-90.909090909091,4,2,5,60,0,0
50487,-90.909090909091,4,2,1,60,0,0
50913,-90.909090909091,4,2,12,60,0,0
51019,-90.909090909091,4,2,15,60,0,0
51125,-90.909090909091,4,2,11,60,0,0
51551,-90.909090909091,4,2,2,60,0,0
51657,-90.909090909091,4,2,5,60,0,0
51764,-90.909090909091,4,2,1,60,0,0
52189,-90.909090909091,4,2,12,60,0,0
52296,-90.909090909091,4,2,15,60,0,0
52402,-90.909090909091,4,2,11,60,0,0
52828,-90.909090909091,4,2,2,60,0,0
52934,-90.909090909091,4,2,5,60,0,0
53040,-90.909090909091,4,2,1,60,0,0
53466,-90.909090909091,4,2,12,60,0,0
53572,-90.909090909091,4,2,15,60,0,0
53679,-90.909090909091,4,2,11,60,0,0
53785,-100,4,2,11,60,0,0
54742,-250,4,2,4,60,0,0
55062,-55.5555555555555,4,2,1,70,0,0
55221,-55.5555555555555,4,2,2,70,0,0
55301,-55.5555555555555,4,2,1,70,0,0
55381,-100,4,2,2,70,0,0
55700,-58.8235294117647,4,2,2,70,0,0
56019,-58.8235294117647,4,2,1,70,0,0
56179,-83.3333333333335,4,2,2,70,0,0
56258,-83.3333333333335,4,2,1,70,0,0
56338,-66.6666666666665,4,2,2,70,0,0
56578,-66.6666666666665,4,2,1,70,0,0
56657,-66.6666666666665,4,2,2,70,0,0
56976,-55.5555555555555,4,2,2,70,0,0
57296,-76.9230769230769,4,2,2,70,0,0
57455,-83.3333333333333,4,2,2,70,0,0
57535,-66.6666666666665,4,2,1,70,0,0
57615,-55.5555555555555,4,2,2,75,0,0
58253,-66.6666666666665,4,2,2,75,0,0
59530,-123.456790123457,4,2,2,75,0,0
60168,-123.456790123457,4,2,4,75,0,0
60806,-123.456790123457,4,2,7,75,0,0
61445,-50,4,2,6,75,0,1
61684,-50,4,2,1,75,0,1
61764,-83.3333333333335,4,2,1,75,0,1
61923,-83.3333333333335,4,2,6,75,0,1
62402,-55.5555555555555,4,2,6,75,0,1
62641,-55.5555555555555,4,2,1,75,0,1
62721,-55.5555555555555,4,2,6,75,0,1
62960,-55.5555555555555,4,2,1,75,0,1
63200,-55.5555555555555,4,2,6,75,0,1
63679,-66.6666666666665,4,2,6,75,0,1
63918,-66.6666666666665,4,2,1,75,0,1
63998,-100,4,2,6,75,0,1
64157,-55.5555555555555,4,2,6,75,0,1
64636,-100,4,2,6,75,0,1
64955,-43.4782608695652,4,2,6,75,0,1
65195,-43.4782608695652,4,2,1,75,0,1
65274,-66.6666666666665,4,2,6,75,0,1
65833,-66.6666666666665,4,2,1,75,0,1
65913,-66.6666666666665,4,2,6,75,0,1
66471,-66.6666666666665,4,2,1,75,0,1
66551,-55.5555555555555,4,2,6,75,0,1
66790,-55.5555555555555,4,2,1,75,0,1
66870,-83.3333333333335,4,2,1,75,0,1
67030,-83.3333333333335,4,2,6,75,0,1
67189,-71.4285714285715,4,2,6,75,0,1
67429,-71.4285714285715,4,2,1,75,0,1
67508,-100,4,2,1,75,0,1
67668,-100,4,2,6,75,0,1
67828,-100,4,2,6,75,0,1
68466,-55.5555555555555,4,2,6,75,0,1
68705,-55.5555555555555,4,2,1,75,0,1
68785,-100,4,2,6,75,0,1
69104,-100,4,2,1,75,0,1
69264,-100,4,2,6,75,0,1
69663,-100,4,2,1,75,0,1
69742,-100,4,2,4,75,0,1
69902,-100,4,2,6,75,0,1
70301,-100,4,2,1,75,0,1
70381,-66.6666666666665,4,2,6,75,0,1
70620,-66.6666666666665,4,2,1,75,0,1
70700,-66.6666666666665,4,2,6,75,0,1
71019,-66.6666666666665,4,2,5,75,0,1
71179,-66.6666666666665,4,2,1,75,0,1
71338,-90.9090909090909,4,2,6,75,0,0
71418,-90.9090909090909,4,2,5,75,0,0
71498,-90.9090909090909,4,2,8,75,0,0
71578,-90.9090909090909,4,2,7,75,0,0
71657,-55.5555555555555,4,2,6,75,0,1
71897,-55.5555555555555,4,2,1,75,0,1
71976,-83.3333333333335,4,2,1,75,0,1
72136,-83.3333333333335,4,2,6,75,0,1
72614,-55.5555555555555,4,2,6,75,0,1
72854,-55.5555555555555,4,2,1,75,0,1
72934,-55.5555555555555,4,2,6,75,0,1
73173,-66.6666666666667,4,2,1,75,0,1
73413,-66.6666666666667,4,2,6,75,0,1
73891,-55.5555555555555,4,2,6,75,0,1
74131,-55.5555555555555,4,2,1,75,0,1
74210,-100,4,2,6,75,0,1
74369,-55.5555555555556,4,2,6,75,0,1
74849,-100,4,2,6,75,0,1
75168,-45.4545454545455,4,2,6,75,0,1
75407,-45.4545454545455,4,2,1,75,0,1
75487,-66.6666666666665,4,2,6,75,0,1
76046,-66.6666666666665,4,2,1,75,0,1
76125,-66.6666666666665,4,2,6,75,0,1
76684,-66.6666666666665,4,2,1,75,0,1
76923,-66.6666666666665,4,2,2,75,0,1
77243,-66.6666666666665,4,2,3,75,0,1
77482,-66.6666666666665,4,2,1,75,0,1
77721,-100,4,2,1,75,0,1
77881,-100,4,2,4,75,0,1
78040,-100,4,2,5,75,0,1
78200,-100,4,2,6,75,0,1
78519,-66.6666666666665,4,2,13,75,0,1
78838,-66.6666666666665,4,2,6,75,0,1
78998,-66.6666666666665,4,2,1,75,0,1
79317,-90.909090909091,4,2,1,75,0,1
79476,-90.909090909091,4,2,6,75,0,1
79716,-90.909090909091,4,2,1,75,0,1
79796,-66.6666666666665,4,2,6,75,0,1
80115,-66.6666666666667,4,2,6,75,0,1
80274,-62.5,4,2,6,75,0,1
80514,-55.5555555555555,4,2,1,75,0,1
80594,-100,4,2,6,75,0,1
80753,-55.5555555555555,4,2,6,75,0,1
81072,-62.5,4,2,6,75,0,1
81790,-66.6666666666665,4,2,1,75,0,1
81870,-76.9230769230769,4,2,22,75,0,1
83306,-100,4,2,1,70,0,0
83466,-100,4,2,1,60,0,0
83945,-125,4,2,1,60,0,0
84104,-90.9090909090909,4,2,1,60,0,0
84343,-90.9090909090909,4,2,1,5,0,0
84423,-90.9090909090909,4,2,1,60,0,0
89530,-125,4,2,8,60,0,0
89689,-125,4,2,1,60,0,0
92083,-100,4,2,1,60,0,0
92402,-100,4,2,2,65,0,0
92562,-100,4,2,1,65,0,0
92721,-100,4,2,6,65,0,0
92881,-100,4,2,1,65,0,0
93040,-100,4,2,7,65,0,0
93200,-100,4,2,1,65,0,0
94636,-55.5555555555555,4,2,6,75,0,1
94875,-55.5555555555555,4,2,1,75,0,1
94955,-55.5555555555556,4,2,6,75,0,1
95195,-55.5555555555556,4,2,1,75,0,1
95274,-100,4,2,1,75,0,1
95434,-100,4,2,6,75,0,1
95593,-55.5555555555555,4,2,6,75,0,1
95833,-55.5555555555555,4,2,1,75,0,1
95912,-50,4,2,6,75,0,1
96152,-50,4,2,1,75,0,1
96231,-83.3333333333335,4,2,1,75,0,1
96391,-83.3333333333335,4,2,6,75,0,1
96870,-55.5555555555555,4,2,6,75,0,1
97109,-55.5555555555555,4,2,1,75,0,1
97189,-100,4,2,6,75,0,1
97348,-55.5555555555556,4,2,6,75,0,1
97828,-100,4,2,6,75,0,1
98147,-45.4545454545455,4,2,6,75,0,1
98386,-45.4545454545455,4,2,1,75,0,1
98466,-66.6666666666665,4,2,6,75,0,1
99024,-66.6666666666665,4,2,1,75,0,1
99104,-66.6666666666665,4,2,6,75,0,1
99663,-66.6666666666665,4,2,1,75,0,1
99902,-66.6666666666665,4,2,2,75,0,1
100221,-66.6666666666665,4,2,3,75,0,1
100460,-66.6666666666665,4,2,1,75,0,1
100700,-100,4,2,1,75,0,1
100859,-100,4,2,4,75,0,1
101019,-100,4,2,5,75,0,1
101179,-100,4,2,6,75,0,1
101498,-66.6666666666665,4,2,13,75,0,1
101976,-66.6666666666665,4,2,1,75,0,1
102296,-90.909090909091,4,2,6,75,0,1
102695,-90.909090909091,4,2,1,75,0,1
102774,-66.6666666666665,4,2,6,75,0,1
103253,-55.5555555555555,4,2,6,75,0,1
103492,-55.5555555555555,4,2,1,75,0,1
103572,-100,4,2,6,75,0,1
103731,-55.5555555555555,4,2,6,75,0,1
104051,-66.6666666666665,4,2,6,75,0,1
104769,-66.6666666666665,4,2,1,75,0,1
104849,-142.857142857143,4,2,1,70,0,0
106125,-142.857142857143,4,2,1,20,0,0
106923,-142.857142857143,4,2,1,60,0,0
107083,-333.333333333333,4,2,1,60,0,0
107322,-333.333333333333,4,2,1,5,0,0
107402,-111.111111111111,4,2,7,60,0,0
107562,-111.111111111111,4,2,1,60,0,0
112189,-71.4285714285714,4,2,8,60,0,0
112508,-83.3333333333333,4,2,1,70,0,0
112828,-83.3333333333333,4,2,13,70,0,0
116019,-83.3333333333333,4,2,2,70,0,0
116179,-83.3333333333333,4,2,4,70,0,0
116498,-83.3333333333333,4,2,2,70,0,0
117136,-83.3333333333333,4,2,3,70,0,0
117296,-100,4,2,5,70,0,0
117455,-100,4,2,9,70,0,0
117615,-83.3333333333333,4,2,2,75,0,0
119210,-71.4285714285714,4,2,4,75,0,0
119689,-100,4,2,2,75,0,0
120008,-66.6666666666667,4,2,7,70,0,0
120328,-100,4,2,2,70,0,0
120487,-100,4,2,5,70,0,0
120647,-66.6666666666667,4,2,1,70,0,0
120966,-100,4,2,2,70,0,0
121285,-66.6666666666667,4,2,6,70,0,0
121445,-66.6666666666667,4,2,2,70,0,0
121923,-66.6666666666667,4,2,4,70,0,0
122163,-333.333333333333,4,2,1,5,0,0
122242,-66.6666666666667,4,2,1,70,0,0
122402,-83.3333333333333,4,2,2,70,0,0
122562,-83.3333333333333,4,2,9,70,0,0
122721,-83.3333333333333,4,2,3,70,0,0
123040,-66.6666666666667,4,2,9,70,0,0
123280,-333.333333333333,4,2,1,5,0,0
123359,-66.6666666666667,4,2,6,70,0,0
123519,-66.6666666666667,4,2,1,65,0,0
123679,-66.6666666666667,4,2,9,60,0,0
123838,-66.6666666666667,4,2,4,55,0,0
123998,-66.6666666666667,4,2,1,50,0,0

[Colours]
Combo1 : 249,164,189
Combo2 : 245,221,135
Combo3 : 231,169,243
Combo4 : 145,214,236

[HitObjects]
94,148,9104,6,0,L|81:85,1,40.4999987640381,4|0,3:2|0:0,0:0:0:0:
143,43,9264,6,0,B|102:19|102:19|19:44|19:44|-1:86,1,180,2|10,0:2|0:2,0:0:0:0:
11,176,9742,5,2,3:2:0:0:
70,240,9902,1,2,3:2:0:0:
155,220,10062,1,10,0:2:0:0:
181,136,10221,1,2,3:2:0:0:
181,136,10540,5,2,3:2:0:0:
316,187,10700,2,0,L|406:169,1,90,10|10,0:2|0:2,0:0:0:0:
417,167,10939,1,0,0:0:0:0:
430,165,11019,1,0,3:0:0:0:
233,199,11179,5,2,3:2:0:0:
279,33,11338,2,0,L|261:123,1,90,10|2,0:2|0:2,0:0:0:0:
195,318,11657,5,2,3:2:0:0:
195,318,11817,5,8,0:2:0:0:
160,313,11897,1,8,0:2:0:0:
141,285,11976,1,2,3:2:0:0:
282,286,12137,5,8,0:2:0:0:
295,318,12217,1,8,0:2:0:0:
280,348,12296,1,2,3:2:0:0:
211,227,12455,5,10,0:2:0:0:
233,199,12535,1,8,0:2:0:0:
266,196,12614,1,2,3:2:0:0:
195,318,12774,6,0,L|151:330,2,45,10|8|0,0:2|0:2|3:0,0:0:0:0:
374,278,13093,2,0,L|417:265,2,45,10|8|2,0:2|0:2|3:2,0:0:0:0:
295,318,13413,5,8,0:2:0:0:
295,318,13492,1,8,0:2:0:0:
295,318,13572,2,0,P|281:248|260:174,1,125.999996154785,2|0,3:2|3:0,0:0:0:0:
206,136,13812,1,8,0:2:0:0:
207,122,13891,2,0,P|213:87|224:50,1,45,2|0,3:2|0:0,0:0:0:0:
109,12,14051,5,8,0:2:0:0:
108,25,14131,1,8,0:2:0:0:
109,36,14210,2,0,B|100:81|100:81|103:90|103:90|93:139,1,99.0000030212403,6|0,3:2|0:0,0:0:0:0:
49,292,14530,6,0,P|8:270|48:177,1,144,2|0,0:2|3:0,0:0:0:0:
95,133,15008,1,2,3:2:0:0:
177,212,15168,2,0,L|106:224,1,72,8|0,0:2|3:0,0:0:0:0:
328,254,15487,2,0,L|497:226,1,161.999995056153,2|8,0:2|0:2,0:0:0:0:
269,197,15966,6,0,P|246:262|283:322,1,144,2|0,0:2|3:0,0:0:0:0:
419,288,16445,2,0,P|412:253|405:218,1,72,10|0,0:2|0:0,0:0:0:0:
382,55,16764,6,0,P|442:62|459:137,1,135.000005149842,6|10,3:2|0:2,0:0:0:0:
383,140,17003,1,8,0:2:0:0:
371,148,17083,2,0,P|340:150|317:136,1,45,8|0,0:2|0:0,0:0:0:0:
269,197,17242,2,0,P|251:171|252:144,1,45,8|0,0:2|0:0,0:0:0:0:
270,85,17402,1,2,3:2:0:0:
119,215,17562,5,10,0:2:0:0:
106,218,17642,1,8,0:2:0:0:
92,216,17721,1,8,3:2:0:0:
63,204,17801,1,8,0:2:0:0:
42,176,17881,1,8,0:2:0:0:
37,142,17961,1,8,0:2:0:0:
51,110,18040,6,0,L|206:88,1,135.000005149842,10|8,3:2|0:2,0:0:0:0:
270,85,18280,1,8,0:2:0:0:
271,74,18359,2,0,P|270:39|246:5,1,53.9999983520508,8|0,3:3|0:0,0:0:0:0:
176,40,18519,2,0,P|177:75|201:109,1,53.9999983520508,8|0,3:3|0:0,0:0:0:0:
198,226,18679,5,2,3:2:0:0:
214,234,18758,1,0,0:0:0:0:
235,242,18838,1,0,0:0:0:0:
265,239,18918,1,0,0:0:0:0:
291,218,18998,1,10,0:2:0:0:
307,179,19078,1,0,0:0:0:0:
350,147,19157,1,0,0:0:0:0:
406,150,19237,1,0,0:0:0:0:
451,180,19317,6,0,P|477:254|412:327,1,161.999995056153,6|8,3:2|0:2,0:0:0:0:
368,374,19556,1,8,0:2:0:0:
361,379,19636,2,0,P|335:305|400:232,1,161.999995056153,2|8,3:2|0:2,0:0:0:0:
451,180,19875,1,8,0:2:0:0:
454,164,19955,5,2,3:2:0:0:
284,92,20115,1,10,0:2:0:0:
382,57,20274,5,2,3:2:0:0:
382,70,20354,1,8,0:2:0:0:
382,83,20434,2,0,L|370:166,1,67.5000025749208,8|8,0:2|0:2,0:0:0:0:
378,240,20593,6,0,B|316:228|316:228|309:231|309:231|254:220,1,125.999996154785,2|8,3:2|0:2,0:0:0:0:
221,213,20833,1,8,0:2:0:0:
185,221,20913,1,2,3:2:0:0:
159,247,20992,1,8,0:2:0:0:
150,283,21072,1,8,0:2:0:0:
144,144,21232,5,2,3:2:0:0:
233,294,21391,1,10,0:2:0:0:
66,106,21551,2,0,B|88:69|88:69|163:53|163:53|198:78,1,161.999995056153,2|8,3:2|0:2,0:0:0:0:
253,139,21790,1,8,0:2:0:0:
262,153,21870,6,0,P|184:178|68:220,1,202.500007724762,2|0,3:2|0:0,0:0:0:0:
70,218,22189,1,0,3:0:0:0:
327,262,22349,5,10,0:2:0:0:
327,262,22429,1,8,0:2:0:0:
327,262,22509,2,0,P|354:256|369:241,1,45,2|0,3:2|0:0,0:0:0:0:
443,275,22668,2,0,P|452:248|446:228,1,45,10|0,0:2|0:0,0:0:0:0:
512,181,22828,2,0,P|493:160|473:154,1,45,2|0,3:2|0:0,0:0:0:0:
413,51,22987,5,8,0:2:0:0:
413,51,23067,1,8,0:2:0:0:
413,51,23147,6,0,L|394:187,1,116.999994644165,2|8,3:2|0:2,0:0:0:0:
286,178,23466,2,0,L|305:42,1,116.999994644165,2|8,3:2|0:2,0:0:0:0:
80,108,23785,6,0,L|99:244,1,116.999994644165,2|8,3:2|0:2,0:0:0:0:
207,235,24104,2,0,L|188:99,1,116.999994644165,2|8,3:2|0:2,0:0:0:0:
143,54,24343,1,8,0:2:0:0:
148,39,24423,5,10,3:2:0:0:
159,311,24582,1,10,3:2:0:0:
159,311,24902,6,0,B|226:340|282:288|282:288|339:236|411:265,1,270.000010299683,4|8,3:3|0:2,0:0:0:0:
484,313,25301,1,8,0:2:0:0:
487,296,25381,2,0,L|496:242,2,45,2|8|10,3:2|0:2|3:2,0:0:0:0:
358,336,25700,5,8,3:2:0:0:
456,103,25859,1,8,3:2:0:0:
408,264,26179,6,0,L|334:246,1,67.5000025749208,4|0,3:3|0:0,0:0:0:0:
283,180,26338,1,8,0:2:0:0:
260,187,26417,1,8,0:2:0:0:
236,193,26497,1,8,3:2:0:0:
188,47,26657,5,2,3:2:0:0:
372,163,26817,1,0,3:3:0:0:
169,246,26976,6,0,P|154:208|161:165,1,67.5000025749208,2|0,3:2|0:0,0:0:0:0:
222,129,27136,2,0,P|237:167|229:209,1,67.5000025749208,2|0,3:2|0:0,0:0:0:0:
183,331,27296,2,0,P|132:321|74:311,1,107.999996704102,10|2,0:2|0:2,0:0:0:0:
76,177,27615,6,0,P|91:139|84:96,1,67.5000025749208,4|0,3:2|0:0,0:0:0:0:
23,60,27775,2,0,P|8:98|16:140,1,67.5000025749208,2|0,3:2|0:0,0:0:0:0:
0,205,27934,1,8,0:2:0:0:
183,331,28093,5,10,0:2:0:0:
197,328,28173,1,8,0:2:0:0:
210,327,28253,2,0,P|274:315|373:295,1,161.999995056153,0|10,3:0|0:2,0:0:0:0:
449,275,28492,1,0,0:0:0:0:
438,362,28572,2,0,B|388:338|388:338|359:241|359:241|398:195,1,216,2|0,3:2|0:0,0:0:0:0:
457,136,28891,5,2,3:2:0:0:
416,115,28971,1,8,0:2:0:0:
368,119,29050,1,8,0:2:0:0:
337,149,29130,1,8,0:2:0:0:
316,178,29210,1,8,3:3:0:0:
287,194,29290,1,8,3:3:0:0:
253,194,29369,1,8,3:3:0:0:
232,184,29449,1,8,3:3:0:0:
222,171,29530,6,0,P|232:132|237:89,1,80.9999975280763,4|2,3:2|0:2,0:0:0:0:
176,27,29849,1,2,3:2:0:0:
176,27,30008,1,2,0:2:0:0:
91,47,30168,2,0,P|52:41|4:32,2,80.9999975280763,2|2|2,3:2|0:2|3:2,0:0:0:0:
105,177,30647,6,0,B|60:134|60:134|46:75|92:46,1,161.999995056153,2|2,0:2|0:2,0:0:0:0:
150,110,31125,1,2,3:2:0:0:
139,249,31285,2,0,L|50:269,1,80.9999975280763,2|0,0:2|3:0,0:0:0:0:
185,183,31604,2,0,L|274:203,1,80.9999975280763,2|0,0:2|3:0,0:0:0:0:
379,239,31923,2,0,L|458:221,1,80.9999975280763,2|0,0:2|3:0,0:0:0:0:
341,162,32242,5,2,0:2:0:0:
302,277,32402,2,0,L|222:294,1,80.9999975280763,2|2,3:2|0:2,0:0:0:0:
75,292,32721,5,0,3:0:0:0:
148,335,32881,1,2,0:2:0:0:
222,293,33040,2,0,P|212:254|208:214,1,80.9999975280763,2|2,3:2|0:2,0:0:0:0:
60,212,33359,6,0,P|70:251|74:291,1,80.9999975280763,2|2,3:2|0:2,0:0:0:0:
10,128,33679,1,2,3:2:0:0:
10,128,33838,2,0,P|73:187|155:165,2,161.999995056153,2|2|2,0:2|0:2|0:2,0:0:0:0:
92,102,34636,6,0,L|171:86,1,80.9999975280763,4|2,3:2|0:2,0:0:0:0:
329,105,34955,2,0,L|250:121,1,80.9999975280763,2|2,3:2|0:2,0:0:0:0:
383,170,35274,5,2,3:2:0:0:
345,25,35434,2,0,L|329:104,1,80.9999975280763,2|2,0:2|3:2,0:0:0:0:
396,248,35753,6,0,P|441:227|437:114,1,161.999995056153,2|2,0:2|0:2,0:0:0:0:
448,125,36232,1,2,3:2:0:0:
383,170,36391,6,0,P|327:184|223:209,2,161.999995056153,2|2|2,0:2|0:2|0:2,0:0:0:0:
328,104,37189,2,0,P|300:111|248:123,1,80.9999975280763,0|2,3:0|0:2,0:0:0:0:
64,32,37508,6,0,P|119:15|138:109,1,161.999995056153,2|2,3:2|3:2,0:0:0:0:
6,171,37987,1,2,0:2:0:0:
92,189,38147,2,0,P|83:150|74:111,1,80.9999975280763,2|2,3:2|0:2,0:0:0:0:
32,258,38466,5,2,3:2:0:0:
48,279,38625,1,2,0:2:0:0:
161,279,38785,5,2,3:2:0:0:
177,300,38944,1,2,0:2:0:0:
242,206,39104,6,0,P|232:166|223:127,1,80.9999975280763,10|8,3:2|0:2,0:0:0:0:
222,119,39343,1,8,0:2:0:0:
220,111,39423,1,8,3:2:0:0:
198,334,39583,5,8,0:2:0:0:
198,334,39663,1,8,0:2:0:0:
198,334,39742,2,0,B|249:323|249:323|262:305|262:305|325:291,1,135.000005149842,6|10,3:2|0:2,0:0:0:0:
478,245,40062,1,2,3:2:0:0:
462,341,40221,6,0,B|411:316|411:316|381:217|381:217|410:167,1,202.500007724762,10|0,0:2|0:0,0:0:0:0:
402,180,40540,1,10,0:2:0:0:
410,18,40700,2,0,B|392:10|384:-5|384:-5|393:14|394:32,1,67.5000025749208,2|0,3:2|0:0,0:0:0:0:
458,111,40859,2,0,B|395:102|312:94,1,135.000005149842,10|0,0:2|3:0,0:0:0:0:
141,74,41179,5,10,0:2:0:0:
213,121,41338,2,0,P|226:69|208:19,1,107.999996704102,2|8,3:2|0:2,0:0:0:0:
58,61,41657,5,2,3:2:0:0:
98,230,41817,1,10,0:2:0:0:
39,171,41976,5,2,3:2:0:0:
39,171,42056,1,8,0:2:0:0:
39,171,42136,2,0,B|77:132|137:155|137:155|169:214|228:200,1,202.500007724762,10|0,0:2|0:0,0:0:0:0:
214,202,42455,1,2,0:2:0:0:
42,341,42615,6,0,B|3:302|3:302|21:240,1,107.999996704102,2|8,3:2|0:2,0:0:0:0:
98,230,42854,1,8,0:2:0:0:
99,240,42934,2,0,L|113:298,1,45,0|0,3:0|0:0,0:0:0:0:
182,347,43093,2,0,L|193:304,1,45,10|0,0:2|0:0,0:0:0:0:
217,209,43253,6,0,B|253:179|298:208|298:208|320:259,1,135.000005149842,2|10,3:2|0:2,0:0:0:0:
362,324,43492,1,8,0:2:0:0:
361,334,43572,2,0,L|317:326,1,44,2|0,3:2|0:0,0:0:0:0:
236,312,43732,2,0,L|192:304,1,44,10|0,0:2|0:0,0:0:0:0:
112,292,43891,1,2,3:2:0:0:
163,96,44051,6,0,B|190:82|190:82|236:97|236:97|262:140|246:192|212:211,1,202.500007724762,10|0,0:2|0:0,0:0:0:0:
216,208,44370,1,10,0:2:0:0:
104,148,44530,5,2,3:2:0:0:
82,119,44610,1,8,0:2:0:0:
76,88,44690,1,10,0:2:0:0:
89,57,44769,1,8,0:2:0:0:
114,37,44849,5,6,3:2:0:0:
15,178,45008,2,0,P|95:189|237:211,1,202.500007724762,10|0,0:2|0:0,0:0:0:0:
215,207,45328,1,10,0:2:0:0:
384,157,45487,2,0,L|392:104,1,52.7999983886719,2|0,3:2|0:0,0:0:0:0:
391,104,45647,1,10,0:2:0:0:
309,190,45807,1,2,3:2:0:0:
343,24,45966,6,0,B|381:1|381:1|457:24|457:24|476:63,1,161.999995056153,10|0,0:2|0:0,0:0:0:0:
473,58,46285,1,10,0:2:0:0:
312,102,46445,2,0,L|199:80,1,107.999996704102,2|8,3:2|0:2,0:0:0:0:
131,46,46684,1,8,0:2:0:0:
127,56,46764,6,0,P|120:87|142:121,1,53.9999983520508,2|0,3:2|0:0,0:0:0:0:
207,132,46923,2,0,P|213:100|192:67,1,53.9999983520508,10|0,0:2|0:0,0:0:0:0:
193,0,47083,1,2,3:2:0:0:
137,189,47242,5,10,0:2:0:0:
137,189,47322,1,8,0:2:0:0:
137,189,47402,2,0,B|73:225|22:161|22:161|57:85,1,188.999994232178,4|0,3:2|0:0,0:0:0:0:
46,108,47721,1,10,0:2:0:0:
31,324,47881,5,0,3:0:0:0:
31,324,47960,1,0,3:0:0:0:
31,324,48040,2,0,B|100:313|100:313|113:298|113:298|217:280,1,188.999994232178,4|0,3:2|0:0,0:0:0:0:
210,281,48359,1,10,0:2:0:0:
379,311,48519,1,8,0:2:0:0:
379,311,48599,1,8,0:2:0:0:
379,311,48679,6,0,L|362:246,1,62.9999980773926,2|0,3:2|0:0,0:0:0:0:
276,230,48838,2,0,L|292:165,1,62.9999980773926,10|0,0:2|0:0,0:0:0:0:
206,110,48998,6,0,L|189:174,1,62.9999980773926,2|0,3:2|0:0,0:0:0:0:
93,166,49157,2,0,L|109:230,1,62.9999980773926,10|0,0:2|0:0,0:0:0:0:
211,282,49317,5,2,3:2:0:0:
193,307,49397,1,8,0:2:0:0:
150,320,49477,1,8,0:2:0:0:
115,301,49557,1,8,0:2:0:0:
100,264,49636,1,8,3:3:0:0:
109,228,49716,1,8,3:3:0:0:
83,192,49796,1,8,3:3:0:0:
49,185,49876,1,8,3:3:0:0:
32,196,49955,6,0,P|50:123|59:49,1,132.00000402832,6|0,3:2|0:0,0:0:0:0:
122,28,50274,5,10,1:2:0:0:
188,64,50381,1,8,1:2:0:0:
189,140,50487,1,8,1:2:0:0:
194,152,50593,2,0,P|256:140|325:126,1,132.00000402832,2|0,3:2|0:0,0:0:0:0:
330,42,50913,2,0,P|372:52|415:57,1,66.0000020141602,10|8,3:2|3:2,0:0:0:0:
511,71,51126,1,8,3:2:0:0:
456,10,51232,6,0,B|425:49|425:49|443:143,1,132.00000402832,2|0,3:2|0:0,0:0:0:0:
448,204,51551,2,0,P|408:200|381:171,2,66.0000020141602,10|8|8,1:2|1:2|1:2,0:0:0:0:
456,289,51870,2,0,P|384:279|325:224,1,132.00000402832,0|0,3:0|0:0,0:0:0:0:
209,175,52189,6,0,P|248:174|277:201,1,66.0000020141602,10|8,3:2|3:2,0:0:0:0:
389,184,52402,1,8,3:2:0:0:
339,244,52508,2,0,B|306:208|306:208|315:115,1,132.00000402832,2|0,3:2|0:0,0:0:0:0:
361,25,52828,5,10,1:2:0:0:
286,37,52934,1,8,1:2:0:0:
210,51,53040,1,8,1:2:0:0:
214,61,53147,2,0,L|69:87,1,132.00000402832,2|0,3:2|0:0,0:0:0:0:
19,126,53466,2,0,P|5:92|33:36,2,66.0000020141602,10|8|8,3:2|3:2|3:2,0:0:0:0:
88,162,53785,5,2,3:2:0:0:
2,237,54104,1,2,3:2:0:0:
110,274,54423,1,0,3:2:0:0:
190,194,54742,1,8,3:3:0:0:
36,329,55062,6,0,B|107:316|107:316|115:322|115:322|196:306,1,161.999995056153,4|10,3:2|0:2,0:0:0:0:
268,261,55301,1,0,0:0:0:0:
274,272,55381,2,0,P|282:292|279:314,1,45,2|0,3:2|0:0,0:0:0:0:
193,306,55540,2,0,P|184:285|187:263,1,45,10|0,0:2|0:0,0:0:0:0:
147,145,55700,6,0,B|193:181|193:181|304:160,2,153.000002918243,2|10|2,3:2|0:2|3:2,0:0:0:0:
73,65,56099,1,8,0:2:0:0:
84,76,56179,2,0,L|136:65,1,53.9999983520508,8|8,0:2|0:2,0:0:0:0:
214,100,56338,6,0,L|349:70,1,135.000005149842,0|10,3:0|0:2,0:0:0:0:
409,18,56578,1,8,0:2:0:0:
417,27,56658,2,0,P|428:51|428:91,1,67.5000025749208,2|0,3:2|0:0,0:0:0:0:
512,130,56817,2,0,P|496:152|462:171,1,67.5000025749208,10|0,0:2|0:0,0:0:0:0:
374,160,56976,5,2,3:2:0:0:
512,39,57136,1,10,0:2:0:0:
461,254,57296,1,2,3:2:0:0:
461,254,57375,1,0,0:0:0:0:
461,254,57455,2,0,L|390:236,1,53.9999983520508,8|8,0:2|0:2,0:0:0:0:
350,292,57615,6,0,B|324:256|324:256|340:179|340:179|377:158,1,161.999995056153,6|0,3:2|0:0,0:0:0:0:
197,12,57934,5,12,3:2:0:0:
240,279,58093,1,2,3:2:0:0:
201,31,58253,5,14,3:2:0:0:
241,298,58413,1,0,3:0:0:0:
205,50,58572,5,12,3:2:0:0:
242,317,58732,1,2,3:2:0:0:
347,56,58892,5,14,3:2:0:0:
85,208,59051,1,10,0:2:0:0:
384,249,59210,1,14,3:2:0:0:
201,27,59370,1,10,0:2:0:0:
242,317,59530,6,0,P|221:169|201:27,1,291.600007119141,14|8,3:2|3:3,0:0:0:0:
69,112,60806,5,2,0:2:0:0:
100,109,60886,1,2,0:2:0:0:
126,91,60966,1,0,3:0:0:0:
137,61,61046,1,2,0:2:0:0:
137,29,61126,5,10,3:2:0:0:
168,5,61205,1,2,0:2:0:0:
206,0,61285,1,2,0:2:0:0:
236,23,61365,1,2,0:2:0:0:
237,58,61445,6,0,B|304:72|304:72|330:106|330:106|402:121,1,180,6|8,3:2|0:2,0:0:0:0:
481,143,61684,1,8,0:2:0:0:
481,132,61764,2,0,P|473:101|469:68,2,53.9999983520508,2|8|8,3:2|0:2|0:2,0:0:0:0:
407,238,62083,5,2,3:2:0:0:
397,41,62243,1,10,0:2:0:0:
407,238,62402,6,0,B|512:215|512:215|483:232|471:269,1,161.999995056153,2|8,3:2|0:2,0:0:0:0:
391,316,62641,1,8,0:2:0:0:
380,319,62721,2,0,B|341:300|341:300|318:224|318:224|340:187,1,161.999995056153,2|8,3:2|0:2,0:0:0:0:
345,157,62960,1,8,0:2:0:0:
337,121,63040,1,2,3:2:0:0:
311,95,63119,1,8,0:2:0:0:
275,86,63199,1,8,0:2:0:0:
262,166,63359,5,2,3:2:0:0:
475,60,63518,1,10,0:2:0:0:
262,166,63679,2,0,B|196:148|196:148|194:142|194:142|132:125,1,135.000005149842,2|8,3:2|0:2,0:0:0:0:
46,82,63917,1,8,0:2:0:0:
46,93,63998,2,0,L|59:140,1,45,2|0,3:2|0:0,0:0:0:0:
132,334,64157,6,0,B|56:376|-23:317|-1:249|56:224|88:268,1,242.999992584229,8|0,0:2|0:0,0:0:0:0:
84,263,64477,1,10,0:2:0:0:
237,267,64636,6,0,L|280:258,1,44,2|0,3:2|0:0,0:0:0:0:
398,283,64796,2,0,L|354:291,1,44,10|0,0:2|0:0,0:0:0:0:
326,368,64955,6,0,P|307:266|286:160,1,207.000003948212,2|8,3:2|0:2,0:0:0:0:
328,88,65195,1,8,0:2:0:0:
407,129,65274,6,0,P|349:168|281:161,1,135.000005149842,2|8,3:2|0:2,0:0:0:0:
252,45,65593,2,0,P|307:6|374:12,1,135.000005149842,2|8,3:2|0:2,0:0:0:0:
328,88,65833,1,8,0:2:0:0:
252,45,65913,6,0,L|119:25,1,135.000005149842,2|8,3:2|0:2,0:0:0:0:
25,181,66232,2,0,L|157:200,1,135.000005149842,2|8,3:2|0:2,0:0:0:0:
219,258,66471,1,8,0:2:0:0:
181,335,66551,6,0,B|145:309|145:309|135:228|135:228|164:194,1,161.999995056153,6|8,3:2|0:2,0:0:0:0:
155,120,66790,1,8,0:2:0:0:
167,124,66870,2,0,P|194:128|213:146,2,53.9999983520508,2|8|8,3:2|0:2|0:2,0:0:0:0:
263,329,67189,6,0,B|327:317|327:317|334:320|334:320|392:308,1,125.999996154785,2|8,3:2|0:2,0:0:0:0:
424,317,67429,1,8,0:2:0:0:
460,309,67509,1,2,3:2:0:0:
486,283,67588,1,8,0:2:0:0:
495,247,67668,1,10,0:2:0:0:
376,65,67828,6,0,L|392:132,1,45,2|0,3:2|0:0,0:0:0:0:
415,235,67987,2,0,L|399:168,1,45,8|0,0:2|0:0,0:0:0:0:
286,43,68147,5,2,3:2:0:0:
462,129,68306,1,8,0:2:0:0:
315,250,68466,6,0,B|241:278|241:278|165:207,1,161.999995056153,2|8,3:2|0:2,0:0:0:0:
246,128,68705,1,8,0:2:0:0:
249,144,68785,2,0,L|255:188,1,44,2|0,3:2|0:0,0:0:0:0:
93,282,68945,2,0,L|99:239,1,44,10|0,0:2|0:0,0:0:0:0:
155,127,69104,5,6,3:2:0:0:
181,222,69263,1,0,3:0:0:0:
208,316,69423,1,10,0:2:0:0:
126,366,69583,5,8,0:2:0:0:
126,366,69663,1,8,0:2:0:0:
126,366,69743,1,6,3:2:0:0:
181,222,69902,1,0,3:0:0:0:
236,78,70062,1,10,0:2:0:0:
27,267,70221,5,8,0:2:0:0:
27,267,70301,1,8,0:2:0:0:
27,267,70381,2,0,L|113:286,1,67.5000025749208,2|0,3:2|0:0,0:0:0:0:
213,321,70540,5,10,0:2:0:0:
213,321,70620,1,8,0:2:0:0:
213,321,70700,2,0,L|299:340,1,67.5000025749208,2|0,3:2|0:0,0:0:0:0:
246,207,70859,2,0,L|160:226,1,67.5000025749208,10|0,0:2|0:0,0:0:0:0:
73,177,71019,5,10,3:2:0:0:
56,177,71099,1,10,0:2:0:0:
33,174,71179,1,10,3:2:0:0:
14,156,71259,1,10,0:2:0:0:
3,102,71339,1,8,3:3:0:0:
26,49,71418,1,8,3:3:0:0:
74,25,71498,1,8,3:3:0:0:
129,54,71578,1,8,3:3:0:0:
158,104,71657,6,0,B|220:91|220:91|244:59|244:59|310:45,1,161.999995056153,6|8,3:2|0:2,0:0:0:0:
392,80,71897,1,8,0:2:0:0:
392,69,71976,2,0,P|384:38|378:3,2,53.9999983520508,2|8|8,3:2|0:2|0:2,0:0:0:0:
394,208,72296,5,2,3:2:0:0:
301,46,72455,1,10,0:2:0:0:
346,276,72615,6,0,B|383:298|383:298|460:275|460:275|478:236,1,161.999995056153,2|8,3:2|0:2,0:0:0:0:
465,155,72854,1,8,0:2:0:0:
453,151,72934,2,0,B|373:172|373:172|371:179|371:179|297:200,1,161.999995056153,2|8,3:2|0:2,0:0:0:0:
268,216,73173,1,8,0:2:0:0:
250,248,73253,1,2,3:2:0:0:
252,285,73332,1,8,0:2:0:0:
267,315,73412,1,8,0:2:0:0:
174,108,73572,5,2,3:2:0:0:
346,276,73732,1,10,0:2:0:0:
174,108,73891,6,0,B|272:87|272:87|245:102|233:137,1,161.999995056153,2|8,3:2|0:2,0:0:0:0:
298,205,74130,1,8,0:2:0:0:
301,198,74210,2,0,L|307:154,1,44,2|0,3:2|0:0,0:0:0:0:
97,69,74369,6,0,B|71:112|0:123|-51:84|-53:23|-10:-5|24:8|36:28,1,242.999992584229,8|0,0:2|0:0,0:0:0:0:
34,25,74689,1,10,0:2:0:0:
78,271,74849,6,0,L|121:262,1,44,2|0,3:2|0:0,0:0:0:0:
237,296,75009,2,0,L|193:304,1,44,10|0,0:2|0:0,0:0:0:0:
162,373,75168,6,0,P|144:268|120:178,1,198.000006042481,2|8,3:2|0:2,0:0:0:0:
97,69,75407,1,8,0:2:0:0:
143,3,75487,6,0,P|176:48|163:123,1,135.000005149842,2|8,3:2|0:2,0:0:0:0:
54,141,75806,2,0,P|21:96|34:21,1,135.000005149842,2|8,3:2|0:2,0:0:0:0:
97,69,76046,5,8,0:2:0:0:
111,70,76126,2,0,L|249:86,1,135.000005149842,2|8,3:2|0:2,0:0:0:0:
218,286,76445,2,0,L|79:269,1,135.000005149842,2|8,3:2|0:2,0:0:0:0:
25,216,76684,1,8,0:2:0:0:
10,220,76764,5,10,3:2:0:0:
295,173,76923,1,10,3:2:0:0:
295,173,77242,6,0,B|215:119|245:27|309:2|358:32|370:83|345:103,1,270.000010299683,4|8,3:3|0:2,0:0:0:0:
387,176,77641,1,8,0:2:0:0:
404,173,77721,2,0,L|458:164,2,45,2|8|0,3:2|0:2|3:3,0:0:0:0:
230,224,78040,5,10,3:2:0:0:
442,50,78200,1,10,3:2:0:0:
442,50,78519,6,0,B|407:114|454:174|454:174|501:235|465:305,1,270.000010299683,4|8,3:3|0:2,0:0:0:0:
354,359,78998,5,10,0:2:0:0:
339,319,79077,1,8,0:2:0:0:
303,297,79157,1,10,0:2:0:0:
261,301,79237,1,8,0:2:0:0:
235,330,79317,6,0,P|209:335|173:314,1,49.5000015106202,6|0,3:2|0:0,0:0:0:0:
125,383,79476,2,0,P|107:362|107:321,1,49.5000015106202,10|0,0:2|0:0,0:0:0:0:
56,164,79636,1,2,3:2:0:0:
56,164,79716,1,8,0:2:0:0:
56,164,79796,6,0,B|117:128|165:190|165:190|131:263,1,202.500007724762,10|0,0:2|0:0,0:0:0:0:
20,328,80115,2,0,P|21:299|50:271,1,67.5000025749208,10|0,0:2|0:0,0:0:0:0:
187,327,80274,2,0,B|256:310|256:310|258:303|258:303|324:287,1,144,0|10,3:0|0:2,0:0:0:0:
319,205,80514,1,8,0:2:0:0:
335,208,80594,6,0,L|379:216,1,44,2|0,3:2|0:0,0:0:0:0:
512,252,80753,2,0,B|415:289|415:289|444:268|452:240,1,161.999995056153,8|2,0:2|3:2,0:0:0:0:
399,118,81072,6,0,B|351:83|294:108|294:108|263:162|202:147,1,216,10|0,0:2|0:0,0:0:0:0:
138,99,81391,2,0,P|130:64|148:24,1,72,10|0,0:2|0:0,0:0:0:0:
228,3,81551,2,0,P|235:37|217:77,1,72,0|0,3:0|0:0,0:0:0:0:
135,184,81710,5,10,0:2:0:0:
135,184,81790,1,8,0:2:0:0:
135,184,81870,2,0,L|4:204,1,116.999994644165,12|2,3:2|0:2,0:0:0:0:
138,99,82189,5,14,3:2:0:0:
403,187,82349,1,0,3:0:0:0:
135,184,82508,5,12,3:2:0:0:
406,102,82668,1,0,3:0:0:0:
109,86,82827,5,12,3:2:0:0:
435,201,82987,1,0,3:0:0:0:
247,12,83146,5,12,3:2:0:0:
257,326,83306,1,2,3:2:0:0:
257,326,83945,6,0,L|251:290,1,36,0|0,3:0|0:0,0:0:0:0:
241,197,84104,6,0,P|262:256|347:237,1,148.50000453186,8|0,0:2|0:0,0:0:0:0:
337,250,84423,1,6,3:2:0:0:
52,151,89530,5,4,3:2:0:0:
75,64,89849,1,2,3:2:0:0:
162,40,90168,1,0,3:0:0:0:
227,103,90487,1,2,3:2:0:0:
337,214,90806,5,0,3:0:0:0:
314,127,91125,1,2,3:2:0:0:
227,103,91444,1,0,3:0:0:0:
162,166,91763,1,2,3:2:0:0:
337,214,92083,6,0,L|448:196,1,90,0|0,3:0|0:2,0:0:0:0:
439,196,92322,1,8,0:2:0:0:
452,193,92402,1,10,3:2:0:0:
393,72,92562,5,8,0:2:0:0:
404,87,92641,1,8,0:2:0:0:
405,106,92721,1,10,3:2:0:0:
312,132,92881,5,8,0:2:0:0:
301,117,92960,1,8,0:2:0:0:
300,98,93040,2,0,P|290:59|282:6,1,90,10|8,3:2|0:2,0:0:0:0:
493,93,94636,6,0,B|433:79|433:79|417:58|417:58|342:41,1,161.999995056153,6|8,3:2|0:2,0:0:0:0:
271,0,94875,1,8,0:2:0:0:
197,38,94955,2,0,P|168:108|206:183,1,161.999995056153,2|8,3:2|0:2,0:0:0:0:
282,148,95195,1,8,0:2:0:0:
281,136,95274,2,0,L|271:86,2,45,2|8|10,3:2|0:2|0:2,0:0:0:0:
358,343,95594,2,0,B|341:247|341:247|336:285|309:306,1,161.999995056153,2|8,3:2|0:2,0:0:0:0:
254,236,95833,5,8,0:2:0:0:
264,246,95913,2,0,B|340:227|340:227|362:238|362:238|437:221,1,180,2|8,3:2|0:2,0:0:0:0:
506,180,96152,1,8,0:2:0:0:
512,193,96232,2,0,P|518:219|507:256,2,53.9999983520508,2|8|8,3:2|0:2|0:2,0:0:0:0:
281,128,96551,5,2,3:2:0:0:
505,68,96710,1,10,0:2:0:0:
281,128,96870,2,0,B|176:156|176:156|205:140|216:116,1,161.999995056153,2|8,3:2|0:2,0:0:0:0:
155,27,97109,1,8,0:2:0:0:
152,38,97189,2,0,L|146:82,1,45,2|0,3:2|0:0,0:0:0:0:
195,302,97349,6,0,B|121:343|42:285|64:219|121:194|152:237,1,242.999992584229,8|0,0:2|0:0,0:0:0:0:
151,236,97669,1,10,0:2:0:0:
310,266,97828,6,0,L|353:257,1,44,2|0,3:2|0:0,0:0:0:0:
466,288,97988,2,0,L|422:296,1,44,10|0,0:2|0:0,0:0:0:0:
403,373,98147,6,0,L|364:153,1,198.000006042481,2|8,3:2|0:2,0:0:0:0:
346,66,98386,1,8,0:2:0:0:
392,0,98466,6,0,P|425:45|412:120,1,135.000005149842,2|8,3:2|0:2,0:0:0:0:
303,138,98785,2,0,P|270:93|283:18,1,135.000005149842,2|8,3:2|0:2,0:0:0:0:
346,66,99025,5,8,0:2:0:0:
359,67,99105,2,0,L|492:83,1,135.000005149842,2|8,3:2|0:2,0:0:0:0:
355,253,99423,2,0,L|221:236,1,135.000005149842,2|8,3:2|0:2,0:0:0:0:
168,177,99663,1,8,0:2:0:0:
152,180,99743,5,2,3:2:0:0:
329,329,99902,1,2,3:2:0:0:
329,329,100221,6,0,B|365:347|365:347|427:327|427:327|463:269|441:198|401:177,1,270.000010299683,4|8,3:3|0:2,0:0:0:0:
361,114,100620,1,8,0:2:0:0:
359,100,100700,2,0,L|351:56,2,45,2|8|0,3:2|0:2|3:3,0:0:0:0:
422,15,101019,5,10,3:2:0:0:
355,253,101179,1,10,3:2:0:0:
355,253,101498,6,0,B|288:282|232:230|232:230|175:178|103:207,1,270.000010299683,4|0,3:3|3:0,0:0:0:0:
70,75,101976,5,2,3:2:0:0:
101,58,102056,1,8,0:2:0:0:
138,58,102136,1,10,0:2:0:0:
168,78,102216,1,8,0:2:0:0:
184,111,102296,6,0,P|215:100|247:92,1,49.5000015106202,6|0,3:2|0:0,0:0:0:0:
311,71,102455,2,0,P|344:60|378:52,1,49.5000015106202,10|0,0:2|0:0,0:0:0:0:
468,30,102615,5,2,3:2:0:0:
468,30,102695,1,8,0:2:0:0:
468,30,102774,2,0,B|408:-5|360:55|360:55|393:127,1,202.500007724762,10|0,0:2|0:0,0:0:0:0:
419,206,103093,2,0,L|492:185,1,67.5000025749208,10|0,0:2|0:0,0:0:0:0:
427,290,103253,6,0,B|367:276|367:276|351:255|351:255|276:238,1,161.999995056153,0|10,3:0|0:2,0:0:0:0:
202,199,103492,1,8,0:2:0:0:
191,200,103572,6,0,L|147:208,1,44,2|0,3:2|0:0,0:0:0:0:
10,239,103731,2,0,B|106:276|106:276|78:255|70:227,1,161.999995056153,8|2,0:2|3:2,0:0:0:0:
242,95,104051,6,0,B|202:61|202:61|103:76|103:76|84:128,1,202.500007724762,10|0,0:2|0:0,0:0:0:0:
147,207,104370,2,0,B|165:176|167:143|167:143|174:175|213:209,1,135.000005149842,10|0,0:2|3:0,0:0:0:0:
353,334,104689,1,10,0:2:0:0:
353,334,104769,1,8,0:2:0:0:
353,334,104849,6,0,B|396:363|453:313|423:239|309:225|282:315|282:315|249:394|141:385|105:298|183:261|219:285,1,503.999984619141,4|2,3:2|0:0,0:0:0:0:
210,280,106923,5,2,3:2:0:0:
210,280,107083,2,0,L|256:288,1,40.4999987640381,8|0,0:2|0:0,0:0:0:0:
307,344,107402,6,0,P|352:344|378:322,1,80.9999975280763,4|0,3:2|0:0,0:0:0:0:
321,264,107721,2,0,P|276:264|250:286,1,80.9999975280763,0|0,3:0|0:0,0:0:0:0:
112,262,108040,6,0,P|67:262|41:240,1,80.9999975280763,0|0,3:0|0:0,0:0:0:0:
98,182,108359,2,0,P|143:182|169:204,1,80.9999975280763,0|0,3:0|0:0,0:0:0:0:
307,180,108679,6,0,P|352:180|378:158,1,80.9999975280763,0|0,3:0|0:0,0:0:0:0:
320,100,108998,2,0,P|275:100|249:122,1,80.9999975280763,0|0,3:0|0:0,0:0:0:0:
112,98,109317,6,0,P|67:98|41:76,1,80.9999975280763,0|0,3:0|0:0,0:0:0:0:
98,18,109636,2,0,P|143:18|169:40,1,80.9999975280763,0|0,3:0|0:0,0:0:0:0:
209,203,109955,5,0,3:0:0:0:
146,262,110115,1,0,0:0:0:0:
63,237,110274,2,0,L|45:151,1,80.9999975280763,0|0,3:0|0:0,0:0:0:0:
112,98,110593,6,0,L|130:184,1,80.9999975280763,0|0,3:0|0:0,0:0:0:0:
279,271,110913,2,0,L|296:192,1,80.9999975280763,0|0,3:0|0:0,0:0:0:0:
225,123,111232,6,0,L|209:203,1,80.9999975280763,0|0,3:0|0:0,0:0:0:0:
359,312,111551,2,0,L|375:232,1,80.9999975280763,0|0,3:0|0:0,0:0:0:0:
379,221,111790,1,0,0:0:0:0:
383,209,111870,1,0,3:0:0:0:
512,97,112030,5,8,0:2:0:0:
512,97,112110,1,8,0:2:0:0:
512,97,112189,2,0,B|482:89|482:89|476:93|476:93|454:85|454:85|450:88|450:88|431:81|431:81|426:85|426:85|377:71,1,125.999996154785,8|0,3:2|0:0,0:0:0:0:
326,121,112429,1,0,0:0:0:0:
322,108,112508,6,0,B|310:56|310:56|352:4,1,107.999996704102,4|0,3:2|0:0,0:0:0:0:
246,147,112828,2,0,P|194:137|128:120,1,107.999996704102,10|0,3:2|0:0,0:0:0:0:
2,197,113147,5,2,3:2:0:0:
120,229,113306,1,2,0:2:0:0:
240,262,113466,1,10,3:2:0:0:
100,335,113625,6,0,L|140:123,1,215.999993408203,2|0,0:2|0:0,0:0:0:0:
200,47,114104,1,8,3:2:0:0:
319,211,114264,5,2,0:2:0:0:
319,211,114343,1,0,0:0:0:0:
319,211,114423,1,0,3:0:0:0:
235,169,114583,1,2,0:2:0:0:
277,85,114742,1,10,3:2:0:0:
361,127,114902,1,2,0:2:0:0:
240,262,115062,6,0,L|119:236,1,107.999996704102,0|0,3:0|0:0,0:0:0:0:
402,253,115381,2,0,L|523:227,1,107.999996704102,10|0,3:2|0:0,0:0:0:0:
194,86,115700,5,2,3:2:0:0:
319,211,115859,1,0,0:0:0:0:
342,39,116019,1,10,3:2:0:0:
240,262,116179,6,0,P|137:240|25:216,1,215.999993408203,6|8,3:2|0:2,0:0:0:0:
194,86,116657,1,0,3:0:0:0:
140,154,116817,5,2,0:2:0:0:
140,154,116897,1,0,0:0:0:0:
140,154,116976,1,0,3:0:0:0:
159,4,117136,1,8,3:3:0:0:
281,96,117296,2,0,P|332:107|388:118,1,90,8|8,3:3|3:3,0:0:0:0:
511,195,117615,6,0,B|455:210|455:210|453:215|453:215|401:229,1,107.999996704102,14|0,3:2|0:0,0:0:0:0:
208,270,117934,5,14,3:2:0:0:
328,32,118093,1,0,3:0:0:0:
247,280,118253,5,14,3:2:0:0:
247,0,118412,1,2,3:2:0:0:
286,272,118573,5,14,3:2:0:0:
169,26,118732,1,8,0:2:0:0:
169,26,118812,1,8,0:2:0:0:
169,26,118891,6,0,P|114:41|60:52,1,107.999996704102,6|0,3:2|0:0,0:0:0:0:
53,193,119210,6,0,P|175:175|318:153,1,251.999992309571,12|0,3:3|0:0,0:0:0:0:
452,21,119689,6,0,P|440:46|442:81,1,45,2|0,0:2|0:0,0:0:0:0:
365,99,119849,2,0,P|381:121|412:137,1,45,10|0,0:2|0:0,0:0:0:0:
496,259,120008,6,0,B|488:133|488:133|479:175|452:199,1,202.500007724762,6|0,3:2|0:0,0:0:0:0:
253,226,120328,6,0,L|306:234,1,44,10|0,0:2|0:0,0:0:0:0:
407,270,120488,2,0,L|363:276,1,44,8|0,3:3|0:0,0:0:0:0:
337,354,120647,6,0,P|324:271|297:130,1,202.500007724762,6|0,3:2|0:0,0:0:0:0:
246,90,120966,6,0,L|193:98,1,44,10|0,0:2|0:0,0:0:0:0:
173,183,121125,2,0,L|120:175,1,44,8|0,3:3|0:0,0:0:0:0:
34,64,121285,1,6,3:2:0:0:
81,303,121445,5,8,0:2:0:0:
50,275,121524,1,8,0:2:0:0:
41,236,121604,1,10,0:2:0:0:
54,199,121684,1,8,0:2:0:0:
88,176,121764,1,10,0:2:0:0:
129,176,121843,1,8,0:2:0:0:
161,198,121923,6,0,B|242:217|242:217|264:245|264:245|366:268,1,202.500007724762,6|0,3:2|0:0,0:0:0:0:
426,291,122242,1,8,3:3:0:0:
426,291,122322,1,8,3:3:0:0:
426,291,122402,6,0,B|450:323|499:259|462:221|421:213|423:219|349:235|316:145|400:78|467:102|475:160,1,323.999990112305,8|0,3:3|0:0,0:0:0:0:
345,263,123040,2,0,B|264:245|264:245|242:217|242:217|161:198,1,201.600002460938,6|0,3:2|0:0,0:0:0:0:
82,140,123359,5,8,0:2:0:0:
92,112,123438,1,10,0:2:0:0:
115,93,123518,1,10,0:2:0:0:
145,89,123598,1,10,0:2:0:0:
172,100,123678,1,8,3:3:0:0:
191,123,123757,1,8,3:3:0:0:
195,152,123837,1,8,3:3:0:0:
184,179,123917,1,8,3:3:0:0:
161,198,123997,1,6,3:2:0:0:
