osu file format v14

[General]
AudioFilename: audio.ogg
AudioLeadIn: 0
PreviewTime: 9024
Countdown: 0
SampleSet: None
StackLeniency: 0.3
Mode: 0
LetterboxInBreaks: 0
WidescreenStoryboard: 1

[Editor]
DistanceSpacing: 1.4
BeatDivisor: 4
GridSize: 4
TimelineZoom: 1

[Metadata]
Title:Kiss me! Choose me!
TitleUnicode:Kiss me! Choose me!
Artist:Sakura Miko, Houshou Marine, AZKi
ArtistUnicode:さくらみこ、宝鐘マリン、AZKi
Creator:tomatas95
Version:Frey's Expert
Source:アイキス2
Tags:eroge Ai Kiss 2 giga アイキス2 新入生はお好きですか? アイキス2/ゼロ Zero Ai Kiss 2 Shinnyuusei wa Osuki Desu ka? 戏画社 visual novel galgame buckfro cutefro iyasine Loneight l1106188 L18 frey vn opening op video game Hololive vtuber virtual youtuber virtual singer v-tuber japanese j-pop jpop pop
BeatmapID:4547544
BeatmapSetID:2105253

[Difficulty]
HPDrainRate:5
CircleSize:4
OverallDifficulty:8.5
ApproachRate:9
SliderMultiplier:1.8
SliderTickRate:1

[Events]
//Background and Video events
0,0,"SeagusaTwinsbiglove.jpg",0,0
Video,0,"recheckmymaptomachan.mp4"
//Break Periods
2,84623,88930
//Storyboard Layer 0 (Background)
//Storyboard Layer 1 (Fail)
//Storyboard Layer 2 (Pass)
//Storyboard Layer 3 (Foreground)
//Storyboard Layer 4 (Overlay)
//Storyboard Sound Samples

[TimingPoints]
7828,319.148936170213,4,2,1,60,1,0
9104,-100,4,2,1,60,0,0
10062,-100,4,2,2,60,0,0
10221,-100,4,2,1,60,0,0
11338,-100,4,2,2,60,0,0
11498,-100,4,2,1,60,0,0
11897,-100,4,2,2,60,0,0
12136,-100,4,2,1,60,0,0
12216,-100,4,2,2,60,0,0
12455,-100,4,2,1,60,0,0
12535,-100,4,2,2,60,0,0
12774,-100,4,2,1,60,0,0
12854,-100,4,2,2,60,0,0
13093,-100,4,2,1,60,0,0
13173,-100,4,2,2,60,0,0
13413,-100,4,2,1,60,0,0
13572,-83.3333333333333,4,2,1,60,0,0
14051,-83.3333333333333,4,2,3,60,0,0
14210,-100,4,2,4,55,0,0
16764,-100,4,2,1,65,0,0
18040,-100,4,2,6,65,0,0
18359,-100,4,2,1,65,0,0
18519,-100,4,2,2,65,0,0
18679,-100,4,2,7,65,0,0
19317,-90.9090909090909,4,2,6,75,0,1
19556,-90.9090909090909,4,2,1,75,0,1
19796,-90.9090909090909,4,2,6,75,0,1
19875,-90.9090909090909,4,2,1,75,0,1
20115,-90.9090909090909,4,2,6,75,0,1
20354,-90.9090909090909,4,2,1,75,0,1
20434,-90.9090909090909,4,2,6,75,0,1
20514,-90.9090909090909,4,2,1,75,0,1
20593,-90.9090909090909,4,2,6,75,0,1
20833,-90.9090909090909,4,2,1,75,0,1
21072,-90.9090909090909,4,2,6,75,0,1
21790,-90.9090909090909,4,2,1,75,0,1
21870,-90.9090909090909,4,2,6,75,0,1
22429,-90.9090909090909,4,2,1,75,0,1
22508,-90.9090909090909,4,2,6,75,0,1
23067,-90.9090909090909,4,2,1,75,0,1
23147,-76.9230769230769,4,2,6,75,0,1
24343,-76.9230769230769,4,2,1,75,0,1
24583,-76.9230769230769,4,2,2,75,0,1
24902,-76.9230769230769,4,2,3,75,0,1
25221,-76.9230769230769,4,2,6,75,0,1
25301,-76.9230769230769,4,2,1,75,0,1
25540,-76.9230769230769,4,2,4,75,0,1
25700,-76.9230769230769,4,2,5,75,0,1
25859,-76.9230769230769,4,2,6,75,0,1
26179,-76.9230769230769,4,2,13,75,0,1
26338,-76.9230769230769,4,2,1,75,0,1
26498,-76.9230769230769,4,2,6,75,0,1
26657,-76.9230769230769,4,2,1,75,0,1
26817,-76.9230769230769,4,2,4,75,0,1
27296,-76.9230769230769,4,2,6,75,0,1
27535,-76.9230769230769,4,2,1,75,0,1
27615,-90.9090909090909,4,2,1,75,0,1
28093,-90.9090909090909,4,2,6,75,0,1
28173,-90.9090909090909,4,2,1,75,0,1
28413,-90.9090909090909,4,2,6,75,0,1
28492,-90.9090909090909,4,2,1,75,0,1
28732,-90.9090909090909,4,2,6,75,0,1
28891,-76.9230769230769,4,2,1,75,0,1
29210,-90.9090909090909,4,2,6,75,0,1
29290,-90.9090909090909,4,2,5,75,0,1
29370,-90.9090909090909,4,2,8,75,0,1
29450,-90.9090909090909,4,2,7,75,0,1
29530,-100,4,2,6,60,0,0
29689,-100,4,2,1,60,0,0
39423,-100,4,2,2,60,0,0
39583,-100,4,2,3,70,0,0
39742,-100,4,2,1,70,0,0
39902,-100,4,2,2,70,0,0
40939,-100,4,2,1,70,0,0
41019,-100,4,2,2,70,0,0
42056,-100,4,2,1,70,0,0
42136,-100,4,2,2,70,0,0
42216,-100,4,2,1,70,0,0
42296,-100,4,2,2,70,0,0
42854,-100,4,2,1,70,0,0
42934,-100,4,2,2,70,0,0
43492,-100,4,2,1,70,0,0
43572,-100,4,2,2,70,0,0
44609,-100,4,2,1,70,0,0
44689,-100,4,2,2,70,0,0
44769,-100,4,2,1,70,0,0
45008,-100,4,2,2,70,0,0
46684,-100,4,2,1,70,0,0
46764,-100,4,2,2,70,0,0
47322,-100,4,2,1,70,0,0
47402,-100,4,2,4,70,0,0
47562,-100,4,2,2,70,0,0
47960,-100,4,2,1,70,0,0
48200,-100,4,2,2,70,0,0
48519,-100,4,2,1,70,0,0
49317,-100,4,2,5,70,0,0
49636,-83.3333333333333,4,2,2,70,0,0
49955,-125,4,2,7,60,0,0
50274,-125,4,2,2,60,0,0
50381,-125,4,2,5,60,0,0
50487,-125,4,2,1,60,0,0
50913,-125,4,2,12,60,0,0
51019,-125,4,2,15,60,0,0
51125,-125,4,2,11,60,0,0
51551,-125,4,2,2,60,0,0
51657,-125,4,2,5,60,0,0
51764,-125,4,2,1,60,0,0
52189,-83.3333333333333,4,2,12,60,0,0
52296,-83.3333333333333,4,2,15,60,0,0
52402,-83.3333333333333,4,2,11,60,0,0
52508,-125,4,2,11,60,0,0
52828,-125,4,2,2,60,0,0
52934,-125,4,2,5,60,0,0
53040,-125,4,2,1,60,0,0
53466,-125,4,2,12,60,0,0
53572,-125,4,2,15,60,0,0
53679,-125,4,2,11,60,0,0
54742,-166.666666666667,4,2,4,60,0,0
55062,-100,4,2,1,70,0,0
55221,-100,4,2,2,70,0,0
55301,-100,4,2,1,70,0,0
55381,-100,4,2,2,70,0,0
56019,-100,4,2,1,70,0,0
56179,-100,4,2,2,70,0,0
56258,-100,4,2,1,70,0,0
56338,-100,4,2,2,70,0,0
56578,-100,4,2,1,70,0,0
56657,-100,4,2,2,70,0,0
57535,-100,4,2,1,70,0,0
57615,-100,4,2,2,75,0,0
60168,-100,4,2,4,75,0,0
60806,-100,4,2,7,75,0,0
61445,-90.9090909090909,4,2,6,75,0,1
61684,-90.9090909090909,4,2,1,75,0,1
61923,-90.9090909090909,4,2,6,75,0,1
62641,-90.9090909090909,4,2,1,75,0,1
62721,-90.9090909090909,4,2,6,75,0,1
62960,-90.9090909090909,4,2,1,75,0,1
63200,-90.9090909090909,4,2,6,75,0,1
63918,-90.9090909090909,4,2,1,75,0,1
63998,-90.9090909090909,4,2,6,75,0,1
65195,-90.9090909090909,4,2,1,75,0,1
65274,-76.9230769230769,4,2,6,75,0,1
65833,-76.9230769230769,4,2,1,75,0,1
65913,-76.9230769230769,4,2,6,75,0,1
66471,-76.9230769230769,4,2,1,75,0,1
66551,-90.9090909090909,4,2,6,75,0,1
66790,-90.9090909090909,4,2,1,75,0,1
67030,-90.9090909090909,4,2,6,75,0,1
67429,-90.9090909090909,4,2,1,75,0,1
67668,-90.9090909090909,4,2,6,75,0,1
68705,-90.9090909090909,4,2,1,75,0,1
68785,-90.9090909090909,4,2,6,75,0,1
69104,-90.9090909090909,4,2,1,75,0,1
69264,-90.9090909090909,4,2,6,75,0,1
69423,-76.9230769230769,4,2,6,75,0,1
69663,-76.9230769230769,4,2,1,75,0,1
69742,-76.9230769230769,4,2,4,75,0,1
69902,-76.9230769230769,4,2,6,75,0,1
70301,-76.9230769230769,4,2,1,75,0,1
70381,-90.9090909090909,4,2,6,75,0,1
70620,-90.9090909090909,4,2,1,75,0,1
70700,-90.9090909090909,4,2,6,75,0,1
71019,-90.9090909090909,4,2,5,75,0,1
71179,-90.9090909090909,4,2,1,75,0,1
71338,-76.9230769230769,4,2,6,75,0,0
71418,-76.9230769230769,4,2,5,75,0,0
71498,-76.9230769230769,4,2,8,75,0,0
71578,-76.9230769230769,4,2,7,75,0,0
71657,-90.9090909090909,4,2,6,75,0,1
71897,-90.9090909090909,4,2,1,75,0,1
72136,-90.9090909090909,4,2,6,75,0,1
72854,-90.9090909090909,4,2,1,75,0,1
72934,-90.9090909090909,4,2,6,75,0,1
73173,-90.9090909090909,4,2,1,75,0,1
73413,-90.9090909090909,4,2,6,75,0,1
74131,-90.9090909090909,4,2,1,75,0,1
74210,-90.9090909090909,4,2,6,75,0,1
75407,-90.9090909090909,4,2,1,75,0,1
75487,-76.9230769230769,4,2,6,75,0,1
76046,-76.9230769230769,4,2,1,75,0,1
76125,-76.9230769230769,4,2,6,75,0,1
76684,-76.9230769230769,4,2,1,75,0,1
76923,-76.9230769230769,4,2,2,75,0,1
77243,-76.9230769230769,4,2,3,75,0,1
77482,-76.9230769230769,4,2,1,75,0,1
77881,-76.9230769230769,4,2,4,75,0,1
78040,-76.9230769230769,4,2,5,75,0,1
78200,-76.9230769230769,4,2,6,75,0,1
78519,-76.9230769230769,4,2,13,75,0,1
78838,-76.9230769230769,4,2,6,75,0,1
78998,-76.9230769230769,4,2,1,75,0,1
79317,-90.9090909090909,4,2,1,75,0,1
79476,-90.9090909090909,4,2,6,75,0,1
79716,-90.9090909090909,4,2,1,75,0,1
79796,-90.9090909090909,4,2,6,75,0,1
80514,-90.9090909090909,4,2,1,75,0,1
80593,-90.9090909090909,4,2,6,75,0,1
81790,-90.9090909090909,4,2,1,75,0,1
81870,-90.9090909090909,4,2,22,75,0,1
83306,-125,4,2,1,70,0,0
83466,-125,4,2,1,60,0,0
89530,-100,4,2,8,60,0,0
89689,-100,4,2,1,60,0,0
92402,-100,4,2,2,65,0,0
92562,-100,4,2,1,65,0,0
92721,-100,4,2,6,65,0,0
92881,-100,4,2,1,65,0,0
93040,-100,4,2,7,65,0,0
93200,-100,4,2,1,65,0,0
94636,-90.9090909090909,4,2,6,75,0,1
94875,-90.9090909090909,4,2,1,75,0,1
94955,-90.9090909090909,4,2,6,75,0,1
95195,-90.9090909090909,4,2,1,75,0,1
95434,-90.9090909090909,4,2,6,75,0,1
95833,-90.9090909090909,4,2,1,75,0,1
95913,-90.9090909090909,4,2,6,75,0,1
96152,-90.9090909090909,4,2,1,75,0,1
96391,-90.9090909090909,4,2,6,75,0,1
97109,-90.9090909090909,4,2,1,75,0,1
97189,-90.9090909090909,4,2,6,75,0,1
98386,-90.9090909090909,4,2,1,75,0,1
98466,-76.9230769230769,4,2,6,75,0,1
99024,-76.9230769230769,4,2,1,75,0,1
99104,-76.9230769230769,4,2,6,75,0,1
99663,-76.9230769230769,4,2,1,75,0,1
99902,-76.9230769230769,4,2,2,75,0,1
100221,-76.9230769230769,4,2,3,75,0,1
100460,-76.9230769230769,4,2,1,75,0,1
100859,-76.9230769230769,4,2,4,75,0,1
101019,-76.9230769230769,4,2,5,75,0,1
101179,-76.9230769230769,4,2,6,75,0,1
101498,-76.9230769230769,4,2,13,75,0,1
101976,-76.9230769230769,4,2,1,75,0,1
102296,-90.9090909090909,4,2,6,75,0,1
102695,-90.9090909090909,4,2,1,75,0,1
102774,-90.9090909090909,4,2,6,75,0,1
103492,-90.9090909090909,4,2,1,75,0,1
103572,-90.9090909090909,4,2,6,75,0,1
104769,-90.9090909090909,4,2,1,75,0,1
104849,-100,4,2,1,70,0,0
106125,-100,4,2,1,20,0,0
106923,-100,4,2,1,60,0,0
107402,-100,4,2,7,60,0,0
107562,-100,4,2,1,60,0,0
112189,-100,4,2,8,60,0,0
112429,-100,4,2,8,5,0,0
112508,-100,4,2,1,70,0,0
112828,-100,4,2,13,70,0,0
116019,-100,4,2,2,70,0,0
116179,-100,4,2,4,70,0,0
116498,-100,4,2,2,70,0,0
117136,-100,4,2,3,70,0,0
117296,-100,4,2,5,70,0,0
117455,-100,4,2,9,70,0,0
117615,-100,4,2,2,75,0,0
119210,-100,4,2,4,75,0,0
119689,-100,4,2,2,75,0,0
120008,-100,4,2,7,70,0,0
120328,-100,4,2,2,70,0,0
120487,-100,4,2,5,70,0,0
120647,-90.9090909090909,4,2,1,70,0,0
120966,-90.9090909090909,4,2,2,70,0,0
121285,-83.3333333333333,4,2,6,70,0,0
121445,-83.3333333333333,4,2,2,70,0,0
121923,-76.9230769230769,4,2,4,70,0,0
122242,-76.9230769230769,4,2,1,70,0,0
122402,-76.9230769230769,4,2,2,70,0,0
122562,-76.9230769230769,4,2,9,70,0,0
122721,-76.9230769230769,4,2,3,70,0,0
123040,-100,4,2,9,70,0,0
123359,-100,4,2,6,70,0,0
123519,-100,4,2,1,65,0,0
123679,-100,4,2,9,60,0,0
123838,-100,4,2,4,55,0,0
123998,-100,4,2,1,50,0,0

[Colours]
Combo1 : 249,164,189
Combo2 : 245,221,135
Combo3 : 231,169,243
Combo4 : 145,214,236

[HitObjects]
460,62,9104,5,4,3:2:0:0:
376,157,9264,2,0,P|290:167|236:101,1,180,2|10,0:2|0:2,0:0:0:0:
204,288,9742,5,2,3:2:0:0:
148,116,9902,1,2,3:2:0:0:
324,86,10062,1,10,0:2:0:0:
128,120,10221,1,2,3:2:0:0:
108,124,10540,6,0,P|63:132|19:139,1,90,2|10,3:2|0:2,0:0:0:0:
160,28,10859,1,10,0:2:0:0:
168,208,11019,1,0,3:0:0:0:
0,142,11179,5,2,3:2:0:0:
128,120,11338,2,0,P|172:113|216:105,1,90,10|2,0:2|0:2,0:0:0:0:
420,68,11657,6,0,P|357:87|300:55,1,135,2|8,3:2|0:2,0:0:0:0:
277,15,11976,2,0,P|210:28|144:38,1,135,2|8,3:2|0:2,0:0:0:0:
144,38,12296,5,2,3:2:0:0:
80,212,12455,1,10,0:2:0:0:
28,116,12615,1,2,3:2:0:0:
188,192,12774,2,0,P|276:204|340:136,1,180,10|10,0:2|0:2,0:0:0:0:
364,20,13253,1,2,3:2:0:0:
468,180,13413,1,8,0:2:0:0:
468,180,13492,1,8,0:2:0:0:
468,180,13572,6,0,P|452:252|435:338,1,161.999995056153,2|8,3:2|0:2,0:0:0:0:
335,379,13891,2,0,P|261:363|256:288,1,161.999995056153,2|8,3:2|0:2,0:0:0:0:
296,192,14210,6,0,P|339:204|383:212,1,90,6|0,3:2|0:0,0:0:0:0:
488,84,14530,2,0,P|443:75|400:63,1,90,2|0,0:2|0:0,0:0:0:0:
256,24,14849,5,0,3:0:0:0:
256,23,15008,2,0,P|202:93|215:180,1,180,2|0,3:2|3:0,0:0:0:0:
40,139,15487,2,0,P|68:221|151:244,1,180,2|8,0:2|0:2,0:0:0:0:
277,358,15966,2,0,P|285:269|297:180,1,180,2|0,0:2|3:0,0:0:0:0:
152,244,16445,1,10,0:2:0:0:
164,232,16764,5,6,3:2:0:0:
288,92,16923,2,0,P|331:101|374:116,1,90,10|8,0:2|0:2,0:0:0:0:
436,248,17242,1,8,0:2:0:0:
436,248,17402,5,2,3:2:0:0:
504,60,17562,2,0,P|494:103|479:146,1,90,10|8,0:2|3:2,0:0:0:0:
436,248,17881,1,8,0:2:0:0:
256,192,18040,6,0,P|272:292|280:332,1,135,10|8,3:2|0:2,0:0:0:0:
312,356,18359,2,0,P|356:356|397:338,1,90,8|8,3:3|3:3,0:0:0:0:
220,172,18678,5,2,3:2:0:0:
180,166,18758,1,0,0:0:0:0:
141,175,18838,1,0,0:0:0:0:
107,197,18918,1,0,0:0:0:0:
83,229,18998,2,0,P|58:222|36:216,1,45,10|0,0:2|0:0,0:0:0:0:
0,112,19157,2,0,P|22:106|47:99,1,45
120,0,19317,6,0,P|132:48|148:100,1,99.0000030212403,6|8,3:2|0:2,0:0:0:0:
208,264,19636,2,0,P|256:258|293:226,1,99.0000030212403,2|8,3:2|0:2,0:0:0:0:
320,32,19955,5,2,3:2:0:0:
220,172,20115,1,10,0:2:0:0:
388,200,20274,2,0,P|436:208|485:217,1,99.0000030212403,2|8,3:2|0:2,0:0:0:0:
332,112,20593,6,0,P|283:103|234:94,1,99.0000030212403,2|8,3:2|0:2,0:0:0:0:
84,224,20913,2,0,P|133:226|178:205,1,99.0000030212403,2|8,3:2|0:2,0:0:0:0:
4,164,21232,5,2,3:2:0:0:
4,164,21391,1,10,0:2:0:0:
44,340,21551,2,0,P|136:320|164:316,1,99.0000030212403,2|8,3:2|0:2,0:0:0:0:
327,247,21870,6,0,P|324:339|234:352,1,198.000006042481,2|0,3:2|3:0,0:0:0:0:
196,192,22349,1,10,0:2:0:0:
320,228,22508,1,2,3:2:0:0:
132,299,22668,1,10,0:2:0:0:
164,100,22828,2,0,P|212:108|261:114,1,99.0000030212403,2|8,3:2|0:2,0:0:0:0:
300,148,23067,1,8,0:2:0:0:
300,148,23147,6,0,P|349:143|420:132,1,116.999994644165,2|8,3:2|0:2,0:0:0:0:
212,12,23466,2,0,P|154:21|96:27,1,116.999994644165,2|8,3:2|0:2,0:0:0:0:
160,220,23785,6,0,P|218:222|274:237,1,116.999994644165,2|8,3:2|0:2,0:0:0:0:
436,51,24104,2,0,P|377:49|321:34,1,116.999994644165,2|8,3:2|0:2,0:0:0:0:
256,104,24343,1,8,0:2:0:0:
256,104,24423,5,10,3:2:0:0:
408,232,24583,1,10,3:2:0:0:
264,128,24742,1,2,0:2:0:0:
196,291,24902,2,0,P|80:304|4:212,1,233.999989288331,4|8,3:3|0:2,0:0:0:0:
40,48,25381,1,2,3:2:0:0:
64,44,25460,1,8,0:2:0:0:
89,40,25540,1,10,3:2:0:0:
113,37,25620,1,0,3:0:0:0:
138,33,25700,5,8,3:2:0:0:
216,124,25859,1,8,3:2:0:0:
104,168,26019,1,0,0:0:0:0:
328,80,26179,1,4,3:3:0:0:
162,29,26338,5,8,0:2:0:0:
162,29,26418,1,8,0:2:0:0:
162,29,26498,1,8,3:2:0:0:
268,216,26657,1,2,3:2:0:0:
130,269,26817,1,0,3:3:0:0:
216,124,26976,5,2,3:2:0:0:
256,316,27136,1,2,3:2:0:0:
352,144,27296,2,0,P|371:229|393:314,1,175.499991966248,10|8,0:2|0:2,0:0:0:0:
456,383,27615,6,0,P|481:342|484:293,1,99.0000030212403,4|2,3:2|3:2,0:0:0:0:
346,124,27934,2,0,P|297:133|249:145,1,99.0000030212403,8|10,0:2|0:2,0:0:0:0:
208,160,28173,5,8,0:2:0:0:
208,160,28253,1,0,3:0:0:0:
172,292,28413,1,10,0:2:0:0:
0,228,28572,2,0,P|49:231|96:246,1,99.0000030212403,2|8,3:2|0:2,0:0:0:0:
256,372,28891,2,0,P|328:336|332:236,1,175.499991966248,2|8,3:2|0:2,0:0:0:0:
256,192,29210,1,8,3:3:0:0:
256,192,29290,1,8,3:3:0:0:
256,192,29370,1,8,3:3:0:0:
256,192,29450,1,8,3:3:0:0:
256,192,29530,6,0,P|244:116|236:72,1,90,4|2,3:2|0:2,0:0:0:0:
324,8,29849,1,2,3:2:0:0:
324,8,30008,1,2,0:2:0:0:
352,188,30168,5,2,3:2:0:0:
352,188,30328,1,2,0:2:0:0:
428,56,30487,1,2,3:2:0:0:
237,84,30647,2,0,P|196:92|149:99,1,90,2|0,0:2|3:0,0:0:0:0:
104,296,30966,5,2,0:2:0:0:
40,188,31125,1,2,3:2:0:0:
163,226,31285,2,0,P|216:236|251:239,1,90,2|0,0:2|3:0,0:0:0:0:
428,192,31604,2,0,P|413:288|399:369,1,180,2|2,0:2|0:2,0:0:0:0:
399,369,32083,5,0,3:0:0:0:
340,200,32242,1,2,0:2:0:0:
484,316,32402,1,2,3:2:0:0:
310,377,32562,1,2,0:2:0:0:
486,298,32721,5,0,3:0:0:0:
342,182,32881,1,2,0:2:0:0:
508,155,33040,2,0,P|463:153|422:136,1,90,2|2,3:2|0:2,0:0:0:0:
284,68,33359,5,2,3:2:0:0:
408,44,33519,1,2,0:2:0:0:
256,156,33679,1,2,3:2:0:0:
368,304,33838,2,0,P|412:301|453:284,1,90,2|0,0:2|3:0,0:0:0:0:
256,156,34157,2,0,P|245:246|237:335,1,180,2|2,0:2|0:2,0:0:0:0:
237,335,34636,5,4,3:2:0:0:
72,288,34796,1,2,0:2:0:0:
180,192,34955,1,2,3:2:0:0:
160,356,35115,1,2,0:2:0:0:
72,180,35274,5,2,3:2:0:0:
164,328,35434,1,2,0:2:0:0:
0,376,35593,1,2,3:2:0:0:
168,300,35753,2,0,P|212:306|257:311,1,90,2|0,0:2|3:0,0:0:0:0:
400,328,36072,5,2,0:2:0:0:
456,192,36232,1,2,3:2:0:0:
298,229,36391,2,0,P|254:219|220:192,1,90,2|0,0:2|3:0,0:0:0:0:
32,53,36710,2,0,P|42:142|55:231,1,180,2|2,0:2|0:2,0:0:0:0:
56,231,37189,5,0,3:0:0:0:
212,324,37349,1,2,0:2:0:0:
89,339,37508,2,0,P|44:344|-8:352,1,90,2|0,3:2|0:0,0:0:0:0:
128,176,37828,5,2,3:2:0:0:
256,244,37988,1,2,0:2:0:0:
108,336,38147,1,2,3:2:0:0:
130,158,38306,1,2,0:2:0:0:
256,140,38466,6,0,P|300:133|345:126,1,90,2|2,3:2|0:2,0:0:0:0:
499,222,38785,2,0,P|454:221|412:236,1,90,2|2,3:2|0:2,0:0:0:0:
256,384,39104,2,0,P|188:328|180:240,1,180,10|8,3:2|3:2,0:0:0:0:
329,37,39742,6,0,P|334:81|344:125,1,90,6|10,3:2|0:2,0:0:0:0:
372,252,40062,1,2,3:2:0:0:
232,140,40221,2,0,P|168:152|124:164,1,90,10|0,0:2|3:0,0:0:0:0:
0,280,40540,5,10,0:2:0:0:
60,124,40700,1,2,3:2:0:0:
179,241,40859,2,0,P|222:230|267:222,1,90,10|0,0:2|3:0,0:0:0:0:
180,368,41179,5,10,0:2:0:0:
88,228,41338,1,2,3:2:0:0:
232,140,41498,1,8,0:2:0:0:
176,260,41657,5,2,3:2:0:0:
332,124,41817,1,10,0:2:0:0:
156,80,41976,1,2,3:2:0:0:
267,222,42136,6,0,P|308:238|353:239,1,90,10|0,0:2|3:0,0:0:0:0:
472,80,42455,1,2,0:2:0:0:
452,204,42615,2,0,P|437:292|422:381,1,180,2|0,3:2|3:0,0:0:0:0:
256,348,43093,5,10,0:2:0:0:
353,239,43253,1,2,3:2:0:0:
225,166,43413,1,10,0:2:0:0:
370,234,43572,5,2,3:2:0:0:
192,264,43732,1,10,0:2:0:0:
308,124,43891,1,2,3:2:0:0:
460,220,44051,2,0,P|430:301|347:322,1,180,10|10,0:2|0:2,0:0:0:0:
225,166,44530,5,2,3:2:0:0:
370,234,44689,1,10,0:2:0:0:
268,364,44849,6,0,P|223:370|179:379,1,90,6|10,3:2|0:2,0:0:0:0:
40,252,45168,1,2,3:2:0:0:
132,268,45328,1,10,0:2:0:0:
256,116,45487,5,2,3:2:0:0:
164,132,45647,1,10,0:2:0:0:
224,284,45806,1,2,3:2:0:0:
360,191,45966,2,0,P|404:191|447:205,1,90,10|0,0:2|3:0,0:0:0:0:
512,76,46285,5,10,0:2:0:0:
336,10,46445,2,0,P|340:54|347:99,1,90,2|8,3:2|0:2,0:0:0:0:
284,268,46764,5,2,3:2:0:0:
156,184,46923,1,10,0:2:0:0:
256,64,47083,1,2,3:2:0:0:
360,191,47242,5,10,0:2:0:0:
360,191,47322,1,8,0:2:0:0:
360,191,47402,2,0,P|370:283|384:371,1,180,4|10,3:2|0:2,0:0:0:0:
456,264,47881,1,0,3:0:0:0:
295,384,48040,2,0,P|251:377|213:354,1,90,4|2,3:2|3:2,0:0:0:0:
164,216,48359,5,10,0:2:0:0:
288,272,48519,1,8,0:2:0:0:
288,272,48599,1,8,0:2:0:0:
288,272,48679,1,2,3:2:0:0:
144,300,48838,1,10,0:2:0:0:
280,184,48998,1,2,3:2:0:0:
104,152,49157,1,10,0:2:0:0:
239,36,49317,2,0,P|198:52|153:59,1,90,2|8,3:2|0:2,0:0:0:0:
26,16,49556,1,8,0:2:0:0:
26,16,49636,6,0,P|14:106|6:196,1,161.999995056153,8|8,3:3|3:3,0:0:0:0:
4,220,49955,2,0,P|62:224|118:268,1,108,6|0,3:2|0:0,0:0:0:0:
166,324,50274,6,0,P|169:352|171:371,2,48,10|8|8,1:2|1:2|1:2,0:0:0:0:
208,236,50593,2,0,P|255:242|303:248,1,96,2|0,3:2|0:0,0:0:0:0:
400,262,50913,2,0,P|403:290|405:309,2,48,10|8|8,3:2|3:2|3:2,0:0:0:0:
468,192,51232,6,0,P|474:142|480:96,1,96,2|0,3:2|0:0,0:0:0:0:
415,23,51551,2,0,P|392:23|369:30,2,48,10|8|8,1:2|1:2|1:2,0:0:0:0:
304,100,51870,2,0,P|254:95|208:87,1,96,0|0,3:0|0:0,0:0:0:0:
48,171,52189,6,0,P|119:167|186:191,1,143.999995605469,10|8,3:2|3:2,0:0:0:0:
224,224,52508,2,0,P|271:228|320:208,1,96,2|0,3:2|0:0,0:0:0:0:
392,148,52828,6,0,P|394:125|397:100,2,48,10|8|8,1:2|1:2|1:2,0:0:0:0:
478,192,53147,2,0,P|472:241|466:287,1,96,2|0,3:2|0:0,0:0:0:0:
451,382,53466,2,0,P|428:376|407:364,2,48,10|8|8,3:2|3:2|3:2,0:0:0:0:
335,303,53785,6,0,P|265:294|199:321,1,144,2|2,3:2|3:2,0:0:0:0:
12,240,54423,2,0,P|21:313|34:382,1,144,0|8,3:0|3:3,0:0:0:0:
228,140,55062,5,4,3:2:0:0:
104,116,55221,1,10,0:2:0:0:
168,228,55381,2,0,P|209:245|253:244,1,90,2|10,3:2|0:2,0:0:0:0:
300,24,55700,5,2,3:2:0:0:
104,116,55859,1,10,0:2:0:0:
317,158,56019,1,2,3:2:0:0:
210,36,56179,1,8,0:2:0:0:
210,36,56258,1,8,0:2:0:0:
210,36,56338,5,0,3:0:0:0:
390,12,56498,1,10,0:2:0:0:
317,158,56657,2,0,P|265:156|225:136,1,90,2|10,3:2|0:2,0:0:0:0:
120,24,56976,5,2,3:2:0:0:
44,192,57136,1,10,0:2:0:0:
216,128,57296,1,2,3:2:0:0:
20,80,57455,1,8,0:2:0:0:
20,80,57535,1,8,0:2:0:0:
20,80,57615,6,0,P|66:71|107:60,1,90,6|0,3:2|0:0,0:0:0:0:
297,15,57934,2,0,P|253:24|210:36,1,90,12|2,3:2|3:2,0:0:0:0:
152,236,58253,6,0,P|143:190|132:149,1,90,14|0,3:2|3:0,0:0:0:0:
380,148,58572,2,0,P|368:191|360:236,1,90,12|2,3:2|3:2,0:0:0:0:
172,324,58891,5,14,3:2:0:0:
256,212,59051,1,10,0:2:0:0:
131,148,59210,1,14,3:2:0:0:
47,260,59370,1,10,0:2:0:0:
256,364,59530,6,0,P|411:309|380:147,1,360,14|8,3:2|3:3,0:0:0:0:
36,24,60806,5,2,0:2:0:0:
39,64,60885,1,2,0:2:0:0:
45,104,60965,1,2,3:2:0:0:
52,144,61045,1,2,0:2:0:0:
60,183,61125,2,0,P|64:206|68:228,1,45,10|2,3:2|0:2,0:0:0:0:
156,304,61285,2,0,P|160:281|163:259,1,45,2|2,0:2|0:2,0:0:0:0:
192,132,61445,6,0,P|240:141|289:149,1,99.0000030212403,6|8,3:2|0:2,0:0:0:0:
460,288,61764,2,0,P|411:280|362:270,1,99.0000030212403,2|8,3:2|0:2,0:0:0:0:
460,56,62083,5,2,3:2:0:0:
308,152,62242,1,10,0:2:0:0:
505,193,62402,2,0,P|456:185|408:176,1,99.0000030212403,2|8,3:2|0:2,0:0:0:0:
177,34,62721,6,0,P|184:83|192:132,1,99.0000030212403,2|8,3:2|0:2,0:0:0:0:
227,327,63040,2,0,P|276:327|319:302,1,99.0000030212403,2|8,3:2|0:2,0:0:0:0:
108,248,63359,5,2,3:2:0:0:
108,248,63519,1,10,0:2:0:0:
290,145,63679,2,0,P|282:194|252:231,1,99.0000030212403,2|8,3:2|0:2,0:0:0:0:
63,339,63998,6,0,P|8:261|39:172,1,198.000006042481,2|0,3:2|3:0,0:0:0:0:
192,192,64476,1,10,0:2:0:0:
56,160,64636,1,2,3:2:0:0:
172,292,64796,1,10,0:2:0:0:
212,92,64955,2,0,P|259:105|308:115,1,99.0000030212403,2|8,3:2|0:2,0:0:0:0:
356,128,65195,1,8,0:2:0:0:
356,128,65274,6,0,P|414:122|458:84,1,116.999994644165,2|8,3:2|0:2,0:0:0:0:
484,305,65593,2,0,P|500:249|512:192,1,116.999994644165,2|8,3:2|0:2,0:0:0:0:
336,1,65913,6,0,P|324:58|308:115,1,116.999994644165,2|8,3:2|0:2,0:0:0:0:
148,288,66232,2,0,P|90:289|38:262,1,116.999994644165,2|8,3:2|0:2,0:0:0:0:
12,104,66551,6,0,P|60:94|109:85,1,99.0000030212403,6|8,3:2|0:2,0:0:0:0:
214,233,66870,2,0,P|205:184|196:136,1,99.0000030212403,2|8,3:2|0:2,0:0:0:0:
172,7,67189,6,0,P|221:6|265:26,1,99.0000030212403,2|8,3:2|0:2,0:0:0:0:
421,89,67508,2,0,P|377:109|328:107,1,99.0000030212403,2|10,3:2|0:2,0:0:0:0:
214,233,67828,6,0,P|262:241|311:251,1,99.0000030212403,2|8,3:2|0:2,0:0:0:0:
505,290,68147,2,0,P|456:280|408:272,1,99.0000030212403,2|8,3:2|0:2,0:0:0:0:
228,359,68466,2,0,P|133:345|87:261,1,198.000006042481,2|2,3:2|3:2,0:0:0:0:
176,152,68945,1,10,0:2:0:0:
84,240,69104,5,6,3:2:0:0:
16,76,69264,1,0,3:0:0:0:
84,240,69423,2,0,P|172:255|260:268,1,175.499991966248,10|8,0:2|0:2,0:0:0:0:
356,280,69742,5,6,3:2:0:0:
288,116,69902,1,0,3:0:0:0:
356,280,70062,2,0,P|452:276|508:196,1,175.499991966248,10|8,0:2|0:2,0:0:0:0:
512,120,70381,6,0,P|500:76|488:12,1,99.0000030212403,2|10,3:2|0:2,0:0:0:0:
322,198,70700,2,0,P|370:188|418:175,1,99.0000030212403,2|10,3:2|0:2,0:0:0:0:
255,31,71019,5,10,3:2:0:0:
212,24,71098,1,10,0:2:0:0:
168,32,71178,1,10,3:2:0:0:
132,60,71258,1,10,0:2:0:0:
112,100,71338,2,0,P|127:186|145:272,1,175.499991966248,8|8,3:3|3:3,0:0:0:0:
216,343,71657,6,0,P|240:301|244:252,1,99.0000030212403,6|8,3:2|0:2,0:0:0:0:
28,160,71976,2,0,P|36:208|47:257,1,99.0000030212403,2|8,3:2|0:2,0:0:0:0:
200,128,72296,5,2,3:2:0:0:
52,276,72455,1,10,0:2:0:0:
11,76,72615,2,0,P|56:54|105:55,1,99.0000030212403,2|8,3:2|0:2,0:0:0:0:
329,30,72934,6,0,P|320:76|312:128,1,99.0000030212403,2|8,3:2|0:2,0:0:0:0:
145,297,73253,2,0,P|95:297|52:276,1,99.0000030212403,2|8,3:2|0:2,0:0:0:0:
212,224,73572,5,2,3:2:0:0:
292,340,73732,1,10,0:2:0:0:
324,144,73891,2,0,P|331:95|340:46,1,99.0000030212403,2|8,3:2|0:2,0:0:0:0:
512,191,74210,6,0,P|445:259|352:241,1,198.000006042481,2|0,3:2|3:0,0:0:0:0:
232,68,74689,1,10,0:2:0:0:
416,164,74849,1,2,3:2:0:0:
440,28,75008,1,10,0:2:0:0:
304,155,75168,2,0,P|260:178|211:181,1,99.0000030212403,2|8,3:2|0:2,0:0:0:0:
164,164,75407,1,8,0:2:0:0:
164,164,75487,6,0,P|152:121|136:49,1,116.999994644165,2|8,3:2|0:2,0:0:0:0:
0,272,75806,2,0,P|51:299|108:295,1,116.999994644165,2|8,3:2|0:2,0:0:0:0:
357,312,76125,6,0,P|312:275|256:264,1,116.999994644165,2|8,3:2|0:2,0:0:0:0:
44,80,76445,2,0,P|56:137|71:193,1,116.999994644165,2|8,3:2|0:2,0:0:0:0:
160,224,76684,1,8,0:2:0:0:
160,224,76764,5,10,3:2:0:0:
352,160,76923,1,10,3:2:0:0:
224,96,77083,1,2,0:2:0:0:
288,288,77242,2,0,P|398:309|475:229,1,233.999989288331,4|8,3:3|0:2,0:0:0:0:
504,20,77721,1,2,3:2:0:0:
501,43,77801,1,8,0:2:0:0:
497,66,77881,1,0,3:0:0:0:
494,89,77961,1,0,3:0:0:0:
491,113,78040,5,10,3:2:0:0:
304,136,78200,1,10,3:2:0:0:
372,4,78359,1,2,0:2:0:0:
340,224,78519,2,0,B|230:251|226:147|119:177,1,233.999989288331,4|8,3:3|0:2,0:0:0:0:
37,341,78998,1,10,0:2:0:0:
34,317,79077,1,8,0:2:0:0:
31,294,79157,1,10,0:2:0:0:
27,271,79237,1,8,0:2:0:0:
24,248,79317,5,6,3:2:0:0:
156,292,79476,1,10,0:2:0:0:
216,104,79636,1,2,3:2:0:0:
18,134,79796,6,0,P|66:126|116:120,1,99.0000030212403,10|0,0:2|3:0,0:0:0:0:
283,183,80115,2,0,P|234:189|186:198,1,99.0000030212403,10|0,0:2|3:0,0:0:0:0:
256,24,80434,5,10,0:2:0:0:
256,24,80593,2,0,P|305:22|351:38,1,99.0000030212403,2|8,3:2|0:2,0:0:0:0:
456,160,80913,1,2,3:2:0:0:
456,160,81072,2,0,P|440:256|424:356,1,198.000006042481,10|10,0:2|0:2,0:0:0:0:
312,272,81551,2,0,P|262:277|214:286,1,99.0000030212403,0|10,3:0|0:2,0:0:0:0:
28,320,81870,5,12,3:2:0:0:
192,292,82030,1,2,0:2:0:0:
44,220,82189,1,14,3:2:0:0:
170,298,82349,1,0,3:0:0:0:
60,120,82508,5,12,3:2:0:0:
148,304,82668,1,0,3:0:0:0:
158,102,82828,1,12,3:2:0:0:
124,312,82987,1,0,3:0:0:0:
256,84,83147,5,12,3:2:0:0:
216,328,83306,1,2,3:2:0:0:
448,241,83945,5,0,3:0:0:0:
448,241,84104,2,0,P|368:249|308:213,1,144,8|6,0:2|3:2,0:0:0:0:
408,280,89530,5,4,3:2:0:0:
408,280,89689,1,2,0:2:0:0:
380,140,89849,1,2,3:2:0:0:
296,256,90008,2,0,P|288:296|276:364,1,90,2|0,0:2|3:0,0:0:0:0:
376,160,90328,5,2,0:2:0:0:
216,184,90487,1,2,3:2:0:0:
376,160,90647,2,0,P|420:154|464:146,1,90,2|0,0:2|3:0,0:0:0:0:
272,76,90966,5,2,0:2:0:0:
296,256,91125,1,2,3:2:0:0:
272,76,91285,2,0,P|228:70|184:62,1,90,2|0,0:2|3:0,0:0:0:0:
12,144,91604,5,2,0:2:0:0:
24,268,91764,1,2,3:2:0:0:
144,300,91923,1,2,0:2:0:0:
216,198,92083,6,0,P|171:198|128:211,1,90,0|0,3:0|0:2,0:0:0:0:
296,284,92402,2,0,P|340:284|383:297,1,90,10|8,3:2|0:2,0:0:0:0:
412,80,92721,6,0,P|377:107|334:115,1,90,10|8,3:2|0:2,0:0:0:0:
100,80,93040,2,0,P|135:107|178:115,1,90,10|8,3:2|0:2,0:0:0:0:
368,356,94636,6,0,P|372:312|380:248,1,99.0000030212403,6|8,3:2|0:2,0:0:0:0:
492,70,94955,2,0,P|449:92|400:96,1,99.0000030212403,2|8,3:2|0:2,0:0:0:0:
204,192,95274,5,2,3:2:0:0:
380,96,95434,1,10,0:2:0:0:
184,72,95593,2,0,P|134:67|85:61,1,99.0000030212403,2|8,3:2|0:2,0:0:0:0:
288,252,95913,6,0,P|292:202|298:153,1,99.0000030212403,2|8,3:2|0:2,0:0:0:0:
64,60,96232,2,0,P|48:108|56:172,1,99.0000030212403,2|8,3:2|0:2,0:0:0:0:
216,304,96551,5,2,3:2:0:0:
384,204,96710,1,10,0:2:0:0:
200,128,96870,2,0,P|249:127|297:117,1,99.0000030212403,2|8,3:2|0:2,0:0:0:0:
476,292,97189,6,0,P|392:238|292:248,1,198.000006042481,2|0,3:2|3:0,0:0:0:0:
144,380,97668,1,10,0:2:0:0:
224,180,97828,1,2,3:2:0:0:
272,340,97987,1,10,0:2:0:0:
60,316,98147,2,0,P|107:302|154:286,1,99.0000030212403,2|8,3:2|0:2,0:0:0:0:
204,272,98386,1,8,0:2:0:0:
204,272,98466,5,2,3:2:0:0:
20,204,98625,1,8,0:2:0:0:
232,124,98785,5,2,3:2:0:0:
60,316,98945,1,8,0:2:0:0:
146,82,99104,5,2,3:2:0:0:
172,344,99264,1,8,0:2:0:0:
56,116,99423,5,2,3:2:0:0:
260,264,99583,1,8,0:2:0:0:
260,264,99663,1,8,0:2:0:0:
260,264,99742,5,2,3:2:0:0:
76,228,99902,1,2,3:2:0:0:
232,124,100062,1,2,0:2:0:0:
375,288,100221,6,0,P|303:373|191:359,1,233.999989288331,4|8,3:3|0:2,0:0:0:0:
336,176,100700,1,2,3:2:0:0:
359,171,100779,1,8,0:2:0:0:
382,167,100859,1,0,3:3:0:0:
404,162,100939,1,0,3:0:0:0:
427,158,101019,5,10,3:2:0:0:
292,12,101179,1,10,3:2:0:0:
221,197,101338,1,2,0:2:0:0:
450,154,101498,2,0,P|332:124|224:93,1,233.999989288331,4|0,3:3|3:0,0:0:0:0:
32,40,101976,1,2,3:2:0:0:
26,62,102055,1,8,0:2:0:0:
20,85,102135,1,10,0:2:0:0:
14,108,102215,1,8,0:2:0:0:
8,130,102295,5,6,3:2:0:0:
196,192,102455,1,10,0:2:0:0:
132,68,102615,1,2,3:2:0:0:
71,255,102774,6,0,P|108:280|163:285,1,99.0000030212403,10|0,0:2|3:0,0:0:0:0:
380,192,103093,2,0,P|338:165|289:161,1,99.0000030212403,10|0,0:2|3:0,0:0:0:0:
194,10,103413,5,10,0:2:0:0:
194,10,103572,2,0,P|199:59|208:108,1,99.0000030212403,2|8,3:2|0:2,0:0:0:0:
307,259,103891,1,2,3:2:0:0:
307,259,104051,2,0,P|396:292|470:232,1,198.000006042481,10|10,0:2|0:2,0:0:0:0:
496,68,104530,2,0,P|446:73|398:81,1,99.0000030212403,0|10,3:0|0:2,0:0:0:0:
256,192,104849,6,0,B|200:224|180:284|180:284|136:244|80:248|48:288|-40:212|-56:60|68:36|108:72|132:100|132:100|146:69|167:21|244:24|272:76|264:112,1,720,4|2,3:2|0:0,0:0:0:0:
384,276,106923,5,2,3:2:0:0:
384,276,107083,2,0,P|428:275|470:291,1,90,8|0,0:2|0:0,0:0:0:0:
364,124,107402,6,0,P|288:176|202:154,1,180,4|0,3:2|3:0,0:0:0:0:
148,88,107881,1,0,0:0:0:0:
60,72,108040,2,0,P|47:161|32:249,1,180,0|0,3:0|3:0,0:0:0:0:
90,364,108519,1,0,0:0:0:0:
90,364,108679,6,0,P|170:326|256:348,1,180,0|0,3:0|3:0,0:0:0:0:
340,384,109157,1,0,0:0:0:0:
427,363,109317,2,0,P|488:301|477:215,1,180,0|0,3:0|3:0,0:0:0:0:
404,112,109796,1,0,0:0:0:0:
404,112,109955,6,0,P|348:124|296:132,1,90,0|0,3:0|0:0,0:0:0:0:
292,40,110274,2,0,P|336:32|380:22,1,90,0|0,3:0|0:0,0:0:0:0:
224,148,110593,6,0,P|172:132|144:104,1,90,0|0,3:0|0:0,0:0:0:0:
71,56,110913,2,0,P|105:26|149:16,1,90,0|0,3:0|0:0,0:0:0:0:
244,152,111232,6,0,P|234:195|226:240,1,90,0|0,3:0|0:0,0:0:0:0:
104,384,111551,2,0,P|96:339|86:295,1,90,0|0,3:0|0:0,0:0:0:0:
212,328,111870,5,0,3:0:0:0:
148,180,112030,1,8,0:2:0:0:
148,180,112109,1,8,0:2:0:0:
148,180,112189,2,0,P|83:192|23:157,1,135,8|0,3:2|0:0,0:0:0:0:
0,72,112508,6,0,P|37:47|81:41,1,90,4|0,3:2|0:0,0:0:0:0:
224,83,112828,2,0,P|232:127|239:171,1,90,10|0,3:2|0:0,0:0:0:0:
136,296,113147,5,2,3:2:0:0:
304,256,113306,1,2,0:2:0:0:
148,180,113466,1,10,3:2:0:0:
316,140,113625,6,0,P|360:145|403:159,1,90,2|0,0:2|3:0,0:0:0:0:
472,8,113945,2,0,P|427:14|385:30,1,90,0|8,0:0|3:2,0:0:0:0:
296,144,114264,2,0,P|317:231|337:319,1,180,2|2,0:2|0:2,0:0:0:0:
451,367,114742,2,0,P|490:345|512:306,1,90,10|2,3:2|0:2,0:0:0:0:
452,108,115062,6,0,P|436:164|424:220,1,90,0|0,3:0|0:0,0:0:0:0:
337,319,115381,2,0,P|298:339|253:337,1,90,10|0,3:2|0:0,0:0:0:0:
156,184,115700,5,2,3:2:0:0:
276,248,115859,1,0,0:0:0:0:
104,308,116019,1,10,3:2:0:0:
83,128,116179,6,0,P|172:141|262:151,1,180,6|8,3:2|0:2,0:0:0:0:
368,28,116657,1,0,3:0:0:0:
368,28,116817,2,0,P|278:18|189:4,1,180,2|8,0:2|3:3,0:0:0:0:
22,40,117296,2,0,P|66:46|111:51,1,90,8|8,3:3|3:3,0:0:0:0:
279,152,117615,6,0,P|251:186|211:205,1,90,14|0,3:2|0:0,0:0:0:0:
63,311,117934,2,0,P|39:274|31:230,1,90,14|0,3:2|3:0,0:0:0:0:
196,116,118253,5,14,3:2:0:0:
196,116,118413,1,2,3:2:0:0:
256,300,118572,1,14,3:2:0:0:
124,240,118732,1,8,0:2:0:0:
328,176,118891,5,6,3:2:0:0:
328,176,119210,2,0,P|364:184|512:208,1,180,12|0,3:3|0:0,0:0:0:0:
504,80,119689,1,2,0:2:0:0:
380,60,119849,1,10,0:2:0:0:
256,40,120008,6,0,P|209:113|231:198,1,180,6|10,3:2|0:2,0:0:0:0:
320,292,120487,1,8,3:3:0:0:
510,165,120647,6,0,P|416:143|332:192,1,198.000006042481,6|10,3:2|0:2,0:0:0:0:
219,299,121125,1,8,3:3:0:0:
88,107,121285,6,0,P|102:214|119:321,1,215.999993408203,6|10,3:2|0:2,0:0:0:0:
256,192,121764,1,10,0:2:0:0:
0,72,121923,6,0,P|15:187|33:303,1,233.999989288331,6|8,3:2|3:3,0:0:0:0:
256,376,122402,2,0,B|389:407|485:283|432:160,1,350.999983932496,8|0,3:3|0:0,0:0:0:0:
256,8,123040,6,0,P|240:88|224:188,1,180,6|8,3:2|0:2,0:0:0:0:
208,312,123519,1,10,0:2:0:0:
208,312,123599,1,10,0:2:0:0:
208,312,123679,2,0,P|229:304|251:299,1,45,8|8,3:3|3:3,0:0:0:0:
360,268,123838,2,0,P|352:246|347:224,1,45,8|8,3:3|3:3,0:0:0:0:
316,116,123998,5,6,3:2:0:0:
