osu file format v14

[General]
AudioFilename: audio.mp3
AudioLeadIn: 0
PreviewTime: 162543
Countdown: 0
SampleSet: Soft
StackLeniency: 0.3
Mode: 0
LetterboxInBreaks: 0
WidescreenStoryboard: 1

[Editor]
Bookmarks: 21472,103615,138615
DistanceSpacing: 0.3
BeatDivisor: 4
GridSize: 8
TimelineZoom: 1.9

[Metadata]
Title:Sakurakaze
TitleUnicode:サクラカゼ
Artist:Sakura Miko
ArtistUnicode:さくらみこ
Creator:-Atri-
Version:Insane
Source:
Tags:Firis Mistlud KuranteMelodii krt Sakura Kaze ハム hamu hololive ホロライブ virtual youtuber vtuber Japanese pop
BeatmapID:2450933
BeatmapSetID:1175049

[Difficulty]
HPDrainRate:5
CircleSize:4.4
OverallDifficulty:8
ApproachRate:9
SliderMultiplier:1.8
SliderTickRate:0.5

[Events]
//Background and Video events
Video,-51,"sakurakaze.mp4"
0,0,"sakurakaze.jpg",0,0
//Break Periods
2,138814,143015
2,144529,148729
//Storyboard Layer 0 (Background)
//Storyboard Layer 1 (Fail)
//Storyboard Layer 2 (Pass)
//Storyboard Layer 3 (Foreground)
//Storyboard Layer 4 (Overlay)
//Storyboard Sound Samples

[TimingPoints]
44,357.142857142857,4,2,2,25,1,0
1115,-200,4,2,1,25,0,0
1472,-200,4,2,1,35,0,0
9329,-200,4,2,1,80,0,0
10043,-133.333333333333,4,2,1,80,0,0
10133,-133.333333333333,4,2,1,50,0,0
10757,-133.333333333333,4,2,2,50,0,0
11472,-133.333333333333,4,2,2,80,0,0
11561,-133.333333333333,4,2,1,50,0,0
12186,-133.333333333333,4,2,2,50,0,0
12901,-133.333333333333,4,2,2,80,0,0
12990,-133.333333333333,4,2,1,50,0,0
13615,-133.333333333333,4,2,2,80,0,0
13704,-133.333333333333,4,2,1,50,0,0
14329,-133.333333333333,4,2,2,80,0,0
14418,-133.333333333333,4,2,1,50,0,0
14686,-133.333333333333,4,2,2,50,0,0
15222,-133.333333333333,4,2,1,50,0,0
15758,-133.333333333333,4,2,2,80,0,0
15847,-133.333333333333,4,2,1,60,0,0
16115,-133.333333333333,4,2,2,60,0,0
17365,-133.333333333333,4,2,1,60,0,0
17901,-133.333333333333,4,2,2,60,0,0
18079,-133.333333333333,4,2,1,60,0,0
18615,-133.333333333333,4,2,1,80,0,0
18704,-133.333333333333,4,2,1,70,0,0
21472,-133.333333333333,4,2,2,80,0,0
21651,-133.333333333333,4,2,2,50,0,0
21829,-133.333333333333,4,2,1,50,0,0
26115,-133.333333333333,4,2,2,50,0,0
26293,-133.333333333333,4,2,1,50,0,0
27007,-133.333333333333,4,2,2,50,0,0
27186,-133.333333333333,4,2,1,50,0,0
31293,-133.333333333333,4,2,2,50,0,0
31472,-133.333333333333,4,2,1,50,0,0
32365,-133.333333333333,4,2,2,50,0,0
32722,-133.333333333333,4,2,1,50,0,0
32901,-100,4,2,2,80,0,0
32990,-100,4,2,1,60,0,0
33258,-100,4,2,2,60,0,0
33436,-100,4,2,1,60,0,0
33972,-100,4,2,2,60,0,0
34151,-100,4,2,1,60,0,0
34686,-100,4,2,2,60,0,0
34865,-100,4,2,1,60,0,0
35401,-100,4,2,2,60,0,0
35758,-100,4,2,1,60,0,0
36115,-100,4,2,2,60,0,0
36293,-100,4,2,1,60,0,0
37008,-100,4,2,1,80,0,0
37097,-100,4,2,1,60,0,0
37722,-100,4,2,1,80,0,0
37811,-100,4,2,1,60,0,0
38615,-100,4,2,1,80,0,0
38704,-100,4,2,1,60,0,0
38972,-100,4,2,2,60,0,0
39151,-100,4,2,1,60,0,0
39686,-100,4,2,2,60,0,0
39864,-100,4,2,1,60,0,0
40400,-100,4,2,2,60,0,0
40579,-100,4,2,2,80,0,0
40668,-100,4,2,1,60,0,0
41115,-100,4,2,2,60,0,0
41293,-100,4,2,1,60,0,0
41829,-100,4,2,2,60,0,0
42008,-100,4,2,1,60,0,0
42722,-100,4,2,1,80,0,0
42811,-100,4,2,1,60,0,0
43972,-100,4,2,3,60,0,0
44150,-100,4,2,1,60,0,0
44329,-133.333333333333,4,2,3,80,0,0
44418,-133.333333333333,4,2,1,50,0,0
45401,-133.333333333333,4,2,3,50,0,0
45758,-133.333333333333,4,2,1,50,0,0
46829,-133.333333333333,4,2,2,50,0,0
47186,-133.333333333333,4,2,1,50,0,0
48258,-133.333333333333,4,2,2,50,0,0
48615,-133.333333333333,4,2,1,50,0,0
49686,-133.333333333333,4,2,2,50,0,0
50043,-100,4,2,2,80,0,0
50133,-100,4,2,1,60,0,0
50401,-100,4,2,2,60,0,0
50758,-100,4,2,1,60,0,0
51114,-100,4,2,2,60,0,0
51293,-100,4,2,1,60,0,0
51829,-100,4,2,2,60,0,0
52186,-100,4,2,1,60,0,0
52543,-100,4,2,2,60,0,0
52901,-100,4,2,2,80,0,0
53079,-100,4,2,1,60,0,0
53258,-100,4,2,2,60,0,0
53436,-100,4,2,1,60,0,0
53615,-100,4,2,2,60,0,0
53793,-100,4,2,1,60,0,0
53972,-100,4,2,2,60,0,0
55043,-100,4,2,4,80,0,0
55088,-100,4,2,4,5,0,0
55222,-100,4,2,1,60,0,0
55401,-100,4,2,4,60,0,0
55758,-90.9090909090909,4,2,2,80,0,1
56293,-90.9090909090909,4,2,3,80,0,1
56651,-90.9090909090909,4,2,2,80,0,1
56829,-90.9090909090909,4,2,1,80,0,1
57008,-90.9090909090909,4,2,3,80,0,1
57186,-90.9090909090909,4,2,1,80,0,1
57365,-90.9090909090909,4,2,3,80,0,1
57901,-90.9090909090909,4,2,1,80,0,1
58079,-90.9090909090909,4,2,2,80,0,1
58615,-90.9090909090909,4,2,1,80,0,1
58793,-90.9090909090909,4,2,2,80,0,1
59151,-90.9090909090909,4,2,3,80,0,1
59329,-90.9090909090909,4,2,1,80,0,1
59508,-90.9090909090909,4,2,2,80,0,1
59686,-90.9090909090909,4,2,1,80,0,1
59865,-90.9090909090909,4,2,3,80,0,1
60757,-90.9090909090909,4,2,1,80,0,1
60936,-90.9090909090909,4,2,2,80,0,1
61293,-90.9090909090909,4,2,3,80,0,1
61383,-90.9090909090909,4,2,1,80,0,1
61650,-90.9090909090909,4,2,2,80,0,1
61829,-90.9090909090909,4,2,1,80,0,1
62008,-90.9090909090909,4,2,3,80,0,1
62900,-90.9090909090909,4,2,1,80,0,1
63079,-90.9090909090909,4,2,3,80,0,1
63614,-90.9090909090909,4,2,1,80,0,1
63793,-90.9090909090909,4,2,3,80,0,1
64329,-90.9090909090909,4,2,1,80,0,1
64865,-90.9090909090909,4,2,3,80,0,1
65579,-90.9090909090909,4,2,1,80,0,1
66829,-90.9090909090909,4,2,1,80,0,0
67186,-90.9090909090909,4,2,2,80,0,1
67721,-90.9090909090909,4,2,3,80,0,1
68079,-90.9090909090909,4,2,2,80,0,1
68257,-90.9090909090909,4,2,1,80,0,1
68436,-90.9090909090909,4,2,3,80,0,1
68614,-90.9090909090909,4,2,1,80,0,1
68793,-90.9090909090909,4,2,3,80,0,1
69329,-90.9090909090909,4,2,1,80,0,1
69507,-90.9090909090909,4,2,2,80,0,1
70043,-76.9230769230769,4,2,1,80,0,1
70579,-76.9230769230769,4,2,3,80,0,1
71115,-76.9230769230769,4,2,1,80,0,1
71293,-90.9090909090909,4,2,1,80,0,1
71650,-90.9090909090909,4,2,3,80,0,1
72008,-90.9090909090909,4,2,1,80,0,1
72722,-90.9090909090909,4,2,3,80,0,1
72812,-90.9090909090909,4,2,1,80,0,1
73079,-90.9090909090909,4,2,2,80,0,1
73258,-90.9090909090909,4,2,1,80,0,1
73436,-90.9090909090909,4,2,3,80,0,1
73614,-90.9090909090909,4,2,1,80,0,1
73793,-90.9090909090909,4,2,3,80,0,1
74328,-90.9090909090909,4,2,1,80,0,1
74508,-90.9090909090909,4,2,3,80,0,1
75042,-90.9090909090909,4,2,1,80,0,1
75221,-90.9090909090909,4,2,3,80,0,1
75758,-90.9090909090909,4,2,1,80,0,1
76115,-90.9090909090909,4,2,2,80,0,1
76293,-90.9090909090909,4,2,3,80,0,1
76471,-90.9090909090909,4,2,1,80,0,1
76651,-90.9090909090909,4,2,3,80,0,1
77008,-90.9090909090909,4,2,1,80,0,1
77722,-90.9090909090909,4,2,3,80,0,1
77900,-90.9090909090909,4,2,1,80,0,1
78079,-90.9090909090909,4,2,1,80,0,0
78615,-90.9090909090909,4,2,2,80,0,1
78972,-90.9090909090909,4,2,3,80,0,1
79151,-90.9090909090909,4,2,1,80,0,1
79329,-90.9090909090909,4,2,2,80,0,1
79508,-90.9090909090909,4,2,1,80,0,1
79686,-90.9090909090909,4,2,2,80,0,1
80043,-90.9090909090909,4,2,1,80,0,1
80400,-90.9090909090909,4,2,3,80,0,1
80579,-90.9090909090909,4,2,1,80,0,1
80757,-90.9090909090909,4,2,2,80,0,1
80936,-90.9090909090909,4,2,1,80,0,1
81114,-90.9090909090909,4,2,2,80,0,1
81472,-90.9090909090909,4,2,1,80,0,1
81829,-90.9090909090909,4,2,3,80,0,1
82008,-90.9090909090909,4,2,1,80,0,1
82186,-90.9090909090909,4,2,2,80,0,1
82365,-90.9090909090909,4,2,1,80,0,1
82543,-90.9090909090909,4,2,2,80,0,1
82901,-90.9090909090909,4,2,1,80,0,1
83258,-90.9090909090909,4,2,2,80,0,1
83436,-90.9090909090909,4,2,1,80,0,1
83972,-90.9090909090909,4,2,2,80,0,1
84150,-90.9090909090909,4,2,1,80,0,1
87543,-90.9090909090909,4,2,2,80,0,1
87721,-90.9090909090909,4,2,1,80,0,1
87901,-90.9090909090909,4,2,3,80,0,1
88079,-90.9090909090909,4,2,1,80,0,1
88258,-90.9090909090909,4,2,2,80,0,1
89329,-90.9090909090909,4,2,5,80,0,1
89507,-90.9090909090909,4,2,1,80,0,1
90043,-90.9090909090909,4,2,2,80,0,0
90401,-100,4,2,2,70,0,0
90758,-100,4,2,1,70,0,0
91114,-100,4,2,2,70,0,0
91293,-100,4,2,1,70,0,0
91829,-100,4,2,2,70,0,0
92008,-100,4,2,1,70,0,0
92544,-100,4,2,2,70,0,0
92901,-100,4,2,1,70,0,0
93258,-100,4,2,2,70,0,0
93615,-100,4,2,1,70,0,0
93971,-100,4,2,2,70,0,0
94151,-100,4,2,1,70,0,0
94686,-100,4,2,2,70,0,0
94865,-100,4,2,1,70,0,0
95400,-100,4,2,2,70,0,0
95579,-100,4,2,1,70,0,0
95758,-100,4,2,1,80,0,0
95847,-100,4,2,1,70,0,0
98615,-100,4,2,1,80,0,0
98972,-100,4,2,2,70,0,0
99150,-100,4,2,1,70,0,0
99329,-100,4,2,2,70,0,0
99507,-100,4,2,1,70,0,0
99686,-100,4,2,2,70,0,0
99865,-100,4,2,1,70,0,0
100043,-133.333333333333,4,2,2,70,0,0
100579,-133.333333333333,4,2,1,70,0,0
100758,-133.333333333333,4,2,2,70,0,0
100936,-133.333333333333,4,2,1,70,0,0
101472,-133.333333333333,4,2,2,80,0,0
101651,-133.333333333333,4,2,2,50,0,0
101829,-133.333333333333,4,2,1,50,0,0
102543,-133.333333333333,4,2,2,50,0,0
102900,-133.333333333333,4,2,1,50,0,0
103972,-133.333333333333,4,2,2,50,0,0
104329,-133.333333333333,4,2,1,50,0,0
105400,-133.333333333333,4,2,2,50,0,0
105757,-133.333333333333,4,2,1,50,0,0
107186,-133.333333333333,4,2,1,80,0,0
107276,-133.333333333333,4,2,1,50,0,0
112901,-100,4,2,1,80,0,0
112990,-100,4,2,1,60,0,0
113258,-100,4,2,2,60,0,0
113436,-100,4,2,1,60,0,0
113972,-100,4,2,2,60,0,0
114151,-100,4,2,1,60,0,0
114686,-100,4,2,2,60,0,0
114865,-100,4,2,1,60,0,0
115579,-100,4,2,2,60,0,0
115758,-100,4,2,1,60,0,0
116115,-100,4,2,2,60,0,0
116293,-100,4,2,1,60,0,0
117008,-100,4,2,1,80,0,0
117097,-100,4,2,1,60,0,0
117722,-100,4,2,1,80,0,0
117811,-100,4,2,1,60,0,0
118615,-100,4,2,1,80,0,0
118704,-100,4,2,1,60,0,0
118972,-100,4,2,2,60,0,0
119151,-100,4,2,1,60,0,0
119686,-100,4,2,2,60,0,0
119864,-100,4,2,1,60,0,0
120400,-100,4,2,2,60,0,0
120579,-100,4,2,1,80,0,0
120668,-100,4,2,1,60,0,0
121293,-100,4,2,3,60,0,0
121472,-100,4,2,1,60,0,0
121829,-100,4,2,3,60,0,0
122722,-100,4,2,3,80,0,0
122811,-100,4,2,1,60,0,0
123972,-100,4,2,3,60,0,0
124150,-100,4,2,1,60,0,0
124329,-133.333333333333,4,2,3,80,0,0
124418,-133.333333333333,4,2,1,50,0,0
127008,-133.333333333333,4,2,2,50,0,0
127186,-133.333333333333,4,2,1,50,0,0
129686,-133.333333333333,4,2,2,50,0,0
130043,-133.333333333333,4,2,2,80,0,0
130133,-133.333333333333,4,2,1,60,0,0
130401,-133.333333333333,4,2,2,60,0,0
130579,-133.333333333333,4,2,1,60,0,0
131116,-133.333333333333,4,2,2,60,0,0
131294,-133.333333333333,4,2,1,60,0,0
132186,-133.333333333333,4,2,2,60,0,0
132365,-133.333333333333,4,2,1,60,0,0
132901,-133.333333333333,4,2,1,80,0,0
133258,-133.333333333333,4,2,2,60,0,0
133436,-133.333333333333,4,2,1,60,0,0
133615,-133.333333333333,4,2,2,60,0,0
133793,-133.333333333333,4,2,1,60,0,0
133972,-133.333333333333,4,2,2,60,0,0
134151,-133.333333333333,4,2,2,80,0,0
134508,-133.333333333333,4,2,1,60,0,0
134686,-133.333333333333,4,2,2,60,0,0
134864,-133.333333333333,4,2,1,60,0,0
135401,-133.333333333333,4,2,2,60,0,0
135579,-133.333333333333,4,2,1,60,0,0
135758,-133.333333333333,4,2,1,80,0,0
135847,-133.333333333333,4,2,1,60,0,0
136472,-133.333333333333,4,2,2,60,0,0
136651,-133.333333333333,4,2,1,60,0,0
137186,-133.333333333333,4,2,1,80,0,0
137276,-133.333333333333,4,2,1,60,0,0
138614,-133.333333333333,4,2,4,60,0,0
143615,-200,4,2,1,40,0,0
144329,-200,4,2,4,60,0,0
149329,-200,4,2,4,40,0,0
149686,-133.333333333333,4,2,4,40,0,0
150043,-133.333333333333,4,2,2,40,0,0
155222,-133.333333333333,4,2,1,40,0,0
155401,-133.333333333333,4,2,2,40,0,0
155758,-133.333333333333,4,2,2,80,0,0
155847,-133.333333333333,4,2,1,50,0,0
156829,-133.333333333333,4,2,2,50,0,0
157543,-133.333333333333,4,2,1,50,0,0
158258,-133.333333333333,4,2,2,50,0,0
158615,-133.333333333333,4,2,2,80,0,0
158793,-133.333333333333,4,2,2,60,0,0
159508,-133.333333333333,4,2,1,60,0,0
159686,-133.333333333333,4,2,2,60,0,0
159865,-133.333333333333,4,2,2,80,0,0
160222,-100,4,2,1,60,0,0
160311,-100,4,2,1,5,0,0
160401,-100,4,2,2,64,0,0
160490,-100,4,2,2,5,0,0
160579,-100,4,2,1,68,0,0
160668,-100,4,2,1,5,0,0
160758,-83.3333333333333,4,2,2,72,0,0
160847,-83.3333333333333,4,2,2,5,0,0
160936,-83.3333333333333,4,2,2,76,0,0
161026,-83.3333333333333,4,2,2,5,0,0
161115,-66.6666666666667,4,2,2,80,0,0
161204,-66.6666666666667,4,2,2,5,0,0
161293,-133.333333333333,4,2,2,84,0,0
161471,-133.333333333333,4,2,1,50,0,0
162543,-100,4,2,4,50,0,0
162901,-100,4,2,4,80,0,1
163079,-100,4,2,4,80,0,0
163615,-100,4,2,1,80,0,0
163793,-90.9090909090909,4,2,4,80,0,0
164151,-133.333333333333,4,2,1,80,0,0
164508,-90.9090909090909,4,2,2,80,0,1
165222,-133.333333333333,4,2,2,80,0,1
165579,-133.333333333333,4,2,1,80,0,0
165758,-100,4,2,1,80,0,1
167008,-100,4,2,1,80,0,0
167186,-90.9090909090909,4,2,2,80,0,1
167721,-90.9090909090909,4,2,1,80,0,1
167901,-90.9090909090909,4,2,2,80,0,1
168079,-90.9090909090909,4,2,1,80,0,1
168258,-90.9090909090909,4,2,2,80,0,1
168436,-90.9090909090909,4,2,1,80,0,1
168615,-90.9090909090909,4,2,1,80,0,0
168972,-90.9090909090909,4,2,1,80,0,1
169151,-90.9090909090909,4,2,3,80,0,1
170043,-90.9090909090909,4,2,1,80,0,1
170222,-90.9090909090909,4,2,3,80,0,1
170757,-90.9090909090909,4,2,1,80,0,1
170936,-90.9090909090909,4,2,3,80,0,1
171471,-90.9090909090909,4,2,1,80,0,1
172008,-90.9090909090909,4,2,3,80,0,1
172722,-90.9090909090909,4,2,1,80,0,1
173972,-90.9090909090909,4,2,1,80,0,0
174329,-90.9090909090909,4,2,2,80,0,1
174864,-90.9090909090909,4,2,3,80,0,1
175222,-90.9090909090909,4,2,2,80,0,1
175400,-90.9090909090909,4,2,1,80,0,1
175579,-90.9090909090909,4,2,3,80,0,1
175757,-90.9090909090909,4,2,1,80,0,1
175936,-90.9090909090909,4,2,3,80,0,1
176472,-90.9090909090909,4,2,1,80,0,1
176650,-90.9090909090909,4,2,2,80,0,1
177186,-76.9230769230769,4,2,1,80,0,1
177722,-76.9230769230769,4,2,3,80,0,1
178258,-76.9230769230769,4,2,1,80,0,1
178436,-90.9090909090909,4,2,1,80,0,1
178793,-90.9090909090909,4,2,3,80,0,1
179151,-90.9090909090909,4,2,1,80,0,1
179864,-90.9090909090909,4,2,3,80,0,1
179954,-90.9090909090909,4,2,1,80,0,1
180221,-90.9090909090909,4,2,2,80,0,1
180401,-90.9090909090909,4,2,1,80,0,1
180579,-90.9090909090909,4,2,3,80,0,1
180757,-90.9090909090909,4,2,1,80,0,1
180936,-90.9090909090909,4,2,3,80,0,1
181471,-90.9090909090909,4,2,1,80,0,1
181650,-90.9090909090909,4,2,3,80,0,1
182186,-90.9090909090909,4,2,1,80,0,1
182364,-90.9090909090909,4,2,3,80,0,1
182901,-90.9090909090909,4,2,1,80,0,1
183258,-90.9090909090909,4,2,2,80,0,1
183436,-90.9090909090909,4,2,3,80,0,1
183614,-90.9090909090909,4,2,1,80,0,1
183793,-90.9090909090909,4,2,3,80,0,1
184151,-90.9090909090909,4,2,1,80,0,1
184865,-90.9090909090909,4,2,3,80,0,1
185043,-90.9090909090909,4,2,1,80,0,1
185222,-90.9090909090909,4,2,1,80,0,0
185758,-90.9090909090909,4,2,2,80,0,1
186115,-90.9090909090909,4,2,3,80,0,1
186293,-90.9090909090909,4,2,1,80,0,1
186471,-90.9090909090909,4,2,2,80,0,1
186651,-90.9090909090909,4,2,1,80,0,1
186829,-90.9090909090909,4,2,2,80,0,1
187186,-90.9090909090909,4,2,1,80,0,1
187543,-90.9090909090909,4,2,3,80,0,1
187722,-90.9090909090909,4,2,1,80,0,1
187900,-90.9090909090909,4,2,2,80,0,1
188080,-90.9090909090909,4,2,1,80,0,1
188258,-90.9090909090909,4,2,2,80,0,1
188615,-90.9090909090909,4,2,1,80,0,1
188972,-90.9090909090909,4,2,3,80,0,1
189151,-90.9090909090909,4,2,1,80,0,1
189329,-90.9090909090909,4,2,2,80,0,1
189508,-90.9090909090909,4,2,1,80,0,1
189686,-90.9090909090909,4,2,2,80,0,1
190043,-90.9090909090909,4,2,1,80,0,1
190400,-90.9090909090909,4,2,2,80,0,1
190578,-90.9090909090909,4,2,1,80,0,1
191115,-90.9090909090909,4,2,2,80,0,1
191293,-90.9090909090909,4,2,1,80,0,1
194686,-90.9090909090909,4,2,2,80,0,1
194864,-90.9090909090909,4,2,1,80,0,1
195044,-90.9090909090909,4,2,3,80,0,1
195222,-90.9090909090909,4,2,1,80,0,1
195401,-90.9090909090909,4,2,2,80,0,1
196293,-90.9090909090909,4,2,1,80,0,1
196472,-90.9090909090909,4,2,6,80,0,1
196651,-90.9090909090909,4,2,1,80,0,1
196829,-90.9090909090909,4,2,3,80,0,1
197008,-90.9090909090909,4,2,1,80,0,1
197186,-100,4,2,2,80,0,0
197900,-100,4,2,1,80,0,0
198079,-100,4,2,2,80,0,0
198615,-100,4,2,1,80,0,0
198972,-100,4,2,2,80,0,0
199329,-100,4,2,1,80,0,0
199507,-100,4,2,2,80,0,0
200043,-100,4,2,1,80,0,0
200400,-100,4,2,2,80,0,0
200758,-100,4,2,1,80,0,0
200936,-100,4,2,2,80,0,0
201472,-100,4,2,1,80,0,0
201650,-100,4,2,2,80,0,0
202186,-100,4,2,1,80,0,0
202364,-100,4,2,2,80,0,0
202722,-100,4,2,1,80,0,0
203258,-100,4,2,2,80,0,0
204329,-100,4,2,1,80,0,0
204686,-100,4,2,2,80,0,0
207901,-100,4,2,1,80,0,0
208079,-100,4,2,2,80,0,0
208436,-100,4,2,1,80,0,0
208615,-90.9090909090909,4,2,2,80,0,1
209150,-90.9090909090909,4,2,3,80,0,1
209508,-90.9090909090909,4,2,2,80,0,1
209686,-90.9090909090909,4,2,1,80,0,1
209865,-90.9090909090909,4,2,3,80,0,1
210043,-90.9090909090909,4,2,1,80,0,1
210222,-90.9090909090909,4,2,3,80,0,1
210758,-90.9090909090909,4,2,1,80,0,1
210936,-90.9090909090909,4,2,2,80,0,1
211472,-76.9230769230769,4,2,1,80,0,1
212008,-76.9230769230769,4,2,3,80,0,1
212543,-76.9230769230769,4,2,1,80,0,1
212722,-90.9090909090909,4,2,1,80,0,1
213079,-90.9090909090909,4,2,3,80,0,1
213436,-90.9090909090909,4,2,1,80,0,1
214151,-90.9090909090909,4,2,3,80,0,1
214329,-100,4,2,1,80,0,0
215222,-100,4,2,3,80,0,0
215757,-100,4,2,1,80,0,0
215936,-100,4,2,3,80,0,0
216471,-100,4,2,1,80,0,0
216651,-100,4,2,3,80,0,0
217186,-100,4,2,1,80,0,0
217543,-100,4,2,2,80,0,0
217721,-100,4,2,3,80,0,0
217901,-100,4,2,1,80,0,0
218079,-100,4,2,3,80,0,0
218972,-100,4,2,1,80,0,0
219151,-100,4,2,3,80,0,0
219686,-100,4,2,1,80,0,0
220043,-250,4,2,2,80,0,0
220133,-250,4,2,1,40,0,0
225757,-250,4,2,4,40,0,0

[Colours]
Combo1 : 128,128,128
Combo2 : 255,0,255
Combo3 : 255,0,128
Combo4 : 0,255,255
Combo5 : 0,128,255
Combo6 : 192,192,192

[HitObjects]
49,362,1115,86,0,L|54:307,1,45,2|0,2:0|2:0,2:0:0:0:
73,244,1472,70,0,P|42:243|24:248,2,45,2|0|0,2:0|2:0|2:0,2:0:0:0:
134,312,2008,2,0,B|183:313|166:334|224:335,1,90,2|0,2:0|2:0,2:0:0:0:
277,384,2543,1,0,2:0:0:0:
277,384,2722,6,0,P|291:355|293:336,1,45,2|0,2:0|2:0,2:0:0:0:
348,293,3079,1,0,2:0:0:0:
348,293,3258,1,2,2:0:0:0:
348,293,3436,2,0,P|309:270|265:274,1,90,2|0,2:0|2:0,2:0:0:0:
219,334,3972,1,0,2:0:0:0:
219,334,4151,1,0,2:0:0:0:
367,364,4329,70,0,L|415:362,2,45,2|0|0,2:0|2:0|2:0,2:0:0:0:
348,293,4865,2,0,L|450:287,1,90,2|0,2:0|2:0,2:0:0:0:
509,273,5401,1,0,2:0:0:0:
507,264,5580,6,0,P|488:237|473:226,1,45,2|0,2:0|2:0,2:0:0:0:
413,188,5936,1,0,2:0:0:0:
413,188,6115,1,2,2:0:0:0:
413,188,6293,2,0,P|479:178|494:148,1,90,2|0,2:0|2:0,2:0:0:0:
499,83,6829,70,0,B|505:59|493:41|493:41|475:63|482:85,1,90,2|2,2:0|2:0,2:0:0:0:
256,192,7276,12,4,9329,2:1:0:0:
52,153,9686,21,0,2:0:0:0:
52,153,9776,1,0,2:0:0:0:
52,153,9865,1,0,2:0:0:0:
52,153,9954,1,0,2:0:0:0:
52,153,10043,54,0,B|7:199|41:246|31:282|31:282|49:256|101:264|130:188,1,270.000010299683,4|2,2:0|2:0,2:0:0:0:
130,112,11472,2,0,B|103:42|51:50|32:25|32:25|43:60|8:107|53:154,1,270.000010299683,4|2,2:0|2:0,2:0:0:0:
201,20,12901,22,0,L|214:158,1,135.000005149842,4|0,2:0|2:0,2:0:0:0:
287,366,13615,2,0,L|300:228,1,135.000005149842,4|0,2:0|2:0,2:0:0:0:
322,75,14329,54,0,P|356:41|379:33,1,67.5000025749208,4|0,2:0|2:0,2:0:0:0:
452,130,14686,2,0,P|405:117|387:101,1,67.5000025749208,2|0,2:0|2:0,2:0:0:0:
272,193,14999,22,0,L|269:168,1,16.8750006437302,0|8,2:0|2:0,2:0:0:0:
349,203,15222,1,0,1:0:0:0:
427,215,15401,1,0,1:0:0:0:
512,235,15579,1,0,1:0:0:0:
512,235,15668,1,0,2:0:0:0:
512,235,15758,22,0,P|519:282|510:304,1,67.5000025749208,4|0,2:0|2:0,2:0:0:0:
443,358,16115,69,8,2:0:0:0:
359,351,16293,1,8,2:0:0:0:
302,265,16472,21,8,2:0:0:0:
218,272,16650,1,8,2:0:0:0:
134,376,16829,38,0,P|127:329|136:307,1,67.5000025749208,8|8,2:0|2:0,2:0:0:0:
139,302,17097,1,0,2:0:0:0:
144,293,17186,21,10,2:0:0:0:
89,208,17365,1,8,2:3:0:0:
83,216,17454,1,8,2:3:0:0:
79,225,17543,2,0,L|5:221,1,67.5000025749208,8|8,2:0|2:3,2:0:0:0:
180,209,17901,69,10,2:0:0:0:
132,39,18079,1,8,2:3:0:0:
127,48,18168,1,8,2:3:0:0:
121,57,18258,22,0,P|112:89|121:121,1,67.5000025749208,8|8,2:0|2:3,2:0:0:0:
129,128,18526,1,8,2:3:0:0:
135,135,18615,38,0,L|209:131,1,67.5000025749208,4|0,2:0|2:0,2:0:0:0:
356,57,18972,21,8,2:0:0:0:
286,96,19151,1,8,2:0:0:0:
425,99,19329,69,8,2:0:0:0:
426,18,19508,1,8,2:0:0:0:
354,137,19686,21,8,2:0:0:0:
423,179,19865,1,8,2:0:0:0:
278,270,20043,38,0,P|359:270|414:311,1,135.000005149842,4|0,2:0|2:0,2:0:0:0:
474,349,20579,1,8,2:3:0:0:
474,349,20668,1,8,2:3:0:0:
474,349,20758,2,0,P|484:310|476:270,2,67.5000025749208,8|0|0,2:0|1:0|1:0,2:0:0:0:
215,365,21472,21,6,2:0:0:0:
168,307,21651,2,0,L|101:308,1,67.5000025749208,0|2,2:0|2:3,2:0:0:0:
38,349,22008,1,0,2:0:0:0:
38,349,22186,2,0,P|28:310|36:270,1,67.5000025749208,2|0,2:3|2:0,2:0:0:0:
96,148,22543,1,2,2:3:0:0:
14,211,22722,70,0,P|54:213|88:232,1,67.5000025749208,0|2,2:0|2:3,2:0:0:0:
175,173,23079,2,0,P|135:171|101:152,1,67.5000025749208,0|2,2:0|2:3,2:0:0:0:
29,110,23436,2,0,L|23:18,1,67.5000025749208,0|2,2:0|2:3,2:0:0:0:
119,9,23793,1,0,2:0:0:0:
119,9,23972,2,0,L|114:76,1,67.5000025749208,2|0,2:3|1:0,2:0:0:0:
246,154,24329,6,0,B|284:145|321:150|303:173|338:178|383:169,1,135.000005149842,0|2,1:0|2:3,2:0:0:0:
433,41,24865,2,0,P|436:84|427:110,1,67.5000025749208,0|2,2:0|2:3,2:0:0:0:
353,33,25222,2,0,P|344:65|348:98,1,67.5000025749208,0|2,2:0|2:3,2:0:0:0:
454,188,25579,70,0,P|416:189|369:218,1,67.5000025749208,0|2,2:0|2:3,2:0:0:0:
333,255,25936,1,2,2:0:0:0:
333,255,26115,1,2,2:3:0:0:
341,332,26293,1,2,2:0:0:0:
341,332,26651,5,2,2:0:0:0:
272,299,26829,2,0,P|234:298|187:269,1,67.5000025749208,0|2,2:0|2:0,2:0:0:0:
119,203,27186,70,0,B|139:225|139:225|131:343,1,135.000005149842,0|2,1:0|2:3,2:0:0:0:
57,321,27722,2,0,L|65:242,1,67.5000025749208,0|2,2:0|2:3,2:0:0:0:
42,184,28079,2,0,P|58:151|102:127,1,67.5000025749208,0|2,2:0|2:3,2:0:0:0:
147,48,28436,6,0,L|153:115,1,67.5000025749208,0|2,2:0|2:3,2:0:0:0:
225,117,28793,2,0,P|257:134|279:178,1,67.5000025749208,0|2,2:0|2:3,2:0:0:0:
295,276,29151,2,0,B|291:247|300:198|321:241|351:192|341:148,1,135.000005149842,2|2,2:0|2:0,2:0:0:0:
316,86,29686,1,2,2:3:0:0:
415,210,29865,1,0,1:0:0:0:
415,210,30043,70,0,P|470:188|493:114,1,135.000005149842,0|2,1:0|2:3,2:0:0:0:
421,1,30579,1,0,2:0:0:0:
421,1,30758,2,0,P|408:67|417:133,1,135.000005149842,2|2,2:3|2:3,2:0:0:0:
503,260,31293,1,2,2:0:0:0:
448,336,31472,5,0,1:0:0:0:
448,336,32186,1,0,1:0:0:0:
314,270,32365,70,0,B|297:237|319:204|319:204|352:225|354:265,1,135.000005149842,8|0,2:0|1:0,2:0:0:0:
359,334,32811,1,0,1:0:0:0:
359,334,32901,22,0,P|309:324|259:328,1,90,4|0,2:0|2:0,2:0:0:0:
148,299,33258,1,10,2:0:0:0:
157,379,33436,1,0,1:0:0:0:
82,256,33615,2,0,P|119:223|169:222,1,90,0|0,1:0|1:0,2:0:0:0:
221,267,33972,1,10,2:0:0:0:
102,147,34151,38,0,L|114:51,1,90,0|0,1:0|2:0,2:0:0:0:
184,23,34508,1,0,1:0:0:0:
31,87,34686,1,10,2:0:0:0:
185,152,34865,1,0,1:0:0:0:
185,152,34954,1,0,1:0:0:0:
185,152,35043,38,0,L|281:164,1,90,0|0,1:0|1:0,2:0:0:0:
314,228,35401,1,8,2:0:0:0:
501,155,35579,1,2,2:0:0:0:
396,39,35758,38,0,B|392:99|392:99|396:120|396:120|390:197,1,135,0|0,1:0|2:0,2:0:0:0:
395,186,36115,1,8,2:0:0:0:
308,348,36293,2,0,P|337:309|388:295,1,90,8|0,2:3|2:0,2:0:0:0:
512,374,36651,2,0,P|463:368|426:331,1,90,8|0,2:3|2:0,2:0:0:0:
238,384,37008,38,0,B|234:324|234:324|238:303|238:303|232:226,1,135,4|0,2:0|2:0,2:0:0:0:
237,237,37365,1,0,1:0:0:0:
157,369,37543,1,8,2:0:0:0:
99,191,37722,38,0,B|146:209|207:195|174:160|229:146|273:167,1,180,4|0,2:0|1:0,2:0:0:0:
318,233,38258,1,8,2:0:0:0:
459,144,38436,1,8,2:0:0:0:
459,144,38526,1,8,2:0:0:0:
459,144,38615,38,0,P|404:193|374:191,1,90,4|0,2:0|2:0,2:0:0:0:
340,129,38972,1,10,2:0:0:0:
394,268,39151,2,0,L|378:365,1,90,0|0,1:0|1:0,2:0:0:0:
449,384,39508,1,0,1:0:0:0:
303,321,39686,2,0,L|317:232,1,90,10|0,2:0|1:0,2:0:0:0:
354,50,40043,37,0,1:0:0:0:
354,50,40222,2,0,P|408:31|449:41,1,90,0|8,1:0|2:0,2:0:0:0:
340,129,40579,2,0,P|279:78|277:18,1,135,4|0,2:0|2:0,2:0:0:0:
265,36,40936,1,0,1:0:0:0:
211,107,41115,2,0,P|166:111|125:93,1,90,8|0,2:0|1:0,2:0:0:0:
0,19,41472,38,0,B|37:50|37:50|43:172,1,135,0|0,1:0|2:0,2:0:0:0:
35,149,41829,1,8,2:0:0:0:
181,234,42008,2,0,P|132:212|91:213,1,90,8|0,2:3|2:0,2:0:0:0:
20,313,42365,2,0,P|64:310|104:290,1,90,8|0,2:3|2:0,2:0:0:0:
256,112,42722,38,0,L|256:232,1,90,4|0,2:0|2:0,2:0:0:0:
256,304,43079,1,2,2:0:0:0:
336,160,43258,1,10,2:0:0:0:
176,160,43436,1,2,2:0:0:0:
324,352,43615,37,10,2:0:0:0:
188,352,43793,1,2,2:0:0:0:
332,362,43972,2,0,B|372:363|372:363|381:368|381:368|436:370,1,90,10|0,2:3|1:0,2:0:0:0:
483,183,44329,70,0,P|494:235|476:319,2,135.000005149842,4|0|0,2:0|1:0|1:0,2:0:0:0:
431,129,45222,1,0,2:0:0:0:
431,129,45401,2,0,P|468:109|502:109,1,67.5000025749208,8|0,2:0|2:0,2:0:0:0:
405,204,45758,6,0,B|320:224|354:182|262:198,1,135.000005149842,0|0,1:2|1:0,2:0:0:0:
205,159,46293,2,0,L|194:90,1,67.5000025749208,0|0,2:0|1:0,2:0:0:0:
208,237,46651,1,0,1:0:0:0:
208,237,46829,2,0,L|197:306,1,67.5000025749208,10|0,2:0|2:0,2:0:0:0:
135,381,47186,70,0,P|186:348|281:347,2,135.000005149842,0|0|0,1:2|1:0|1:0,2:0:0:0:
64,346,48079,1,0,2:0:0:0:
64,346,48258,2,0,P|80:320|81:273,1,67.5000025749208,8|0,2:0|2:0,2:0:0:0:
62,155,48615,6,0,B|29:180|33:228|33:228|60:208|98:210,1,135.000005149842,0|0,1:2|1:0,2:0:0:0:
164,159,49151,2,0,B|161:138|139:128|139:128|141:144|131:160,1,67.5000025749208,0|0,2:0|1:0,2:0:0:0:
154,233,49508,1,0,1:0:0:0:
240,128,49686,2,0,L|232:48,1,67.5000025749208,10|0,2:0|2:0,2:0:0:0:
395,156,50043,70,0,P|334:153|281:218,1,135,4|0,2:0|2:0,2:0:0:0:
270,203,50401,2,0,L|280:301,1,90,8|0,2:0|2:0,2:0:0:0:
288,363,50758,1,0,1:0:0:0:
433,291,50936,2,0,P|390:268|342:268,1,90,0|8,1:0|2:0,2:0:0:0:
161,383,51293,6,0,B|209:355|209:355|194:216,1,180,0|0,1:0|1:0,2:0:0:0:
123,77,51829,2,0,P|126:129|162:165,1,90,8|0,2:0|2:0,2:0:0:0:
233,164,52186,1,0,1:0:0:0:
197,90,52365,1,0,1:0:0:0:
105,236,52543,2,0,L|205:230,1,90,8|0,2:0|2:0,2:0:0:0:
372,97,52901,69,4,2:0:0:0:
339,252,53079,1,0,1:0:0:0:
399,192,53258,2,0,B|368:179|358:168|358:168|339:177|298:172,1,90,10|0,2:0|1:0,2:0:0:0:
338,267,53615,1,10,2:0:0:0:
454,128,53793,1,0,1:0:0:0:
282,93,53972,1,10,2:0:0:0:
426,270,54151,5,8,2:0:0:0:
426,270,54508,1,8,2:0:0:0:
256,304,54686,1,8,2:0:0:0:
256,304,55043,6,0,L|256:272,1,22.5,2|0,2:3|2:0,2:0:0:0:
256,376,55222,1,0,1:0:0:0:
256,208,55401,1,8,2:0:0:0:
256,196,55490,1,0,2:0:0:0:
256,185,55579,1,0,2:0:0:0:
256,174,55668,1,0,2:0:0:0:
256,163,55758,54,0,L|256:56,1,99.0000030212403,6|2,2:1|2:0,2:0:0:0:
337,122,56115,1,8,2:0:0:0:
175,122,56293,2,0,B|93:127|123:171|21:161,1,148.50000453186,2|0,2:0|2:0,2:0:0:0:
25,160,56651,2,0,P|81:139|117:176,1,99.0000030212403,2|10,2:0|2:0,2:0:0:0:
86,321,57008,70,0,B|57:327|31:348|31:348|23:324|60:294,1,99.0000030212403,2|0,2:0|1:0,2:0:0:0:
161,288,57365,1,2,2:0:0:0:
155,368,57544,1,8,2:0:0:0:
166,204,57722,1,2,2:0:0:0:
229,329,57901,22,0,B|248:351|279:363|279:363|263:382|218:365,1,99.0000030212403,0|2,1:2|2:0,2:0:0:0:
161,288,58258,1,8,2:0:0:0:
296,221,58436,1,2,2:0:0:0:
414,376,58615,38,0,L|409:274,1,99.0000030212403,2|2,2:0|2:0,2:0:0:0:
405,206,58972,1,8,2:0:0:0:
483,78,59151,2,0,P|495:126|480:172,1,99.0000030212403,2|0,2:0|1:0,2:0:0:0:
405,206,59508,1,2,2:0:0:0:
302,79,59686,1,10,2:0:0:0:
416,126,59865,22,0,B|338:118|367:170|269:159,1,148.50000453186,2|0,2:0|2:0,2:0:0:0:
256,152,60222,1,2,2:0:0:0:
256,8,60401,1,8,2:0:0:0:
119,82,60579,2,0,P|168:69|219:101,1,99.0000030212403,2|0,2:0|1:2,2:0:0:0:
336,192,60936,69,2,2:0:0:0:
174,259,61115,1,8,2:0:0:0:
256,352,61293,1,2,2:0:0:0:
256,360,61383,1,0,1:0:0:0:
256,368,61472,38,0,L|256:256,1,99.0000030212403,6|2,2:0|2:0,2:0:0:0:
256,192,61829,1,10,2:0:0:0:
344,217,62008,54,0,B|371:213|380:245|380:245|354:257|326:228,1,99.0000030212403,2|0,2:0|2:0,2:0:0:0:
168,163,62365,2,0,B|140:166|131:134|131:134|157:122|185:151,1,99.0000030212403,2|8,2:0|2:0,2:0:0:0:
276,279,62722,22,0,B|292:301|269:324|269:324|246:307|257:270,1,99.0000030212403,2|0,2:0|1:0,2:0:0:0:
235,100,63079,2,0,B|218:77|241:54|241:54|264:71|253:108,1,99.0000030212403,2|8,2:0|2:0,2:0:0:0:
188,252,63436,54,0,B|176:277|145:269|145:269|148:240|186:231,1,99.0000030212403,2|0,2:0|1:2,2:0:0:0:
323,127,63793,2,0,B|334:101|365:109|365:109|362:138|324:147,1,99.0000030212403,2|8,2:0|2:0,2:0:0:0:
256,192,64151,1,2,2:0:0:0:
252,22,64329,22,0,B|256:101|256:101|252:113|252:113|257:193,1,148.50000453186,6|0,2:0|2:0,2:0:0:0:
256,192,64686,1,8,2:0:0:0:
184,77,64865,54,0,P|140:59|85:65,1,99.0000030212403,6|0,2:0|2:0,2:0:0:0:
328,77,65222,2,0,P|372:59|427:65,1,99.0000030212403,2|8,2:0|2:0,2:0:0:0:
320,216,65579,70,0,B|280:224|256:252|256:252|232:224|192:216,1,148.50000453186,6|0,2:0|2:0,2:0:0:0:
184,220,65936,1,0,1:0:0:0:
256,328,66115,1,10,2:0:0:0:
372,284,66293,1,10,2:0:0:0:
378,278,66383,1,8,2:0:0:0:
384,270,66472,22,0,P|401:216|387:169,1,99.0000030212403,8|8,2:0|1:2,2:0:0:0:
256,44,66829,1,0,1:3:0:0:
256,56,66918,1,0,1:3:0:0:
256,67,67007,1,8,2:3:0:0:
256,78,67096,1,8,2:3:0:0:
256,89,67186,38,0,L|256:196,1,99.0000030212403,6|2,2:1|2:0,2:0:0:0:
175,130,67543,1,8,2:0:0:0:
337,130,67722,2,0,B|422:132|389:81|491:91,1,148.50000453186,2|0,2:0|2:0,2:0:0:0:
491,91,68079,2,0,L|483:196,1,99.0000030212403,2|10,2:0|2:0,2:0:0:0:
425,332,68436,22,0,P|462:317|472:256,1,99.0000030212403,2|0,2:0|1:0,2:0:0:0:
350,299,68793,1,2,2:0:0:0:
356,379,68972,1,8,2:0:0:0:
345,215,69150,1,2,2:0:0:0:
198,261,69329,70,0,P|229:285|287:263,1,99.0000030212403,0|2,1:2|2:0,2:0:0:0:
340,137,69686,2,0,L|333:28,1,99.0000030212403,8|2,2:0|2:0,2:0:0:0:
428,127,70043,22,0,P|414:149|413:191,1,58.4999973220826,6|0,2:0|2:0,2:0:0:0:
247,138,70222,2,0,P|265:161|271:190,1,58.4999973220826,8|0,2:0|2:0,2:0:0:0:
345,215,70401,1,8,2:0:0:0:
333,38,70579,37,2,2:0:0:0:
333,38,70936,21,8,2:3:0:0:
334,55,71026,1,8,2:3:0:0:
335,72,71115,1,10,2:0:0:0:
512,236,71293,70,0,B|463:221|390:245|455:280|385:314|293:285,1,198.000006042481,6|10,2:0|2:3,2:0:0:0:
320,288,71740,1,8,2:3:0:0:
306,281,71829,1,8,2:0:0:0:
192,355,72008,2,0,P|180:284|201:256,1,99.0000030212403,6|0,2:0|2:0,2:0:0:0:
336,192,72365,21,0,1:0:0:0:
174,125,72544,1,8,2:0:0:0:
256,32,72722,1,10,2:0:0:0:
256,24,72812,1,0,1:2:0:0:
256,16,72901,38,0,L|256:128,1,99.0000030212403,6|2,2:0|2:0,2:0:0:0:
256,192,73258,1,10,2:0:0:0:
344,167,73436,22,0,B|371:171|380:139|380:139|354:127|326:156,1,99.0000030212403,2|0,2:0|1:0,2:0:0:0:
168,221,73793,2,0,B|140:218|131:250|131:250|157:262|185:233,1,99.0000030212403,2|8,2:0|2:0,2:0:0:0:
276,105,74150,70,0,B|292:83|269:60|269:60|246:77|257:114,1,99.0000030212403,2|0,2:0|1:0,2:0:0:0:
236,279,74508,2,0,B|220:301|243:324|243:324|266:307|255:270,1,99.0000030212403,2|8,2:0|2:0,2:0:0:0:
188,132,74864,38,0,B|176:107|145:115|145:115|148:144|186:153,1,99.0000030212403,2|0,2:0|1:2,2:0:0:0:
323,257,75222,2,0,B|334:283|365:275|365:275|362:246|324:237,1,99.0000030212403,2|8,2:0|2:0,2:0:0:0:
256,192,75579,1,2,2:0:0:0:
164,298,75758,54,0,B|106:294|75:310|109:329|53:348|4:332,1,148.50000453186,2|0,2:0|2:0,2:0:0:0:
35,324,76115,1,8,2:0:0:0:
203,365,76293,2,0,P|236:324|236:279,1,99.0000030212403,2|0,2:0|1:2,2:0:0:0:
122,152,76651,2,0,P|141:201|179:223,1,99.0000030212403,2|8,2:0|2:0,2:0:0:0:
311,45,77008,70,0,B|306:120|306:120|301:128|301:128|295:204,1,148.50000453186,6|0,2:0|2:0,2:0:0:0:
301,205,77365,1,8,2:3:0:0:
453,152,77543,1,10,2:0:0:0:
468,259,77722,22,0,P|393:235|365:245,1,99.0000030212403,10|0,2:3|1:0,2:0:0:0:
309,284,78079,2,0,L|315:385,2,99.0000030212403,0|0|0,1:0|1:0|2:0,2:0:0:0:
172,71,78615,38,0,B|204:36|178:18|140:50|133:98|189:151,1,148.50000453186,6|0,1:1|2:0,2:0:0:0:
181,146,78972,1,10,2:0:0:0:
250,105,79151,38,0,P|301:92|346:96,1,99.0000030212403,2|2,2:0|1:2,2:0:0:0:
356,0,79508,2,0,P|343:51|347:96,1,99.0000030212403,2|10,1:2|2:0,2:0:0:0:
376,168,79865,1,0,2:0:0:0:
458,299,80043,38,0,B|426:334|452:352|490:320|497:272|441:219,1,148.50000453186,2|0,1:2|2:0,2:0:0:0:
449,224,80400,1,10,2:0:0:0:
380,265,80579,38,0,P|329:278|284:274,1,99.0000030212403,2|2,2:0|1:2,2:0:0:0:
199,377,80936,2,0,P|212:326|208:281,1,99.0000030212403,2|10,1:2|2:0,2:0:0:0:
283,273,81293,1,0,2:0:0:0:
172,71,81472,38,0,B|204:36|178:18|140:50|133:98|189:151,1,148.50000453186,2|0,1:2|2:0,2:0:0:0:
181,146,81829,1,10,2:0:0:0:
250,105,82008,38,0,P|254:52|272:11,1,99.0000030212403,2|2,2:0|1:2,2:0:0:0:
350,159,82365,2,0,P|297:163|256:181,1,99.0000030212403,2|10,1:2|2:0,2:0:0:0:
190,226,82722,1,0,2:0:0:0:
324,359,82901,38,0,P|296:306|211:311,1,148.50000453186,2|0,1:2|2:0,2:0:0:0:
203,316,83258,1,10,2:0:0:0:
324,359,83436,2,0,P|394:355|423:290,1,148.50000453186,2|0,1:2|2:0,2:0:0:0:
421,275,83793,1,0,1:2:0:0:
328,220,83972,2,0,L|338:114,1,99.0000030212403,10|0,2:0|1:0,2:0:0:0:
256,32,84329,21,6,2:0:0:0:
209,104,84508,5,0,2:0:0:0:
106,89,84686,1,10,2:0:0:0:
195,118,84865,2,0,P|139:108|122:65,1,99.0000030212403,0|10,2:0|2:0,2:0:0:0:
302,166,85222,69,0,1:0:0:0:
405,151,85400,1,10,2:0:0:0:
316,180,85579,2,0,P|372:170|389:127,1,99.0000030212403,0|10,1:0|2:0,2:0:0:0:
182,235,85936,5,0,2:0:0:0:
79,220,86114,1,10,2:0:0:0:
168,249,86293,2,0,P|112:239|95:196,1,99.0000030212403,0|10,2:0|2:0,2:0:0:0:
256,372,86651,69,0,1:0:0:0:
250,299,86829,2,0,L|256:194,1,99.0000030212403,10|0,2:0|1:0,2:0:0:0:
320,72,87186,5,6,2:0:0:0:
320,72,87543,2,0,B|381:74|356:103|415:103,1,99.0000030212403,10|2,2:0|2:0,2:0:0:0:
422,31,87901,1,10,2:0:0:0:
319,144,88079,1,0,1:0:0:0:
461,178,88258,1,10,2:0:0:0:
256,24,88436,69,8,2:0:0:0:
256,24,88793,1,8,2:0:0:0:
256,192,88972,1,8,2:0:0:0:
256,192,89329,6,0,P|197:164|149:169,1,99.0000030212403,2|0,2:3|1:0,2:0:0:0:
117,269,89686,2,0,L|109:203,1,49.5000015106202,10|0,2:0|2:0,2:0:0:0:
83,102,89865,2,0,L|75:168,1,49.5000015106202,2|0,2:0|2:0,2:0:0:0:
48,336,90043,69,4,2:1:0:0:
48,336,90401,2,0,B|89:325|123:334|108:352|134:369|204:354,1,135,8|0,2:0|2:0,2:0:0:0:
187,350,90758,1,0,1:0:0:0:
248,305,90936,2,0,P|210:274|159:279,1,90,0|8,1:0|2:0,2:0:0:0:
301,367,91293,70,0,B|284:343|284:343|298:225|298:225|330:203,1,180,0|0,1:0|1:0,2:0:0:0:
366,270,91829,1,8,2:0:0:0:
490,311,92008,22,0,B|507:287|507:287|493:169|493:169|461:147,1,180,0|0,1:0|1:0,2:0:0:0:
425,214,92544,1,8,2:0:0:0:
457,77,92722,1,0,2:0:0:0:
286,37,92901,37,0,1:0:0:0:
286,37,93258,2,0,B|245:48|211:39|226:21|200:4|130:19,1,135,8|0,2:0|2:0,2:0:0:0:
147,23,93615,1,0,1:0:0:0:
86,68,93793,2,0,P|124:99|175:94,1,90,0|8,1:0|2:0,2:0:0:0:
286,37,94151,22,0,B|256:78|256:78|273:231,1,180,0|0,1:0|1:0,2:0:0:0:
343,168,94686,1,8,2:0:0:0:
174,208,94865,70,0,B|204:249|204:249|187:402,1,180,0|0,1:0|1:0,2:0:0:0:
117,339,95400,1,8,2:0:0:0:
271,359,95579,1,8,2:3:0:0:
271,359,95668,1,8,2:3:0:0:
271,359,95758,22,0,P|323:365|361:334,1,90,4|0,2:0|2:0,2:0:0:0:
343,183,96115,1,8,2:0:0:0:
350,265,96293,1,0,1:0:0:0:
350,265,96383,1,0,1:0:0:0:
350,265,96472,2,0,P|402:259|440:290,1,90,0|0,1:0|1:0,2:0:0:0:
259,223,96829,1,8,2:0:0:0:
259,223,97186,38,0,L|271:119,1,90,0|0,1:2|2:0,2:0:0:0:
205,11,97543,1,8,2:0:0:0:
275,60,97722,1,0,1:0:0:0:
275,60,97811,1,0,1:0:0:0:
275,60,97901,2,0,L|379:72,1,90,0|0,1:0|1:0,2:0:0:0:
474,4,98258,2,0,L|486:108,1,90,8|0,2:0|1:0,2:0:0:0:
487,106,98526,1,0,1:0:0:0:
489,119,98615,21,4,2:0:0:0:
350,372,98972,2,0,P|310:334|297:281,1,90,10|0,2:0|1:0,2:0:0:0:
464,292,99329,2,0,P|411:307|358:292,1,90,10|0,2:0|1:0,2:0:0:0:
248,224,99686,1,10,2:0:0:0:
256,112,99865,1,0,1:2:0:0:
256,112,99954,1,0,1:0:0:0:
256,112,100043,70,0,P|175:112|120:71,1,135.000005149842,4|0,2:0|2:0,2:0:0:0:
60,33,100579,1,0,1:0:0:0:
60,33,100668,1,0,1:0:0:0:
60,33,100758,2,0,P|50:72|58:112,2,67.5000025749208,8|0|0,2:0|1:0|1:0,2:0:0:0:
290,174,101472,5,4,2:0:0:0:
337,116,101651,2,0,L|404:117,1,67.5000025749208,0|0,2:0|1:0,2:0:0:0:
489,88,102008,1,0,2:0:0:0:
489,88,102186,2,0,L|490:155,1,67.5000025749208,0|0,1:0|2:0,2:0:0:0:
421,250,102543,1,8,2:0:0:0:
503,237,102722,70,0,P|441:232|413:247,1,67.5000025749208,0|0,2:0|1:2,2:0:0:0:
312,316,103079,2,0,P|345:320|377:312,1,67.5000025749208,0|0,2:0|1:0,2:0:0:0:
351,223,103436,2,0,L|352:156,1,67.5000025749208,0|0,2:0|1:0,2:0:0:0:
253,80,103793,1,0,2:0:0:0:
253,80,103972,2,0,L|254:147,1,67.5000025749208,8|0,2:0|2:0,2:0:0:0:
250,258,104329,6,0,B|212:267|175:262|193:239|158:234|113:243,1,135.000005149842,0|0,1:2|1:0,2:0:0:0:
63,371,104865,2,0,P|60:328|69:302,1,67.5000025749208,0|0,2:0|1:0,2:0:0:0:
143,379,105222,2,0,P|152:347|148:314,1,67.5000025749208,0|8,2:0|2:0,2:0:0:0:
8,192,105579,70,0,P|46:191|93:162,1,67.5000025749208,0|0,2:0|1:2,2:0:0:0:
148,148,105936,1,2,2:0:0:0:
148,148,106115,1,2,2:0:0:0:
140,225,106293,1,2,2:0:0:0:
155,69,106651,5,2,1:2:0:0:
155,69,106740,1,0,1:0:0:0:
155,69,106829,2,0,P|193:70|240:99,1,67.5000025749208,8|0,2:0|1:0,2:0:0:0:
347,19,107186,70,0,B|329:51|329:51|339:171,1,135.000005149842,4|0,2:0|1:0,2:0:0:0:
318,215,107722,2,0,P|355:217|403:185,1,67.5000025749208,0|0,2:0|1:0,2:0:0:0:
449,187,108079,2,0,P|451:224|419:272,1,67.5000025749208,0|8,2:0|2:0,2:0:0:0:
374,352,108436,6,0,L|366:284,1,67.5000025749208,0|0,2:0|1:2,2:0:0:0:
290,280,108793,2,0,P|261:256|246:200,1,67.5000025749208,0|0,2:0|1:0,2:0:0:0:
248,112,109151,2,0,B|255:139|261:147|261:147|146:137,1,135.000005149842,2|2,2:0|2:0,2:0:0:0:
123,78,109686,1,8,2:0:0:0:
8,207,109865,1,0,2:0:0:0:
8,207,110043,70,0,P|24:159|108:181,1,135.000005149842,0|0,1:0|1:0,2:0:0:0:
199,238,110579,1,0,2:0:0:0:
199,238,110758,2,0,P|89:241|51:266,1,135.000005149842,0|8,1:0|2:0,2:0:0:0:
0,367,111293,1,0,2:0:0:0:
86,384,111472,5,0,1:0:0:0:
86,384,112008,2,0,L|170:374,1,67.5000025749208,8|0,2:0|1:0,2:0:0:0:
278,325,112365,70,0,B|235:324|219:356|219:356|209:316|158:305,1,135.000005149842,8|0,2:0|1:0,2:0:0:0:
107,299,112811,1,0,1:0:0:0:
107,299,112901,6,0,P|126:257|120:211,1,90,4|0,2:0|2:0,2:0:0:0:
105,111,113258,1,10,2:0:0:0:
183,115,113436,1,8,2:3:0:0:
46,166,113615,2,0,P|27:124|33:78,1,90,0|0,1:0|1:0,2:0:0:0:
92,40,113972,1,10,2:0:0:0:
192,188,114151,6,0,L|291:192,1,90,0|0,1:0|2:0,2:0:0:0:
349,200,114508,1,0,1:0:0:0:
487,94,114686,1,10,2:0:0:0:
391,20,114865,1,8,2:3:0:0:
391,20,114954,1,8,2:3:0:0:
391,20,115043,70,0,P|375:89|393:124,1,90,0|0,1:0|1:0,2:0:0:0:
427,158,115401,1,8,2:0:0:0:
385,338,115579,1,2,2:0:0:0:
271,246,115758,6,0,B|359:230|323:278|426:262,1,135,0|0,1:0|2:0,2:0:0:0:
414,259,116115,1,8,2:0:0:0:
217,384,116293,70,0,B|226:337|226:337|217:279,1,90,8|0,2:3|2:0,2:0:0:0:
208,129,116651,2,0,B|199:176|199:176|208:234,1,90,8|0,2:3|2:0,2:0:0:0:
133,125,117008,6,0,B|45:109|81:157|-22:141,1,135,4|0,2:0|2:0,2:0:0:0:
0,130,117365,1,2,2:0:0:0:
109,196,117543,1,10,2:0:0:0:
271,99,117722,70,0,P|275:43|184:64,1,180,6|2,2:0|2:0,2:0:0:0:
208,129,118258,1,8,2:0:0:0:
362,44,118436,1,8,2:0:0:0:
362,44,118526,1,8,2:0:0:0:
362,44,118615,6,0,L|457:36,1,90,4|0,2:0|2:0,2:0:0:0:
488,100,118972,1,10,2:0:0:0:
362,220,119151,2,0,P|340:159|355:118,1,90,8|0,2:3|1:0,2:0:0:0:
417,165,119508,1,0,1:0:0:0:
502,278,119686,2,0,P|490:341|457:369,1,90,10|0,2:0|1:0,2:0:0:0:
314,284,120043,69,0,1:0:0:0:
314,284,120222,2,0,L|224:276,1,90,0|8,1:0|2:0,2:0:0:0:
80,378,120579,2,0,P|141:327|143:267,1,135,6|0,2:0|2:0,2:0:0:0:
139,263,120936,1,2,2:0:0:0:
43,157,121115,2,0,P|54:220|87:248,1,90,10|10,2:0|2:3,2:0:0:0:
215,363,121472,6,0,B|246:326|246:326|368:320,1,135,0|0,1:0|2:0,2:0:0:0:
345,328,121829,1,8,2:0:0:0:
481,239,122008,2,0,P|432:261|391:260,1,90,8|0,2:3|2:0,2:0:0:0:
337,121,122365,2,0,P|380:121|418:151,1,90,8|0,2:3|2:0,2:0:0:0:
256,272,122722,70,0,L|256:152,1,90,4|0,2:0|2:0,2:0:0:0:
256,80,123079,1,0,1:0:0:0:
360,192,123258,1,10,2:0:0:0:
160,192,123436,1,2,2:0:0:0:
256,80,123615,5,10,2:0:0:0:
256,182,123793,1,2,2:0:0:0:
374,72,123972,1,10,2:3:0:0:
373,60,124061,1,8,2:3:0:0:
372,49,124150,1,0,1:0:0:0:
371,38,124239,1,0,1:0:0:0:
370,27,124329,70,0,P|373:86|447:119,1,135.000005149842,4|0,2:0|1:0,2:0:0:0:
492,189,124865,1,0,2:0:0:0:
492,189,125043,2,0,P|442:221|450:301,1,135.000005149842,0|0,1:0|1:0,2:0:0:0:
412,375,125580,1,0,2:0:0:0:
412,375,125758,2,0,P|359:348|293:395,1,135.000005149842,0|0,1:0|1:0,2:0:0:0:
256,312,126293,1,0,2:0:0:0:
256,312,126472,6,0,B|248:264|248:264|264:224|264:224|256:160,1,135.000005149842,0|0,1:0|1:0,2:0:0:0:
256,104,127008,1,2,2:0:0:0:
142,27,127186,70,0,P|139:86|65:119,1,135.000005149842,0|0,1:0|1:0,2:0:0:0:
20,189,127722,1,0,2:0:0:0:
20,189,127900,2,0,P|70:221|62:301,1,135.000005149842,0|0,1:0|1:0,2:0:0:0:
100,375,128437,1,0,2:0:0:0:
100,375,128615,2,0,P|153:348|219:395,1,135.000005149842,0|0,1:0|1:0,2:0:0:0:
256,312,129151,6,0,B|264:264|264:264|248:224|248:224|256:160,1,135.000005149842,0|0,2:0|2:0,2:0:0:0:
256,112,129686,2,0,L|256:32,1,67.5000025749208,8|0,2:0|2:0,2:0:0:0:
192,160,130043,70,0,P|152:160|120:144,1,67.5000025749208,4|0,2:0|2:0,2:0:0:0:
52,100,130401,2,0,L|47:177,1,67.5000025749208,8|8,2:0|2:3,2:0:0:0:
115,307,130758,6,0,P|155:307|187:323,1,67.5000025749208,8|8,2:0|2:3,2:0:0:0:
188,324,131026,1,8,2:3:0:0:
196,339,131116,2,0,L|201:262,1,67.5000025749208,10|8,2:0|2:3,2:0:0:0:
312,271,131472,69,8,2:0:0:0:
316,339,131651,2,0,L|318:378,2,33.7500012874604,8|8|8,2:3|2:3|2:0,2:0:0:0:
383,263,132008,2,0,L|422:261,2,33.7500012874604,8|8|10,2:3|2:3|2:0,2:0:0:0:
309,200,132365,2,0,L|307:161,2,33.7500012874604,8|8|8,2:3|2:3|2:0,2:0:0:0:
312,271,132722,1,8,2:3:0:0:
457,159,132901,5,4,2:0:0:0:
457,159,133258,2,0,L|469:78,1,67.5000025749208,10|0,2:0|1:0,2:0:0:0:
312,95,133615,2,0,L|324:176,1,67.5000025749208,10|0,2:0|1:0,2:0:0:0:
388,116,133972,1,10,2:0:0:0:
256,32,134151,69,4,2:0:0:0:
256,32,134508,1,0,1:0:0:0:
208,128,134686,2,0,L|128:120,1,67.5000025749208,10|0,2:0|1:0,2:0:0:0:
296,216,135043,2,0,L|364:209,1,67.5000025749208,0|0,1:0|1:0,2:0:0:0:
200,320,135401,2,0,L|120:312,1,67.5000025749208,8|8,2:0|2:3,2:0:0:0:
120,312,135668,1,8,2:3:0:0:
112,312,135758,6,0,P|80:224|104:168,1,135.000005149842,4|8,2:0|2:0,2:0:0:0:
193,89,136293,1,8,2:3:0:0:
202,84,136383,1,8,2:3:0:0:
211,79,136472,1,10,2:0:0:0:
162,165,136651,1,8,2:3:0:0:
162,175,136741,1,8,2:3:0:0:
162,185,136830,1,8,2:0:0:0:
116,102,137008,2,0,P|101:74|102:58,1,33.7500012874604,8|8,2:3|2:3,2:0:0:0:
240,161,137186,70,0,B|269:125|322:113|385:120|342:179|425:211|494:186|490:67|455:70|430:89|425:11|425:11|382:43|352:115|408:191,1,540.000020599366,4|2,2:0|2:3,2:0:0:0:
436,328,143615,22,0,B|456:278|422:242|422:242|365:259|370:320,1,180,2|2,2:0|2:3,2:0:0:0:
117,97,149329,5,0,3:0:0:0:
61,43,149508,1,0,3:0:0:0:
61,43,149597,1,0,3:0:0:0:
61,43,149686,2,0,P|42:77|47:129,1,67.5000025749208,0|0,3:0|2:0,2:0:0:0:
79,174,150043,70,0,L|164:172,1,67.5000025749208,2|0,2:0|2:0,2:0:0:0:
214,224,150401,1,2,2:0:0:0:
225,146,150579,1,0,2:0:0:0:
201,231,150758,2,0,L|203:316,1,67.5000025749208,2|0,2:0|2:0,2:0:0:0:
256,360,151115,1,2,2:0:0:0:
256,360,151293,6,0,P|297:367|323:345,1,67.5000025749208,0|2,2:0|2:0,2:0:0:0:
337,282,151651,2,0,P|378:275|404:297,1,67.5000025749208,0|2,2:0|2:0,2:0:0:0:
443,353,152008,2,0,B|437:292|437:292|439:283|439:283|431:204,1,135.000005149842,0|0,2:0|2:0,2:0:0:0:
459,93,152543,2,0,P|475:130|463:166,1,67.5000025749208,10|0,2:0|2:0,2:0:0:0:
358,200,152901,70,0,B|364:139|364:139|362:130|362:130|370:51,1,135.000005149842,2|2,2:0|2:0,2:0:0:0:
397,5,153436,2,0,L|390:78,1,67.5000025749208,0|2,2:0|2:0,2:0:0:0:
291,154,153793,2,0,P|259:135|218:136,1,67.5000025749208,0|2,2:0|2:0,2:0:0:0:
98,188,154151,6,0,B|133:185|162:163|162:163|178:192|211:207,1,135.000005149842,0|0,2:0|2:0,2:0:0:0:
273,251,154686,2,0,B|241:265|225:294|225:294|196:272|161:269,1,135.000005149842,2|2,2:0|2:0,2:0:0:0:
86,257,155222,1,0,1:0:0:0:
96,340,155401,1,8,2:0:0:0:
229,133,155758,70,0,L|222:53,1,67.5000025749208,4|0,2:0|2:0,2:0:0:0:
304,128,156115,2,0,P|299:164|269:197,1,67.5000025749208,0|0,1:0|2:0,2:0:0:0:
146,220,156472,1,0,1:0:0:0:
146,220,156651,2,0,P|179:206|223:215,1,67.5000025749208,0|8,2:0|2:0,2:0:0:0:
281,316,157008,6,0,B|265:325|250:350|250:350|269:252,1,135.000005149842,0|0,2:0|2:0,2:0:0:0:
383,156,157543,2,0,L|460:151,1,67.5000025749208,0|0,1:0|2:0,2:0:0:0:
396,232,157901,1,0,1:0:0:0:
377,81,158079,1,0,1:0:0:0:
303,156,158258,2,0,L|380:161,1,67.5000025749208,8|0,2:0|2:0,2:0:0:0:
306,329,158615,5,12,2:0:0:0:
189,233,158793,1,0,2:0:0:0:
206,329,158972,5,8,2:0:0:0:
323,233,159150,1,0,2:0:0:0:
178,138,159329,69,8,2:0:0:0:
178,138,159508,2,0,L|110:142,1,67.5000025749208,0|8,1:0|2:0,2:0:0:0:
51,296,159865,21,12,2:0:0:0:
51,296,160222,6,0,L|112:291,1,45,0|0,1:0|2:0,2:0:0:0:
101,222,160401,2,0,P|127:226|146:239,1,45,8|0,2:0|2:0,2:0:0:0:
104,363,160579,2,0,P|130:359|149:346,1,45,0|0,1:0|2:0,2:0:0:0:
223,194,160758,70,0,L|215:267,1,53.9999983520508,10|0,2:0|2:0,2:0:0:0:
225,381,160936,2,0,L|217:308,1,53.9999983520508,10|0,2:0|2:0,2:0:0:0:
308,171,161115,6,0,L|294:261,1,67.5000025749208,10|0,2:0|2:0,2:0:0:0:
293,317,161293,2,0,L|297:350,2,33.7500012874604,10|0|0,2:0|2:0|1:0,2:0:0:0:
297,237,161651,69,2,2:0:0:0:
376,211,161829,69,2,2:0:0:0:
452,244,162008,21,2,2:0:0:0:
508,186,162186,37,2,2:0:0:0:
500,106,162365,21,2,1:2:0:0:
366,52,162543,70,0,B|338:91|359:125|359:125|384:93|368:57,1,135,10|0,2:0|2:0,2:0:0:0:
367,36,162901,37,8,2:0:0:0:
171,133,163079,1,8,2:0:0:0:
171,133,163615,37,0,1:0:0:0:
144,66,163793,2,0,B|128:47|146:20|146:20|173:34|168:62,1,99.0000030212403,8|0,2:0|2:0,2:0:0:0:
171,133,164151,38,0,L|167:210,1,67.5000025749208,0|0,1:0|2:0,2:0:0:0:
12,160,164508,38,0,B|66:152|40:128|106:125,1,99.0000030212403,10|0,2:0|2:0,2:0:0:0:
257,19,164865,2,0,B|236:69|270:59|240:117,1,99.0000030212403,10|0,2:0|2:0,2:0:0:0:
109,262,165222,38,0,B|155:269|173:291|173:291|189:266|227:260,1,135.000005149842,10|8,2:0|2:3,2:0:0:0:
247,248,165668,1,8,2:3:0:0:
269,251,165758,54,0,B|318:295|291:353|291:353|246:362|227:315,1,180,4|0,2:0|2:0,2:0:0:0:
388,187,166472,2,0,B|402:122|465:115|465:115|495:151|465:190,1,180,4|0,2:0|2:0,2:0:0:0:
437,238,167008,1,0,2:0:0:0:
326,95,167186,70,0,P|281:56|227:63,1,99.0000030212403,10|0,2:0|2:0,2:0:0:0:
189,174,167543,2,0,P|245:154|266:104,1,99.0000030212403,10|0,2:0|1:0,2:0:0:0:
189,15,167901,2,0,P|177:73|210:116,1,99.0000030212403,10|0,2:0|1:0,2:0:0:0:
336,192,168258,1,10,2:0:0:0:
256,288,168436,1,0,1:0:0:0:
256,264,168526,1,0,1:0:0:0:
256,240,168615,38,0,L|256:200,6,24.7500007553101,0|0|0|0|0|0|0,1:0|2:0|2:0|2:0|2:0|2:0|2:0,2:0:0:0:
256,192,168972,53,10,2:0:0:0:
385,117,169151,22,0,P|335:103|290:135,1,99.0000030212403,2|0,2:0|2:0,2:0:0:0:
126,266,169508,2,0,P|176:280|221:248,1,99.0000030212403,2|8,2:0|2:0,2:0:0:0:
256,42,169865,54,0,P|219:79|224:133,1,99.0000030212403,2|0,2:0|1:0,2:0:0:0:
255,341,170222,2,0,P|292:304|287:250,1,99.0000030212403,2|8,2:0|2:0,2:0:0:0:
126,117,170579,22,0,P|139:167|189:190,1,99.0000030212403,2|0,2:0|1:2,2:0:0:0:
385,266,170936,2,0,P|372:216|322:193,1,99.0000030212403,2|8,2:0|2:0,2:0:0:0:
256,192,171293,1,2,2:0:0:0:
252,362,171472,54,0,B|256:283|256:283|252:271|252:271|257:188,1,148.50000453186,6|0,2:0|2:0,2:0:0:0:
256,192,171828,1,8,2:0:0:0:
334,341,172008,54,0,B|376:360|420:339|403:302|379:333,1,99.0000030212403,6|0,2:0|2:0,2:0:0:0:
178,341,172365,2,0,B|136:360|92:339|109:302|133:333,1,99.0000030212403,2|8,2:0|2:0,2:0:0:0:
320,192,172722,38,0,B|280:200|288:216|256:224|256:228|256:228|256:224|224:216|232:200|192:192,1,148.50000453186,6|0,2:0|2:0,2:0:0:0:
168,200,173079,1,0,1:0:0:0:
256,112,173258,1,10,2:0:0:0:
370,128,173436,1,10,2:0:0:0:
376,134,173526,1,8,2:0:0:0:
382,142,173615,54,0,P|399:196|385:243,1,99.0000030212403,8|8,2:0|1:2,2:0:0:0:
256,376,173972,1,0,1:3:0:0:
256,364,174061,1,0,1:3:0:0:
256,353,174150,1,8,2:3:0:0:
256,342,174239,1,8,2:3:0:0:
256,331,174329,6,0,L|256:224,1,99.0000030212403,6|2,2:1|2:0,2:0:0:0:
336,288,174686,1,8,2:0:0:0:
176,288,174865,2,0,B|94:283|124:239|20:249,1,148.50000453186,2|0,2:0|2:0,2:0:0:0:
26,250,175222,2,0,P|82:271|118:234,1,99.0000030212403,2|10,2:0|2:0,2:0:0:0:
86,63,175579,54,0,B|17:41|17:41|42:62,1,99.0000030212403,2|0,2:0|1:0,2:0:0:0:
161,96,175936,1,2,2:0:0:0:
155,16,176115,1,8,2:0:0:0:
166,180,176293,1,2,2:0:0:0:
224,53,176472,38,0,B|277:4|277:4|246:15,1,99.0000030212403,0|2,1:2|2:0,2:0:0:0:
166,180,176829,2,0,L|173:289,1,99.0000030212403,8|2,2:0|2:0,2:0:0:0:
235,333,177186,54,0,P|255:308|283:297,1,58.4999973220826,6|0,2:0|2:0,2:0:0:0:
116,337,177365,2,0,P|92:315|64:306,1,58.4999973220826,8|0,2:0|2:0,2:0:0:0:
179,376,177543,1,8,2:0:0:0:
166,180,177722,5,2,2:0:0:0:
166,180,178079,53,8,2:3:0:0:
167,197,178168,1,8,2:3:0:0:
168,214,178258,1,10,2:0:0:0:
322,336,178436,38,0,B|363:353|451:344|381:286|455:271|533:300,1,198.000006042481,6|10,2:0|2:3,2:0:0:0:
508,305,178883,1,8,2:3:0:0:
510,320,178972,1,8,2:0:0:0:
255,377,179151,2,0,P|247:328|286:266,1,99.0000030212403,6|0,2:0|2:0,2:0:0:0:
389,194,179508,53,0,1:0:0:0:
256,48,179686,1,8,2:0:0:0:
256,40,179776,1,8,2:0:0:0:
256,32,179864,1,10,2:0:0:0:
256,24,179954,1,0,1:0:0:0:
256,16,180043,6,0,L|256:128,1,99.0000030212403,6|2,2:0|2:0,2:0:0:0:
256,192,180401,1,10,2:0:0:0:
404,178,180579,54,0,P|368:146|320:149,1,99.0000030212403,2|0,2:0|1:0,2:0:0:0:
106,205,180936,2,0,P|142:237|190:234,1,99.0000030212403,2|8,2:0|2:0,2:0:0:0:
340,314,181293,38,0,P|350:267|324:227,1,99.0000030212403,2|0,2:0|1:0,2:0:0:0:
169,69,181650,2,0,P|159:116|186:156,1,99.0000030212403,2|8,2:0|2:0,2:0:0:0:
191,327,182008,6,0,P|237:312|259:269,1,99.0000030212403,2|0,2:0|1:2,2:0:0:0:
318,56,182364,2,0,P|272:71|250:114,1,99.0000030212403,2|8,2:0|2:0,2:0:0:0:
256,192,182722,1,2,2:0:0:0:
348,298,182901,54,0,B|406:294|437:310|403:329|459:348|508:332,1,148.50000453186,2|0,2:0|2:0,2:0:0:0:
477,324,183258,1,8,2:0:0:0:
300,352,183436,2,0,B|271:366|250:361|250:361|262:335|288:329,1,99.0000030212403,2|0,2:0|1:2,2:0:0:0:
336,227,183793,2,0,B|338:194|353:179|353:179|369:202|361:228,1,99.0000030212403,2|8,2:0|2:0,2:0:0:0:
164,298,184151,54,0,B|106:294|75:310|109:329|53:348|4:332,1,148.50000453186,6|0,2:0|2:0,2:0:0:0:
38,345,184508,1,8,2:3:0:0:
172,225,184686,1,10,2:0:0:0:
53,76,184865,38,0,P|43:124|67:174,1,99.0000030212403,10|0,2:3|1:0,2:0:0:0:
136,152,185222,2,0,L|245:154,2,99.0000030212403,0|0|0,1:0|1:0|2:0,2:0:0:0:
264,274,185758,38,0,B|325:312|302:229|210:229,1,148.50000453186,6|0,1:1|2:0,2:0:0:0:
200,240,186115,1,10,2:0:0:0:
264,370,186293,38,0,P|317:349|371:345,1,99.0000030212403,2|2,2:0|1:2,2:0:0:0:
383,250,186651,2,0,P|362:303|358:357,1,99.0000030212403,2|10,1:2|2:0,2:0:0:0:
422,377,187008,1,0,2:0:0:0:
427,156,187186,38,0,B|366:118|389:201|481:201,1,148.50000453186,2|0,1:2|2:0,2:0:0:0:
491,190,187543,1,10,2:0:0:0:
427,59,187722,38,0,P|374:80|320:84,1,99.0000030212403,2|2,2:0|1:2,2:0:0:0:
234,187,188080,2,0,P|255:134|259:80,1,99.0000030212403,2|10,1:2|2:0,2:0:0:0:
243,20,188436,1,0,2:0:0:0:
98,122,188615,38,0,B|34:88|117:66|163:146,1,148.50000453186,2|0,1:2|2:0,2:0:0:0:
159,160,188972,1,10,2:0:0:0:
73,263,189151,38,0,P|132:239|193:237,1,99.0000030212403,2|2,2:0|1:2,2:0:0:0:
266,384,189508,2,0,P|242:325|240:264,1,99.0000030212403,2|10,1:2|2:0,2:0:0:0:
296,233,189865,1,0,2:0:0:0:
182,91,190043,38,0,P|210:38|295:43,1,148.50000453186,2|0,1:2|2:0,2:0:0:0:
303,48,190400,1,10,2:0:0:0:
182,91,190579,2,0,P|112:87|83:22,1,148.50000453186,2|0,1:2|2:0,2:0:0:0:
85,7,190935,1,0,1:2:0:0:
159,169,191115,2,0,L|152:280,1,99.0000030212403,10|0,2:0|1:0,2:0:0:0:
256,352,191472,21,6,2:0:0:0:
303,280,191651,5,0,2:0:0:0:
419,265,191829,1,10,2:0:0:0:
316,266,192008,2,0,L|426:280,1,99.0000030212403,0|10,2:0|2:0,2:0:0:0:
208,195,192365,69,0,1:0:0:0:
92,180,192543,1,10,2:0:0:0:
195,181,192722,2,0,L|85:195,1,99.0000030212403,0|10,1:0|2:0,2:0:0:0:
336,119,193079,5,0,2:0:0:0:
452,104,193257,1,10,2:0:0:0:
349,105,193436,2,0,L|459:119,1,99.0000030212403,0|10,2:0|2:0,2:0:0:0:
256,12,193794,69,0,1:0:0:0:
262,85,193972,2,0,L|256:190,1,99.0000030212403,10|0,2:0|1:0,2:0:0:0:
192,312,194329,5,6,2:0:0:0:
192,312,194686,2,0,B|131:310|156:281|97:281,1,99.0000030212403,10|2,2:0|2:0,2:0:0:0:
90,353,195044,1,10,2:0:0:0:
193,240,195222,1,0,1:0:0:0:
51,206,195401,1,10,2:0:0:0:
256,360,195579,69,8,2:0:0:0:
256,360,195936,1,8,2:0:0:0:
256,192,196115,1,8,2:0:0:0:
256,280,196293,5,0,1:0:0:0:
328,160,196472,1,10,2:3:0:0:
342,155,196562,1,8,2:3:0:0:
356,150,196651,1,0,1:0:0:0:
184,160,196829,1,10,2:3:0:0:
170,155,196919,1,8,2:3:0:0:
156,150,197008,1,2,2:0:0:0:
331,285,197186,70,0,B|419:280|371:320|475:322,1,135,4|0,2:1|2:0,2:0:0:0:
467,312,197543,1,8,2:0:0:0:
351,362,197722,2,0,P|289:351|261:318,1,90,2|0,2:0|1:0,2:0:0:0:
184,224,198079,1,2,2:0:0:0:
203,295,198258,2,0,L|199:397,1,90,8|2,2:0|2:0,2:0:0:0:
134,175,198615,54,0,B|98:152|123:95|123:95|183:109|180:155,1,180,0|8,1:0|2:0,2:0:0:0:
184,224,199151,1,2,2:0:0:0:
133,350,199329,2,0,P|71:361|43:394,1,90,0|2,1:2|2:0,2:0:0:0:
203,295,199686,1,8,2:0:0:0:
203,295,200043,38,0,B|330:280|256:350|391:334,1,180,0|8,1:0|2:0,2:0:0:0:
473,364,200579,1,2,2:0:0:0:
452,245,200758,1,0,1:0:0:0:
457,350,200936,2,0,L|468:243,1,90,2|8,2:0|2:0,2:0:0:0:
486,121,201293,1,2,2:0:0:0:
374,166,201472,54,0,L|315:160,3,45,0|0|2|0,1:0|2:0|2:0|2:0,2:0:0:0:
323,149,201829,2,0,L|264:155,3,45,8|0|2|0,2:0|2:0|2:0|2:0,2:0:0:0:
267,161,202186,5,0,1:2:0:0:
244,158,202275,1,0,2:0:0:0:
224,149,202364,1,2,2:0:0:0:
207,134,202453,1,0,2:0:0:0:
196,115,202543,1,8,2:0:0:0:
191,93,202633,1,0,2:0:0:0:
178,73,202722,1,8,2:3:0:0:
161,59,202811,1,8,2:3:0:0:
139,49,202901,54,0,B|81:40|38:86|56:133|56:133|84:113|79:71,1,180,4|8,2:0|2:0,2:0:0:0:
1,29,203436,2,0,P|22:73|33:223,1,180,2|2,2:0|2:0,2:0:0:0:
94,254,203972,1,8,2:0:0:0:
20,280,204151,1,2,2:0:0:0:
173,371,204329,38,0,B|192:259|192:259|167:289,1,135,0|0,1:0|2:0,2:0:0:0:
170,286,204686,1,8,2:0:0:0:
275,332,204865,2,0,B|318:316|385:322|330:355|415:368|463:345,1,180,2|2,2:0|2:0,2:0:0:0:
459,345,205311,1,0,2:0:0:0:
472,341,205401,2,0,L|464:230,1,90,8|2,2:0|2:0,2:0:0:0:
486,120,205758,54,0,B|447:127|437:162|437:162|412:130|357:135,1,135,4|0,2:0|2:0,2:0:0:0:
367,142,206115,1,8,2:0:0:0:
239,43,206293,2,0,B|278:36|288:1|288:1|313:33|368:28,1,135,6|0,2:0|2:0,2:0:0:0:
358,21,206650,1,2,2:0:0:0:
305,96,206829,1,8,2:0:0:0:
168,12,207008,6,0,B|165:25|155:41|155:41|177:88|184:191,1,180,6|2,2:0|2:0,2:0:0:0:
172,192,207454,1,0,2:0:0:0:
160,199,207543,1,8,2:0:0:0:
256,128,207722,1,2,2:0:0:0:
256,139,207811,1,0,2:0:0:0:
256,150,207901,54,0,L|256:249,1,90,0|10,1:2|2:0,2:0:0:0:
256,384,208258,1,8,2:0:0:0:
256,372,208347,1,8,2:0:0:0:
256,361,208436,1,8,1:2:0:0:
256,350,208525,1,8,1:2:0:0:
256,339,208615,38,0,L|256:232,1,99.0000030212403,6|2,2:1|2:0,2:0:0:0:
175,298,208972,1,8,2:0:0:0:
337,298,209150,2,0,B|422:296|389:347|491:337,1,148.50000453186,2|0,2:0|2:0,2:0:0:0:
491,337,209508,2,0,L|483:232,1,99.0000030212403,2|10,2:0|2:0,2:0:0:0:
425,52,209865,54,0,L|522:74,1,99.0000030212403,2|0,2:0|1:0,2:0:0:0:
350,85,210222,1,2,2:0:0:0:
356,5,210401,1,8,2:0:0:0:
345,169,210579,1,2,2:0:0:0:
181,147,210758,6,0,L|278:125,1,99.0000030212403,0|2,1:2|2:0,2:0:0:0:
396,234,211115,2,0,B|357:239|346:249|346:249|325:232|276:230,1,99.0000030212403,8|2,2:0|2:0,2:0:0:0:
399,307,211472,54,0,P|440:298|479:298,1,58.4999973220826,6|0,2:0|2:0,2:0:0:0:
295,304,211651,2,0,P|253:295|214:295,1,58.4999973220826,8|0,2:0|2:0,2:0:0:0:
347,360,211829,1,8,2:0:0:0:
345,169,212008,37,2,2:0:0:0:
345,169,212365,53,8,2:3:0:0:
343,151,212454,1,8,2:3:0:0:
343,133,212543,1,10,2:0:0:0:
239,293,212722,6,0,B|184:304|123:288|178:245|112:215|20:244,1,198.000006042481,6|10,2:0|2:3,2:0:0:0:
47,238,213169,1,8,2:3:0:0:
34,245,213258,1,8,2:0:0:0:
126,368,213436,54,0,B|140:272|140:272|144:266|144:266|161:151,1,198.000006042481,6|0,2:0|1:0,2:0:0:0:
118,74,213972,1,8,2:3:0:0:
119,88,214061,1,8,2:3:0:0:
120,102,214151,1,10,2:3:0:0:
293,195,214329,38,0,B|296:234|256:252|256:252|258:208|285:195,1,135,6|0,2:0|2:0,2:0:0:0:
303,187,214686,2,0,B|353:166|406:194|362:221|428:235|483:218,1,180,10|0,2:0|1:0,2:0:0:0:
436,148,215222,1,2,2:0:0:0:
403,296,215401,1,8,2:0:0:0:
444,139,215579,54,0,L|434:37,1,90,2|0,2:0|1:0,2:0:0:0:
508,92,215936,1,2,2:0:0:0:
391,207,216115,1,8,2:0:0:0:
251,106,216293,2,0,P|301:103|344:128,1,90,2|0,2:0|1:2,2:0:0:0:
214,276,216651,1,2,2:0:0:0:
214,276,216829,2,0,L|224:174,1,90,8|2,2:0|2:0,2:0:0:0:
126,18,217186,6,0,P|165:59|156:144,1,135,2|0,2:0|2:0,2:0:0:0:
154,144,217543,2,0,L|101:138,3,45,8|0|2|0,2:0|2:0|2:0|2:0,2:0:0:0:
98,130,217901,2,0,L|45:136,3,45,0|0|2|0,1:0|2:0|2:0|2:0,2:0:0:0:
42,127,218258,1,8,2:0:0:0:
24,155,218347,1,0,2:0:0:0:
16,188,218436,1,2,2:0:0:0:
20,221,218525,1,0,2:0:0:0:
38,249,218615,54,0,L|132:239,1,90,4|8,2:0|2:0,2:0:0:0:
189,199,218972,1,10,2:0:0:0:
229,357,219151,37,10,2:3:0:0:
215,354,219240,1,8,2:3:0:0:
201,352,219329,2,0,L|99:335,1,90,8|8,2:0|2:3,2:0:0:0:
98,336,219597,1,8,2:3:0:0:
84,334,219686,1,0,1:0:0:0:
378,229,220043,38,0,B|380:253|353:299|329:285|300:308|300:308|305:273|284:259|307:216|328:203|328:203|329:203|329:203|307:212|254:201|260:174|229:154|229:154|265:148|270:123|320:132|339:148|339:148|339:149|339:149|324:131|318:77|344:74|355:39|355:39|371:71|397:68|403:118|394:142|394:142|393:141|393:141|406:121|455:99|466:124|502:122|502:122|478:147|487:172|442:193|417:191|417:191|416:190|416:190|439:196|475:237|455:254|467:288|467:288|435:273|415:290|379:250,1,1152,4|2,2:1|2:3,2:0:0:0:
