osu file format v14

[General]
AudioFilename: audio.mp3
AudioLeadIn: 0
PreviewTime: 162543
Countdown: 0
SampleSet: Soft
StackLeniency: 0.3
Mode: 0
LetterboxInBreaks: 0
WidescreenStoryboard: 1

[Editor]
Bookmarks: 79508,138615
DistanceSpacing: 0.5
BeatDivisor: 4
GridSize: 4
TimelineZoom: 1.9

[Metadata]
Title:Sakurakaze
TitleUnicode:サクラカゼ
Artist:Sakura Miko
ArtistUnicode:さくらみこ
Creator:-Atri-
Version:Hard
Source:
Tags:Firis Mistlud KuranteMelodii krt Sakura Kaze ハム hamu hololive ホロライブ virtual youtuber vtuber Japanese pop
BeatmapID:2450932
BeatmapSetID:1175049

[Difficulty]
HPDrainRate:4
CircleSize:4
OverallDifficulty:6
ApproachRate:8
SliderMultiplier:1.5
SliderTickRate:0.5

[Events]
//Background and Video events
Video,-51,"sakurakaze.mp4"
0,0,"sakurakaze.jpg",0,0
//Break Periods
2,138815,142715
2,144529,148429
//Storyboard Layer 0 (Background)
//Storyboard Layer 1 (Fail)
//Storyboard Layer 2 (Pass)
//Storyboard Layer 3 (Foreground)
//Storyboard Layer 4 (Overlay)
//Storyboard Sound Samples

[TimingPoints]
44,357.142857142857,4,2,2,25,1,0
1115,-133.333333333333,4,2,1,25,0,0
1472,-133.333333333333,4,2,1,35,0,0
9329,-133.333333333333,4,2,1,80,0,0
10133,-133.333333333333,4,2,1,50,0,0
10757,-133.333333333333,4,2,2,50,0,0
11472,-133.333333333333,4,2,2,80,0,0
11561,-133.333333333333,4,2,1,50,0,0
12186,-133.333333333333,4,2,2,50,0,0
12901,-133.333333333333,4,2,2,80,0,0
12990,-133.333333333333,4,2,1,50,0,0
13615,-133.333333333333,4,2,2,80,0,0
13704,-133.333333333333,4,2,1,50,0,0
14329,-133.333333333333,4,2,2,80,0,0
14418,-133.333333333333,4,2,1,50,0,0
14686,-133.333333333333,4,2,2,50,0,0
15222,-133.333333333333,4,2,1,50,0,0
15758,-100,4,2,2,80,0,0
15847,-100,4,2,1,60,0,0
16115,-100,4,2,2,60,0,0
17365,-100,4,2,1,60,0,0
17901,-100,4,2,2,60,0,0
18080,-100,4,2,1,60,0,0
18615,-100,4,2,1,80,0,0
18972,-100,4,2,1,70,0,0
21472,-100,4,2,2,80,0,0
21651,-133.333333333333,4,2,2,50,0,0
21829,-133.333333333333,4,2,1,50,0,0
26115,-133.333333333333,4,2,2,50,0,0
26293,-133.333333333333,4,2,1,50,0,0
27008,-133.333333333333,4,2,2,50,0,0
27186,-133.333333333333,4,2,1,50,0,0
31293,-133.333333333333,4,2,2,50,0,0
31472,-133.333333333333,4,2,1,50,0,0
32365,-133.333333333333,4,2,2,50,0,0
32722,-133.333333333333,4,2,1,50,0,0
32901,-133.333333333333,4,2,2,80,0,0
33079,-100,4,2,2,60,0,0
33436,-100,4,2,1,60,0,0
33972,-100,4,2,2,60,0,0
34151,-100,4,2,1,60,0,0
34686,-100,4,2,2,60,0,0
34865,-100,4,2,1,60,0,0
35401,-100,4,2,2,60,0,0
35758,-100,4,2,1,60,0,0
36115,-100,4,2,2,60,0,0
36293,-100,4,2,1,60,0,0
37008,-100,4,2,1,80,0,0
37097,-100,4,2,1,60,0,0
37722,-100,4,2,1,80,0,0
37811,-100,4,2,1,60,0,0
38615,-100,4,2,1,80,0,0
38704,-100,4,2,1,60,0,0
38972,-100,4,2,2,60,0,0
39151,-100,4,2,1,60,0,0
39687,-100,4,2,2,60,0,0
39865,-100,4,2,1,60,0,0
40400,-100,4,2,2,60,0,0
40579,-100,4,2,2,80,0,0
40668,-100,4,2,1,60,0,0
41115,-100,4,2,2,60,0,0
41294,-100,4,2,1,60,0,0
41829,-100,4,2,2,60,0,0
42008,-100,4,2,1,60,0,0
42722,-100,4,2,1,80,0,0
42811,-100,4,2,1,60,0,0
43972,-100,4,2,3,60,0,0
44329,-133.333333333333,4,2,3,80,0,0
44418,-133.333333333333,4,2,1,50,0,0
45400,-133.333333333333,4,2,3,50,0,0
45758,-133.333333333333,4,2,1,50,0,0
46829,-133.333333333333,4,2,2,50,0,0
47186,-133.333333333333,4,2,1,50,0,0
48257,-133.333333333333,4,2,2,50,0,0
48615,-133.333333333333,4,2,1,50,0,0
49686,-133.333333333333,4,2,2,50,0,0
50043,-100,4,2,2,80,0,0
50133,-100,4,2,1,60,0,0
50400,-100,4,2,2,60,0,0
50757,-100,4,2,1,60,0,0
51115,-100,4,2,2,60,0,0
51293,-100,4,2,1,60,0,0
51829,-100,4,2,2,60,0,0
52186,-100,4,2,1,60,0,0
52543,-100,4,2,2,60,0,0
52901,-100,4,2,2,80,0,0
52983,-100,4,2,1,60,0,0
53258,-100,4,2,2,60,0,0
53437,-100,4,2,1,60,0,0
53615,-100,4,2,2,60,0,0
53793,-100,4,2,1,60,0,0
53972,-100,4,2,2,60,0,0
55043,-100,4,2,4,80,0,0
55221,-100,4,2,1,60,0,0
55400,-100,4,2,4,60,0,0
55758,-95.2380952380952,4,2,2,80,0,1
56293,-95.2380952380952,4,2,3,80,0,1
56472,-95.2380952380952,4,2,1,80,0,1
56651,-95.2380952380952,4,2,2,80,0,1
56829,-95.2380952380952,4,2,1,80,0,1
57008,-95.2380952380952,4,2,3,80,0,1
57187,-95.2380952380952,4,2,1,80,0,1
57365,-95.2380952380952,4,2,3,80,0,1
58079,-95.2380952380952,4,2,2,80,0,1
58615,-95.2380952380952,4,2,1,80,0,1
58793,-95.2380952380952,4,2,2,80,0,1
59151,-95.2380952380952,4,2,3,80,0,1
59330,-95.2380952380952,4,2,1,80,0,1
59508,-95.2380952380952,4,2,2,80,0,1
59686,-95.2380952380952,4,2,1,80,0,1
59865,-95.2380952380952,4,2,3,80,0,1
60044,-95.2380952380952,4,2,1,80,0,1
60222,-95.2380952380952,4,2,3,80,0,1
60758,-95.2380952380952,4,2,1,80,0,1
60936,-95.2380952380952,4,2,2,80,0,1
61293,-95.2380952380952,4,2,3,80,0,1
61383,-95.2380952380952,4,2,1,80,0,1
62008,-95.2380952380952,4,2,3,80,0,1
62901,-95.2380952380952,4,2,1,80,0,1
63079,-95.2380952380952,4,2,3,80,0,1
63615,-95.2380952380952,4,2,1,80,0,1
63793,-95.2380952380952,4,2,3,80,0,1
64329,-95.2380952380952,4,2,1,80,0,1
64865,-95.2380952380952,4,2,3,80,0,1
65579,-95.2380952380952,4,2,1,80,0,1
66829,-95.2380952380952,4,2,1,80,0,0
67186,-95.2380952380952,4,2,2,80,0,1
67722,-95.2380952380952,4,2,3,80,0,1
67901,-95.2380952380952,4,2,1,80,0,1
68079,-95.2380952380952,4,2,2,80,0,1
68258,-95.2380952380952,4,2,1,80,0,1
68436,-95.2380952380952,4,2,3,80,0,1
68615,-95.2380952380952,4,2,1,80,0,1
68793,-95.2380952380952,4,2,3,80,0,1
69508,-95.2380952380952,4,2,2,80,0,1
70043,-95.2380952380952,4,2,1,80,0,1
70579,-95.2380952380952,4,2,3,80,0,1
71115,-95.2380952380952,4,2,1,80,0,1
71650,-95.2380952380952,4,2,3,80,0,1
72008,-95.2380952380952,4,2,1,80,0,1
72722,-95.2380952380952,4,2,3,80,0,1
72811,-95.2380952380952,4,2,1,80,0,1
73436,-95.2380952380952,4,2,3,80,0,1
73615,-95.2380952380952,4,2,1,80,0,1
73793,-95.2380952380952,4,2,3,80,0,1
74329,-95.2380952380952,4,2,1,80,0,1
74508,-95.2380952380952,4,2,3,80,0,1
75043,-95.2380952380952,4,2,1,80,0,1
75222,-95.2380952380952,4,2,3,80,0,1
75758,-95.2380952380952,4,2,1,80,0,1
76115,-95.2380952380952,4,2,2,80,0,1
76293,-95.2380952380952,4,2,3,80,0,1
76472,-95.2380952380952,4,2,1,80,0,1
76651,-95.2380952380952,4,2,3,80,0,1
77008,-95.2380952380952,4,2,1,80,0,1
77722,-95.2380952380952,4,2,3,80,0,1
77900,-95.2380952380952,4,2,1,80,0,1
78079,-95.2380952380952,4,2,1,80,0,0
78615,-95.2380952380952,4,2,2,80,0,1
78972,-95.2380952380952,4,2,3,80,0,1
79151,-95.2380952380952,4,2,1,80,0,1
79330,-95.2380952380952,4,2,2,80,0,1
79508,-95.2380952380952,4,2,1,80,0,1
79687,-95.2380952380952,4,2,2,80,0,1
80043,-95.2380952380952,4,2,1,80,0,1
80400,-95.2380952380952,4,2,3,80,0,1
80579,-95.2380952380952,4,2,1,80,0,1
80758,-95.2380952380952,4,2,2,80,0,1
80936,-95.2380952380952,4,2,1,80,0,1
81115,-95.2380952380952,4,2,2,80,0,1
81472,-95.2380952380952,4,2,1,80,0,1
81829,-95.2380952380952,4,2,3,80,0,1
82008,-95.2380952380952,4,2,1,80,0,1
82187,-95.2380952380952,4,2,2,80,0,1
82365,-95.2380952380952,4,2,1,80,0,1
82544,-95.2380952380952,4,2,2,80,0,1
82901,-95.2380952380952,4,2,1,80,0,1
83258,-95.2380952380952,4,2,2,80,0,1
83436,-95.2380952380952,4,2,1,80,0,1
83972,-95.2380952380952,4,2,2,80,0,1
84329,-95.2380952380952,4,2,1,80,0,1
87543,-95.2380952380952,4,2,2,80,0,1
87900,-95.2380952380952,4,2,3,80,0,1
88079,-95.2380952380952,4,2,1,80,0,1
88258,-95.2380952380952,4,2,2,80,0,1
89329,-95.2380952380952,4,2,5,80,0,1
89507,-95.2380952380952,4,2,1,80,0,1
90043,-95.2380952380952,4,2,2,80,0,0
90401,-100,4,2,2,70,0,0
90758,-100,4,2,1,70,0,0
91115,-100,4,2,2,70,0,0
91293,-100,4,2,1,70,0,0
91829,-100,4,2,2,70,0,0
92008,-100,4,2,1,70,0,0
92543,-100,4,2,2,70,0,0
92901,-100,4,2,1,70,0,0
93258,-100,4,2,2,70,0,0
93615,-100,4,2,1,70,0,0
93972,-100,4,2,2,70,0,0
94151,-100,4,2,1,70,0,0
94686,-100,4,2,2,70,0,0
94865,-100,4,2,1,70,0,0
95401,-100,4,2,2,70,0,0
95579,-100,4,2,1,70,0,0
95758,-100,4,2,1,80,0,0
95847,-100,4,2,1,70,0,0
98615,-100,4,2,1,80,0,0
98972,-100,4,2,2,70,0,0
99151,-100,4,2,1,70,0,0
99329,-100,4,2,2,70,0,0
99508,-100,4,2,1,70,0,0
99686,-100,4,2,2,70,0,0
99865,-100,4,2,1,70,0,0
100043,-100,4,2,2,70,0,0
100579,-100,4,2,1,70,0,0
100758,-100,4,2,2,70,0,0
100936,-100,4,2,1,70,0,0
101472,-100,4,2,2,80,0,0
101651,-133.333333333333,4,2,2,50,0,0
101829,-133.333333333333,4,2,1,50,0,0
102543,-133.333333333333,4,2,2,50,0,0
104329,-133.333333333333,4,2,1,50,0,0
105401,-133.333333333333,4,2,2,50,0,0
105936,-133.333333333333,4,2,1,50,0,0
107186,-133.333333333333,4,2,1,80,0,0
107276,-133.333333333333,4,2,1,50,0,0
112901,-133.333333333333,4,2,1,80,0,0
113079,-100,4,2,1,60,0,0
113257,-100,4,2,2,60,0,0
113436,-100,4,2,1,60,0,0
113972,-100,4,2,2,60,0,0
114151,-100,4,2,1,60,0,0
114686,-100,4,2,2,60,0,0
114865,-100,4,2,1,60,0,0
115580,-100,4,2,2,60,0,0
115758,-100,4,2,1,60,0,0
116115,-100,4,2,2,60,0,0
116293,-100,4,2,1,60,0,0
117008,-100,4,2,1,80,0,0
117097,-100,4,2,1,60,0,0
117722,-100,4,2,1,80,0,0
117811,-100,4,2,1,60,0,0
118615,-100,4,2,1,80,0,0
118704,-100,4,2,1,60,0,0
118972,-100,4,2,2,60,0,0
119151,-100,4,2,1,60,0,0
119687,-100,4,2,2,60,0,0
119865,-100,4,2,1,60,0,0
120400,-100,4,2,2,60,0,0
120579,-100,4,2,1,80,0,0
120668,-100,4,2,1,60,0,0
121294,-100,4,2,3,60,0,0
121472,-100,4,2,1,60,0,0
121829,-100,4,2,3,60,0,0
122722,-100,4,2,3,80,0,0
122811,-100,4,2,1,60,0,0
123972,-100,4,2,3,60,0,0
124151,-100,4,2,1,60,0,0
124329,-133.333333333333,4,2,3,80,0,0
124418,-133.333333333333,4,2,1,50,0,0
127008,-133.333333333333,4,2,2,50,0,0
127186,-133.333333333333,4,2,1,50,0,0
129686,-133.333333333333,4,2,2,50,0,0
130043,-133.333333333333,4,2,2,80,0,0
130401,-100,4,2,2,60,0,0
130580,-100,4,2,1,60,0,0
131115,-100,4,2,2,60,0,0
131472,-100,4,2,1,60,0,0
132187,-100,4,2,2,60,0,0
132365,-100,4,2,1,60,0,0
132901,-100,4,2,1,80,0,0
132990,-100,4,2,1,60,0,0
133258,-100,4,2,2,60,0,0
133436,-100,4,2,1,60,0,0
133615,-100,4,2,2,60,0,0
133793,-100,4,2,1,60,0,0
133972,-100,4,2,2,60,0,0
134151,-100,4,2,2,80,0,0
134508,-100,4,2,1,60,0,0
134686,-100,4,2,2,60,0,0
134865,-100,4,2,1,60,0,0
135401,-100,4,2,2,60,0,0
135580,-100,4,2,1,60,0,0
135758,-100,4,2,1,80,0,0
135847,-100,4,2,1,60,0,0
136472,-100,4,2,2,60,0,0
136651,-100,4,2,1,60,0,0
137186,-133.333333333333,4,2,1,80,0,0
137276,-133.333333333333,4,2,1,60,0,0
138615,-133.333333333333,4,2,4,60,0,0
143615,-133.333333333333,4,2,1,40,0,0
144329,-133.333333333333,4,2,4,60,0,0
149329,-133.333333333333,4,2,4,40,0,0
150043,-133.333333333333,4,2,2,40,0,0
155222,-133.333333333333,4,2,1,40,0,0
155401,-133.333333333333,4,2,2,40,0,0
155758,-100,4,2,2,80,0,0
155847,-100,4,2,1,50,0,0
156830,-100,4,2,2,50,0,0
157543,-100,4,2,1,50,0,0
158258,-100,4,2,2,50,0,0
158615,-100,4,2,2,80,0,0
158704,-100,4,2,1,60,0,0
158972,-100,4,2,2,60,0,0
159508,-100,4,2,1,60,0,0
159687,-100,4,2,2,60,0,0
159865,-100,4,2,2,80,0,0
160222,-100,4,2,1,60,0,0
160400,-100,4,2,2,64,0,0
160579,-100,4,2,1,68,0,0
160758,-100,4,2,2,72,0,0
160936,-100,4,2,2,76,0,0
161115,-100,4,2,2,80,0,0
161293,-100,4,2,2,84,0,0
161651,-100,4,2,1,50,0,0
162365,-100,4,2,1,50,0,0
162543,-100,4,2,4,50,0,0
162901,-100,4,2,4,80,0,1
163079,-100,4,2,4,80,0,0
163615,-100,4,2,1,80,0,0
163793,-95.2380952380952,4,2,4,80,0,0
164151,-95.2380952380952,4,2,1,80,0,0
164508,-95.2380952380952,4,2,2,80,0,1
165579,-95.2380952380952,4,2,1,80,0,0
165758,-95.2380952380952,4,2,1,80,0,1
167008,-95.2380952380952,4,2,1,80,0,0
167186,-95.2380952380952,4,2,2,80,0,1
167722,-95.2380952380952,4,2,1,80,0,1
167901,-95.2380952380952,4,2,2,80,0,1
168080,-95.2380952380952,4,2,1,80,0,1
168258,-95.2380952380952,4,2,2,80,0,1
168437,-95.2380952380952,4,2,1,80,0,1
168615,-95.2380952380952,4,2,1,80,0,0
168972,-95.2380952380952,4,2,1,80,0,1
169151,-95.2380952380952,4,2,3,80,0,1
170044,-95.2380952380952,4,2,1,80,0,1
170222,-95.2380952380952,4,2,3,80,0,1
170758,-95.2380952380952,4,2,1,80,0,1
170936,-95.2380952380952,4,2,3,80,0,1
171472,-95.2380952380952,4,2,1,80,0,1
172008,-95.2380952380952,4,2,3,80,0,1
172722,-95.2380952380952,4,2,1,80,0,1
173972,-95.2380952380952,4,2,1,80,0,0
174329,-95.2380952380952,4,2,2,80,0,1
174865,-95.2380952380952,4,2,3,80,0,1
175044,-95.2380952380952,4,2,1,80,0,1
175222,-95.2380952380952,4,2,2,80,0,1
175401,-95.2380952380952,4,2,1,80,0,1
175579,-95.2380952380952,4,2,3,80,0,1
175758,-95.2380952380952,4,2,1,80,0,1
175936,-95.2380952380952,4,2,3,80,0,1
176650,-95.2380952380952,4,2,2,80,0,1
177186,-95.2380952380952,4,2,1,80,0,1
177722,-95.2380952380952,4,2,3,80,0,1
178258,-95.2380952380952,4,2,1,80,0,1
178793,-95.2380952380952,4,2,3,80,0,1
179151,-95.2380952380952,4,2,1,80,0,1
179865,-95.2380952380952,4,2,3,80,0,1
179954,-95.2380952380952,4,2,1,80,0,1
180579,-95.2380952380952,4,2,3,80,0,1
180758,-95.2380952380952,4,2,1,80,0,1
180936,-95.2380952380952,4,2,3,80,0,1
181472,-95.2380952380952,4,2,1,80,0,1
181651,-95.2380952380952,4,2,3,80,0,1
182187,-95.2380952380952,4,2,1,80,0,1
182365,-95.2380952380952,4,2,3,80,0,1
182901,-95.2380952380952,4,2,1,80,0,1
183258,-95.2380952380952,4,2,2,80,0,1
183436,-95.2380952380952,4,2,3,80,0,1
183615,-95.2380952380952,4,2,1,80,0,1
183793,-95.2380952380952,4,2,3,80,0,1
184151,-95.2380952380952,4,2,1,80,0,1
184865,-95.2380952380952,4,2,3,80,0,1
185043,-95.2380952380952,4,2,1,80,0,1
185222,-95.2380952380952,4,2,1,80,0,0
185758,-95.2380952380952,4,2,2,80,0,1
186115,-95.2380952380952,4,2,3,80,0,1
186293,-95.2380952380952,4,2,1,80,0,1
186472,-95.2380952380952,4,2,2,80,0,1
186651,-95.2380952380952,4,2,1,80,0,1
186830,-95.2380952380952,4,2,2,80,0,1
187186,-95.2380952380952,4,2,1,80,0,1
187543,-95.2380952380952,4,2,3,80,0,1
187722,-95.2380952380952,4,2,1,80,0,1
187900,-95.2380952380952,4,2,2,80,0,1
188079,-95.2380952380952,4,2,1,80,0,1
188258,-95.2380952380952,4,2,2,80,0,1
188615,-95.2380952380952,4,2,1,80,0,1
188972,-95.2380952380952,4,2,3,80,0,1
189151,-95.2380952380952,4,2,1,80,0,1
189329,-95.2380952380952,4,2,2,80,0,1
189508,-95.2380952380952,4,2,1,80,0,1
189687,-95.2380952380952,4,2,2,80,0,1
190043,-95.2380952380952,4,2,1,80,0,1
190400,-95.2380952380952,4,2,2,80,0,1
190579,-95.2380952380952,4,2,1,80,0,1
191115,-95.2380952380952,4,2,2,80,0,1
191472,-95.2380952380952,4,2,1,80,0,1
194686,-95.2380952380952,4,2,2,80,0,1
195043,-95.2380952380952,4,2,3,80,0,1
195222,-95.2380952380952,4,2,1,80,0,1
195401,-95.2380952380952,4,2,2,80,0,1
196293,-95.2380952380952,4,2,1,80,0,1
196472,-95.2380952380952,4,2,6,80,0,1
196651,-95.2380952380952,4,2,1,80,0,1
196829,-95.2380952380952,4,2,3,80,0,1
197008,-95.2380952380952,4,2,1,80,0,1
197186,-100,4,2,2,80,0,0
197901,-100,4,2,1,80,0,0
198079,-100,4,2,2,80,0,0
198615,-100,4,2,1,80,0,0
198972,-100,4,2,2,80,0,0
199329,-100,4,2,1,80,0,0
199507,-100,4,2,2,80,0,0
200043,-100,4,2,1,80,0,0
200400,-100,4,2,2,80,0,0
200758,-100,4,2,1,80,0,0
200936,-100,4,2,2,80,0,0
201472,-100,4,2,1,80,0,0
201651,-100,4,2,2,80,0,0
202186,-100,4,2,1,80,0,0
202365,-100,4,2,2,80,0,0
202722,-100,4,2,1,80,0,0
203258,-100,4,2,2,80,0,0
203615,-100,4,2,1,80,0,0
203793,-100,4,2,2,80,0,0
204329,-100,4,2,1,80,0,0
204686,-100,4,2,2,80,0,0
207901,-100,4,2,1,80,0,0
208080,-100,4,2,2,80,0,0
208437,-100,4,2,1,80,0,0
208615,-95.2380952380952,4,2,2,80,0,1
209151,-95.2380952380952,4,2,3,80,0,1
209330,-95.2380952380952,4,2,1,80,0,1
209508,-95.2380952380952,4,2,2,80,0,1
209686,-95.2380952380952,4,2,1,80,0,1
209865,-95.2380952380952,4,2,3,80,0,1
210044,-95.2380952380952,4,2,1,80,0,1
210222,-95.2380952380952,4,2,3,80,0,1
210936,-95.2380952380952,4,2,2,80,0,1
211472,-95.2380952380952,4,2,1,80,0,1
212008,-95.2380952380952,4,2,3,80,0,1
212543,-95.2380952380952,4,2,1,80,0,1
213079,-95.2380952380952,4,2,3,80,0,1
213436,-95.2380952380952,4,2,1,80,0,1
214151,-95.2380952380952,4,2,3,80,0,1
214329,-100,4,2,1,80,0,0
214508,-100,4,2,2,80,0,0
214686,-100,4,2,1,80,0,0
215222,-100,4,2,3,80,0,0
217186,-100,4,2,1,80,0,0
217365,-100,4,2,2,80,0,0
217722,-100,4,2,3,80,0,0
217901,-100,4,2,1,80,0,0
218080,-100,4,2,3,80,0,0
218972,-100,4,2,1,80,0,0
219151,-100,4,2,3,80,0,0
219687,-100,4,2,1,80,0,0
220043,-222.222222222223,4,2,2,80,0,0
220133,-222.222222222223,4,2,1,40,0,0
225757,-222.222222222223,4,2,4,40,0,0

[Colours]
Combo1 : 128,128,128
Combo2 : 255,0,255
Combo3 : 255,0,128
Combo4 : 0,255,255
Combo5 : 0,128,255
Combo6 : 192,192,192

[HitObjects]
60,355,1115,86,0,P|95:330|127:327,1,56.4300021457673,2|0,2:0|2:0,2:0:0:0:
187,355,1472,70,0,L|186:283,2,56.2725021457673,2|0|0,2:0|2:0|2:0,2:0:0:0:
272,378,2008,2,0,P|322:368|356:299,1,112.545004291535,2|0,2:0|2:0,2:0:0:0:
318,242,2543,1,0,2:0:0:0:
318,242,2722,6,0,B|377:238|377:238|384:239|384:239|444:234,1,112.545004291535,2|0,2:0|2:0,2:0:0:0:
440,153,3258,1,2,2:0:0:0:
440,153,3436,2,0,B|393:156|393:156|386:155|386:155|327:159,1,112.545004291535,2|0,2:0|2:0,2:0:0:0:
256,112,3972,2,0,L|256:56,1,56.4300021457673,0|0,2:0|2:0,2:0:0:0:
176,32,4329,70,0,L|112:24,2,56.2725021457673,2|0|0,2:0|2:0|2:0,2:0:0:0:
170,114,4865,2,0,P|120:124|86:193,1,112.545004291535,2|0,2:0|2:0,2:0:0:0:
143,247,5401,1,0,2:0:0:0:
143,247,5579,6,0,B|202:251|202:251|209:250|209:250|269:255,1,112.860004291535,2|0,2:0|2:0,2:0:0:0:
265,336,6115,1,2,2:0:0:0:
265,336,6293,2,0,B|218:332|218:332|211:333|211:333|152:329,1,112.860004291535,2|0,2:0|2:0,2:0:0:0:
79,349,6829,70,0,B|54:351|40:363|40:363|56:285,1,112.545004291535,2|2,2:0|2:0,2:0:0:0:
256,192,7276,12,4,9329,2:1:0:0:
408,66,9686,22,0,L|404:20,3,28.2150010728836,0|0|0|0,2:0|2:0|2:0|2:0,2:0:0:0:
409,90,10043,54,0,B|463:67|495:113|456:232|398:133|364:180|356:246,1,225.090008583069,4|2,2:0|2:0,2:0:0:0:
409,90,11472,22,0,B|382:37|328:52|281:168|389:130|385:187|349:243,1,225.090008583069,4|2,2:0|2:0,2:0:0:0:
480,344,12901,54,0,B|438:334|393:362|393:362|382:345|394:322,1,112.545004291535,4|0,2:0|2:0,2:0:0:0:
361,221,13615,2,0,B|319:231|274:203|274:203|263:220|275:243,1,112.545004291535,4|0,2:0|2:0,2:0:0:0:
240,367,14329,22,0,P|224:333|198:317,1,56.4300021457673,4|0,2:0|2:0,2:0:0:0:
189,247,14686,2,0,P|151:243|124:258,1,56.4300021457673,2|0,2:0|2:0,2:0:0:0:
65,342,15043,54,0,L|55:268,1,56.4300021457673,8|0,2:0|1:0,2:0:0:0:
67,195,15401,2,0,L|57:121,1,56.4300021457673,0|0,1:0|1:0,2:0:0:0:
43,24,15758,54,0,B|131:17|92:66|196:58,1,150.06,4|8,2:0|2:0,2:0:0:0:
273,31,16293,1,8,2:0:0:0:
265,113,16472,2,0,L|258:190,1,75.24,8|8,2:0|2:0,2:0:0:0:
340,186,16829,2,0,L|346:111,1,75.24,8|8,2:0|2:0,2:0:0:0:
374,36,17186,70,0,P|417:27|455:35,1,75.24,10|8,2:0|2:3,2:0:0:0:
483,52,17454,1,8,2:3:0:0:
483,52,17543,2,0,L|474:139,1,75.24,8|8,2:0|2:3,2:0:0:0:
512,222,17901,2,0,P|469:213|431:221,1,75.24,10|8,2:0|2:3,2:0:0:0:
403,238,18168,1,8,2:3:0:0:
403,238,18258,2,0,L|412:325,1,75.24,8|8,2:0|2:3,2:0:0:0:
301,367,18615,21,4,2:0:0:0:
201,205,18972,2,0,P|181:258|181:289,1,75.24,8|8,2:0|2:0,2:0:0:0:
262,259,19329,2,0,P|317:249|344:234,1,75.24,8|8,2:0|2:0,2:0:0:0:
279,180,19686,2,0,P|243:136|216:120,1,75.24,8|8,2:0|2:0,2:0:0:0:
123,151,20043,38,0,P|67:151|58:64,1,150.06,4|0,2:0|2:0,2:0:0:0:
133,64,20579,2,0,L|131:1,2,37.62,8|8|8,2:3|2:3|2:0,2:0:0:0:
214,50,20936,2,0,L|295:38,1,75.24,0|0,1:0|1:0,2:0:0:0:
404,163,21472,21,6,2:0:0:0:
404,163,21651,2,0,P|414:125|405:89,2,56.2725021457673,0|2|0,2:0|2:3|2:0,2:0:0:0:
305,212,22186,2,0,B|375:207|336:242|430:243,1,112.545004291535,2|2,2:3|2:3,2:0:0:0:
477,200,22722,70,0,P|457:256|452:326,2,112.545004291535,0|0|0,2:0|2:0|2:0,2:0:0:0:
385,363,23793,1,0,2:0:0:0:
326,302,23972,2,0,L|250:308,1,56.4300021457673,2|0,2:3|1:0,2:0:0:0:
202,359,24329,6,0,P|178:301|116:281,1,112.545004291535,0|2,1:0|2:3,2:0:0:0:
63,336,24865,2,0,B|57:279|57:279|54:270|54:270|49:219,1,112.545004291535,0|0,2:0|2:0,2:0:0:0:
203,123,25579,70,0,P|184:174|136:201,1,112.545004291535,0|2,2:0|2:0,2:0:0:0:
69,138,26115,1,2,2:3:0:0:
69,138,26293,1,2,2:0:0:0:
135,281,26651,2,0,L|197:276,2,56.2725021457673,2|0|2,2:0|2:0|2:0,2:0:0:0:
141,358,27186,6,0,B|233:350|233:350|247:335,1,112.545004291535,0|2,1:0|2:3,2:0:0:0:
273,260,27722,2,0,P|303:275|323:305,1,56.4300021457673,0|2,2:0|2:3,2:0:0:0:
317,369,28079,2,0,P|350:363|377:340,1,56.4300021457673,0|2,2:0|2:3,2:0:0:0:
399,275,28436,70,0,B|413:260|413:260|505:252,1,112.545004291535,0|0,2:0|2:0,2:0:0:0:
503,175,28972,1,2,2:3:0:0:
503,175,29151,2,0,B|410:181|410:181|394:168,1,112.545004291535,2|2,2:0|2:0,2:0:0:0:
437,101,29686,1,2,2:3:0:0:
357,99,29865,1,0,1:0:0:0:
357,99,30043,6,0,B|289:94|317:128|237:121,1,112.545004291535,0|2,1:0|2:3,2:0:0:0:
261,44,30579,1,0,2:0:0:0:
261,44,30758,2,0,B|193:49|221:15|141:22,1,112.230004291535,2|2,2:3|2:3,2:0:0:0:
75,31,31293,1,2,2:0:0:0:
86,114,31472,69,0,1:0:0:0:
86,114,32186,1,0,1:0:0:0:
156,159,32365,2,0,L|148:282,1,112.545004291535,8|0,2:0|1:0,2:0:0:0:
140,278,32811,1,0,1:0:0:0:
132,286,32901,21,4,2:0:0:0:
87,352,33079,2,0,P|51:339|14:340,2,75.03,0|10|0,2:0|2:0|1:0,2:0:0:0:
168,364,33615,2,0,B|238:360|238:360|252:365|252:365|327:363,1,150.06,0|10,1:0|2:0,2:0:0:0:
319,281,34151,38,0,B|363:289|383:318|383:318|397:282|441:272,1,150.06,0|0,1:0|1:0,2:0:0:0:
489,199,34686,1,10,2:0:0:0:
489,199,34865,2,0,B|445:191|425:162|425:162|411:198|366:207,1,150.06,0|0,1:0|1:0,2:0:0:0:
289,198,35401,2,0,L|284:124,1,75.24,8|2,2:0|2:0,2:0:0:0:
182,46,35758,38,0,P|122:34|62:106,1,150.06,0|8,1:0|2:0,2:0:0:0:
59,243,36293,2,0,L|49:168,1,75.24,8|0,2:3|2:0,2:0:0:0:
162,201,36651,2,0,L|152:276,1,75.24,8|0,2:3|2:0,2:0:0:0:
33,321,37008,38,0,B|72:311|118:323|84:347|147:361|187:343,1,150.06,4|0,2:0|1:0,2:0:0:0:
227,287,37543,1,8,2:0:0:0:
336,347,37722,38,0,B|365:361|428:347|394:323|440:311|479:321,1,150.06,4|0,2:0|1:0,2:0:0:0:
492,247,38258,1,8,2:0:0:0:
502,162,38436,1,8,2:0:0:0:
502,162,38526,1,8,2:0:0:0:
502,162,38615,38,0,P|421:153|381:217,1,150.06,4|10,2:0|2:0,2:0:0:0:
315,270,39151,2,0,L|309:185,1,75.24,0|0,1:0|1:0,2:0:0:0:
233,160,39508,2,0,L|239:75,1,75.24,0|10,1:0|2:0,2:0:0:0:
280,19,39865,1,0,1:0:0:0:
280,19,40043,38,0,P|244:8|200:17,2,75.03,0|0|8,1:0|1:0|2:0,2:0:0:0:
327,123,40579,2,0,B|401:127|401:127|411:121|411:121|489:124,1,150.06,4|0,2:0|1:0,2:0:0:0:
510,190,41115,2,0,P|508:227|475:257,1,75.24,8|0,2:0|1:0,2:0:0:0:
423,318,41472,38,0,P|393:292|284:312,1,150.06,0|8,1:0|2:0,2:0:0:0:
182,371,42008,2,0,L|192:283,1,75.24,8|0,2:3|2:0,2:0:0:0:
45,264,42365,2,0,L|35:176,1,75.24,8|0,2:3|2:0,2:0:0:0:
22,65,42722,38,0,P|52:39|161:59,1,150.06,4|2,2:0|2:0,2:0:0:0:
228,38,43258,2,0,P|224:85|199:116,1,75.24,10|2,2:0|2:0,2:0:0:0:
154,159,43615,2,0,P|186:177|223:177,2,75.03,10|2|10,2:0|2:0|2:3,2:0:0:0:
356,128,44329,70,0,P|346:59|357:11,2,112.545004291535,4|0|0,2:0|1:0|1:0,2:0:0:0:
405,186,45222,2,0,L|468:182,2,56.2725021457673,0|8|0,2:0|2:0|2:0,2:0:0:0:
327,201,45758,6,0,B|257:192|285:228|203:219,1,112.545004291535,0|0,1:2|1:0,2:0:0:0:
146,207,46293,2,0,B|137:277|173:249|164:331,1,112.545004291535,0|0,2:0|1:0,2:0:0:0:
142,384,46829,1,10,2:0:0:0:
102,149,47186,70,0,L|97:24,2,112.545004291535,0|0|0,1:2|1:0|1:0,2:0:0:0:
146,207,48079,2,0,P|118:223|79:218,2,56.2725021457673,0|8|0,2:0|2:0|2:0,2:0:0:0:
177,135,48615,6,0,P|221:121|292:128,1,112.545004291535,0|0,1:2|1:0,2:0:0:0:
357,120,49151,2,0,P|355:148|341:172,1,56.4300021457673,0|0,2:0|1:0,2:0:0:0:
274,199,49508,1,0,1:0:0:0:
387,233,49686,1,10,2:0:0:0:
387,233,50043,70,0,L|377:387,2,150.06,4|8|0,2:0|2:0|1:0,2:0:0:0:
456,186,50936,2,0,L|463:104,1,75.24,0|8,1:0|2:0,2:0:0:0:
421,37,51293,6,0,B|370:24|332:35|358:49|315:65|249:53,1,150.06,0|0,1:0|1:0,2:0:0:0:
218,106,51829,2,0,P|201:57|207:25,1,75.24,8|0,2:0|2:0,2:0:0:0:
128,29,52186,2,0,P|94:68|63:79,1,75.24,0|0,1:0|1:0,2:0:0:0:
107,146,52543,2,0,P|157:155|182:176,1,75.24,8|0,2:0|2:0,2:0:0:0:
258,255,52901,70,0,L|253:160,1,75.24,4|0,2:0|1:0,2:0:0:0:
344,101,53258,2,0,L|339:196,1,75.24,10|0,2:0|1:0,2:0:0:0:
389,266,53615,1,10,2:0:0:0:
389,266,53793,2,0,P|436:249|474:256,1,75.24,0|10,1:0|2:0,2:0:0:0:
380,344,54151,6,0,B|337:331|321:300|321:300|298:333|246:334,1,150.06,8|8,2:0|2:0,2:0:0:0:
106,325,54686,1,8,2:0:0:0:
106,325,55043,2,0,L|112:247,2,75.03,2|0|8,2:3|1:0|2:0,2:0:0:0:
185,293,55579,1,0,2:0:0:0:
153,185,55758,70,0,P|99:175|64:190,2,78.7814975967408,6|2|8,2:1|2:0|2:0,2:0:0:0:
226,139,56293,2,0,L|221:59,1,79.0019975967408,2|0,2:0|1:0,2:0:0:0:
301,23,56651,1,2,2:0:0:0:
306,112,56829,1,10,2:0:0:0:
306,112,57008,70,0,P|344:119|381:106,1,79.0019975967408,2|0,2:0|1:0,2:0:0:0:
431,37,57365,1,2,2:0:0:0:
464,121,57543,1,8,2:0:0:0:
464,121,57722,2,0,B|474:228|421:188|448:294,1,157.562995193482,2|2,2:0|2:0,2:0:0:0:
454,359,58258,1,8,2:0:0:0:
379,326,58436,1,2,2:0:0:0:
379,326,58615,22,0,L|299:332,2,78.7814975967408,2|2|8,2:0|2:0|2:0,2:0:0:0:
365,240,59151,2,0,L|285:246,1,79.0019975967408,2|0,2:0|1:0,2:0:0:0:
224,306,59508,1,2,2:0:0:0:
165,242,59686,1,10,2:0:0:0:
165,242,59865,38,0,P|156:187|165:162,1,79.0019975967408,2|0,2:0|1:0,2:0:0:0:
178,80,60222,1,2,2:0:0:0:
242,139,60401,1,8,2:0:0:0:
242,139,60579,22,0,P|297:148|322:139,1,79.0019975967408,2|0,2:0|1:2,2:0:0:0:
381,88,60936,2,0,L|378:2,1,79.0019975967408,2|8,2:0|2:0,2:0:0:0:
459,36,61293,1,2,2:0:0:0:
459,36,61383,1,0,1:0:0:0:
459,36,61472,22,0,B|460:119|460:119|416:186,1,157.562995193482,6|10,2:0|2:0,2:0:0:0:
365,249,62008,54,0,L|373:328,1,79.0019975967408,2|0,2:0|2:0,2:0:0:0:
286,321,62365,2,0,L|278:242,1,79.0019975967408,2|8,2:0|2:0,2:0:0:0:
308,161,62722,22,0,L|316:82,1,79.0019975967408,2|0,2:0|1:0,2:0:0:0:
229,89,63079,2,0,L|221:168,1,79.0019975967408,2|8,2:0|2:0,2:0:0:0:
197,250,63436,54,0,L|205:329,1,79.0019975967408,2|0,2:0|1:2,2:0:0:0:
118,322,63793,2,0,L|110:243,1,79.0019975967408,2|8,2:0|2:0,2:0:0:0:
128,158,64151,1,2,2:0:0:0:
19,93,64329,22,0,B|110:119|78:56|179:92,1,157.562995193482,6|8,2:0|2:0,2:0:0:0:
255,195,64865,2,0,L|244:111,1,79.0019975967408,6|0,2:0|2:0,2:0:0:0:
355,64,65222,2,0,L|344:142,1,79.0019975967408,2|8,2:0|2:0,2:0:0:0:
222,271,65579,38,0,B|311:304|283:241|374:267,1,157.562995193482,6|0,2:0|1:0,2:0:0:0:
429,337,66115,1,10,2:0:0:0:
473,267,66293,1,10,2:0:0:0:
473,267,66383,1,8,2:0:0:0:
473,267,66472,2,0,L|462:188,1,79.0019975967408,8|8,2:0|1:2,2:0:0:0:
424,121,66829,2,0,L|428:78,3,39.5009987983704,0|0|8|8,1:3|1:3|2:3|2:3,2:0:0:0:
428,62,67186,22,0,P|480:69|515:47,2,78.7814975967408,6|2|8,2:1|2:0|2:0,2:0:0:0:
358,21,67722,2,0,L|348:126,1,79.0019975967408,2|0,2:0|1:0,2:0:0:0:
338,177,68079,1,2,2:0:0:0:
276,121,68258,1,10,2:0:0:0:
276,121,68436,2,0,L|172:109,1,79.0019975967408,2|0,2:0|1:0,2:0:0:0:
120,101,68793,1,2,2:0:0:0:
171,36,68972,1,8,2:0:0:0:
171,36,69151,38,0,P|96:21|39:77,1,157.562995193482,2|2,2:0|2:0,2:0:0:0:
50,147,69686,1,8,2:0:0:0:
50,147,69865,1,2,2:0:0:0:
101,271,70043,22,0,P|112:228|105:179,2,78.7814975967408,6|8|8,2:0|2:0|2:0,2:0:0:0:
12,328,70579,2,0,P|89:317|156:355,1,157.562995193482,2|8,2:0|2:3,2:0:0:0:
162,365,71026,1,8,2:3:0:0:
167,374,71115,1,10,2:0:0:0:
267,352,71293,70,0,B|263:275|263:275|260:263|260:263|255:195,1,157.562995193482,6|10,2:0|2:3,2:0:0:0:
253,184,71740,1,8,2:3:0:0:
251,172,71829,1,8,2:0:0:0:
344,253,72008,2,0,P|383:264|495:204,1,157.562995193482,6|0,2:0|1:0,2:0:0:0:
477,142,72543,2,0,L|475:82,3,39.5009987983704,8|8|10|0,2:0|2:0|2:0|1:2,2:0:0:0:
485,84,72901,22,0,B|436:105|397:94|421:74|375:62|314:75,1,157.562995193482,6|10,2:0|2:0,2:0:0:0:
257,117,73436,38,0,L|265:38,1,79.0019975967408,2|0,2:0|1:0,2:0:0:0:
178,45,73793,2,0,L|170:124,1,79.0019975967408,2|8,2:0|2:0,2:0:0:0:
200,205,74151,22,0,L|208:284,1,78.5609975967408,2|0,2:0|1:0,2:0:0:0:
121,277,74508,2,0,L|113:198,1,78.5609975967408,2|8,2:0|2:0,2:0:0:0:
89,116,74865,22,0,L|97:37,1,78.5609975967408,2|0,2:0|1:2,2:0:0:0:
10,44,75222,2,0,L|2:123,1,79.0019975967408,2|8,2:0|2:0,2:0:0:0:
16,204,75579,1,2,2:0:0:0:
16,204,75758,54,0,B|3:312|3:312|39:356,1,157.562995193482,2|8,2:0|2:0,2:0:0:0:
81,286,76293,2,0,P|119:280|155:301,1,79.0019975967408,2|0,2:0|1:2,2:0:0:0:
184,374,76651,2,0,P|222:380|258:359,1,79.0019975967408,2|8,2:0|2:0,2:0:0:0:
256,248,77008,6,0,L|256:88,1,157.562995193482,6|8,2:0|2:3,2:0:0:0:
256,8,77543,1,10,2:0:0:0:
330,52,77722,2,0,P|378:52|418:28,2,78.7814975967408,10|0|0,2:3|1:0|1:0,2:0:0:0:
502,38,78436,1,0,2:0:0:0:
459,105,78615,38,0,B|454:181|454:181|452:186|452:186|447:276,1,157.562995193482,6|10,1:1|2:0,2:0:0:0:
490,331,79151,2,0,P|438:345|411:336,1,79.0019975967408,2|2,2:0|1:2,2:0:0:0:
370,264,79508,2,0,P|318:250|291:259,1,79.0019975967408,2|10,1:2|2:0,2:0:0:0:
245,327,79865,1,0,2:0:0:0:
245,327,80043,38,0,B|240:251|240:251|238:246|238:246|233:156,1,157.562995193482,2|10,1:2|2:0,2:0:0:0:
276,101,80579,2,0,P|224:87|197:96,1,79.0019975967408,2|2,2:0|1:2,2:0:0:0:
156,168,80936,2,0,P|104:182|77:173,1,79.0019975967408,2|10,1:2|2:0,2:0:0:0:
34,102,81293,1,0,2:0:0:0:
34,102,81472,38,0,B|39:178|39:178|41:183|41:183|46:273,1,157.562995193482,2|10,1:2|2:0,2:0:0:0:
3,328,82008,2,0,P|55:342|82:333,1,79.0019975967408,2|2,2:0|1:2,2:0:0:0:
123,261,82365,2,0,P|175:247|202:256,1,79.0019975967408,2|10,1:2|2:0,2:0:0:0:
254,307,82722,1,0,2:0:0:0:
343,221,82901,38,0,B|365:239|365:239|379:348|379:348|400:364,1,157.562995193482,2|10,1:2|2:0,2:0:0:0:
444,298,83436,2,0,B|459:286|459:286|473:177|473:177|495:159,1,157.562995193482,2|0,1:2|1:2,2:0:0:0:
502,86,83972,1,10,2:0:0:0:
305,50,84329,70,0,P|269:87|263:131,1,79.0019975967408,6|0,2:0|2:0,2:0:0:0:
338,116,84686,2,0,P|352:165|387:192,1,79.0019975967408,10|0,2:0|2:0,2:0:0:0:
449,178,85043,6,0,P|485:215|491:259,1,79.0019975967408,10|0,2:0|1:0,2:0:0:0:
416,244,85401,2,0,P|401:293|366:320,1,78.5609975967408,10|0,2:0|1:0,2:0:0:0:
339,250,85758,70,0,L|260:254,1,79.0019975967408,10|0,2:0|2:0,2:0:0:0:
307,327,86115,2,0,L|228:331,1,79.0019975967408,10|0,2:0|2:0,2:0:0:0:
186,262,86472,6,0,L|107:258,1,79.0019975967408,10|0,2:0|1:0,2:0:0:0:
154,185,86829,2,0,L|75:181,1,79.0019975967408,10|0,2:0|1:0,2:0:0:0:
19,120,87186,70,0,P|44:56|142:61,2,157.562995193482,6|10|10,2:0|2:0|2:0,2:0:0:0:
75,181,88079,1,0,1:0:0:0:
75,181,88258,1,10,2:0:0:0:
187,120,88436,6,0,B|232:104|278:120|245:145|296:160|348:144,1,157.562995193482,8|8,2:0|2:0,2:0:0:0:
444,87,88972,1,8,2:0:0:0:
444,87,89329,2,0,L|439:6,2,78.7814975967408,2|0|10,2:3|1:0|2:0,2:0:0:0:
495,256,90043,69,4,2:1:0:0:
495,256,90401,2,0,P|462:211|365:220,1,150.06,8|0,2:0|1:0,2:0:0:0:
315,269,90936,2,0,L|310:347,1,75.2099975967408,0|8,1:0|2:0,2:0:0:0:
238,314,91293,70,0,P|205:359|108:350,1,150.06,0|0,1:0|1:0,2:0:0:0:
41,384,91829,1,8,2:0:0:0:
41,384,92008,2,0,B|36:328|36:328|50:297|50:297|45:220,1,150.06,0|0,1:0|1:0,2:0:0:0:
75,160,92543,2,0,P|23:157|-3:169,1,75.24,8|0,2:0|2:0,2:0:0:0:
125,229,92901,21,0,1:0:0:0:
125,229,93258,2,0,P|155:182|109:84,1,150.06,8|0,2:0|1:0,2:0:0:0:
93,22,93793,2,0,P|145:19|171:31,1,75.24,0|8,1:0|2:0,2:0:0:0:
216,92,94151,2,0,B|272:87|272:87|303:101|303:101|380:96,1,150.06,0|0,1:0|1:0,2:0:0:0:
401,26,94686,1,8,2:0:0:0:
401,26,94865,2,0,B|433:56|433:56|441:175,1,150.06,0|0,1:0|1:0,2:0:0:0:
493,223,95401,1,8,2:0:0:0:
426,308,95579,1,8,2:3:0:0:
426,308,95668,1,8,2:3:0:0:
426,308,95758,38,0,B|392:333|342:324|370:306|313:293|271:309,1,150.06,4|8,2:0|2:0,2:0:0:0:
204,277,96293,1,0,1:0:0:0:
204,277,96383,1,0,1:0:0:0:
204,277,96472,2,0,L|207:358,2,75.03,0|0|8,1:0|1:0|2:0,2:0:0:0:
17,81,97186,22,0,B|51:56|101:65|73:83|130:96|172:80,1,150.06,0|8,1:2|2:0,2:0:0:0:
239,112,97722,1,0,1:0:0:0:
239,112,97811,1,0,1:0:0:0:
239,112,97901,2,0,L|236:31,2,74.82,0|0|8,1:0|1:0|2:0,2:0:0:0:
185,171,98436,1,0,1:0:0:0:
185,171,98526,1,0,1:0:0:0:
185,171,98615,1,4,2:0:0:0:
423,22,98972,70,0,P|387:41|371:78,1,75.24,10|0,2:0|1:0,2:0:0:0:
303,53,99329,2,0,P|301:93|325:126,1,75.24,10|0,2:0|1:0,2:0:0:0:
391,141,99686,1,10,2:0:0:0:
470,169,99865,1,0,1:2:0:0:
470,169,99954,1,0,1:0:0:0:
470,169,100043,22,0,P|391:178|322:225,1,150.06,4|0,2:0|2:0,2:0:0:0:
289,277,100579,1,0,1:0:0:0:
289,277,100668,1,0,1:0:0:0:
289,277,100758,2,0,L|296:359,2,75.03,8|0|0,2:0|1:0|1:0,2:0:0:0:
284,89,101472,37,4,2:0:0:0:
284,89,101651,2,0,P|313:81|350:85,2,56.2725021457673,0|0|0,2:0|1:0|2:0,2:0:0:0:
237,192,102186,2,0,B|242:122|207:161|206:67,1,112.545004291535,0|8,1:0|2:0,2:0:0:0:
248,16,102722,22,0,P|197:40|130:30,2,112.545004291535,0|0|0,2:0|2:0|2:0,2:0:0:0:
66,50,103793,1,0,2:0:0:0:
116,107,103972,2,0,L|110:183,1,56.4300021457673,8|0,2:0|2:0,2:0:0:0:
72,223,104329,70,0,P|123:199|190:209,1,112.545004291535,0|0,1:2|1:0,2:0:0:0:
250,198,104865,2,0,B|252:269|217:230|216:324,1,112.500004291535,0|0,2:0|2:0,2:0:0:0:
269,366,105401,1,8,2:0:0:0:
269,366,105579,6,0,B|366:358|366:358|388:371,1,112.545004291535,0|2,2:0|2:0,2:0:0:0:
432,304,106115,1,2,2:0:0:0:
432,304,106293,1,2,2:0:0:0:
382,142,106651,2,0,L|387:72,2,56.2725021457673,2|8|0,1:2|2:0|1:0,2:0:0:0:
440,223,107186,70,0,B|348:215|348:215|334:200,1,112.545004291535,4|0,2:0|1:0,2:0:0:0:
308,125,107722,2,0,P|278:140|258:170,1,56.4300021457673,0|0,2:0|1:0,2:0:0:0:
264,234,108079,2,0,P|231:228|204:205,1,56.4300021457673,0|8,2:0|2:0,2:0:0:0:
192,139,108436,6,0,L|201:14,1,112.545004291535,0|0,2:0|2:0,2:0:0:0:
122,36,108972,1,0,1:0:0:0:
122,36,109151,2,0,L|113:148,1,112.545004291535,2|2,2:0|2:0,2:0:0:0:
163,213,109686,1,8,2:0:0:0:
94,246,109865,1,0,2:0:0:0:
94,246,110043,70,0,P|141:285|204:277,1,112.545004291535,0|0,1:0|1:0,2:0:0:0:
246,223,110579,1,0,2:0:0:0:
246,223,110758,2,0,P|293:184|356:192,1,112.230004291535,0|8,1:0|2:0,2:0:0:0:
412,217,111293,1,0,2:0:0:0:
400,302,111472,5,0,1:0:0:0:
400,302,112008,69,8,2:0:0:0:
473,290,112186,1,0,1:0:0:0:
420,220,112365,2,0,L|432:101,1,112.545004291535,8|0,2:0|1:0,2:0:0:0:
429,95,112811,1,0,1:0:0:0:
426,85,112901,21,4,2:0:0:0:
439,17,113079,2,0,P|485:11|512:21,2,75.03,0|10|8,2:0|2:0|2:3,2:0:0:0:
364,38,113615,2,0,B|299:36|299:36|285:41|285:41|215:37,1,150.06,0|10,1:0|2:0,2:0:0:0:
149,76,114151,70,0,B|128:33|88:34|88:34|57:67|76:111,1,150.06,0|0,1:0|1:0,2:0:0:0:
136,154,114686,1,10,2:0:0:0:
136,154,114865,2,0,B|121:186|152:219|152:219|192:220|213:177,1,150.06,8|0,2:3|1:0,2:0:0:0:
249,113,115401,2,0,P|278:143|286:185,1,75.24,8|2,2:0|2:0,2:0:0:0:
238,324,115758,6,0,P|267:269|366:277,1,150.06,0|8,1:0|2:0,2:0:0:0:
423,380,116293,2,0,L|411:285,1,75.24,8|0,2:3|2:0,2:0:0:0:
354,187,116651,2,0,L|363:112,1,75.24,8|0,2:3|2:0,2:0:0:0:
479,63,117008,70,0,B|440:73|394:61|428:37|365:23|325:41,1,150.06,4|2,2:0|2:0,2:0:0:0:
285,97,117543,1,10,2:0:0:0:
176,37,117722,6,0,B|147:23|84:37|118:61|72:73|33:63,1,150.06,6|2,2:0|2:0,2:0:0:0:
20,137,118258,1,8,2:0:0:0:
10,222,118436,1,8,2:0:0:0:
10,222,118526,1,8,2:0:0:0:
10,222,118615,70,0,P|91:213|131:277,1,150.06,4|10,2:0|2:0,2:0:0:0:
122,338,119151,2,0,L|198:330,1,75.24,8|0,2:3|1:0,2:0:0:0:
208,255,119508,2,0,L|284:263,1,75.24,0|10,1:0|2:0,2:0:0:0:
355,303,119865,1,0,1:0:0:0:
355,303,120043,6,0,P|364:347|354:379,2,75.03,0|0|8,1:0|1:0|2:0,2:0:0:0:
299,192,120579,2,0,B|373:188|373:188|383:194|383:194|461:191,1,150.06,6|2,2:0|2:0,2:0:0:0:
499,137,121115,2,0,P|508:93|498:61,1,75.24,10|10,2:0|2:3,2:0:0:0:
428,29,121472,70,0,P|398:55|289:35,1,150.06,0|8,1:0|2:0,2:0:0:0:
176,22,122008,2,0,L|186:107,1,75.24,8|0,2:3|2:0,2:0:0:0:
295,144,122365,2,0,L|285:229,1,75.24,8|0,2:3|2:0,2:0:0:0:
280,333,122722,6,0,P|250:307|141:327,1,150.06,4|0,2:0|1:0,2:0:0:0:
99,382,123258,2,0,P|76:341|82:293,1,75.24,10|2,2:0|2:0,2:0:0:0:
117,248,123615,1,10,2:0:0:0:
117,248,123793,1,2,2:0:0:0:
53,190,123972,2,0,L|56:139,3,37.62,10|8|0|0,2:3|2:3|1:0|1:0,2:0:0:0:
41,124,124329,70,0,P|115:120|151:74,1,112.545004291535,4|0,2:0|1:0,2:0:0:0:
259,61,125043,2,0,P|285:130|340:150,1,112.545004291535,0|0,1:0|1:0,2:0:0:0:
387,249,125758,6,0,P|329:295|327:354,1,112.545004291535,0|0,1:0|1:0,2:0:0:0:
459,274,126472,2,0,P|447:200|397:169,1,112.545004291535,0|0,1:0|1:0,2:0:0:0:
414,103,127008,1,2,2:0:0:0:
414,103,127186,70,0,B|382:95|358:111|358:111|350:127|350:127|310:47|310:47|280:47|256:26|256:26|234:48|202:48|202:48|162:128|162:128|154:112|154:112|130:96|98:104,1,450.180017166138,0|0,1:0|1:0,2:0:0:0:
98,103,129151,6,0,L|107:227,1,112.545004291535,0|0,2:0|2:0,2:0:0:0:
59,275,129686,2,0,P|103:292|120:292,1,56.4300021457673,8|0,2:0|2:0,2:0:0:0:
186,199,130043,69,4,2:0:0:0:
186,199,130401,2,0,L|195:287,1,75.24,8|8,2:0|2:3,2:0:0:0:
277,297,130758,2,0,L|269:222,1,75.24,8|8,2:0|2:3,2:0:0:0:
245,146,131115,1,10,2:0:0:0:
220,349,131472,5,8,2:0:0:0:
277,297,131651,2,0,L|316:292,2,37.62,8|8|8,2:3|2:3|2:0,2:0:0:0:
193,273,132008,2,0,L|154:268,2,37.62,8|8|10,2:3|2:3|2:0,2:0:0:0:
269,222,132365,2,0,L|308:217,2,37.62,8|8|8,2:3|2:3|2:0,2:0:0:0:
186,199,132722,1,8,2:3:0:0:
186,199,132811,1,8,2:3:0:0:
186,199,132901,70,0,P|163:130|199:48,1,150.06,4|10,2:0|2:0,2:0:0:0:
269,36,133436,1,0,1:0:0:0:
269,36,133615,2,0,L|351:44,2,75.03,10|0|10,2:0|1:0|2:0,2:0:0:0:
116,21,134151,5,4,2:0:0:0:
116,21,134508,1,0,1:0:0:0:
65,86,134686,2,0,P|60:126|70:165,1,75.24,10|0,2:0|1:0,2:0:0:0:
119,221,135043,1,0,1:0:0:0:
119,221,135222,1,0,1:0:0:0:
177,167,135401,2,0,L|259:159,1,75.24,8|8,2:0|2:3,2:0:0:0:
265,168,135668,1,8,2:3:0:0:
277,177,135758,70,0,P|282:217|272:256,1,75.24,4|0,2:0|2:0,2:0:0:0:
256,336,136115,1,8,2:0:0:0:
256,336,136293,2,0,L|218:338,2,37.62,8|8|10,2:3|2:3|2:0,2:0:0:0:
335,301,136651,2,0,L|372:303,2,37.62,8|8|8,2:3|2:3|2:0,2:0:0:0:
444,256,137008,1,8,2:3:0:0:
444,256,137097,1,8,2:3:0:0:
444,256,137186,6,0,B|482:260|490:193|454:141|399:220|313:137|298:93|298:93|326:193|259:171|343:258|373:189,1,450.180017166138,4|2,2:0|2:3,2:0:0:0:
81,336,143615,6,0,B|42:284|91:237|91:237|160:248|151:322,1,225.090008583069,2|2,2:0|2:3,2:0:0:0:
256,352,149329,5,0,3:0:0:0:
256,272,149508,1,0,3:0:0:0:
256,272,149597,1,0,3:0:0:0:
256,272,149686,2,0,L|256:216,1,56.4300021457673,0|0,3:0|2:0,2:0:0:0:
306,147,150043,70,0,P|340:141|429:165,3,112.545004291535,2|2|2|2,2:0|2:0|2:0|2:0,2:0:0:0:
206,147,151472,6,0,P|172:141|83:165,2,112.545004291535,2|2|2,2:0|2:0|2:0,2:0:0:0:
206,147,152543,2,0,L|210:216,1,56.4300021457673,10|0,2:0|2:0,2:0:0:0:
216,296,152901,70,0,B|232:328|256:336|256:336|280:328|296:296,3,112.545004291535,2|2|2|2,2:0|2:0|2:0|2:0,2:0:0:0:
256,143,154329,6,0,L|256:15,2,112.545004291535,2|2|2,2:0|2:0|2:0,2:0:0:0:
312,200,155222,1,0,1:0:0:0:
312,200,155401,2,0,P|360:208|376:200,1,56.4300021457673,8|0,2:0|2:0,2:0:0:0:
485,122,155758,70,0,B|446:130|427:163|427:163|405:132|354:129,2,150.06,4|0|0,2:0|1:0|1:0,2:0:0:0:
494,199,156651,2,0,P|504:241|495:286,1,75.24,0|8,2:0|2:0,2:0:0:0:
461,340,157008,6,0,P|388:332|308:371,1,150.06,0|0,2:0|2:0,2:0:0:0:
318,273,157543,2,0,L|313:180,1,75.24,0|0,1:0|2:0,2:0:0:0:
256,136,157901,1,0,1:0:0:0:
256,136,158079,1,0,1:0:0:0:
198,198,158258,2,0,L|194:273,1,75.24,8|0,2:0|2:0,2:0:0:0:
97,372,158615,6,0,P|109:317|128:299,1,75.24,12|0,2:0|2:0,2:0:0:0:
37,243,158972,2,0,P|25:188|6:170,1,75.24,8|0,2:0|2:0,2:0:0:0:
133,127,159329,1,8,2:0:0:0:
133,127,159508,2,0,L|129:46,1,75.24,0|8,1:0|2:0,2:0:0:0:
256,80,159865,21,12,2:0:0:0:
256,80,160222,2,0,L|256:0,2,75.03,0|8|0,1:0|2:0|1:0,2:0:0:0:
256,152,160758,1,10,2:0:0:0:
256,224,160936,1,10,2:0:0:0:
256,296,161115,1,10,2:0:0:0:
256,368,161293,1,10,2:0:0:0:
256,368,161651,5,2,2:0:0:0:
326,325,161829,53,2,2:0:0:0:
406,344,162008,21,2,2:0:0:0:
484,319,162186,37,2,2:0:0:0:
511,240,162365,21,0,1:2:0:0:
436,154,162543,70,0,L|429:79,1,75.24,10|0,2:0|2:0,2:0:0:0:
475,25,162901,37,8,2:0:0:0:
351,84,163079,1,8,2:0:0:0:
351,84,163615,37,0,1:0:0:0:
296,144,163793,2,0,B|272:144|256:152|256:152|240:144|216:143,1,79.0019975967408,8|0,2:0|2:0,2:0:0:0:
161,84,164151,1,0,1:0:0:0:
161,84,164508,38,0,P|142:125|145:167,1,79.0019975967408,10|0,2:0|2:0,2:0:0:0:
84,255,164865,2,0,P|125:236|167:239,1,79.0019975967408,10|0,2:0|2:0,2:0:0:0:
256,284,165222,2,0,L|416:280,1,157.562995193482,10|8,2:0|2:3,2:0:0:0:
427,290,165668,1,8,2:3:0:0:
441,302,165758,54,0,P|464:258|440:152,1,157.562995193482,4|0,2:0|2:0,2:0:0:0:
213,25,166472,2,0,P|190:69|214:175,1,157.562995193482,4|0,2:0|2:0,2:0:0:0:
441,302,167186,70,0,L|359:296,1,79.0019975967408,10|0,2:0|2:0,2:0:0:0:
287,384,167543,2,0,P|295:340|284:297,1,79.0019975967408,10|0,2:0|1:0,2:0:0:0:
225,226,167901,2,0,L|143:232,1,79.0019975967408,10|0,2:0|1:0,2:0:0:0:
71,144,168258,2,0,P|79:188|68:231,1,79.0019975967408,10|0,2:0|1:0,2:0:0:0:
62,233,168526,1,0,1:0:0:0:
51,244,168615,37,0,1:0:0:0:
209,107,168972,1,10,2:0:0:0:
209,107,169151,54,0,L|201:28,1,79.0019975967408,2|0,2:0|2:0,2:0:0:0:
288,35,169508,2,0,L|296:114,1,79.0019975967408,2|8,2:0|2:0,2:0:0:0:
266,195,169865,22,0,L|258:274,1,79.0019975967408,2|0,2:0|1:0,2:0:0:0:
345,267,170222,2,0,L|353:188,1,79.0019975967408,2|8,2:0|2:0,2:0:0:0:
377,106,170579,54,0,L|369:27,1,79.0019975967408,2|0,2:0|1:2,2:0:0:0:
456,34,170936,2,0,L|464:113,1,79.0019975967408,2|8,2:0|2:0,2:0:0:0:
470,196,171293,1,2,2:0:0:0:
487,337,171472,22,0,B|396:311|428:374|327:338,1,157.562995193482,6|8,2:0|2:0,2:0:0:0:
251,235,172008,2,0,L|262:319,1,79.0019975967408,6|0,2:0|2:0,2:0:0:0:
151,366,172365,2,0,L|162:288,1,79.0019975967408,2|8,2:0|2:0,2:0:0:0:
242,155,172722,22,0,P|185:164|88:109,1,157.562995193482,6|0,2:0|1:0,2:0:0:0:
45,55,173258,1,10,2:0:0:0:
20,141,173436,1,10,2:0:0:0:
20,141,173526,1,8,2:0:0:0:
20,141,173615,2,0,L|28:224,1,79.0019975967408,8|8,2:0|1:2,2:0:0:0:
43,310,173972,2,0,L|46:357,3,39.5009987983704,0|0|8|8,1:3|1:3|2:3|2:3,2:0:0:0:
55,364,174329,38,0,P|8:377|-26:367,2,78.7814975967408,6|2|8,2:1|2:0|2:0,2:0:0:0:
128,317,174865,2,0,L|212:325,1,79.0019975967408,2|0,2:0|1:0,2:0:0:0:
271,382,175222,1,2,2:0:0:0:
296,299,175401,1,10,2:0:0:0:
296,299,175579,54,0,L|304:215,1,79.0019975967408,2|0,2:0|1:0,2:0:0:0:
361,156,175936,1,2,2:0:0:0:
274,146,176115,1,8,2:0:0:0:
274,146,176293,2,0,B|222:133|181:149|204:165|180:179|102:165,1,157.562995193482,2|2,2:0|2:0,2:0:0:0:
45,129,176829,1,8,2:0:0:0:
45,129,177008,1,2,2:0:0:0:
55,278,177186,6,0,P|45:226|65:192,2,78.7814975967408,6|8|8,2:0|2:0|2:0,2:0:0:0:
130,359,177722,2,0,B|207:354|207:354|212:350|212:350|315:343,1,157.562995193482,2|8,2:0|2:3,2:0:0:0:
297,344,178168,1,8,2:3:0:0:
308,343,178258,1,10,2:0:0:0:
432,370,178436,54,0,P|384:312|396:230,1,157.562995193482,6|10,2:0|2:3,2:0:0:0:
400,225,178883,1,8,2:3:0:0:
409,218,178972,1,8,2:0:0:0:
491,144,179151,2,0,B|413:139|413:139|408:135|408:135|305:128,1,157.562995193482,6|0,2:0|1:0,2:0:0:0:
242,120,179686,2,0,L|237:69,3,39.5009987983704,8|8|10|0,2:0|2:0|2:0|1:0,2:0:0:0:
242,69,180043,2,0,P|156:52|105:132,1,157.562995193482,6|10,2:0|2:0,2:0:0:0:
63,172,180579,38,0,L|55:251,1,79.0019975967408,2|0,2:0|1:0,2:0:0:0:
142,244,180936,2,0,L|150:165,1,79.0019975967408,2|8,2:0|2:0,2:0:0:0:
231,213,181293,54,0,L|223:292,1,79.0019975967408,2|0,2:0|1:0,2:0:0:0:
310,285,181651,2,0,L|318:206,1,78.5609975967408,2|8,2:0|2:0,2:0:0:0:
397,257,182008,38,0,L|389:336,1,79.0019975967408,2|0,2:0|1:2,2:0:0:0:
476,329,182365,2,0,L|484:250,1,79.0019975967408,2|8,2:0|2:0,2:0:0:0:
494,167,182722,1,2,2:0:0:0:
494,167,182901,54,0,B|508:47|508:47|501:65|475:78,1,157.562995193482,2|8,2:0|2:0,2:0:0:0:
419,132,183436,2,0,P|373:138|347:109,1,79.0019975967408,2|0,2:0|1:2,2:0:0:0:
325,35,183793,2,0,P|279:29|253:58,1,79.0019975967408,2|8,2:0|2:0,2:0:0:0:
256,136,184151,54,0,L|256:296,1,157.562995193482,6|8,2:0|2:3,2:0:0:0:
256,376,184686,1,10,2:0:0:0:
182,332,184865,2,0,P|134:332|94:356,2,78.7814975967408,10|0|0,2:3|1:0|1:0,2:0:0:0:
10,346,185579,1,0,2:0:0:0:
53,279,185758,38,0,P|58:215|54:110,1,157.562995193482,6|10,1:1|2:0,2:0:0:0:
17,43,186293,2,0,P|81:38|105:50,1,79.0019975967408,2|2,2:0|1:2,2:0:0:0:
136,116,186651,2,0,P|200:121|224:109,1,79.0019975967408,2|10,1:2|2:0,2:0:0:0:
259,44,187008,1,0,2:0:0:0:
259,44,187186,38,0,P|254:108|258:213,1,157.562995193482,2|10,1:2|2:0,2:0:0:0:
221,277,187722,2,0,P|285:282|309:270,1,78.5609975967408,2|2,2:0|1:2,2:0:0:0:
340,204,188079,2,0,P|404:199|428:211,1,79.0019975967408,2|10,1:2|2:0,2:0:0:0:
459,284,188436,1,0,2:0:0:0:
459,284,188615,38,0,P|464:220|460:115,1,157.562995193482,2|10,1:2|2:0,2:0:0:0:
497,51,189151,2,0,P|433:46|409:58,1,78.5609975967408,2|2,2:0|1:2,2:0:0:0:
378,124,189508,2,0,P|314:129|290:117,1,79.0019975967408,2|10,1:2|2:0,2:0:0:0:
259,44,189865,1,0,2:0:0:0:
169,163,190043,38,0,B|147:145|147:145|133:36|133:36|112:20,1,157.562995193482,2|10,1:2|2:0,2:0:0:0:
68,86,190579,2,0,B|53:98|53:98|39:207|39:207|17:225,1,157.121995193482,2|0,1:2|1:2,2:0:0:0:
10,298,191115,1,10,2:0:0:0:
191,364,191472,22,0,L|276:358,1,79.0019975967408,6|0,2:0|2:0,2:0:0:0:
221,286,191829,2,0,L|306:280,1,79.0019975967408,10|0,2:0|2:0,2:0:0:0:
362,340,192186,6,0,L|447:334,1,79.0019975967408,10|0,2:0|1:0,2:0:0:0:
392,262,192543,2,0,L|477:256,1,79.0019975967408,10|0,2:0|1:0,2:0:0:0:
507,177,192901,70,0,P|492:127|457:100,1,79.0019975967408,10|0,2:0|2:0,2:0:0:0:
433,172,193258,2,0,P|383:159|342:176,1,79.0019975967408,10|0,2:0|2:0,2:0:0:0:
324,237,193615,6,0,P|273:249|232:232,1,79.0019975967408,10|0,2:0|1:0,2:0:0:0:
283,176,193972,2,0,P|248:138|242:94,1,79.0019975967408,10|0,2:0|1:0,2:0:0:0:
297,46,194329,70,0,B|376:41|376:41|387:46|387:46|480:43,2,157.562995193482,6|10|10,2:0|2:0|2:0,2:0:0:0:
241,112,195222,1,0,1:0:0:0:
241,112,195401,1,10,2:0:0:0:
122,40,195579,6,0,L|130:206,1,157.562995193482,8|8,2:0|2:0,2:0:0:0:
134,283,196115,1,8,2:0:0:0:
134,283,196293,1,0,1:0:0:0:
59,238,196472,70,0,P|32:228|7:230,2,39.5009987983704,10|8|0,2:3|2:3|1:0,2:0:0:0:
59,324,196829,2,0,P|36:342|26:365,2,39.5009987983704,10|8|2,2:3|2:3|2:0,2:0:0:0:
203,234,197186,54,0,B|250:227|286:245|247:266|302:285|356:278,1,150.06,4|8,2:1|2:0,2:0:0:0:
413,299,197722,2,0,P|413:261|396:229,1,75.24,2|0,2:0|1:0,2:0:0:0:
325,204,198079,2,0,L|331:113,2,75.03,2|8|2,2:0|2:0|2:0,2:0:0:0:
403,145,198615,38,0,P|382:73|291:61,1,150.06,0|8,1:0|2:0,2:0:0:0:
242,104,199151,1,2,2:0:0:0:
242,104,199329,2,0,L|237:29,2,75.03,0|2|8,1:2|2:0|2:0,2:0:0:0:
473,188,200043,54,0,P|449:239|439:349,1,150.06,0|8,1:0|2:0,2:0:0:0:
501,377,200579,1,2,2:0:0:0:
432,344,200758,1,0,1:0:0:0:
363,374,200936,1,2,2:0:0:0:
363,374,201115,2,0,P|304:363|293:331,1,75.24,8|2,2:0|2:0,2:0:0:0:
256,268,201472,6,0,L|256:220,3,37.62,0|0|2|0,1:0|2:0|2:0|2:0,2:0:0:0:
268,216,201829,2,0,L|260:160,3,37.62,8|0|2|0,2:0|2:0|2:0|2:0,2:0:0:0:
256,160,202186,2,0,L|264:104,3,37.62,0|0|2|0,1:2|2:0|2:0|2:0,2:0:0:0:
256,104,202543,2,0,L|256:56,3,37.62,8|0|8|8,2:0|2:0|2:3|2:3,2:0:0:0:
244,52,202901,54,0,B|205:32|154:45|183:68|139:91|79:70,1,150.06,4|8,2:0|2:0,2:0:0:0:
42,29,203436,2,0,P|28:63|35:110,1,75.24,2|0,2:0|1:0,2:0:0:0:
98,155,203793,2,0,L|88:242,1,75.24,2|8,2:0|2:0,2:0:0:0:
25,266,204151,1,2,2:0:0:0:
25,266,204329,38,0,P|92:252|175:284,1,150.06,0|8,1:0|2:0,2:0:0:0:
207,345,204865,2,0,B|193:304|219:274|219:274|262:274|280:315,1,150.06,2|2,2:0|2:0,2:0:0:0:
268,384,205401,1,8,2:0:0:0:
185,200,205758,54,0,L|199:40,1,150.06,4|8,2:0|2:0,2:0:0:0:
268,131,206293,2,0,B|316:106|374:147|374:147|396:139|392:109,1,150.06,6|2,2:0|2:0,2:0:0:0:
361,48,206829,1,8,2:0:0:0:
463,144,207008,6,0,P|452:218|452:298,1,150.06,6|2,2:0|2:0,2:0:0:0:
460,309,207454,1,0,2:0:0:0:
469,324,207543,1,8,2:0:0:0:
372,290,207722,1,2,2:0:0:0:
358,301,207811,1,0,2:0:0:0:
343,313,207901,2,0,L|281:305,3,37.62,0|0|10|8,1:2|2:0|2:0|2:0,2:0:0:0:
290,318,208258,2,0,L|228:310,3,37.62,8|8|8|8,2:0|2:0|1:2|1:2,2:0:0:0:
235,302,208615,54,0,P|218:348|226:387,2,78.7814975967408,6|2|8,2:1|2:0|2:0,2:0:0:0:
288,230,209151,2,0,L|282:147,1,79.0019975967408,2|0,2:0|1:0,2:0:0:0:
277,64,209508,1,2,2:0:0:0:
209,118,209686,1,10,2:0:0:0:
209,118,209865,38,0,L|126:124,1,79.0019975967408,2|0,2:0|1:0,2:0:0:0:
43,129,210222,1,2,2:0:0:0:
93,206,210401,1,8,2:0:0:0:
93,206,210579,2,0,L|260:194,1,157.562995193482,2|2,2:0|2:0,2:0:0:0:
318,248,211115,1,8,2:0:0:0:
318,248,211293,1,2,2:0:0:0:
346,98,211472,54,0,P|324:149|328:188,2,78.7814975967408,6|8|8,2:0|2:0|2:0,2:0:0:0:
262,21,212008,2,0,L|419:32,1,157.562995193482,2|8,2:0|2:3,2:0:0:0:
426,41,212454,1,8,2:3:0:0:
433,49,212543,1,10,2:0:0:0:
493,141,212722,6,0,P|434:144|371:227,1,157.562995193482,6|10,2:0|2:3,2:0:0:0:
374,226,213168,1,8,2:3:0:0:
375,237,213258,1,8,2:0:0:0:
458,340,213436,2,0,P|409:320|305:333,1,157.562995193482,6|0,2:0|1:0,2:0:0:0:
236,377,213972,1,8,2:3:0:0:
236,377,214061,1,8,2:3:0:0:
236,377,214151,1,10,2:3:0:0:
130,302,214329,54,0,L|136:227,1,75.24,6|2,2:0|2:0,2:0:0:0:
104,158,214686,2,0,B|74:111|95:51|95:51|103:69|137:93,1,150.06,10|0,2:0|1:0,2:0:0:0:
162,16,215222,1,2,2:0:0:0:
202,83,215401,1,8,2:0:0:0:
202,83,215579,38,0,B|256:75|285:91|264:105|293:122|365:111,1,150.06,2|2,2:0|2:0,2:0:0:0:
409,62,216115,1,8,2:0:0:0:
409,62,216293,2,0,P|386:99|363:213,1,150.06,2|2,2:0|2:0,2:0:0:0:
409,268,216829,2,0,L|504:259,1,75.24,8|2,2:0|2:0,2:0:0:0:
374,349,217186,54,0,P|336:326|275:319,1,75.24,2|2,2:0|2:0,2:0:0:0:
234,360,217543,2,0,L|181:355,3,37.62,8|0|2|0,2:0|2:0|2:0|2:0,2:0:0:0:
184,342,217901,2,0,L|131:337,3,37.62,0|0|2|0,1:0|2:0|2:0|2:0,2:0:0:0:
133,325,218258,2,0,P|121:300|124:285,3,37.62,8|0|2|0,2:0|2:0|2:0|2:0,2:0:0:0:
129,273,218615,6,0,L|37:262,2,75.03,4|8|10,2:0|2:0|2:0,2:0:0:0:
198,223,219151,2,0,L|210:182,2,37.62,10|8|8,2:3|2:3|2:0,2:0:0:0:
206,304,219508,2,0,L|218:345,2,37.62,8|8|0,2:3|2:3|1:0,2:0:0:0:
375,220,220043,54,0,B|382:260|443:278|443:278|456:207|418:182|418:182|464:197|512:136|512:136|448:101|410:130|410:130|441:90|396:26|396:26|343:77|360:120|360:120|332:80|257:102|257:102|289:167|334:166|334:166|288:181|285:259|285:259|362:249|372:201|372:201,1,1079.99996704102,4|2,2:1|2:3,2:0:0:0:
