osu file format v14

[General]
AudioFilename: audio.mp3
AudioLeadIn: 0
PreviewTime: 162543
Countdown: 0
SampleSet: Soft
StackLeniency: 0.3
Mode: 0
LetterboxInBreaks: 0
WidescreenStoryboard: 0

[Editor]
Bookmarks: 138615
DistanceSpacing: 1.2
BeatDivisor: 4
GridSize: 8
TimelineZoom: 2.3

[Metadata]
Title:Sakurakaze
TitleUnicode:サクラカゼ
Artist:Sakura Miko
ArtistUnicode:さくらみこ
Creator:-Atri-
Version:Blossom
Source:
Tags:Firis Mistlud KuranteMelodii krt Sakura Kaze ハム hamu hololive ホロライブ virtual youtuber vtuber Japanese pop
BeatmapID:2450931
BeatmapSetID:1175049

[Difficulty]
HPDrainRate:6
CircleSize:5
OverallDifficulty:9
ApproachRate:9.2
SliderMultiplier:2
SliderTickRate:0.5

[Events]
//Background and Video events
Video,-51,"sakurakaze.mp4"
0,0,"sakurakaze.jpg",0,0
//Break Periods
2,138814,143015
2,144529,148729
//Storyboard Layer 0 (Background)
//Storyboard Layer 1 (Fail)
//Storyboard Layer 2 (Pass)
//Storyboard Layer 3 (Foreground)
//Storyboard Layer 4 (Overlay)
//Storyboard Sound Samples

[TimingPoints]
44,357.142857142857,4,2,2,25,1,0
1115,-200,4,2,1,25,0,0
1472,-200,4,2,1,35,0,0
9329,-200,4,2,1,80,0,0
10043,-153.846153846154,4,2,1,80,0,0
10133,-153.846153846154,4,2,1,50,0,0
10757,-153.846153846154,4,2,2,50,0,0
11472,-153.846153846154,4,2,2,80,0,0
11561,-153.846153846154,4,2,1,50,0,0
12186,-153.846153846154,4,2,2,50,0,0
12901,-153.846153846154,4,2,2,80,0,0
12990,-153.846153846154,4,2,1,50,0,0
13615,-153.846153846154,4,2,2,80,0,0
13704,-153.846153846154,4,2,1,50,0,0
14329,-153.846153846154,4,2,2,80,0,0
14418,-153.846153846154,4,2,1,50,0,0
14686,-153.846153846154,4,2,2,50,0,0
14999,-153.846153846154,4,2,1,50,0,0
15043,-153.846153846154,4,2,2,50,0,0
15221,-153.846153846154,4,2,1,50,0,0
15758,-100,4,2,2,80,0,0
15847,-100,4,2,1,60,0,0
16115,-100,4,2,2,60,0,0
17365,-100,4,2,1,60,0,0
17901,-100,4,2,2,60,0,0
18080,-100,4,2,1,60,0,0
18615,-100,4,2,1,80,0,0
18972,-100,4,2,1,70,0,0
19061,-100,4,2,1,5,0,0
19151,-100,4,2,1,70,0,0
19240,-100,4,2,1,5,0,0
19329,-66.6666666666667,4,2,1,70,0,0
19418,-66.6666666666667,4,2,1,5,0,0
19508,-66.6666666666667,4,2,1,70,0,0
19597,-66.6666666666667,4,2,1,5,0,0
19686,-55.5555555555556,4,2,1,70,0,0
19776,-55.5555555555556,4,2,1,5,0,0
19865,-55.5555555555556,4,2,1,70,0,0
19954,-55.5555555555556,4,2,1,5,0,0
20043,-200,4,2,1,70,0,0
21472,-200,4,2,2,80,0,0
21651,-200,4,2,2,50,0,0
21829,-200,4,2,1,50,0,0
26115,-200,4,2,2,50,0,0
26293,-200,4,2,1,50,0,0
27008,-200,4,2,2,50,0,0
27186,-200,4,2,1,50,0,0
31293,-200,4,2,2,50,0,0
31472,-200,4,2,1,50,0,0
32365,-133.333333333333,4,2,2,50,0,0
32722,-133.333333333333,4,2,1,50,0,0
32901,-100,4,2,2,80,0,0
32990,-100,4,2,1,60,0,0
33258,-100,4,2,2,60,0,0
33436,-100,4,2,1,60,0,0
33972,-100,4,2,2,60,0,0
34151,-100,4,2,1,60,0,0
34686,-100,4,2,2,60,0,0
34865,-100,4,2,1,60,0,0
35401,-100,4,2,2,60,0,0
35758,-100,4,2,1,60,0,0
36115,-100,4,2,2,60,0,0
36293,-100,4,2,1,60,0,0
37008,-100,4,2,1,80,0,0
37097,-100,4,2,1,60,0,0
37722,-100,4,2,1,80,0,0
37811,-100,4,2,1,60,0,0
38615,-100,4,2,1,80,0,0
38704,-100,4,2,1,60,0,0
38972,-100,4,2,2,60,0,0
39151,-100,4,2,1,60,0,0
39686,-100,4,2,2,60,0,0
39865,-100,4,2,1,60,0,0
40401,-100,4,2,2,60,0,0
40579,-100,4,2,2,80,0,0
40668,-100,4,2,1,60,0,0
41115,-100,4,2,2,60,0,0
41293,-100,4,2,1,60,0,0
41829,-100,4,2,2,60,0,0
42008,-100,4,2,1,60,0,0
42722,-100,4,2,1,80,0,0
42811,-100,4,2,1,60,0,0
43972,-133.333333333333,4,2,3,60,0,0
44150,-133.333333333333,4,2,1,60,0,0
44329,-133.333333333333,4,2,3,80,0,0
44418,-133.333333333333,4,2,1,50,0,0
45401,-133.333333333333,4,2,3,50,0,0
45758,-133.333333333333,4,2,1,50,0,0
46829,-133.333333333333,4,2,2,50,0,0
47186,-133.333333333333,4,2,1,50,0,0
48258,-133.333333333333,4,2,2,50,0,0
48615,-133.333333333333,4,2,1,50,0,0
49686,-133.333333333333,4,2,2,50,0,0
50043,-100,4,2,2,80,0,0
50133,-100,4,2,1,60,0,0
50401,-100,4,2,2,60,0,0
50758,-100,4,2,1,60,0,0
51114,-100,4,2,2,60,0,0
51293,-100,4,2,1,60,0,0
51829,-100,4,2,2,60,0,0
52186,-100,4,2,1,60,0,0
52543,-100,4,2,2,60,0,0
52901,-100,4,2,2,80,0,0
53079,-100,4,2,1,60,0,0
53258,-100,4,2,2,60,0,0
53436,-100,4,2,1,60,0,0
53615,-100,4,2,2,60,0,0
53793,-100,4,2,1,60,0,0
53972,-100,4,2,2,60,0,0
55043,-200,4,2,4,80,0,0
55088,-200,4,2,4,5,0,0
55222,-200,4,2,1,60,0,0
55401,-200,4,2,4,60,0,0
55758,-83.3333333333333,4,2,2,80,0,1
56293,-83.3333333333333,4,2,3,80,0,1
56471,-83.3333333333333,4,2,1,80,0,1
56651,-83.3333333333333,4,2,2,80,0,1
56829,-83.3333333333333,4,2,1,80,0,1
57008,-83.3333333333333,4,2,3,80,0,1
58079,-83.3333333333333,4,2,2,80,0,1
58615,-83.3333333333333,4,2,1,80,0,1
58793,-83.3333333333333,4,2,2,80,0,1
59151,-83.3333333333333,4,2,3,80,0,1
59329,-83.3333333333333,4,2,1,80,0,1
59508,-83.3333333333333,4,2,2,80,0,1
59686,-83.3333333333333,4,2,1,80,0,1
59865,-83.3333333333333,4,2,3,80,0,1
60936,-83.3333333333333,4,2,2,80,0,1
61293,-83.3333333333333,4,2,3,80,0,1
61383,-83.3333333333333,4,2,1,80,0,1
61650,-83.3333333333333,4,2,2,80,0,1
61829,-83.3333333333333,4,2,1,80,0,1
62008,-83.3333333333333,4,2,3,80,0,1
62722,-100,4,2,3,80,0,1
62900,-100,4,2,1,80,0,1
63079,-100,4,2,3,80,0,1
63436,-125,4,2,3,80,0,1
63614,-125,4,2,1,80,0,1
63793,-125,4,2,3,80,0,1
64329,-66.6666666666667,4,2,1,80,0,1
64865,-83.3333333333333,4,2,3,80,0,1
65579,-83.3333333333333,4,2,1,80,0,1
66829,-83.3333333333333,4,2,1,80,0,0
67186,-83.3333333333333,4,2,2,80,0,1
67722,-83.3333333333333,4,2,3,80,0,1
67900,-83.3333333333333,4,2,1,80,0,1
68079,-83.3333333333333,4,2,2,80,0,1
68258,-83.3333333333333,4,2,1,80,0,1
68436,-83.3333333333333,4,2,3,80,0,1
69508,-83.3333333333333,4,2,2,80,0,1
70043,-66.6666666666667,4,2,1,80,0,1
70401,-100,4,2,1,80,0,1
70579,-100,4,2,3,80,0,1
71115,-100,4,2,1,80,0,1
71293,-83.3333333333333,4,2,1,80,0,1
71650,-83.3333333333333,4,2,3,80,0,1
71830,-100,4,2,3,80,0,1
72008,-83.3333333333333,4,2,1,80,0,1
72721,-83.3333333333333,4,2,3,80,0,1
72810,-83.3333333333333,4,2,1,80,0,1
73436,-83.3333333333333,4,2,3,80,0,1
73614,-83.3333333333333,4,2,1,80,0,1
73793,-83.3333333333333,4,2,3,80,0,1
74151,-100,4,2,3,80,0,1
74329,-100,4,2,1,80,0,1
74508,-100,4,2,3,80,0,1
74865,-125,4,2,3,80,0,1
75758,-100,4,2,1,80,0,1
76115,-100,4,2,2,80,0,1
76293,-100,4,2,3,80,0,1
76471,-100,4,2,1,80,0,1
76651,-100,4,2,3,80,0,1
77008,-83.3333333333333,4,2,1,80,0,1
77722,-83.3333333333333,4,2,3,80,0,1
77900,-83.3333333333333,4,2,1,80,0,1
78079,-133.333333333333,4,2,1,80,0,0
78615,-83.3333333333333,4,2,2,80,0,1
78972,-83.3333333333333,4,2,3,80,0,1
79151,-83.3333333333333,4,2,1,80,0,1
79329,-83.3333333333333,4,2,2,80,0,1
79508,-83.3333333333333,4,2,1,80,0,1
79686,-83.3333333333333,4,2,2,80,0,1
80043,-83.3333333333333,4,2,1,80,0,1
80401,-83.3333333333333,4,2,3,80,0,1
80579,-83.3333333333333,4,2,1,80,0,1
80758,-83.3333333333333,4,2,2,80,0,1
80936,-83.3333333333333,4,2,1,80,0,1
81114,-83.3333333333333,4,2,2,80,0,1
81472,-83.3333333333333,4,2,1,80,0,1
81830,-83.3333333333333,4,2,3,80,0,1
82008,-83.3333333333333,4,2,1,80,0,1
82186,-83.3333333333333,4,2,2,80,0,1
82365,-83.3333333333333,4,2,1,80,0,1
82543,-83.3333333333333,4,2,2,80,0,1
82901,-83.3333333333333,4,2,1,80,0,1
83258,-83.3333333333333,4,2,2,80,0,1
83436,-83.3333333333333,4,2,1,80,0,1
83972,-133.333333333333,4,2,2,80,0,1
84150,-133.333333333333,4,2,1,80,0,1
87186,-83.3333333333333,4,2,1,80,0,1
87543,-83.3333333333333,4,2,2,80,0,1
87722,-83.3333333333333,4,2,1,80,0,1
87901,-83.3333333333333,4,2,3,80,0,1
88079,-83.3333333333333,4,2,1,80,0,1
88258,-83.3333333333333,4,2,2,80,0,1
88436,-66.6666666666667,4,2,2,80,0,1
89329,-200,4,2,5,80,0,1
89374,-200,4,2,5,5,0,1
89508,-200,4,2,1,80,0,1
90043,-200,4,2,2,80,0,0
90133,-200,4,2,1,70,0,0
90401,-100,4,2,2,70,0,0
90758,-100,4,2,1,70,0,0
91115,-100,4,2,2,70,0,0
91293,-100,4,2,1,70,0,0
91829,-100,4,2,2,70,0,0
92008,-100,4,2,1,70,0,0
92543,-100,4,2,2,70,0,0
92901,-200,4,2,1,70,0,0
93258,-100,4,2,2,70,0,0
93615,-100,4,2,1,70,0,0
93972,-100,4,2,2,70,0,0
94151,-100,4,2,1,70,0,0
94686,-100,4,2,2,70,0,0
94865,-100,4,2,1,70,0,0
95400,-100,4,2,2,70,0,0
95579,-100,4,2,1,70,0,0
95758,-100,4,2,1,80,0,0
95847,-100,4,2,1,70,0,0
98615,-100,4,2,1,80,0,0
98704,-100,4,2,1,70,0,0
98972,-100,4,2,2,70,0,0
99151,-100,4,2,1,70,0,0
99329,-100,4,2,2,70,0,0
99508,-100,4,2,1,70,0,0
99686,-100,4,2,2,70,0,0
99865,-100,4,2,1,70,0,0
100043,-200,4,2,2,70,0,0
100578,-200,4,2,1,70,0,0
100758,-200,4,2,2,70,0,0
100936,-200,4,2,1,70,0,0
101472,-200,4,2,2,80,0,0
101651,-200,4,2,2,50,0,0
101829,-200,4,2,1,50,0,0
102543,-200,4,2,2,50,0,0
102900,-200,4,2,1,50,0,0
103972,-200,4,2,2,50,0,0
104329,-200,4,2,1,50,0,0
105401,-200,4,2,2,50,0,0
105757,-200,4,2,1,50,0,0
107186,-200,4,2,1,80,0,0
107276,-200,4,2,1,50,0,0
112901,-100,4,2,1,80,0,0
112990,-100,4,2,1,60,0,0
113258,-100,4,2,2,60,0,0
113436,-100,4,2,1,60,0,0
113972,-100,4,2,2,60,0,0
114151,-100,4,2,1,60,0,0
114686,-100,4,2,2,60,0,0
114865,-100,4,2,1,60,0,0
115579,-100,4,2,2,60,0,0
115758,-100,4,2,1,60,0,0
116115,-100,4,2,2,60,0,0
116293,-100,4,2,1,60,0,0
117008,-100,4,2,1,80,0,0
117097,-100,4,2,1,60,0,0
117722,-100,4,2,1,80,0,0
117811,-100,4,2,1,60,0,0
118615,-100,4,2,1,80,0,0
118704,-100,4,2,1,60,0,0
118972,-100,4,2,2,60,0,0
119151,-100,4,2,1,60,0,0
119686,-100,4,2,2,60,0,0
119865,-100,4,2,1,60,0,0
120401,-100,4,2,2,60,0,0
120579,-100,4,2,1,80,0,0
120668,-100,4,2,1,60,0,0
121293,-100,4,2,3,60,0,0
121472,-100,4,2,1,60,0,0
121829,-100,4,2,3,60,0,0
122722,-100,4,2,3,80,0,0
122811,-100,4,2,1,60,0,0
123972,-100,4,2,3,60,0,0
124150,-100,4,2,1,60,0,0
124329,-133.333333333333,4,2,3,80,0,0
124418,-133.333333333333,4,2,1,50,0,0
127008,-133.333333333333,4,2,2,50,0,0
127186,-133.333333333333,4,2,1,50,0,0
129686,-133.333333333333,4,2,2,50,0,0
130043,-133.333333333333,4,2,2,80,0,0
130133,-133.333333333333,4,2,1,60,0,0
130401,-133.333333333333,4,2,2,60,0,0
130579,-133.333333333333,4,2,1,60,0,0
131114,-133.333333333333,4,2,2,60,0,0
131293,-133.333333333333,4,2,1,60,0,0
132187,-133.333333333333,4,2,2,60,0,0
132365,-133.333333333333,4,2,1,60,0,0
132901,-133.333333333333,4,2,1,80,0,0
133258,-133.333333333333,4,2,2,60,0,0
133436,-133.333333333333,4,2,1,60,0,0
133615,-133.333333333333,4,2,2,60,0,0
133793,-133.333333333333,4,2,1,60,0,0
133972,-133.333333333333,4,2,2,60,0,0
134151,-133.333333333333,4,2,2,80,0,0
134508,-133.333333333333,4,2,1,60,0,0
134686,-133.333333333333,4,2,2,60,0,0
134864,-133.333333333333,4,2,1,60,0,0
135401,-133.333333333333,4,2,2,60,0,0
135579,-133.333333333333,4,2,1,60,0,0
135758,-100,4,2,1,80,0,0
135847,-100,4,2,1,60,0,0
136472,-100,4,2,2,60,0,0
136651,-100,4,2,1,60,0,0
137186,-133.333333333333,4,2,1,80,0,0
137276,-133.333333333333,4,2,1,60,0,0
138614,-133.333333333333,4,2,4,60,0,0
143615,-133.333333333333,4,2,1,40,0,0
144329,-133.333333333333,4,2,4,60,0,0
149329,-133.333333333333,4,2,4,40,0,0
149686,-200,4,2,4,40,0,0
150043,-200,4,2,2,40,0,0
155222,-200,4,2,1,40,0,0
155401,-200,4,2,2,40,0,0
155758,-133.333333333333,4,2,2,80,0,0
155847,-133.333333333333,4,2,1,50,0,0
156829,-133.333333333333,4,2,2,50,0,0
157543,-133.333333333333,4,2,1,50,0,0
158258,-133.333333333333,4,2,2,50,0,0
158615,-133.333333333333,4,2,2,80,0,0
158793,-133.333333333333,4,2,2,60,0,0
159507,-133.333333333333,4,2,1,60,0,0
159686,-133.333333333333,4,2,2,60,0,0
159865,-133.333333333333,4,2,2,80,0,0
159954,-133.333333333333,4,2,1,60,0,0
160222,-400,4,2,1,60,0,0
160311,-400,4,2,1,5,0,0
160401,-200,4,2,2,64,0,0
160490,-200,4,2,2,5,0,0
160579,-117.647058823529,4,2,1,68,0,0
160668,-117.647058823529,4,2,1,5,0,0
160758,-71.4285714285714,4,2,2,72,0,0
160847,-71.4285714285714,4,2,2,5,0,0
160936,-47.6190476190476,4,2,2,76,0,0
161026,-47.6190476190476,4,2,2,5,0,0
161115,-34.4827586206897,4,2,2,80,0,0
161204,-34.4827586206897,4,2,2,5,0,0
161293,-200,4,2,2,84,0,0
161471,-200,4,2,1,50,0,0
162365,-400,4,2,1,50,0,0
162543,-66.6666666666667,4,2,4,50,0,0
162901,-66.6666666666667,4,2,4,80,0,1
163079,-66.6666666666667,4,2,4,80,0,0
163615,-66.6666666666667,4,2,1,80,0,0
163793,-100,4,2,4,80,0,0
164151,-166.666666666667,4,2,1,80,0,0
164508,-83.3333333333333,4,2,2,80,0,1
165222,-133.333333333333,4,2,2,80,0,1
165579,-133.333333333333,4,2,1,80,0,0
165758,-133.333333333333,4,2,1,80,0,1
166472,-100,4,2,1,80,0,1
167008,-100,4,2,1,80,0,0
167186,-100,4,2,2,80,0,1
167722,-100,4,2,1,80,0,1
167901,-100,4,2,2,80,0,1
168079,-100,4,2,1,80,0,1
168258,-100,4,2,2,80,0,1
168436,-100,4,2,1,80,0,1
168615,-133.333333333333,4,2,1,80,0,0
168972,-133.333333333333,4,2,1,80,0,1
169151,-83.3333333333333,4,2,3,80,0,1
169865,-100,4,2,3,80,0,1
170043,-100,4,2,1,80,0,1
170222,-100,4,2,3,80,0,1
170579,-125,4,2,3,80,0,1
170757,-125,4,2,1,80,0,1
170936,-125,4,2,3,80,0,1
171472,-66.6666666666667,4,2,1,80,0,1
172008,-83.3333333333333,4,2,3,80,0,1
172722,-83.3333333333333,4,2,1,80,0,1
173972,-83.3333333333333,4,2,1,80,0,0
174329,-83.3333333333333,4,2,2,80,0,1
174865,-83.3333333333333,4,2,3,80,0,1
175043,-83.3333333333333,4,2,1,80,0,1
175222,-83.3333333333333,4,2,2,80,0,1
175401,-83.3333333333333,4,2,1,80,0,1
175579,-83.3333333333333,4,2,3,80,0,1
176650,-83.3333333333333,4,2,2,80,0,1
177186,-66.6666666666667,4,2,1,80,0,1
177544,-100,4,2,1,80,0,1
177722,-100,4,2,3,80,0,1
178257,-100,4,2,1,80,0,1
178436,-83.3333333333333,4,2,1,80,0,1
178793,-83.3333333333333,4,2,3,80,0,1
178972,-100,4,2,3,80,0,1
179151,-83.3333333333333,4,2,1,80,0,1
179864,-83.3333333333333,4,2,3,80,0,1
179953,-83.3333333333333,4,2,1,80,0,1
180579,-83.3333333333333,4,2,3,80,0,1
180757,-83.3333333333333,4,2,1,80,0,1
180936,-83.3333333333333,4,2,3,80,0,1
181293,-100,4,2,3,80,0,1
181471,-100,4,2,1,80,0,1
181650,-100,4,2,3,80,0,1
182008,-125,4,2,3,80,0,1
182901,-100,4,2,1,80,0,1
183258,-100,4,2,2,80,0,1
183436,-100,4,2,3,80,0,1
183614,-100,4,2,1,80,0,1
183793,-100,4,2,3,80,0,1
184151,-83.3333333333333,4,2,1,80,0,1
184865,-83.3333333333333,4,2,3,80,0,1
185043,-83.3333333333333,4,2,1,80,0,1
185222,-133.333333333333,4,2,1,80,0,0
185758,-83.3333333333333,4,2,2,80,0,1
186115,-83.3333333333333,4,2,3,80,0,1
186293,-83.3333333333333,4,2,1,80,0,1
186472,-83.3333333333333,4,2,2,80,0,1
186651,-83.3333333333333,4,2,1,80,0,1
186829,-83.3333333333333,4,2,2,80,0,1
187186,-83.3333333333333,4,2,1,80,0,1
187543,-83.3333333333333,4,2,3,80,0,1
187722,-83.3333333333333,4,2,1,80,0,1
187901,-83.3333333333333,4,2,2,80,0,1
188079,-83.3333333333333,4,2,1,80,0,1
188257,-83.3333333333333,4,2,2,80,0,1
188615,-83.3333333333333,4,2,1,80,0,1
188972,-83.3333333333333,4,2,3,80,0,1
189151,-83.3333333333333,4,2,1,80,0,1
189329,-83.3333333333333,4,2,2,80,0,1
189508,-83.3333333333333,4,2,1,80,0,1
189686,-83.3333333333333,4,2,2,80,0,1
190043,-83.3333333333333,4,2,1,80,0,1
190401,-83.3333333333333,4,2,2,80,0,1
190579,-83.3333333333333,4,2,1,80,0,1
191115,-133.333333333333,4,2,2,80,0,1
191293,-133.333333333333,4,2,1,80,0,1
194329,-83.3333333333333,4,2,1,80,0,1
194686,-83.3333333333333,4,2,2,80,0,1
194865,-83.3333333333333,4,2,1,80,0,1
195043,-83.3333333333333,4,2,3,80,0,1
195222,-83.3333333333333,4,2,1,80,0,1
195401,-83.3333333333333,4,2,2,80,0,1
195579,-62.5,4,2,2,80,0,1
196293,-62.5,4,2,1,80,0,1
196472,-62.5,4,2,6,80,0,1
196650,-62.5,4,2,1,80,0,1
196829,-62.5,4,2,3,80,0,1
197007,-62.5,4,2,1,80,0,1
197186,-100,4,2,2,80,0,0
197900,-100,4,2,1,80,0,0
198079,-100,4,2,2,80,0,0
198615,-100,4,2,1,80,0,0
198972,-100,4,2,2,80,0,0
199329,-100,4,2,1,80,0,0
199508,-100,4,2,2,80,0,0
200043,-100,4,2,1,80,0,0
200221,-100,4,2,2,80,0,0
200758,-100,4,2,1,80,0,0
200936,-100,4,2,2,80,0,0
201472,-100,4,2,1,80,0,0
201650,-100,4,2,2,80,0,0
202186,-100,4,2,1,80,0,0
202364,-100,4,2,2,80,0,0
202722,-100,4,2,1,80,0,0
203258,-100,4,2,2,80,0,0
203614,-100,4,2,1,80,0,0
203793,-100,4,2,2,80,0,0
204329,-100,4,2,1,80,0,0
204686,-100,4,2,2,80,0,0
204865,-83.3333333333333,4,2,2,80,0,0
205401,-100,4,2,2,80,0,0
205758,-83.3333333333333,4,2,2,80,0,0
207901,-83.3333333333333,4,2,1,80,0,0
208079,-83.3333333333333,4,2,2,80,0,0
208436,-83.3333333333333,4,2,1,80,0,0
208615,-83.3333333333333,4,2,2,80,0,1
209151,-83.3333333333333,4,2,3,80,0,1
209329,-83.3333333333333,4,2,1,80,0,1
209509,-83.3333333333333,4,2,2,80,0,1
209687,-83.3333333333333,4,2,1,80,0,1
209865,-83.3333333333333,4,2,3,80,0,1
210936,-83.3333333333333,4,2,2,80,0,1
211472,-66.6666666666667,4,2,1,80,0,1
211829,-100,4,2,1,80,0,1
212008,-100,4,2,3,80,0,1
212543,-100,4,2,1,80,0,1
212722,-83.3333333333333,4,2,1,80,0,1
213079,-83.3333333333333,4,2,3,80,0,1
213258,-100,4,2,3,80,0,1
213436,-83.3333333333333,4,2,1,80,0,1
214151,-83.3333333333333,4,2,3,80,0,1
214329,-100,4,2,1,80,0,0
214507,-100,4,2,2,80,0,0
214686,-100,4,2,1,80,0,0
215222,-100,4,2,3,80,0,0
216471,-100,4,2,1,80,0,0
216651,-100,4,2,3,80,0,0
217186,-100,4,2,1,80,0,0
217543,-100,4,2,2,80,0,0
217721,-100,4,2,3,80,0,0
217900,-100,4,2,1,80,0,0
218078,-100,4,2,3,80,0,0
218972,-100,4,2,1,80,0,0
219150,-100,4,2,3,80,0,0
219686,-100,4,2,1,80,0,0
220043,-250,4,2,2,80,0,0
220133,-250,4,2,1,40,0,0
225757,-250,4,2,4,40,0,0

[Colours]
Combo1 : 128,128,128
Combo2 : 255,0,255
Combo3 : 255,0,128
Combo4 : 0,255,255
Combo5 : 0,128,255
Combo6 : 192,192,192

[HitObjects]
393,249,1115,86,0,P|393:277|405:333,1,75,2|0,2:0|2:0,2:0:0:0:
411,342,1472,70,0,L|463:335,2,50,2|0|0,2:0|2:0|2:0,2:0:0:0:
333,323,2008,2,0,B|272:323|303:353|232:351,1,100,2|0,2:0|2:0,2:0:0:0:
191,305,2543,1,0,2:0:0:0:
191,305,2722,2,0,P|175:330|173:360,1,50,2|0,2:0|2:0,2:0:0:0:
91,375,3079,5,0,2:0:0:0:
110,312,3258,1,2,2:0:0:0:
101,243,3436,2,0,P|77:181|49:145,1,100,2|0,2:0|2:0,2:0:0:0:
40,92,3972,2,0,P|13:106|0:129,1,50,0|0,2:0|2:0,2:0:0:0:
107,101,4329,70,0,L|100:49,2,50,2|0|0,2:0|2:0|2:0,2:0:0:0:
177,67,4865,2,0,B|238:67|207:37|278:39,1,100,2|0,2:0|2:0,2:0:0:0:
315,87,5401,1,0,2:0:0:0:
320,81,5580,2,0,P|336:56|338:26,1,50,2|0,2:0|2:0,2:0:0:0:
421,9,5936,5,0,2:0:0:0:
402,72,6115,1,2,2:0:0:0:
411,141,6293,2,0,P|435:203|463:239,1,100,2|0,2:0|2:0,2:0:0:0:
488,298,6829,70,0,B|493:328|480:347|480:347|452:318|468:289,1,100,2|2,2:0|2:0,2:0:0:0:
256,192,7276,12,4,9329,2:1:0:0:
438,332,9686,21,0,2:0:0:0:
438,332,9776,1,0,2:0:0:0:
438,332,9865,1,0,2:0:0:0:
438,332,9954,1,0,2:0:0:0:
438,332,10043,54,0,B|500:354|514:242|429:254|361:293|345:378,1,259.999988098145,4|2,2:0|2:0,2:0:0:0:
249,270,11472,2,0,B|184:281|228:385|295:333|335:265|306:183,1,259.999988098145,4|2,2:0|2:0,2:0:0:0:
383,129,12901,22,0,B|413:65|544:65|521:118|478:135|459:100,1,194.999991073609,4|0,2:0|2:0,2:0:0:0:
357,52,13615,2,0,B|319:58|306:14|333:-36|414:66|382:129,1,194.999991073609,4|0,2:0|2:0,2:0:0:0:
316,117,14329,54,0,B|257:120|282:148|223:147,1,97.4999955368044,4|0,2:0|2:0,2:0:0:0:
216,138,14686,2,0,P|199:109|209:71,1,64.9999970245363,2|0,2:0|2:0,2:0:0:0:
66,18,14999,22,0,L|46:16,1,16.2499992561341,0|8,1:0|2:0,2:0:0:0:
100,72,15221,1,0,1:0:0:0:
119,135,15400,1,0,1:0:0:0:
120,199,15579,2,0,P|118:222|113:240,1,32.4999985122681,0|0,1:0|2:0,2:0:0:0:
7,341,15758,22,0,P|19:293|87:265,1,100,4|0,2:0|2:0,2:0:0:0:
136,373,16115,69,8,2:0:0:0:
76,333,16293,1,8,2:0:0:0:
207,348,16472,21,8,2:0:0:0:
195,230,16651,1,8,2:0:0:0:
301,373,16829,37,8,2:0:0:0:
368,216,17008,2,0,P|367:259|343:283,1,50,8|0,2:0|2:0,2:0:0:0:
302,222,17186,21,10,2:0:0:0:
297,233,17365,2,0,P|259:253|226:245,1,50,8|8,2:3|2:3,2:0:0:0:
258,179,17543,69,8,2:0:0:0:
245,180,17723,2,0,P|208:157|198:124,1,50,8|8,2:3|2:3,2:0:0:0:
273,119,17901,21,10,2:0:0:0:
265,108,18080,2,0,P|265:64|289:40,1,50,8|8,2:3|2:3,2:0:0:0:
332,101,18258,37,8,2:0:0:0:
337,88,18436,2,0,P|374:67|407:75,1,50,8|8,2:3|2:3,2:0:0:0:
512,192,18615,21,4,2:0:0:0:
127,128,18972,70,0,B|95:109|67:103,1,50,8|0,2:0|2:0,2:0:0:0:
147,195,19151,2,0,B|179:214|207:220,1,50,8|0,2:0|2:0,2:0:0:0:
193,147,19329,22,0,B|213:117|237:131|250:85,1,75.0000028610231,8|0,2:0|2:0,2:0:0:0:
80,178,19508,2,0,B|60:208|36:194|23:240,1,75.0000028610231,8|0,2:0|2:0,2:0:0:0:
174,77,19686,38,0,B|173:44|146:31|146:31|162:50|168:85,1,89.9999972534181,8|0,2:0|2:0,2:0:0:0:
102,249,19865,2,0,B|73:266|76:296|76:296|84:272|111:250,1,89.9999972534181,8|0,2:0|2:0,2:0:0:0:
147,195,20043,22,0,B|244:192|182:243|293:237,1,150.000005722046,4|8,2:0|2:3,2:0:0:0:
338,202,20668,1,8,2:3:0:0:
345,194,20758,2,0,L|344:140,2,50,8|0|0,2:0|1:0|1:0,2:0:0:0:
362,361,21472,69,6,2:0:0:0:
314,309,21651,2,0,L|315:255,2,50,0|2|0,2:0|2:3|2:0,2:0:0:0:
384,298,22186,2,0,B|433:303|444:344|444:344|428:347|423:337,1,100,2|2,2:3|2:3,2:0:0:0:
297,376,22722,6,0,L|238:369,1,50,0|2,2:0|2:3,2:0:0:0:
134,302,23079,2,0,L|84:296,1,50,0|2,2:0|2:3,2:0:0:0:
184,382,23436,70,0,B|188:344|188:344|199:326|199:326|202:280,1,100,0|0,2:0|2:0,2:0:0:0:
152,236,23972,1,2,2:3:0:0:
174,72,24151,1,0,1:0:0:0:
124,123,24329,6,0,B|149:132|164:156|164:156|178:138|210:135,1,100,0|2,1:0|2:3,2:0:0:0:
256,219,24865,70,0,P|231:215|210:202,1,50,0|2,2:0|2:3,2:0:0:0:
53,180,25222,2,0,P|76:187|101:184,1,50,0|2,2:0|2:3,2:0:0:0:
268,152,25579,6,0,P|291:144|316:147,1,50,0|2,2:0|2:3,2:0:0:0:
434,254,25936,1,2,2:0:0:0:
456,106,26115,1,2,2:3:0:0:
445,181,26293,1,2,2:0:0:0:
445,181,26651,69,2,2:0:0:0:
387,133,26829,1,0,2:0:0:0:
512,152,27008,1,2,2:0:0:0:
371,233,27186,6,0,B|362:291|387:274|376:338,1,100,0|2,1:0|2:3,2:0:0:0:
312,311,27722,70,0,B|304:323|288:320|288:320|294:301|313:299,1,50,0|2,2:0|2:3,2:0:0:0:
436,258,28079,2,0,B|444:246|460:249|460:249|454:268|435:270,1,50,0|2,2:0|2:3,2:0:0:0:
308,238,28436,6,0,P|297:209|300:183,1,50,0|2,2:0|2:3,2:0:0:0:
388,113,28793,2,0,L|381:166,1,50,0|2,2:0|2:3,2:0:0:0:
241,260,29151,70,0,B|183:250|200:275|142:266,1,100,2|2,2:0|2:0,2:0:0:0:
89,229,29686,1,2,2:3:0:0:
20,357,29865,1,0,1:0:0:0:
20,357,30043,6,0,P|7:312|35:260,1,100,0|2,1:0|2:3,2:0:0:0:
120,169,30579,1,0,2:0:0:0:
120,169,30758,2,0,P|149:191|159:210,2,50,2|0|2,2:3|2:0|2:3,2:0:0:0:
17,69,31293,2,0,L|22:109,1,25,2|0,2:0|2:0,2:0:0:0:
30,162,31472,69,0,1:0:0:0:
30,162,32186,1,0,1:0:0:0:
149,51,32365,6,0,B|153:6|211:13|211:13|232:64|197:89,1,150.000005722046,8|0,2:0|1:0,2:0:0:0:
165,130,32811,1,0,1:0:0:0:
162,122,32901,6,0,P|209:107|260:123,1,100,4|0,2:0|2:0,2:0:0:0:
365,37,33258,2,0,P|353:90|350:139,1,100,10|0,2:0|1:0,2:0:0:0:
354,149,33526,1,0,1:0:0:0:
359,162,33615,1,0,1:0:0:0:
422,132,33793,1,0,1:0:0:0:
291,180,33972,1,10,2:0:0:0:
407,297,34151,38,0,B|461:272|437:210|437:210|393:207|380:250,1,150,0|0,1:0|2:0,2:0:0:0:
384,232,34508,1,0,1:0:0:0:
365,354,34686,2,0,P|387:364|422:367,1,50,10|0,2:0|2:0,2:0:0:0:
500,324,34865,1,0,1:0:0:0:
486,329,34954,1,0,1:0:0:0:
477,341,35043,1,0,1:0:0:0:
330,294,35222,37,0,1:0:0:0:
262,313,35401,1,8,2:0:0:0:
195,334,35579,1,2,2:0:0:0:
121,211,35758,38,0,B|108:172|159:159|159:159|192:195|157:228,1,150,0|0,1:0|2:0,2:0:0:0:
136,226,36115,1,8,2:0:0:0:
98,107,36293,38,0,B|91:48|131:78|113:-5,1,100,8|0,2:3|2:0,2:0:0:0:
63,271,36651,2,0,B|69:329|29:299|47:383,1,100,8|0,2:3|2:0,2:0:0:0:
49,187,37008,38,0,B|61:148|10:135|10:135|-22:171|12:204,1,150,4|0,2:0|2:0,2:0:0:0:
19,205,37365,2,0,L|74:198,1,50,0|0,1:0|2:0,2:0:0:0:
133,298,37543,2,0,L|188:291,1,50,8|0,2:0|2:0,2:0:0:0:
355,255,37722,38,0,B|309:262|291:293|291:293|282:258|244:240,1,150,4|0,2:0|2:0,2:0:0:0:
234,246,38079,1,0,1:0:0:0:
351,329,38258,2,0,L|340:392,1,50,8|0,2:0|2:0,2:0:0:0:
420,297,38436,1,8,2:0:0:0:
434,292,38526,1,8,2:0:0:0:
447,286,38615,38,0,B|473:203|411:226|460:112,1,150,4|0,2:0|2:0,2:0:0:0:
463,128,38972,1,10,2:0:0:0:
372,187,39151,1,0,1:0:0:0:
357,186,39240,1,0,1:0:0:0:
343,179,39329,1,0,1:0:0:0:
420,69,39508,2,0,P|472:54|519:78,1,100,0|10,1:0|2:0,2:0:0:0:
463,128,39865,1,0,1:0:0:0:
310,68,40043,38,0,L|319:3,1,50,0|0,1:0|2:0,2:0:0:0:
256,128,40222,2,0,L|265:193,1,50,0|0,1:0|2:0,2:0:0:0:
202,68,40401,1,8,2:0:0:0:
49,128,40579,38,0,P|34:76|58:29,1,100,4|0,2:0|2:0,2:0:0:0:
129,138,40936,1,0,1:0:0:0:
84,197,41115,1,8,2:0:0:0:
7,188,41293,1,0,1:0:0:0:
164,204,41472,38,0,B|201:197|261:204|205:240|279:248|321:235,1,150,0|0,1:0|2:0,2:0:0:0:
323,232,41829,1,8,2:0:0:0:
187,272,42008,38,0,P|179:321|179:378,1,100,8|0,2:3|2:0,2:0:0:0:
285,169,42365,2,0,P|293:120|293:63,1,100,8|0,2:3|2:0,2:0:0:0:
482,204,42722,38,0,B|445:197|385:204|441:240|367:248|325:235,1,150,4|0,2:0|2:0,2:0:0:0:
323,232,43079,1,2,2:0:0:0:
364,168,43258,1,10,2:0:0:0:
466,268,43436,1,2,2:0:0:0:
475,99,43615,37,10,2:0:0:0:
434,163,43794,1,2,2:0:0:0:
332,63,43972,2,0,L|344:-12,1,75.0000028610231,10|0,2:3|1:0,2:0:0:0:
171,61,44329,22,0,B|206:40|245:55|245:55|253:138,2,150.000005722046,4|0|0,2:0|1:0|1:0,2:0:0:0:
111,93,45222,1,0,2:0:0:0:
47,120,45401,2,0,B|29:130|10:123|10:123|6:81,1,75.0000028610231,8|0,2:0|2:0,2:0:0:0:
167,136,45758,6,0,P|152:183|137:253,1,112.500004291535,0|0,1:2|2:0,2:0:0:0:
143,258,46115,1,0,1:0:0:0:
57,304,46293,70,0,P|94:305|123:329,1,75.0000028610231,0|0,2:0|1:0,2:0:0:0:
171,383,46651,1,0,1:0:0:0:
194,319,46829,2,0,P|205:283|257:258,1,75.0000028610231,10|0,2:0|2:0,2:0:0:0:
352,342,47186,6,0,B|390:319|380:383|306:370|256:318,2,150.000005722046,0|0|0,1:2|1:0|1:0,2:0:0:0:
423,288,48079,1,0,2:0:0:0:
490,328,48258,2,0,B|501:309|469:314|476:351|502:376,1,75.0000028610231,8|0,2:0|2:0,2:0:0:0:
489,247,48615,70,0,B|496:184|496:184|499:179|499:179|506:117,1,112.500004291535,0|0,1:2|2:0,2:0:0:0:
494,117,48972,1,0,1:0:0:0:
500,45,49151,6,0,B|461:49|461:49|428:95,1,75.0000028610231,0|0,2:0|1:0,2:0:0:0:
398,15,49508,1,0,1:0:0:0:
385,118,49686,2,0,B|362:74|362:74|293:57,1,112.500004291535,10|0,2:0|2:0,2:0:0:0:
256,8,50043,70,0,L|256:112,1,100,4|0,2:0|2:0,2:0:0:0:
320,192,50401,2,0,B|280:192|256:224|256:224|232:192|184:192,1,150,8|0,2:0|2:0,2:0:0:0:
178,203,50758,1,0,1:0:0:0:
157,269,50936,2,0,P|117:240|116:177,1,100,0|8,1:0|2:0,2:0:0:0:
91,75,51293,6,0,B|72:37|72:37|154:34|177:109|144:157,1,200,0|0,1:0|1:0,2:0:0:0:
88,261,51829,2,0,P|68:258|-6:303,1,100,8|0,2:0|2:0,2:0:0:0:
63,329,52186,1,0,1:0:0:0:
160,249,52365,1,0,1:0:0:0:
214,384,52543,2,0,P|208:328|230:264,1,100,8|0,2:0|2:0,2:0:0:0:
339,185,52901,69,4,2:0:0:0:
339,185,53079,1,0,1:0:0:0:
428,195,53258,6,0,P|402:213|388:240,1,50,10|0,2:0|2:0,2:0:0:0:
333,256,53436,1,0,1:0:0:0:
290,86,53615,70,0,P|318:99|348:98,1,50,10|0,2:0|2:0,2:0:0:0:
390,137,53793,1,0,1:0:0:0:
256,176,53972,5,10,2:0:0:0:
256,16,54151,1,8,2:0:0:0:
256,16,54508,69,8,2:0:0:0:
256,176,54687,1,8,2:0:0:0:
256,248,55043,22,0,L|256:264,1,12.5,2|0,2:3|2:0,2:0:0:0:
256,328,55222,1,0,1:0:0:0:
151,285,55401,53,8,2:0:0:0:
122,275,55490,1,0,2:0:0:0:
82,277,55579,1,0,2:0:0:0:
43,302,55668,1,0,2:0:0:0:
22,351,55758,70,0,P|62:348|85:357,1,59.9999981689454,6|0,2:1|2:0,2:0:0:0:
186,216,55936,2,0,P|183:176|192:153,1,59.9999981689454,2|0,2:0|2:0,2:0:0:0:
106,114,56115,1,8,2:0:0:0:
0,157,56293,22,0,B|81:150|42:193|120:185,1,119.999996337891,2|0,2:0|1:0,2:0:0:0:
183,78,56651,1,2,2:0:0:0:
183,78,56829,1,10,2:0:0:0:
331,186,57008,38,0,B|378:154|349:92|349:92|295:96|296:152,1,179.999994506836,2|0,2:0|2:0,2:0:0:0:
245,176,57365,2,0,P|270:209|270:263,1,59.9999981689454,2|0,2:0|2:0,2:0:0:0:
372,245,57543,2,0,P|401:214|454:206,1,59.9999981689454,8|0,2:0|2:0,2:0:0:0:
487,313,57722,22,0,B|524:336|526:373|526:373|459:313|351:318,1,239.999992675781,2|2,2:0|2:0,2:0:0:0:
318,288,58258,2,0,P|317:354|360:381,1,119.999996337891,8|2,2:0|2:0,2:0:0:0:
475,246,58615,70,0,P|487:211|476:167,1,59.9999981689454,2|0,2:0|2:0,2:0:0:0:
396,32,58793,2,0,L|406:108,1,59.9999981689454,2|0,2:0|2:0,2:0:0:0:
321,197,58972,1,8,2:0:0:0:
422,155,59151,22,0,B|341:162|380:119|302:127,1,119.999996337891,2|0,2:0|1:0,2:0:0:0:
212,228,59508,1,2,2:0:0:0:
212,228,59686,1,10,2:0:0:0:
64,107,59865,38,0,B|116:102|143:147|143:147|147:94|208:75,1,179.999994506836,2|0,2:0|2:0,2:0:0:0:
268,153,60222,2,0,P|239:157|199:141,1,59.9999981689454,2|0,2:0|2:0,2:0:0:0:
76,176,60401,2,0,P|51:193|10:198,1,59.9999981689454,8|0,2:0|2:0,2:0:0:0:
156,215,60579,22,0,B|160:268|127:305|114:272|83:338|100:378,1,179.999994506836,2|0,2:0|2:0,2:0:0:0:
50,353,60936,2,0,P|94:367|103:393,1,59.9999981689454,2|0,2:0|2:0,2:0:0:0:
160,352,61115,2,0,P|201:330|225:342,1,59.9999981689454,8|0,2:0|2:0,2:0:0:0:
394,370,61293,1,2,2:0:0:0:
353,383,61383,1,0,1:0:0:0:
317,360,61472,22,0,B|305:222,1,119.999996337891,6|2,2:0|2:0,2:0:0:0:
256,192,61829,1,10,2:0:0:0:
284,94,62008,54,0,B|285:58|316:47|316:47|324:83|300:99,1,119.999996337891,2|0,2:0|2:0,2:0:0:0:
227,289,62365,2,0,B|226:325|196:337|196:337|187:300|211:284,1,119.999996337891,2|8,2:0|2:0,2:0:0:0:
352,178,62722,22,0,B|378:163|390:182|401:181|401:181|390:182|376:202|352:191,1,100,2|0,2:0|1:0,2:0:0:0:
159,205,63079,2,0,B|133:220|121:201|111:203|111:203|121:201|135:181|159:192,1,100,2|8,2:0|2:0,2:0:0:0:
282,218,63436,54,0,P|243:197|230:151,1,80,2|0,2:0|1:2,2:0:0:0:
233,163,63793,2,0,P|272:184|285:230,1,80,2|8,2:0|2:0,2:0:0:0:
328,270,64151,1,2,2:0:0:0:
169,121,64329,22,0,B|103:104|160:107|133:30|133:30|188:90|212:38|196:104,1,225.000008583069,6|0,2:0|2:0,2:0:0:0:
184,114,64686,1,8,2:0:0:0:
97,215,64865,54,0,B|76:223|53:214|53:214|83:169|131:185,1,119.999996337891,6|0,2:0|2:0,2:0:0:0:
193,236,65222,2,0,B|220:257|198:307|198:307|179:291|175:270,1,119.999996337891,2|8,2:0|2:0,2:0:0:0:
275,76,65579,70,0,B|310:58|398:70|323:108|396:122|455:101,1,179.999994506836,6|0,2:0|2:0,2:0:0:0:
472,91,65936,2,0,P|437:78|410:95,1,59.9999981689454,0|0,1:0|2:0,2:0:0:0:
309,138,66115,2,0,P|328:184|330:197,1,59.9999981689454,10|0,2:0|2:0,2:0:0:0:
467,262,66293,1,10,2:0:0:0:
430,241,66383,1,8,2:0:0:0:
388,246,66472,22,0,B|364:254|357:283|357:283|371:281|377:255,1,59.9999981689454,8|0,2:0|2:0,2:0:0:0:
303,325,66651,1,8,1:2:0:0:
303,336,66741,1,8,2:0:0:0:
310,346,66829,38,0,B|322:359|349:356|349:356|334:345|318:350,1,59.9999981689454,0|0,1:3|1:3,2:0:0:0:
287,257,67008,1,8,2:3:0:0:
250,236,67097,1,8,2:3:0:0:
208,242,67186,22,0,P|180:243|139:228,1,59.9999981689454,6|0,2:1|2:0,2:0:0:0:
39,186,67365,2,0,P|47:157|46:127,1,59.9999981689454,2|0,2:0|2:0,2:0:0:0:
130,21,67543,1,8,2:0:0:0:
36,62,67722,70,0,B|107:59|77:99|156:88,1,119.999996337891,2|0,2:0|1:0,2:0:0:0:
256,16,68079,1,2,2:0:0:0:
256,16,68258,1,10,2:0:0:0:
352,139,68436,22,0,B|382:105|366:54|366:54|320:95|341:146,1,179.999994506836,2|0,2:0|2:0,2:0:0:0:
439,167,68793,2,0,P|411:179|393:202,1,59.9999981689454,2|0,2:0|2:0,2:0:0:0:
275,163,68972,2,0,P|271:134|254:110,1,59.9999981689454,8|0,2:0|2:0,2:0:0:0:
268,282,69151,38,0,B|345:291|362:349|362:349|361:288|458:260,1,239.999992675781,2|2,2:0|2:0,2:0:0:0:
489,223,69686,2,0,P|493:304|449:340,1,119.999996337891,8|2,2:0|2:0,2:0:0:0:
194,384,70043,22,0,L|205:279,1,75.0000028610231,6|0,2:0|2:0,2:0:0:0:
122,207,70222,2,0,L|133:312,1,75.0000028610231,8|0,2:0|2:0,2:0:0:0:
96,337,70401,70,0,B|108:347|112:356|112:356|117:348|145:347,1,50,8|0,2:0|2:0,2:0:0:0:
268,282,70579,1,2,2:0:0:0:
273,276,70937,21,8,2:3:0:0:
270,251,71026,1,8,2:3:0:0:
267,226,71115,1,10,2:0:0:0:
155,131,71293,38,0,B|115:70|170:47|177:25|177:25|189:41|250:45|230:128,1,239.999992675781,6|10,2:0|2:3,2:0:0:0:
200,184,71740,21,8,2:3:0:0:
200,184,71830,2,0,L|193:249,1,50,8|0,2:0|2:0,2:0:0:0:
342,282,72008,70,0,B|312:326|358:360|358:360|412:345|397:284,1,179.999994506836,6|0,2:0|2:0,2:0:0:0:
440,239,72365,2,0,P|402:226|374:231,1,59.9999981689454,0|0,1:0|2:0,2:0:0:0:
494,293,72543,1,8,2:0:0:0:
507,266,72632,1,8,2:0:0:0:
511,236,72721,1,10,2:0:0:0:
504,207,72810,1,0,1:0:0:0:
488,182,72901,22,0,P|421:158|293:178,1,179.999994506836,6|0,2:0|2:0,2:0:0:0:
256,192,73258,1,10,2:0:0:0:
284,290,73436,38,0,B|285:326|316:337|316:337|324:301|300:285,1,119.999996337891,2|0,2:0|1:0,2:0:0:0:
227,95,73793,2,0,B|226:59|196:47|196:47|187:84|211:100,1,119.999996337891,2|8,2:0|2:0,2:0:0:0:
352,206,74151,22,0,B|378:221|390:202|401:203|401:203|390:202|376:182|352:193,1,100,2|0,2:0|1:0,2:0:0:0:
159,179,74508,2,0,B|133:164|121:183|111:181|111:181|121:183|135:203|159:192,1,100,2|8,2:0|2:0,2:0:0:0:
322,105,74865,22,0,B|390:116|367:76|454:88,1,120,2|0,2:0|2:0,2:0:0:0:
460,27,75222,2,0,P|495:57|504:95,1,80,2|8,2:0|2:0,2:0:0:0:
470,146,75579,1,2,2:0:0:0:
385,254,75758,54,0,B|368:267|353:285|353:285|375:144,1,150,2|0,2:0|2:0,2:0:0:0:
377,187,76115,1,8,2:0:0:0:
461,295,76293,70,0,P|410:319|380:366,1,100,2|0,2:0|1:2,2:0:0:0:
288,314,76651,2,0,P|279:266|249:227,1,100,2|8,2:0|2:0,2:0:0:0:
30,344,77008,22,0,B|68:367|134:358|105:325|144:305|200:320,1,179.999994506836,6|0,2:0|2:0,2:0:0:0:
203,330,77365,2,0,P|211:340|190:381,1,59.9999981689454,8|0,2:3|2:0,2:0:0:0:
72,285,77543,1,10,2:0:0:0:
72,285,77722,2,0,P|56:265|98:183,1,119.999996337891,10|0,2:3|1:0,2:0:0:0:
182,63,78079,38,0,B|162:68|147:82|147:82|128:68|106:63,2,75.0000028610231,0|0|0,1:0|1:0|2:0,2:0:0:0:
371,148,78615,38,0,P|405:89|340:119,1,179.999994506836,6|0,1:1|2:0,2:0:0:0:
350,134,78972,1,10,2:0:0:0:
406,214,79151,38,0,P|432:210|474:238,1,59.9999981689454,2|0,0:2|2:0,2:0:0:0:
475,222,79329,2,0,P|471:196|499:154,1,59.9999981689454,2|0,1:2|2:0,2:0:0:0:
340,208,79508,38,0,B|340:283|383:250|380:342,1,119.999996337891,2|10,1:2|2:0,2:0:0:0:
311,313,79865,1,0,2:0:0:0:
437,366,80043,38,0,B|506:366|514:293|514:293|475:275|428:308,1,179.999994506836,2|0,1:2|2:0,2:0:0:0:
441,302,80401,1,10,2:0:0:0:
311,313,80579,38,0,P|285:318|256:359,1,59.9999981689454,2|0,0:2|2:0,2:0:0:0:
216,297,80758,2,0,P|200:318|206:368,1,59.9999981689454,2|0,1:2|0:2,1:2:0:0:
271,249,80936,38,0,B|271:174|228:207|231:115,1,119.999996337891,2|10,1:2|2:0,2:0:0:0:
300,144,81293,1,0,2:0:0:0:
170,128,81472,38,0,B|110:93|139:26|139:26|182:30|206:82,1,179.999994506836,2|0,1:2|2:0,2:0:0:0:
198,70,81830,1,10,2:0:0:0:
171,198,82008,38,0,P|151:201|117:232,1,59.9999981689454,2|0,0:2|2:0,2:0:0:0:
55,184,82186,2,0,P|51:154|34:131,1,59.9999981689454,2|0,1:2|2:0,2:0:0:0:
57,258,82365,38,0,P|133:252|181:268,1,119.999996337891,2|10,1:2|2:0,2:0:0:0:
228,318,82722,1,0,2:0:0:0:
357,201,82901,38,0,B|388:185|407:218|324:263|338:200|283:192|227:244,1,179.999994506836,2|0,1:2|2:0,2:0:0:0:
260,238,83258,1,10,2:0:0:0:
413,307,83436,38,0,B|411:342|373:342|375:248|423:291|457:248|440:173,1,179.999994506836,2|0,1:2|2:0,2:0:0:0:
432,169,83793,1,0,1:2:0:0:
339,40,83972,38,0,P|334:98|337:139,1,75.0000028610231,10|0,2:0|1:0,2:0:0:0:
491,307,84329,21,6,2:0:0:0:
334,276,84508,1,0,2:0:0:0:
340,121,84686,5,10,2:0:0:0:
183,152,84865,1,0,2:0:0:0:
189,304,85043,69,10,2:0:0:0:
32,273,85222,1,0,1:0:0:0:
109,288,85401,5,10,2:0:0:0:
109,288,85579,1,0,1:0:0:0:
38,348,85758,69,10,2:0:0:0:
19,260,85936,1,0,2:0:0:0:
132,356,86115,5,10,2:0:0:0:
112,207,86293,1,0,2:0:0:0:
222,362,86472,69,10,2:0:0:0:
230,186,86651,1,0,1:0:0:0:
304,378,86829,5,10,2:0:0:0:
344,188,87008,1,0,1:0:0:0:
478,266,87186,70,0,B|434:260|352:265|421:305|363:323|288:301,1,179.999994506836,6|0,2:0|2:0,2:0:0:0:
256,272,87543,5,10,2:0:0:0:
256,88,87722,1,2,2:0:0:0:
376,168,87901,69,10,2:0:0:0:
136,168,88079,1,0,1:0:0:0:
256,16,88258,1,10,2:0:0:0:
216,216,88436,6,0,B|200:232|216:280|240:248|256:312|256:312|272:248|296:280|312:232|296:216,1,225.000008583069,8|0,2:0|2:0,2:0:0:0:
256,160,88793,1,8,2:0:0:0:
256,384,88972,1,8,2:0:0:0:
256,312,89329,70,0,L|256:296,1,12.5,2|0,2:3|2:0,2:0:0:0:
256,232,89508,1,0,1:0:0:0:
377,304,89687,5,10,2:0:0:0:
399,283,89776,1,0,2:0:0:0:
432,274,89865,1,2,2:0:0:0:
475,283,89954,1,0,2:0:0:0:
492,320,90044,70,0,L|486:382,1,50,4|0,2:1|2:0,2:0:0:0:
484,373,90401,70,0,B|459:345|472:287|491:320|515:261|486:204,1,150,8|0,2:0|2:0,2:0:0:0:
502,165,90758,2,0,P|466:170|444:195,1,50,0|0,1:0|2:0,2:0:0:0:
445,190,90936,2,0,P|422:161|390:154,1,50,0|0,1:0|2:0,2:0:0:0:
392,152,91115,1,8,2:0:0:0:
432,16,91293,22,0,B|450:16|473:-3|473:-3|454:104,1,150,0|0,1:0|2:0,2:0:0:0:
449,88,91651,1,0,1:0:0:0:
282,115,91829,1,8,2:0:0:0:
301,261,92008,38,0,B|319:261|342:280|342:280|323:173,1,150,0|0,1:0|2:0,2:0:0:0:
318,189,92366,1,0,1:0:0:0:
226,65,92543,2,0,P|208:112|226:169,1,100,8|0,2:0|2:0,2:0:0:0:
106,277,92901,22,0,L|51:279,1,50,0|0,1:0|2:0,2:0:0:0:
52,279,93258,70,0,B|80:254|138:267|105:286|164:310|221:281,1,150,8|0,2:0|2:0,2:0:0:0:
223,231,93615,2,0,P|254:266|257:280,1,50,0|0,1:0|2:0,2:0:0:0:
231,384,93793,2,0,P|245:339|256:330,1,50,0|0,1:0|2:0,2:0:0:0:
307,308,93972,1,8,2:0:0:0:
479,374,94151,22,0,B|449:336|449:336|462:225,1,150,0|0,1:0|2:0,2:0:0:0:
474,243,94508,1,0,1:0:0:0:
318,225,94686,1,8,2:0:0:0:
404,54,94865,38,0,B|374:92|374:92|387:203,1,150,0|0,1:0|2:0,2:0:0:0:
399,185,95222,1,0,1:0:0:0:
243,203,95400,1,8,2:0:0:0:
260,375,95579,1,8,2:3:0:0:
260,375,95668,1,8,2:3:0:0:
260,375,95758,22,0,L|251:271,1,100,4|0,2:0|2:0,2:0:0:0:
177,153,96115,1,8,2:0:0:0:
336,252,96293,1,0,1:0:0:0:
336,252,96383,1,0,1:0:0:0:
336,252,96472,1,0,1:0:0:0:
145,245,96651,1,0,1:0:0:0:
313,154,96829,1,8,2:0:0:0:
243,223,97186,69,0,1:2:0:0:
416,182,97364,1,0,2:0:0:0:
384,88,97543,1,8,2:0:0:0:
219,127,97722,1,0,1:0:0:0:
219,127,97811,1,0,1:0:0:0:
219,127,97900,1,0,1:0:0:0:
313,154,98079,21,0,1:0:0:0:
336,252,98258,1,8,2:0:0:0:
508,205,98436,1,0,1:0:0:0:
508,205,98526,1,0,1:0:0:0:
508,205,98615,38,0,L|405:201,1,100,4|0,2:0|2:0,2:0:0:0:
176,252,98972,21,10,2:0:0:0:
310,98,99151,1,0,1:0:0:0:
256,280,99329,69,10,2:0:0:0:
256,48,99508,1,0,1:0:0:0:
336,252,99686,21,10,2:0:0:0:
202,98,99865,1,0,1:2:0:0:
202,98,99954,1,0,1:0:0:0:
202,98,100043,38,0,L|46:104,1,150,4|0,2:0|1:0,2:0:0:0:
8,154,100668,1,0,1:0:0:0:
1,162,100758,2,0,L|2:216,2,50,8|0|0,2:0|1:0|1:0,2:0:0:0:
152,310,101472,21,4,2:0:0:0:
200,258,101651,2,0,L|199:204,2,50,0|0|0,2:0|1:0|2:0,2:0:0:0:
220,331,102186,2,0,B|283:318|252:358|325:347,1,100,0|8,1:0|2:0,2:0:0:0:
436,382,102722,70,0,P|434:346|420:322,1,50,0|0,2:0|1:2,2:0:0:0:
434,225,103079,2,0,P|401:208|374:208,1,50,0|0,2:0|1:0,2:0:0:0:
269,260,103436,6,0,B|273:222|273:222|284:204|284:204|287:158,1,100,0|0,2:0|2:0,2:0:0:0:
310,4,103972,1,8,2:0:0:0:
287,154,104151,1,0,2:0:0:0:
275,89,104329,70,0,B|279:64|303:48|303:48|319:70|317:96,1,100,0|0,1:2|1:0,2:0:0:0:
387,127,104865,2,0,P|361:150|352:169,1,50,0|0,2:0|1:0,2:0:0:0:
220,137,105222,1,0,2:0:0:0:
176,20,105401,1,8,2:0:0:0:
72,79,105579,6,0,P|87:99|94:123,1,50,0|0,2:0|1:2,2:0:0:0:
177,196,105936,1,2,2:0:0:0:
155,344,106115,1,2,2:0:0:0:
166,269,106293,1,2,2:0:0:0:
166,269,106651,69,2,1:2:0:0:
173,270,106740,1,0,0:0:0:0:
180,270,106829,2,0,L|229:277,1,50,8|0,2:0|1:0,2:0:0:0:
373,374,107186,6,0,B|350:349|350:349|359:270,1,100,4|0,2:0|1:0,2:0:0:0:
411,239,107722,2,0,P|425:264|427:291,1,50,0|0,2:0|1:0,2:0:0:0:
344,219,108079,1,0,2:0:0:0:
482,146,108258,1,8,2:0:0:0:
423,38,108436,70,0,P|409:63|407:90,1,50,0|0,2:0|1:2,2:0:0:0:
387,163,108793,2,0,P|362:149|335:147,1,50,0|0,2:0|1:0,2:0:0:0:
274,6,109151,6,0,B|297:31|297:31|288:110,1,100,2|2,2:0|2:0,2:0:0:0:
277,165,109686,1,8,2:0:0:0:
178,48,109865,1,0,2:0:0:0:
178,48,110043,70,0,P|133:35|81:63,1,100,0|0,1:0|1:0,2:0:0:0:
49,203,110579,1,0,2:0:0:0:
49,203,110758,2,0,L|45:150,2,50,0|0|8,1:0|2:0|2:0,2:0:0:0:
164,247,111293,2,0,L|159:287,1,25,0|0,2:0|2:0,2:0:0:0:
151,341,111472,5,0,1:0:0:0:
158,352,112008,69,8,2:0:0:0:
69,333,112187,1,0,1:0:0:0:
186,186,112365,6,0,B|199:163|183:140|183:140|157:150|160:183,1,100,8|0,2:0|1:0,2:0:0:0:
164,247,112811,1,0,1:0:0:0:
172,257,112901,6,0,B|234:254|210:281|269:281,1,100,4|0,2:0|2:0,2:0:0:0:
431,373,113258,2,0,P|416:314|416:256,1,100,10|8,2:0|2:3,2:0:0:0:
416,255,113526,1,8,2:3:0:0:
420,235,113615,1,0,1:0:0:0:
492,235,113793,1,0,1:0:0:0:
343,265,113972,1,10,2:0:0:0:
419,130,114151,70,0,P|462:103|443:163,1,150,0|0,1:0|2:0,2:0:0:0:
424,153,114508,1,0,1:0:0:0:
347,62,114686,2,0,P|353:104|351:132,1,50,10|0,2:0|2:0,2:0:0:0:
309,193,114865,1,8,2:3:0:0:
289,191,114954,1,8,2:3:0:0:
273,178,115043,1,0,1:0:0:0:
205,77,115222,5,0,1:0:0:0:
211,147,115401,1,8,2:0:0:0:
216,217,115579,1,2,2:0:0:0:
88,141,115758,70,0,B|67:179|107:208|141:156|124:119|84:132|111:65,1,150,0|0,1:0|2:0,2:0:0:0:
115,60,116115,1,8,2:0:0:0:
127,234,116293,6,0,B|76:253|87:223|24:258,1,100,8|0,2:3|2:0,2:0:0:0:
170,96,116651,2,0,B|221:77|210:107|273:72,1,100,8|0,2:3|2:0,2:0:0:0:
212,291,117008,70,0,B|233:329|193:358|159:306|176:269|216:282|189:215,1,150,4|0,2:0|2:0,2:0:0:0:
187,210,117365,2,0,P|177:234|198:275,1,50,2|0,2:0|2:0,2:0:0:0:
277,350,117543,2,0,P|301:340|342:361,1,50,10|0,2:0|2:0,2:0:0:0:
454,292,117722,6,0,B|442:219|328:213|356:307|398:304,1,150,6|0,2:0|2:0,2:0:0:0:
388,306,118079,1,2,2:0:0:0:
496,232,118258,2,0,P|489:203|489:174,1,50,8|0,2:0|2:0,2:0:0:0:
497,82,118436,1,8,2:0:0:0:
502,101,118526,1,8,2:0:0:0:
505,120,118615,70,0,B|469:113|425:123|450:157|414:170|354:160,1,150,4|0,2:0|2:0,2:0:0:0:
357,148,118972,1,10,2:0:0:0:
362,26,119151,1,8,2:3:0:0:
357,45,119241,1,8,2:3:0:0:
354,65,119329,1,0,1:0:0:0:
305,200,119508,2,0,P|285:136|311:96,1,100,0|10,1:0|2:0,2:0:0:0:
357,148,119865,1,0,1:0:0:0:
201,247,120043,6,0,L|260:251,1,50,0|0,1:0|2:0,2:0:0:0:
307,313,120222,2,0,L|257:316,1,50,0|0,1:0|2:0,2:0:0:0:
257,383,120401,1,8,2:0:0:0:
49,302,120579,70,0,P|34:250|58:203,1,100,6|0,2:0|2:0,2:0:0:0:
152,89,120936,1,2,2:0:0:0:
107,148,121115,1,10,2:0:0:0:
30,139,121293,1,10,2:3:0:0:
184,22,121472,6,0,P|219:61|198:153,1,150,0|0,1:0|2:0,2:0:0:0:
180,160,121829,1,8,2:0:0:0:
311,277,122008,70,0,B|374:271|339:301|423:293,1,100,8|0,2:3|2:0,2:0:0:0:
201,277,122365,2,0,B|138:271|173:301|89:293,1,100,8|0,2:3|2:0,2:0:0:0:
42,156,122722,6,0,P|81:121|173:142,1,150,4|0,2:0|2:0,2:0:0:0:
180,160,123079,69,0,1:0:0:0:
245,93,123258,1,10,2:0:0:0:
372,175,123436,1,2,2:0:0:0:
388,40,123615,5,10,2:0:0:0:
281,171,123793,2,0,P|271:202|280:225,1,50,2|0,2:0|2:0,2:0:0:0:
386,308,123972,1,10,2:3:0:0:
410,305,124061,1,8,2:3:0:0:
435,303,124150,1,0,1:0:0:0:
460,300,124239,1,0,1:0:0:0:
485,297,124329,70,0,P|451:273|419:276,1,75.0000028610231,4|0,2:0|2:0,2:0:0:0:
308,374,124686,2,0,L|321:277,1,75.0000028610231,0|0,1:0|2:0,2:0:0:0:
348,239,125043,2,0,B|310:221|256:240|287:265|240:282|197:261,1,150.000005722046,0|0,1:0|1:0,2:0:0:0:
230,204,125579,1,0,2:0:0:0:
166,330,125758,6,0,P|170:280|149:180,1,150.000005722046,0|0,1:0|1:0,2:0:0:0:
112,130,126293,1,0,2:0:0:0:
226,92,126472,2,0,P|276:85|283:174,1,150.000005722046,0|0,1:0|1:0,2:0:0:0:
230,204,127008,1,2,2:0:0:0:
430,62,127186,70,0,P|385:67|349:49,1,75.0000028610231,0|0,1:0|2:0,2:0:0:0:
385,162,127543,2,0,P|430:157|466:175,1,75.0000028610231,0|0,1:0|2:0,2:0:0:0:
489,231,127901,6,0,B|479:270|441:287|441:287|406:248|417:221,1,150.000005722046,0|0,1:0|1:0,2:0:0:0:
456,167,128436,1,0,2:0:0:0:
370,310,128615,70,0,B|332:328|278:309|309:284|262:267|219:288,1,150.000005722046,0|0,1:0|1:0,2:0:0:0:
108,351,129151,2,0,B|108:371|73:383|72:352|102:289|177:321,1,150.000005722046,0|0,2:0|2:0,2:0:0:0:
240,352,129686,1,8,2:0:0:0:
228,271,129865,1,0,2:0:0:0:
224,256,129954,1,0,2:0:0:0:
221,241,130043,6,0,L|229:165,1,75.0000028610231,4|0,2:0|2:0,2:0:0:0:
244,40,130401,1,8,2:0:0:0:
150,75,130579,70,0,P|160:103|179:120,1,37.5000014305115,8|8,2:3|2:3,2:0:0:0:
173,118,130757,1,8,2:0:0:0:
332,104,130936,6,0,P|313:127|290:137,1,37.5000014305115,8|8,2:3|2:3,2:0:0:0:
295,137,131114,1,10,2:0:0:0:
244,40,131293,70,0,L|236:100,1,37.5000014305115,8|8,2:3|2:3,2:0:0:0:
228,166,131471,1,8,2:0:0:0:
116,224,131651,5,8,2:3:0:0:
134,222,131740,1,8,2:3:0:0:
153,220,131829,1,8,2:0:0:0:
318,279,132009,69,8,2:3:0:0:
339,276,132098,1,8,2:3:0:0:
361,274,132187,1,10,2:0:0:0:
152,291,132365,5,8,2:3:0:0:
130,294,132454,1,8,2:3:0:0:
109,296,132543,1,8,2:0:0:0:
346,197,132722,70,0,L|296:202,1,37.5000014305115,8|8,2:3|2:3,2:0:0:0:
231,253,132901,5,4,2:0:0:0:
231,253,133258,69,10,2:0:0:0:
245,330,133436,1,0,1:0:0:0:
153,220,133615,5,10,2:0:0:0:
298,136,133793,1,0,1:0:0:0:
166,303,133972,69,10,2:0:0:0:
121,53,134151,1,4,2:0:0:0:
121,53,134508,5,0,1:0:0:0:
192,74,134686,2,0,B|214:33|191:26|223:-23,1,75.0000028610231,10|0,2:0|1:0,2:0:0:0:
94,124,135043,2,0,B|47:127|51:103|-7:111,1,75.0000028610231,0|0,1:0|1:0,2:0:0:0:
121,53,135401,1,8,2:0:0:0:
171,148,135579,2,0,P|166:177|169:196,1,37.5000014305115,8|8,2:3|2:3,2:0:0:0:
213,320,135758,70,0,P|203:266|118:262,1,150,4|0,2:0|2:0,2:0:0:0:
110,276,136115,1,8,2:0:0:0:
273,367,136293,6,0,L|338:358,1,50,8|8,2:3|2:3,2:0:0:0:
389,343,136472,1,10,2:0:0:0:
406,351,136651,70,0,P|415:317|394:276,1,50,8|8,2:3|2:3,2:0:0:0:
328,241,136829,1,8,2:0:0:0:
314,232,137008,6,0,P|305:198|326:157,1,50,8|8,2:3|2:3,2:0:0:0:
398,117,137186,70,0,B|416:74|437:83|448:66|459:39|459:39|471:86|451:131|390:138|390:138|368:92|320:62|313:104|254:79|226:20|226:20|228:96|302:133|341:105,1,600.000022888185,4|2,2:0|2:3,2:0:0:0:
109,349,143615,22,0,B|46:280|84:208|84:208|167:250|150:349,1,300.000011444092,2|2,2:0|2:3,2:0:0:0:
452,40,149329,5,0,3:0:0:0:
408,101,149508,1,0,3:0:0:0:
403,92,149597,1,0,3:0:0:0:
398,83,149686,2,0,L|316:78,1,75,0|0,3:0|2:0,2:0:0:0:
309,70,150043,70,0,P|300:105|308:124,1,50,2|0,2:0|2:0,2:0:0:0:
358,225,150401,6,0,L|353:173,1,50,2|0,2:0|2:0,2:0:0:0:
365,230,150758,2,0,L|360:178,1,50,2|0,2:0|2:0,2:0:0:0:
372,235,151115,2,0,L|367:183,1,50,2|0,2:0|2:0,2:0:0:0:
306,322,151472,70,0,L|311:270,1,50,2|0,2:0|2:0,2:0:0:0:
299,327,151829,2,0,L|304:275,1,50,2|0,2:0|2:0,2:0:0:0:
292,332,152186,2,0,L|297:280,1,50,2|0,2:0|2:0,2:0:0:0:
217,249,152543,6,0,L|135:254,1,75,10|0,2:0|2:0,2:0:0:0:
128,262,152900,70,0,P|119:227|127:208,1,50,2|0,2:0|2:0,2:0:0:0:
177,107,153258,6,0,L|172:159,1,50,2|0,2:0|2:0,2:0:0:0:
184,102,153615,2,0,L|179:154,1,50,2|0,2:0|2:0,2:0:0:0:
191,97,153972,2,0,L|186:149,1,50,2|0,2:0|2:0,2:0:0:0:
57,72,154329,70,0,L|62:124,1,50,2|0,2:0|2:0,2:0:0:0:
50,67,154686,2,0,L|55:119,1,50,2|0,2:0|2:0,2:0:0:0:
43,63,155043,5,2,2:0:0:0:
118,116,155222,2,0,L|122:152,1,25,0|0,1:0|2:0,2:0:0:0:
16,213,155401,2,0,P|64:194|90:204,1,75,8|0,2:0|2:0,2:0:0:0:
150,203,155758,70,0,B|157:237|121:288|105:239|84:297|93:339,2,150.000005722046,4|0|0,2:0|1:0|1:0,2:0:0:0:
84,200,156651,1,0,2:0:0:0:
159,319,156829,1,8,2:0:0:0:
299,210,157008,6,0,B|346:215|365:247|365:247|377:212|423:203,1,150.000005722046,0|0,2:0|2:0,2:0:0:0:
472,327,157543,2,0,P|441:300|425:255,1,75.0000028610231,0|0,1:0|2:0,2:0:0:0:
275,344,157901,2,0,P|297:314|305:278,1,75.0000028610231,0|0,1:0|1:0,2:0:0:0:
356,148,158258,2,0,L|347:52,1,75.0000028610231,8|0,2:0|2:0,2:0:0:0:
417,204,158615,5,12,2:0:0:0:
275,344,158793,1,0,2:0:0:0:
163,137,158972,5,8,2:0:0:0:
305,277,159150,1,0,2:0:0:0:
441,70,159329,69,8,2:0:0:0:
299,210,159507,1,0,1:0:0:0:
371,325,159686,1,8,2:0:0:0:
487,192,159865,22,0,B|410:188|448:219|373:219,1,112.500004291535,12|0,2:0|2:0,2:0:0:0:
373,209,160222,6,0,L|376:190,1,12.5,0|0,1:0|2:0,2:0:0:0:
315,118,160401,70,0,L|319:163,1,25,8|0,2:0|2:0,2:0:0:0:
257,264,160579,6,0,L|259:206,1,42.5000008106232,0|0,1:0|2:0,2:0:0:0:
196,72,160758,70,0,L|209:153,1,69.9999978637696,10|0,2:0|2:0,2:0:0:0:
129,323,160936,6,0,P|139:244|150:204,1,104.999996795654,10|0,2:0|2:0,2:0:0:0:
27,43,161115,70,0,P|60:130|52:231,1,145.000004425049,10|0,2:0|2:0,2:0:0:0:
23,234,161293,6,0,P|9:221|4:208,2,25,10|0|0,2:0|2:0|1:0,2:0:0:0:
12,126,161651,69,2,2:0:0:0:
27,43,161830,69,2,2:0:0:0:
145,219,162008,21,2,2:0:0:0:
31,359,162186,37,2,2:0:0:0:
61,181,162365,22,0,L|56:198,1,12.5,2|0,1:2|2:0,2:0:0:0:
25,271,162543,70,0,B|162:260|81:352|291:338,1,225.000008583069,10|0,2:0|2:0,2:0:0:0:
256,336,162901,37,8,2:0:0:0:
256,104,163079,1,8,2:0:0:0:
256,104,163615,37,0,1:0:0:0:
266,181,163793,2,0,B|282:202|256:224|256:224|229:202|245:181,1,100,8|0,2:0|2:0,2:0:0:0:
256,104,164151,38,0,L|256:29,1,59.9999981689454,0|0,1:0|2:0,2:0:0:0:
332,230,164508,38,0,B|405:226|367:258|452:257,1,119.999996337891,10|0,2:0|2:0,2:0:0:0:
180,230,164865,2,0,B|107:226|145:258|60:257,1,119.999996337891,10|0,2:0|2:0,2:0:0:0:
192,320,165222,38,0,B|232:336|256:364|256:364|280:336|320:320,1,150.000005722046,10|8,2:0|2:3,2:0:0:0:
379,350,165668,1,8,2:3:0:0:
388,357,165758,54,0,B|491:340|505:222|453:211|411:253|445:309,1,225.000008583069,4|0,2:0|2:0,2:0:0:0:
342,259,166472,70,0,B|232:183|279:40|345:55|371:126|302:172,1,300,4|0,2:0|2:0,2:0:0:0:
257,301,167186,5,10,2:0:0:0:
207,93,167365,1,0,2:0:0:0:
342,259,167543,69,10,2:0:0:0:
149,168,167722,1,0,1:0:0:0:
362,166,167901,5,10,2:0:0:0:
171,261,168079,1,0,1:0:0:0:
302,92,168258,69,10,2:0:0:0:
257,191,168436,1,0,1:0:0:0:
257,191,168526,1,0,1:0:0:0:
257,191,168615,38,0,L|267:216,6,18.7500007152558,0|0|0|0|0|0|0,1:0|2:0|2:0|2:0|2:0|2:0|2:0,2:0:0:0:
248,172,168972,53,10,2:0:0:0:
284,290,169151,22,0,B|285:326|309:326|314:339|314:339|309:326|324:301|300:285,1,119.999996337891,2|0,2:0|2:0,2:0:0:0:
228,94,169508,2,0,B|227:58|203:58|198:45|198:45|203:58|188:83|212:99,1,119.999996337891,2|8,2:0|2:0,2:0:0:0:
352,206,169865,54,0,B|378:221|401:203|401:203|376:182|352:193,1,100,2|0,2:0|1:0,2:0:0:0:
160,178,170222,2,0,B|134:163|111:181|111:181|136:202|160:191,1,100,2|8,2:0|2:0,2:0:0:0:
279,164,170579,22,0,B|258:179|243:178|243:178|244:193|224:231,1,80,2|0,2:0|1:2,2:0:0:0:
236,221,170936,2,0,B|257:206|272:207|272:207|271:192|291:154,1,80,2|8,2:0|2:0,2:0:0:0:
328,114,171294,1,2,2:0:0:0:
170,257,171472,54,0,B|161:259|161:259|144:252|128:245|128:245|143:274|126:310|126:310|164:299|191:318|191:318|186:300|182:283|182:283|185:275,1,225.000008583069,6|0,2:0|2:0,2:0:0:0:
178,264,171829,1,8,2:0:0:0:
72,127,172008,54,0,B|54:114|15:124|58:175|87:168|116:142,1,119.999996337891,6|0,2:0|2:0,2:0:0:0:
183,97,172365,2,0,B|209:68|216:39|165:-4|155:35|168:53,1,119.999996337891,2|8,2:0|2:0,2:0:0:0:
84,268,172722,38,0,B|119:250|207:262|132:300|205:314|264:293,1,179.999994506836,6|0,2:0|2:0,2:0:0:0:
281,283,173079,2,0,P|246:270|219:287,1,59.9999981689454,0|0,1:0|2:0,2:0:0:0:
120,327,173258,2,0,P|126:363|154:378,1,59.9999981689454,10|0,2:0|2:0,2:0:0:0:
286,355,173436,1,10,2:0:0:0:
353,329,173526,1,8,2:0:0:0:
421,349,173615,54,0,B|435:357|438:382|438:382|421:376|412:352,1,59.9999981689454,8|0,2:0|2:0,2:0:0:0:
460,280,173793,1,8,1:2:0:0:
492,294,173883,1,8,2:0:0:0:
511,323,173972,6,0,B|516:338|502:359|502:359|493:343|502:319,1,59.9999981689454,0|0,1:3|1:3,2:0:0:0:
390,268,174151,1,8,2:3:0:0:
364,201,174240,1,8,2:3:0:0:
389,133,174329,54,0,L|460:118,1,59.9999981689454,6|0,2:1|2:0,2:0:0:0:
243,32,174508,2,0,L|172:17,1,59.9999981689454,2|0,2:0|2:0,2:0:0:0:
322,80,174686,1,8,2:0:0:0:
245,169,174865,38,0,B|233:242|265:216|248:304,1,119.999996337891,2|0,2:0|1:0,2:0:0:0:
192,368,175222,1,2,2:0:0:0:
192,368,175401,1,10,2:0:0:0:
102,258,175579,54,0,B|64:271|59:216|95:199|150:199|187:267,1,179.999994506836,2|0,2:0|2:0,2:0:0:0:
145,317,175936,2,0,P|108:325|85:343,1,59.9999981689454,2|0,2:0|2:0,2:0:0:0:
5,258,176115,2,0,P|11:220|3:192,1,59.9999981689454,8|0,2:0|2:0,2:0:0:0:
7,82,176293,6,0,B|84:73|101:15|101:15|100:76|197:104,1,239.999992675781,2|2,2:0|2:0,2:0:0:0:
209,34,176829,2,0,P|240:83|228:141,1,119.999996337891,8|2,2:0|2:0,2:0:0:0:
369,372,177186,54,0,L|358:267,1,75.0000028610231,6|0,2:0|2:0,2:0:0:0:
441,195,177365,2,0,L|430:300,1,75.0000028610231,8|0,2:0|2:0,2:0:0:0:
467,325,177544,38,0,B|455:335|451:344|451:344|446:336|418:335,1,50,8|0,2:0|2:0,2:0:0:0:
280,258,177722,1,2,2:0:0:0:
274,265,178079,53,8,2:3:0:0:
271,290,178168,1,8,2:3:0:0:
268,315,178257,1,10,2:0:0:0:
378,148,178436,6,0,B|420:71|364:57|290:100|323:195|378:226,1,239.999992675781,6|10,2:0|2:3,2:0:0:0:
441,195,178883,53,8,2:3:0:0:
441,195,178972,2,0,L|501:190,1,50,8|0,2:0|2:0,2:0:0:0:
442,327,179151,38,0,B|427:338|403:380|444:390|497:359|475:285|422:262,1,179.999994506836,6|0,2:0|2:0,2:0:0:0:
369,220,179508,2,0,P|356:246|368:304,1,59.9999981689454,0|0,1:0|2:0,2:0:0:0:
363,379,179686,1,8,2:0:0:0:
342,357,179775,1,8,2:0:0:0:
316,341,179864,1,10,2:0:0:0:
288,334,179953,1,0,1:0:0:0:
258,335,180043,54,0,B|246:339|220:376|220:376|244:249,1,179.999994506836,6|0,2:0|2:0,2:0:0:0:
256,192,180401,1,10,2:0:0:0:
354,167,180579,6,0,B|386:150|398:170|412:168|412:168|398:170|384:196|358:183,1,119.999996337891,2|0,2:0|1:0,2:0:0:0:
157,216,180936,2,0,B|125:233|113:213|99:215|99:215|113:213|127:187|153:200,1,119.999996337891,2|8,2:0|2:0,2:0:0:0:
316,268,181293,54,0,B|342:283|338:312|338:312|307:300|304:274,1,100,2|0,2:0|1:0,2:0:0:0:
195,115,181650,2,0,B|169:100|173:71|173:71|204:83|207:109,1,100,2|8,2:0|2:0,2:0:0:0:
212,296,182008,54,0,B|144:285|167:325|80:313,1,120,2|0,2:0|2:0,2:0:0:0:
74,374,182365,2,0,P|39:344|30:306,1,80,2|8,2:0|2:0,2:0:0:0:
64,255,182722,1,2,2:0:0:0:
195,115,182901,54,0,B|231:157|209:218|209:218|155:214,1,150,2|0,2:0|2:0,2:0:0:0:
150,212,183258,1,8,2:0:0:0:
34,160,183436,54,0,P|84:121|89:61,1,100,2|0,2:0|1:2,2:0:0:0:
215,14,183793,2,0,P|254:64|314:69,1,100,2|8,2:0|2:0,2:0:0:0:
442,167,184151,38,0,B|461:118|440:79|440:79|391:90|378:145,1,179.999994506836,6|0,2:0|2:0,2:0:0:0:
369,148,184508,2,0,P|403:161|413:186,1,59.9999981689454,8|0,2:3|2:0,2:0:0:0:
498,268,184686,1,10,2:0:0:0:
498,268,184865,2,0,P|472:336|417:344,1,119.999996337891,10|0,2:3|1:0,2:0:0:0:
295,266,185222,54,0,B|298:229|298:229|296:224|296:224|303:169,2,75.0000028610231,0|0|0,1:0|1:0|2:0,2:0:0:0:
100,309,185758,22,0,B|148:318|173:362|173:362|176:320|237:293,1,179.999994506836,6|0,1:1|2:0,2:0:0:0:
210,296,186115,1,10,2:0:0:0:
82,226,186293,38,0,P|59:253|34:260,1,59.9999981689454,2|0,2:0|2:0,2:0:0:0:
22,261,186472,2,0,P|33:294|27:319,1,59.9999981689454,2|0,1:2|2:0,2:0:0:0:
154,235,186651,38,0,B|154:160|111:193|114:101,1,119.999996337891,2|10,1:2|2:0,2:0:0:0:
183,130,187008,1,0,2:0:0:0:
46,76,187186,38,0,B|91:58|102:11|102:11|122:57|183:65,1,179.999994506836,2|0,1:2|2:0,2:0:0:0:
163,52,187543,1,10,2:0:0:0:
219,194,187722,38,0,L|291:189,1,59.9999981689454,2|0,2:0|2:0,2:0:0:0:
252,122,187901,2,0,L|324:117,1,59.9999981689454,2|0,1:2|2:0,2:0:0:0:
328,251,188079,38,0,B|328:326|285:293|288:385,1,119.999996337891,2|10,1:2|2:0,2:0:0:0:
357,356,188436,1,0,2:0:0:0:
466,189,188615,38,0,B|418:199|399:243|399:243|385:189|328:177,1,179.999994506836,2|0,1:2|2:0,2:0:0:0:
360,176,188972,1,10,2:0:0:0:
473,265,189151,38,0,P|488:291|492:321,1,59.9999981689454,2|0,2:0|2:0,2:0:0:0:
391,360,189329,2,0,P|361:363|335:378,1,59.9999981689454,2|0,1:0|2:0,2:0:0:0:
186,303,189508,38,0,B|186:228|143:261|146:169,1,119.999996337891,2|10,2:2|2:0,2:0:0:0:
215,198,189865,1,0,2:0:0:0:
120,294,190043,38,0,B|44:311|24:240|24:240|57:210|98:232,1,179.999994506836,2|0,1:2|2:0,2:0:0:0:
94,226,190401,1,10,2:0:0:0:
238,266,190579,38,0,B|290:323|239:376|239:376|196:362|195:316,1,179.999994506836,2|0,1:2|2:0,2:0:0:0:
192,322,190937,1,0,1:2:0:0:
262,190,191115,38,0,P|221:193|180:187,1,75.0000028610231,10|0,2:0|1:0,2:0:0:0:
21,77,191472,21,6,2:0:0:0:
178,108,191651,1,0,2:0:0:0:
172,263,191829,5,10,2:0:0:0:
329,232,192008,1,0,2:0:0:0:
323,80,192186,69,10,2:0:0:0:
480,111,192365,1,0,1:0:0:0:
403,96,192544,5,10,2:0:0:0:
403,96,192722,1,0,1:0:0:0:
474,36,192901,69,10,2:0:0:0:
493,124,193079,1,0,2:0:0:0:
380,28,193258,5,10,2:0:0:0:
400,177,193436,1,0,2:0:0:0:
290,22,193615,69,10,2:0:0:0:
282,198,193794,1,0,1:0:0:0:
208,6,193972,5,10,2:0:0:0:
168,196,194151,1,0,1:0:0:0:
32,80,194329,70,0,P|104:80|209:129,1,179.999994506836,6|0,2:0|2:0,2:0:0:0:
256,80,194686,5,10,2:0:0:0:
256,272,194865,1,2,2:0:0:0:
368,192,195043,69,10,2:0:0:0:
144,192,195222,1,0,1:0:0:0:
256,352,195401,1,10,2:0:0:0:
232,192,195579,6,0,B|224:160|208:136|248:136|256:80|256:80|264:136|304:136|288:160|280:192,1,240,8|0,2:0|2:0,2:0:0:0:
256,192,195936,1,8,2:0:0:0:
256,16,196115,1,8,2:0:0:0:
256,80,196293,69,0,1:0:0:0:
176,48,196472,5,10,2:3:0:0:
149,33,196561,1,8,2:3:0:0:
120,28,196650,1,0,1:0:0:0:
336,48,196829,69,10,2:3:0:0:
362,33,196918,1,8,2:3:0:0:
391,28,197007,1,2,2:0:0:0:
484,197,197186,54,0,B|391:205|442:145|321:160,1,150,4|0,2:1|2:0,2:0:0:0:
353,170,197543,1,8,2:0:0:0:
431,85,197722,38,0,B|444:76|453:66|453:66|482:90|455:154,1,100,2|0,2:0|1:0,2:0:0:0:
379,277,198079,1,2,2:0:0:0:
379,277,198258,2,0,P|410:229|471:234,1,100,8|2,2:0|2:0,2:0:0:0:
456,363,198615,54,0,P|381:322|287:307,1,150,0|0,1:0|2:0,2:0:0:0:
299,301,198972,1,8,2:0:0:0:
256,368,199151,1,2,2:0:0:0:
213,252,199329,6,0,L|220:316,1,50,0|0,1:2|2:0,2:0:0:0:
67,239,199508,2,0,L|74:175,1,50,2|0,2:0|2:0,2:0:0:0:
94,126,199686,2,0,B|122:132|135:156|135:156|146:138|184:133,1,100,8|2,2:0|2:0,2:0:0:0:
240,20,200043,54,0,L|245:123,1,100,0|2,1:0|2:0,2:0:0:0:
360,221,200401,2,0,B|349:171|295:162|295:162|270:187|237:183,1,150,8|0,2:0|2:0,2:0:0:0:
226,180,200758,1,0,1:0:0:0:
322,92,200936,1,2,2:0:0:0:
297,243,201115,2,0,L|292:346,1,100,8|2,2:0|2:0,2:0:0:0:
388,299,201472,37,0,1:0:0:0:
412,276,201561,1,0,2:0:0:0:
442,263,201650,1,2,2:0:0:0:
475,262,201739,1,0,2:0:0:0:
512,264,201829,53,8,2:0:0:0:
476,252,201918,1,0,2:0:0:0:
451,225,202007,1,2,2:0:0:0:
444,189,202096,1,0,2:0:0:0:
457,154,202186,5,0,1:2:0:0:
477,126,202275,1,0,2:0:0:0:
479,91,202364,1,2,2:0:0:0:
463,60,202453,1,0,2:0:0:0:
433,43,202543,53,8,2:0:0:0:
399,43,202632,1,0,2:0:0:0:
373,56,202722,2,0,P|357:94|362:117,1,50,8|8,2:3|2:3,2:0:0:0:
336,185,202901,38,0,B|246:166|277:224|182:202,1,150,4|0,2:0|2:0,2:0:0:0:
144,246,203258,2,0,P|128:208|133:185,1,50,8|0,2:0|2:0,2:0:0:0:
141,51,203436,2,0,P|163:95|159:161,1,100,2|0,2:0|1:0,2:0:0:0:
111,314,203793,2,0,P|67:292|1:296,1,100,2|8,2:0|2:0,2:0:0:0:
17,291,204151,1,2,2:0:0:0:
194,347,204329,54,0,B|220:354|242:377|242:377|211:196,1,200,0|8,1:0|2:0,2:0:0:0:
64,144,204865,6,0,B|20:95|52:28|52:28|117:49|115:134,1,239.999992675781,2|2,2:0|2:0,2:0:0:0:
89,204,205311,1,0,2:0:0:0:
86,222,205401,54,0,P|140:181|201:182,1,100,8|2,2:0|2:0,2:0:0:0:
391,114,205758,38,0,B|335:101|318:60|318:60|316:104|254:137,1,179.999994506836,4|0,2:0|2:0,2:0:0:0:
278,104,206115,1,8,2:0:0:0:
459,198,206293,54,0,B|403:210|386:252|386:252|384:208|322:174,1,179.999994506836,6|0,2:0|2:0,2:0:0:0:
345,207,206650,1,2,2:0:0:0:
454,68,206829,1,8,2:0:0:0:
457,277,207008,6,0,B|491:309|477:369|477:369|426:315|305:310,1,239.999992675781,6|2,2:0|2:0,2:0:0:0:
326,315,207454,1,0,2:0:0:0:
304,325,207543,1,8,2:0:0:0:
269,259,207722,54,0,P|242:281|231:311,1,59.9999981689454,2|0,2:0|2:0,2:0:0:0:
253,368,207901,1,0,1:2:0:0:
196,230,208079,37,10,2:0:0:0:
165,201,208168,1,8,2:0:0:0:
123,192,208258,1,8,2:0:0:0:
85,210,208347,1,8,2:0:0:0:
43,205,208436,1,8,1:2:0:0:
18,170,208526,1,8,1:2:0:0:
25,128,208615,54,0,P|38:81|38:64,1,59.9999981689454,6|0,2:1|2:0,2:0:0:0:
156,32,208793,2,0,P|172:57|194:77,1,59.9999981689454,2|0,2:0|2:0,2:0:0:0:
109,91,208972,1,8,2:0:0:0:
234,139,209151,6,0,B|315:132|276:175|354:167,1,119.999996337891,2|0,2:0|1:0,2:0:0:0:
295,39,209509,1,2,2:0:0:0:
295,39,209687,1,10,2:0:0:0:
247,207,209865,54,0,B|198:226|185:269|185:269|163:213|100:204,1,179.999994506836,2|0,2:0|2:0,2:0:0:0:
74,322,210222,2,0,P|97:289|120:278,1,59.9999981689454,2|0,2:0|2:0,2:0:0:0:
257,280,210401,2,0,P|291:301|303:323,1,59.9999981689454,8|0,2:0|2:0,2:0:0:0:
448,330,210579,38,0,B|424:339|385:366|385:366|418:181,1,239.999992675781,2|2,2:0|2:0,2:0:0:0:
404,132,211115,2,0,P|461:149|481:213,1,119.999996337891,8|2,2:0|2:0,2:0:0:0:
317,362,211472,54,0,L|337:254,1,75.0000028610231,6|0,2:0|2:0,2:0:0:0:
243,203,211651,2,0,L|263:311,1,75.0000028610231,8|0,2:0|2:0,2:0:0:0:
223,361,211829,6,0,B|218:330|218:330|228:336|234:339,1,50,8|0,2:0|2:0,2:0:0:0:
344,213,212008,1,2,2:0:0:0:
338,205,212365,53,8,2:3:0:0:
341,180,212454,1,8,2:3:0:0:
344,155,212543,1,10,2:0:0:0:
183,101,212722,38,0,B|247:84|265:15|265:15|291:79|397:92,1,239.999992675781,6|10,2:0|2:3,2:0:0:0:
420,62,213168,53,8,2:3:0:0:
420,62,213258,2,0,L|412:126,1,50,8|0,2:0|2:0,2:0:0:0:
268,238,213436,6,0,B|222:241|202:289|202:289|189:237|141:224,1,179.999994506836,6|0,2:0|2:0,2:0:0:0:
99,176,213793,2,0,P|82:245|86:253,1,59.9999981689454,0|0,1:0|2:0,2:0:0:0:
122,356,213972,1,8,2:3:0:0:
123,350,214061,1,8,2:3:0:0:
124,344,214151,1,10,2:3:0:0:
321,285,214329,54,0,P|340:222|324:189,1,100,6|2,2:0|2:0,2:0:0:0:
209,66,214686,2,0,B|156:53|96:65|160:112|68:141|17:108,1,200,10|0,2:0|1:0,2:0:0:0:
36,16,215222,38,0,P|60:42|61:72,1,50,2|0,2:0|2:0,2:0:0:0:
174,130,215401,2,0,P|163:163|138:179,1,50,8|0,2:0|2:0,2:0:0:0:
25,298,215579,54,0,P|76:248|188:265,1,150,2|0,2:0|2:0,2:0:0:0:
221,283,215936,6,0,L|215:220,1,50,2|0,2:0|2:0,2:0:0:0:
286,98,216115,2,0,L|290:147,1,50,8|0,2:0|2:0,2:0:0:0:
298,235,216293,54,0,B|358:233|329:265|397:266,1,100,2|0,2:0|1:2,2:0:0:0:
472,127,216651,1,2,2:0:0:0:
472,127,216829,2,0,B|474:187|442:158|441:226,1,100,8|2,2:0|2:0,2:0:0:0:
503,384,217186,38,0,P|452:334|340:351,1,150,2|0,2:0|2:0,2:0:0:0:
344,345,217543,53,8,2:0:0:0:
311,356,217632,1,0,2:0:0:0:
276,353,217721,1,2,2:0:0:0:
246,336,217810,1,0,2:0:0:0:
229,305,217900,5,0,1:0:0:0:
217,272,217989,1,0,2:0:0:0:
195,246,218078,1,2,2:0:0:0:
162,233,218167,1,0,2:0:0:0:
126,233,218258,53,8,2:0:0:0:
97,253,218347,1,0,2:0:0:0:
82,284,218436,1,2,2:0:0:0:
82,318,218525,1,0,2:0:0:0:
102,346,218615,38,0,L|159:340,1,50,4|0,2:0|2:0,2:0:0:0:
261,173,218793,2,0,L|211:178,1,50,8|0,2:0|2:0,2:0:0:0:
39,62,218972,54,0,P|93:112|90:165,1,100,10|10,2:0|2:3,2:0:0:0:
91,159,219240,1,8,2:3:0:0:
74,177,219329,1,8,2:0:0:0:
185,57,219508,5,8,2:3:0:0:
184,41,219597,1,8,2:3:0:0:
184,25,219686,1,0,1:0:0:0:
351,273,220043,54,0,B|350:267|357:301|343:282|356:341|367:329|401:358|401:358|406:348|415:353|415:353|424:310|442:312|414:257|415:281|393:239|393:239|393:239|393:239|427:246|415:252|468:258|463:243|499:221|499:221|491:213|498:205|498:205|460:183|467:167|406:177|429:183|384:191|384:191|384:193|384:193|401:162|404:176|425:126|410:127|399:86|399:86|389:90|385:81|385:81|352:111|339:99|329:159|343:140|336:185|336:185|336:183|336:183|314:159|326:160|287:126|282:141|240:138|240:138|242:149|232:150|232:150|249:191|234:199|289:228|275:209|316:228|316:228|316:228|316:228|285:242|289:229|245:256|258:265|241:305|241:305|252:306|251:316|251:316|295:312|298:329|342:286|319:294|352:260,1,1280,4|2,2:1|2:3,2:0:0:0:
