osu file format v14

[General]
AudioFilename: audio.mp3
AudioLeadIn: 0
PreviewTime: 563
Countdown: 0
SampleSet: Soft
StackLeniency: 0.7
Mode: 0
LetterboxInBreaks: 0
WidescreenStoryboard: 1

[Editor]
DistanceSpacing: 0.9
BeatDivisor: 4
GridSize: 32
TimelineZoom: 1

[Metadata]
Title:Kyun Kyun MIKO Kyun kyun <3
TitleUnicode:きゅんきゅんみこきゅんきゅん♡
Artist:Sakura Miko
ArtistUnicode:さくらみこ
Creator:Left
Version:Normal
Source:
Tags:Amateurre Shizuku- Kazato Asa Shikibe Mayu Ayesha Altugle Affirmation みこち Mikochi 35p ホロライブ hololive vtuber virtual youtuber original japanese pop jpop j-pop
BeatmapID:4521969
BeatmapSetID:2146215

[Difficulty]
HPDrainRate:4
CircleSize:3
OverallDifficulty:4
ApproachRate:6
SliderMultiplier:1.2
SliderTickRate:1

[Events]
//Background and Video events
0,0,"miko.jpg",0,0
Video,0,"optc.flv"
//Break Periods
2,81980,88430
2,148313,150263
//Storyboard Layer 0 (Background)
//Storyboard Layer 1 (Fail)
//Storyboard Layer 2 (Pass)
//Storyboard Layer 3 (Foreground)
//Storyboard Layer 4 (Overlay)
//Storyboard Sound Samples

[TimingPoints]
647,333.333333333333,4,2,7,70,1,0
9980,-100,4,2,7,75,0,0
10313,-100,4,2,7,80,0,0
10646,-100,4,2,7,90,0,0
12146,-100,4,2,7,80,0,0
23479,-100,4,2,7,75,0,0
44646,-100,4,2,7,70,0,0
49980,-100,4,2,7,75,0,0
52811,-100,4,2,7,60,0,0
55313,-100,4,2,8,60,0,0
56146,-100,4,2,8,65,0,0
56480,-100,4,2,8,70,0,0
56980,-100,4,2,8,75,0,0
57146,-100,4,2,7,80,0,0
57980,-100,4,2,7,80,0,1
79313,-100,4,2,7,80,0,0
89480,-100,4,2,7,75,0,0
111313,-100,4,2,7,70,0,0
116646,-100,4,2,7,75,0,0
119476,-100,4,2,7,60,0,0
121980,-100,4,2,8,60,0,0
122812,-100,4,2,8,65,0,0
123146,-100,4,2,8,70,0,0
123313,-100,4,2,8,75,0,0
123813,-100,4,2,7,80,0,0
124646,-100,4,2,7,80,0,1
145980,-100,4,2,7,80,0,0
153980,-100,4,2,7,60,0,0
155980,-100,4,2,7,65,0,0
156146,-100,4,2,7,70,0,0
156313,-100,4,2,7,75,0,0
178141,-100,4,2,7,60,0,0
180646,-100,4,2,8,60,0,0
181813,-100,4,2,8,65,0,0
182313,-100,4,2,8,70,0,0
182480,-100,4,2,7,75,0,0
182813,-100,4,2,7,80,0,0
183313,-100,4,2,7,75,0,0
187313,-100,4,2,7,70,0,0
188313,-100,4,2,7,80,0,0
188646,-100,4,2,7,80,0,1
204646,-100,4,2,7,80,0,0

[Colours]
Combo1 : 163,222,254
Combo2 : 100,100,100
Combo3 : 222,222,222
Combo4 : 253,89,118
Combo5 : 254,194,205
Combo6 : 255,232,153
Combo7 : 217,157,0
Combo8 : 210,255,117

[HitObjects]
216,326,1313,22,0,P|251:318|292:309,1,60,10|0,2:0|3:0,2:0:0:0:
304,268,1646,1,8,2:0:0:0:
380,344,1980,69,2,3:2:0:0:
410,240,2313,1,10,2:0:0:0:
334,163,2646,1,2,3:2:0:0:
145,57,3313,5,2,3:1:0:0:
115,161,3646,1,10,2:1:0:0:
191,238,3980,1,2,3:1:0:0:
366,111,4646,101,2,3:2:0:0:
310,18,4980,1,10,2:0:0:0:
202,9,5313,1,2,3:2:0:0:
131,213,5980,5,2,3:1:0:0:
187,306,6313,1,10,2:1:0:0:
295,315,6646,1,2,3:1:0:0:
254,103,7313,101,2,3:1:0:0:
150,71,7646,1,10,2:1:0:0:
74,148,7980,2,0,P|65:193|60:215,1,60,2|2,3:1|2:0,2:0:0:0:
15,235,8313,1,10,2:1:0:0:
90,312,8646,5,2,3:1:0:0:
194,344,8980,1,10,2:1:0:0:
270,267,9313,2,0,P|279:222|284:200,1,60,10|2,2:1|2:0,2:0:0:0:
329,180,9646,1,10,2:1:0:0:
362,77,9980,38,0,P|288:64|216:49,1,120,4|4,3:1|3:2,2:0:0:0:
145,99,10646,1,0,3:2:0:0:
145,99,10813,1,0,3:0:0:0:
145,99,10980,2,0,P|71:86|-1:71,1,120,4|4,3:2|3:1,2:0:0:0:
211,274,12146,6,0,P|205:308|200:339,2,60,10|10|10,2:3|2:3|2:3,2:0:0:0:
184,226,12646,102,0,P|243:219|302:210,1,120,4|8,3:1|2:0,2:0:0:0:
401,255,13313,2,0,P|409:202|413:171,1,60,0|2,3:0|2:3,2:0:0:0:
380,150,13646,2,0,P|375:120|371:90,1,60,8|2,2:0|2:3,2:0:0:0:
402,46,13980,1,0,3:0:0:0:
300,9,14313,2,0,P|237:20|167:28,1,120,8|0,2:0|3:0,2:0:0:0:
79,62,14980,5,8,2:0:0:0:
79,62,15146,2,0,P|71:104|65:129,1,60,2|0,2:3|3:0,2:0:0:0:
132,207,15646,1,8,2:0:0:0:
132,207,15813,2,0,P|124:249|118:274,1,60,2|0,2:3|3:0,2:0:0:0:
79,302,16146,1,2,2:3:0:0:
79,302,16313,2,0,P|162:320|218:336,1,120,8|0,2:0|3:0,2:0:0:0:
294,284,16980,1,8,2:0:0:0:
392,329,17313,2,0,P|400:286|403:262,1,60,0|2,3:0|2:3,2:0:0:0:
376,222,17646,1,10,2:0:0:0:
323,128,17980,102,0,P|396:118|451:110,1,120,4|8,3:2|2:0,2:0:0:0:
422,4,18646,2,0,P|349:14|294:22,1,120,0|8,3:2|2:0,2:0:0:0:
258,51,19146,1,2,2:3:0:0:
258,51,19313,2,0,P|252:88|248:119,1,60,0|2,3:0|2:3,2:0:0:0:
204,140,19646,2,0,P|210:177|214:208,1,60,8|2,2:0|2:3,2:0:0:0:
256,231,19980,1,0,3:0:0:0:
173,300,20313,1,8,2:0:0:0:
73,257,20646,6,0,P|29:249|-8:244,2,60,0|2|8,3:0|2:3|2:0,2:0:0:0:
121,160,21313,2,0,P|165:168|202:173,2,60,0|2|8,3:0|2:3|2:0,2:0:0:0:
104,53,21980,1,0,3:2:0:0:
371,15,22813,69,10,2:1:0:0:
371,15,22980,2,0,P|381:63|385:86,1,60,10|2,2:1|3:1,2:0:0:0:
426,105,23313,6,0,P|327:124|284:267,1,240,4|0,3:2|3:2,2:0:0:0:
168,363,24480,1,2,2:0:0:0:
168,363,24646,2,0,P|69:344|26:201,1,240,2|0,3:2|3:2,2:0:0:0:
49,65,25813,1,2,2:0:0:0:
49,65,25980,2,0,P|188:57|297:19,1,240,2|0,3:2|3:2,2:0:0:0:
309,185,27146,1,2,2:0:0:0:
309,185,27313,2,0,P|170:193|61:231,1,240,0|0,3:2|3:2,2:0:0:0:
101,328,28313,1,2,2:1:0:0:
205,300,28646,102,0,P|264:307|329:321,1,120,6|8,3:1|2:0,2:0:0:0:
339,212,29313,2,0,P|280:205|215:191,1,120,0|8,3:0|2:0,2:0:0:0:
120,232,29980,2,0,P|61:219|1:212,1,120,0|8,3:0|2:0,2:0:0:0:
18,105,30646,2,0,P|76:117|136:124,1,120,0|8,3:0|2:0,2:0:0:0:
226,65,31313,5,0,3:0:0:0:
327,101,31646,1,8,2:0:0:0:
418,43,31980,2,0,P|433:122|447:178,1,120,0|10,3:0|2:0,2:0:0:0:
483,195,32480,2,0,P|394:213|359:310,1,180,4|0,3:1|3:0,2:0:0:0:
387,332,33146,1,0,3:0:0:0:
387,332,33313,1,0,3:0:0:0:
288,374,33646,2,0,P|247:363|206:354,1,60,8|0,2:0|3:0,2:0:0:0:
178,377,33980,54,0,P|195:299|202:248,2,120,4|8|0,3:2|2:0|3:0,2:0:0:0:
98,303,34980,1,8,2:0:0:0:
105,195,35313,2,0,P|130:94|257:56,1,240,0|4,3:0|3:2,2:0:0:0:
462,20,36646,102,0,P|470:83|480:143,1,120,4|8,3:2|2:0,2:0:0:0:
371,152,37313,2,0,P|363:89|353:29,1,120,0|8,3:0|2:0,2:0:0:0:
462,20,37980,1,0,3:0:0:0:
433,233,38646,2,0,P|360:227|274:373,1,240,2|4,3:2|3:2,2:0:0:0:
171,304,39646,5,8,2:0:0:0:
74,352,39980,1,0,3:0:0:0:
64,136,40646,1,2,3:1:0:0:
162,88,40980,1,10,2:1:0:0:
256,139,41313,1,2,3:1:0:0:
353,91,41646,1,10,2:1:0:0:
448,140,41980,2,0,P|460:210|471:263,2,120,4|8|0,3:2|2:0|3:0,2:0:0:0:
448,31,42980,1,8,2:0:0:0:
357,89,43313,102,0,P|316:82|286:80,1,60,0|8,3:0|2:3,2:0:0:0:
251,108,43646,2,0,P|210:101|180:99,1,60,0|8,3:0|2:3,2:0:0:0:
143,125,43980,1,4,3:2:0:0:
45,79,44313,2,0,P|40:115|35:143,1,60,8|0,2:0|3:0,2:0:0:0:
2,180,44646,22,0,P|85:201|133:297,1,180,4|0,3:1|3:0,2:0:0:0:
111,328,45313,1,0,3:0:0:0:
217,345,45646,1,10,2:3:0:0:
234,238,45980,2,0,P|244:129|268:-15,1,240,0|0,3:0|3:2,2:0:0:0:
356,57,46980,2,0,P|401:50|437:44,1,60,10|2,2:3|2:0,2:0:0:0:
454,9,47313,1,0,3:2:0:0:
432,169,47813,5,0,3:0:0:0:
432,169,47980,2,0,P|361:157|291:150,1,120,0|10,3:0|2:3,2:0:0:0:
269,250,48646,2,0,P|384:261|530:293,1,240,0|0,3:0|3:0,2:0:0:0:
496,178,49646,1,10,2:3:0:0:
402,232,49980,102,0,P|389:181|380:152,1,60,4|2,3:2|2:3,2:0:0:0:
407,123,50313,2,0,P|398:94|391:64,1,60,8|2,2:0|2:3,2:0:0:0:
347,34,50646,2,0,P|293:31|219:21,1,120,0|8,3:0|2:0,2:0:0:0:
187,58,51146,1,2,2:3:0:0:
187,58,51313,1,4,3:2:0:0:
90,10,51646,2,0,P|83:52|76:88,1,60,8|2,2:0|2:3,2:0:0:0:
103,117,51980,1,0,3:0:0:0:
34,200,52313,1,12,2:0:0:0:
121,263,52646,38,0,P|291:266|461:370,1,360,4|8,3:2|2:0,2:0:0:0:
477,254,53980,2,0,P|475:176|240:90,1,360,0|8,3:0|2:0,2:0:0:0:
165,153,55313,1,2,3:0:0:0:
19,83,55813,101,2,3:0:0:0:
19,83,55980,2,0,P|13:53|7:24,2,60,0|0|0,3:0|3:2|3:0,2:0:0:0:
64,112,56480,1,2,3:0:0:0:
64,112,56646,1,0,3:0:0:0:
47,218,56980,5,0,3:0:0:0:
47,218,57146,1,10,2:0:0:0:
28,324,57480,101,2,3:1:0:0:
28,324,57646,2,0,P|78:316|110:312,1,60,2|2,3:1|3:1,2:0:0:0:
126,277,57980,22,0,P|194:289|257:299,1,120,4|8,3:1|2:0,2:0:0:0:
281,336,58480,1,2,2:3:0:0:
281,336,58646,2,0,P|340:326|399:315,1,120,0|8,3:0|2:0,2:0:0:0:
440,280,59146,1,2,2:3:0:0:
440,280,59313,1,0,3:0:0:0:
420,178,59646,1,8,0:0:0:0:
420,178,59813,2,0,P|409:127|401:100,1,60,2|0,2:3|3:0,2:0:0:0:
359,92,60146,1,2,2:3:0:0:
359,92,60313,1,8,2:0:0:0:
300,8,60646,5,0,3:2:0:0:
300,8,60813,2,0,P|250:21|219:27,1,60,2|8,2:3|2:0,2:0:0:0:
212,68,61146,1,2,2:3:0:0:
212,68,61313,2,0,P|141:54|86:47,1,120,0|8,3:0|2:0,2:0:0:0:
40,141,61980,1,0,3:0:0:0:
69,244,62313,1,8,2:0:0:0:
23,341,62646,1,2,3:1:0:0:
23,341,62813,1,2,2:3:0:0:
23,341,62980,1,10,2:1:0:0:
130,337,63313,102,0,P|211:323|269:315,1,120,4|8,3:1|2:0,2:0:0:0:
298,338,63813,1,2,2:3:0:0:
298,338,63980,2,0,P|311:258|322:200,1,120,0|8,3:0|2:0,2:0:0:0:
358,183,64480,1,2,2:3:0:0:
358,183,64646,2,0,P|345:103|334:45,2,120,0|8|0,3:0|2:0|3:0,2:0:0:0:
408,201,65480,1,2,2:3:0:0:
353,294,65813,5,2,2:3:0:0:
353,294,65980,2,0,P|315:285|226:268,1,120,4|8,3:2|2:0,2:0:0:0:
159,192,66646,2,0,P|111:198|85:202,1,60,0|2,3:0|2:3,2:0:0:0:
58,235,66980,2,0,P|55:264|50:294,1,60,8|2,2:0|2:3,2:0:0:0:
94,324,67313,2,0,P|207:317|317:388,1,240,0|2,3:0|3:1,2:0:0:0:
419,367,68313,1,10,2:1:0:0:
483,279,68646,102,0,P|485:242|488:208,1,60,4|2,3:1|2:3,2:0:0:0:
501,166,68980,2,0,P|464:164|430:161,1,60,8|2,2:0|2:3,2:0:0:0:
388,148,69313,2,0,P|386:185|383:219,1,60,0|2,3:0|2:3,2:0:0:0:
370,261,69646,2,0,P|407:263|441:266,1,60,8|2,2:0|2:3,2:0:0:0:
483,279,69980,1,4,3:2:0:0:
131,28,71313,6,0,P|129:65|126:99,1,60,0|2,3:2|2:3,2:0:0:0:
113,141,71646,2,0,P|150:143|184:146,1,60,8|2,2:0|2:3,2:0:0:0:
226,159,71980,2,0,P|228:122|231:88,1,60,0|2,3:0|2:3,2:0:0:0:
244,46,72313,2,0,P|207:44|173:41,1,60,8|2,2:0|2:3,2:0:0:0:
131,28,72646,1,4,3:2:0:0:
424,344,73980,102,0,P|387:346|353:349,1,60,0|2,3:0|2:3,2:0:0:0:
311,362,74313,2,0,P|309:325|306:291,1,60,8|2,2:0|2:3,2:0:0:0:
293,249,74646,2,0,P|330:247|364:244,1,60,0|2,3:0|2:3,2:0:0:0:
406,231,74980,2,0,P|408:268|411:302,1,60,8|2,2:0|2:3,2:0:0:0:
424,344,75313,1,0,3:0:0:0:
161,282,76146,5,10,2:3:0:0:
161,282,76313,2,0,P|106:288|74:292,1,60,0|10,3:0|2:3,2:0:0:0:
55,317,76646,101,6,3:1:0:0:
27,212,76980,1,6,3:1:0:0:
58,108,77313,1,6,3:1:0:0:
58,108,77480,1,2,3:1:0:0:
58,108,77646,1,2,3:1:0:0:
144,43,77980,1,6,3:1:0:0:
410,90,78813,5,10,2:3:0:0:
410,90,78980,2,0,P|418:134|423:167,1,60,10|10,2:3|2:3,2:0:0:0:
463,182,79313,1,4,3:1:0:0:
256,192,79480,12,12,81646,2:0:0:0:
141,263,89480,70,0,P|148:293|153:321,2,60,10|10|2,2:1|0:1|3:1,2:0:0:0:
107,221,89980,6,0,P|59:211|22:205,1,60,4|2,3:2|2:0,2:0:0:0:
75,104,90480,1,2,2:0:0:0:
75,104,90646,2,0,P|123:114|160:120,1,60,0|2,3:0|2:0,2:0:0:0:
214,44,91146,1,2,2:0:0:0:
214,44,91313,2,0,P|262:34|299:28,1,60,0|2,3:0|2:0,2:0:0:0:
295,137,91813,1,2,2:0:0:0:
295,137,91980,2,0,P|247:147|210:153,1,60,0|2,3:0|2:0,2:0:0:0:
159,225,92480,101,2,2:0:0:0:
159,225,92646,2,0,P|145:278|136:305,1,60,0|2,3:0|2:0,2:0:0:0:
247,311,93146,1,2,2:0:0:0:
247,311,93313,2,0,P|261:258|270:231,1,60,0|2,3:0|2:0,2:0:0:0:
369,273,93813,1,2,2:0:0:0:
369,273,93980,2,0,P|422:264|454:260,1,60,0|2,3:0|2:0,2:0:0:0:
407,156,94480,1,2,2:0:0:0:
407,156,94646,2,0,P|354:165|322:169,1,60,0|2,3:0|2:0,2:0:0:0:
303,135,94980,1,2,2:1:0:0:
195,122,95313,6,0,P|179:50|168:-24,1,120,4|8,3:2|2:0,2:0:0:0:
66,30,95980,2,0,P|82:102|93:176,1,120,0|8,3:0|2:0,2:0:0:0:
162,226,96646,2,0,P|172:285|185:343,1,120,0|8,3:0|2:0,2:0:0:0:
80,369,97313,2,0,P|69:309|56:251,1,120,0|8,3:0|2:0,2:0:0:0:
87,147,97980,101,0,3:0:0:0:
190,177,98313,1,8,2:0:0:0:
163,281,98646,2,0,P|219:291|291:312,1,120,0|10,3:0|2:0,2:0:0:0:
311,351,99146,2,0,P|336:279|443:247,1,180,4|0,3:1|3:0,2:0:0:0:
470,276,99813,1,0,3:0:0:0:
470,276,99980,1,0,3:0:0:0:
510,175,100313,2,0,P|495:131|486:103,1,60,8|0,2:0|3:0,2:0:0:0:
508,67,100646,70,0,P|407:54|263:21,1,240,4|0,3:2|3:0,2:0:0:0:
202,106,101646,1,8,2:0:0:0:
94,117,101980,2,0,P|73:48|58:-2,2,120,0|10|0,3:0|2:0|3:0,2:0:0:0:
154,206,102980,1,2,3:2:0:0:
180,310,103313,102,0,P|104:328|46:348,1,120,4|8,3:2|2:0,2:0:0:0:
38,237,103980,2,0,P|114:219|172:199,1,120,0|8,3:0|2:0,2:0:0:0:
241,143,104646,1,2,3:1:0:0:
317,217,104980,1,10,2:1:0:0:
397,292,105313,1,2,3:1:0:0:
481,357,105646,1,10,2:1:0:0:
498,250,105980,6,0,P|486:191|473:126,2,120,4|8|0,3:2|2:0|3:0,2:0:0:0:
481,357,106980,1,8,2:0:0:0:
397,292,107313,1,2,3:2:0:0:
397,292,107480,2,0,P|347:299|318:303,1,60,0|10,2:0|2:0,2:0:0:0:
297,337,107813,1,0,2:0:0:0:
297,337,107980,1,2,3:2:0:0:
208,275,108313,1,2,3:2:0:0:
100,292,108646,102,0,P|98:175|-3:117,1,240,4|0,3:2|3:0,2:0:0:0:
53,22,109646,1,8,2:0:0:0:
110,113,109980,2,0,P|150:106|182:102,1,60,0|0,3:0|3:0,2:0:0:0:
205,62,110313,2,0,P|245:69|277:73,1,60,8|0,2:0|3:0,2:0:0:0:
311,44,110646,2,0,P|305:103|303:163,1,120,4|8,3:2|2:0,2:0:0:0:
271,266,111313,22,0,P|367:275|434:347,1,180,4|0,3:2|3:0,2:0:0:0:
480,331,111980,1,0,3:0:0:0:
466,223,112313,1,10,2:3:0:0:
496,119,112646,2,0,P|375:101|241:73,1,240,0|0,2:0|3:0,2:0:0:0:
162,29,113646,2,0,P|133:37|90:50,1,60,10|0,2:3|2:0,2:0:0:0:
72,89,113980,1,4,3:2:0:0:
173,215,114480,5,0,3:0:0:0:
173,215,114646,2,0,P|218:226|304:243,2,120,0|10|0,3:0|2:3|3:0,2:0:0:0:
59,330,115813,1,0,3:2:0:0:
59,330,115980,2,0,P|132:347|200:371,1,120,0|10,3:0|2:3,2:0:0:0:
282,346,116646,102,0,P|330:333|353:329,1,60,4|2,3:2|2:3,2:0:0:0:
392,344,116980,2,0,P|402:291|408:260,1,60,8|2,2:0|2:3,2:0:0:0:
368,243,117313,2,0,P|358:190|352:159,2,60,0|2|8,3:0|2:3|2:0,2:0:0:0:
467,200,117980,2,0,P|472:132|478:77,1,120,4|8,3:2|2:0,2:0:0:0:
446,36,118480,1,2,2:3:0:0:
446,36,118646,1,0,3:0:0:0:
341,61,118980,1,8,2:0:0:0:
241,18,119313,38,0,P|146:27|108:254,1,360,0|8,2:0|2:0,2:0:0:0:
12,309,120646,2,0,P|185:291|360:387,1,360,0|8,3:0|2:0,2:0:0:0:
438,315,121980,1,2,3:0:0:0:
365,170,122480,101,2,3:0:0:0:
365,170,122646,2,0,P|373:119|377:93,2,60,0|0|0,3:0|3:0|3:0,2:0:0:0:
324,205,123146,1,2,2:3:0:0:
324,205,123313,1,0,3:0:0:0:
268,112,123646,5,0,3:0:0:0:
268,112,123813,1,8,2:0:0:0:
207,22,124146,101,2,3:1:0:0:
207,22,124313,2,0,P|161:31|137:34,1,60,2|10,3:1|3:1,2:0:0:0:
97,13,124646,22,0,P|86:77|74:139,1,120,4|8,3:1|2:0,2:0:0:0:
29,159,125146,1,2,2:3:0:0:
29,159,125313,2,0,P|40:223|52:285,1,120,0|8,3:0|2:0,2:0:0:0:
74,331,125813,1,2,2:3:0:0:
74,331,125980,1,0,3:0:0:0:
183,310,126313,1,8,0:0:0:0:
183,310,126480,2,0,P|230:302|260:300,1,60,2|0,2:3|3:0,2:0:0:0:
273,257,126813,1,2,2:3:0:0:
273,257,126980,1,8,2:0:0:0:
366,311,127313,5,0,3:0:0:0:
366,311,127480,2,0,P|378:258|385:234,1,60,2|8,2:3|2:0,2:0:0:0:
357,203,127813,1,2,2:3:0:0:
357,203,127980,2,0,P|373:138|387:76,1,120,0|8,3:0|2:0,2:0:0:0:
310,7,128646,1,0,3:0:0:0:
205,35,128980,1,8,2:0:0:0:
99,10,129313,1,2,3:1:0:0:
99,10,129480,1,2,2:3:0:0:
99,10,129646,1,10,2:1:0:0:
65,112,129980,102,0,P|145:132|207:150,1,120,4|8,3:1|2:0,2:0:0:0:
233,129,130480,1,2,2:3:0:0:
233,129,130646,2,0,P|254:201|271:261,1,120,0|8,3:0|2:0,2:0:0:0:
315,266,131146,1,2,2:3:0:0:
315,266,131313,2,0,P|302:340|295:389,2,120,0|8|0,3:0|2:0|3:0,2:0:0:0:
359,234,132146,1,2,2:3:0:0:
422,146,132480,5,2,2:3:0:0:
422,146,132646,2,0,P|411:85|401:13,1,120,4|8,3:2|2:0,2:0:0:0:
295,10,133313,2,0,P|254:17|228:19,1,60,0|2,3:0|2:3,2:0:0:0:
193,52,133646,2,0,P|163:46|133:43,1,60,8|2,2:0|2:3,2:0:0:0:
89,12,133980,2,0,P|40:96|55:244,1,240,0|2,3:0|3:1,2:0:0:0:
84,337,134980,1,10,2:1:0:0:
158,258,135313,102,0,P|156:221|153:187,1,60,4|2,3:1|2:3,2:0:0:0:
141,145,135646,2,0,P|178:143|212:140,1,60,8|2,2:0|2:3,2:0:0:0:
253,127,135980,2,0,P|255:164|258:198,1,60,0|2,3:0|2:3,2:0:0:0:
271,240,136313,2,0,P|234:242|200:245,1,60,8|2,2:0|2:3,2:0:0:0:
158,258,136646,1,4,3:2:0:0:
512,18,137980,6,0,P|504:54|498:87,1,60,0|2,3:0|2:3,2:0:0:0:
500,131,138313,2,0,P|463:123|430:117,1,60,0|2,2:0|2:3,2:0:0:0:
387,119,138646,2,0,P|394:82|400:49,1,60,0|2,3:0|2:3,2:0:0:0:
399,6,138980,2,0,P|435:13|468:19,1,60,8|2,2:0|2:3,2:0:0:0:
512,18,139313,1,4,3:2:0:0:
250,362,140646,102,0,P|286:354|319:348,1,60,0|2,3:0|2:3,2:0:0:0:
363,350,140980,2,0,P|355:313|349:280,1,60,8|2,2:0|2:3,2:0:0:0:
351,237,141313,2,0,P|314:244|281:250,1,60,0|2,3:0|2:3,2:0:0:0:
238,249,141646,2,0,P|245:285|251:318,1,60,8|2,2:0|2:3,2:0:0:0:
250,362,141980,1,0,3:0:0:0:
48,182,142813,5,2,2:3:0:0:
48,182,142980,2,0,P|86:177|134:173,1,60,8|10,2:0|2:3,2:0:0:0:
148,210,143313,101,6,3:1:0:0:
177,105,143646,1,6,3:1:0:0:
266,44,143980,1,6,3:1:0:0:
266,44,144146,1,0,3:0:0:0:
266,44,144313,1,2,3:1:0:0:
373,28,144646,1,4,3:1:0:0:
459,283,145480,5,10,2:3:0:0:
459,283,145646,2,0,P|467:239|472:206,1,60,10|10,2:3|2:3,2:0:0:0:
512,191,145980,1,6,2:0:0:0:
256,192,151313,12,2,153980,3:2:0:0:
37,100,155313,5,0,2:0:0:0:
116,26,155646,1,2,2:0:0:0:
214,70,155980,2,0,P|222:112|227:138,1,60,10|10,2:3|2:3,2:0:0:0:
273,153,156313,2,0,P|281:195|286:221,1,60,10|10,2:3|3:0,2:0:0:0:
328,243,156646,86,0,P|390:236|467:231,2,120,4|8|0,3:1|2:0|3:0,2:0:0:0:
278,266,157480,1,2,2:3:0:0:
278,266,157646,1,8,2:0:0:0:
200,341,157980,2,0,P|156:334|116:331,1,60,0|2,3:0|2:3,2:0:0:0:
92,357,158313,2,0,P|104:271|109:219,1,120,8|0,2:0|3:0,2:0:0:0:
70,198,158813,1,2,2:3:0:0:
70,198,158980,2,0,P|63:160|58:131,1,60,8|2,2:0|2:3,2:0:0:0:
82,90,159313,1,0,3:2:0:0:
168,25,159646,6,0,P|249:38|306:46,1,120,8|0,2:0|3:0,2:0:0:0:
318,87,160146,1,2,2:3:0:0:
318,87,160313,2,0,P|371:79|401:76,1,60,8|2,2:0|2:3,2:0:0:0:
417,114,160646,2,0,P|308:127|272:260,1,240,0|0,3:0|3:0,2:0:0:0:
298,340,161646,1,8,2:0:0:0:
191,325,161980,102,0,P|132:322|72:320,1,120,4|8,3:2|2:0,2:0:0:0:
31,282,162480,1,2,2:3:0:0:
31,282,162646,1,4,3:2:0:0:
99,198,162980,2,0,P|106:157|113:116,1,60,8|2,2:0|2:3,2:0:0:0:
75,95,163313,2,0,P|68:54|61:13,2,60,4|2|8,3:2|2:3|2:0,2:0:0:0:
54,145,163813,1,2,2:3:0:0:
54,145,163980,1,4,3:2:0:0:
161,155,164313,2,0,P|207:163|239:171,1,60,8|2,2:0|2:3,2:0:0:0:
255,206,164646,5,4,3:2:0:0:
313,115,164980,2,0,P|367:104|437:87,2,120,8|0|8,2:0|3:0|2:0,2:0:0:0:
260,101,165813,1,2,2:3:0:0:
260,101,165980,2,0,P|188:119|61:18,2,240,0|0|12,3:0|3:0|2:1,2:0:0:0:
337,24,167646,69,8,2:0:0:0:
362,128,167980,1,8,2:0:0:0:
388,233,168313,2,0,P|380:272|374:309,1,60,8|2,2:0|2:3,2:0:0:0:
331,321,168646,1,8,2:0:0:0:
224,303,168980,1,8,2:0:0:0:
116,288,169313,2,0,P|68:297|37:304,1,60,12|10,2:0|2:3,2:0:0:0:
17,336,169646,6,0,P|28:249|31:200,1,120,0|14,3:0|2:0,2:0:0:0:
128,171,170313,2,0,P|132:111|141:51,1,120,10|10,2:0|2:0,2:0:0:0:
239,7,170980,1,10,2:0:0:0:
342,37,171313,2,0,P|421:42|478:67,2,120,10|10|10,2:1|2:1|2:1,2:0:0:0:
300,72,172146,1,2,2:3:0:0:
300,72,172313,1,12,2:0:0:0:
273,176,172646,69,4,3:2:0:0:
342,258,172980,2,0,P|389:250|420:245,2,60,10|2|2,2:0|2:3|2:0,2:0:0:0:
314,362,173646,1,8,2:0:0:0:
232,290,173980,2,0,P|237:239|241:210,2,60,2|2|8,3:2|2:3|2:0,2:0:0:0:
135,338,174646,1,0,3:0:0:0:
135,338,174813,2,0,P|99:343|71:348,1,60,2|8,3:0|2:0,2:0:0:0:
30,377,175146,1,10,2:3:0:0:
30,377,175313,6,0,P|24:297|19:246,1,120,4|8,3:2|2:0,2:0:0:0:
97,181,175980,2,0,P|102:121|106:61,1,120,0|8,3:0|2:0,2:0:0:0:
141,20,176480,1,2,2:3:0:0:
141,20,176646,2,0,P|192:13|229:13,1,60,0|2,3:0|2:3,2:0:0:0:
240,49,176980,2,0,P|291:56|328:56,1,60,8|2,2:0|2:3,2:0:0:0:
347,32,177313,1,0,3:0:0:0:
397,127,177646,1,12,2:0:0:0:
312,194,177980,22,0,P|203:176|94:371,1,360,0|8,3:0|2:0,2:0:0:0:
1,307,179313,2,0,P|197:299|377:348,1,360,0|8,3:0|2:0,2:0:0:0:
457,305,180646,1,2,3:0:0:0:
362,173,181146,101,2,3:0:0:0:
362,173,181313,2,0,P|370:124|374:101,2,60,0|0|0,3:0|3:0|3:0,2:0:0:0:
322,210,181813,1,2,3:0:0:0:
322,210,181980,1,0,3:0:0:0:
216,232,182313,5,0,3:0:0:0:
216,232,182480,1,8,2:0:0:0:
110,254,182813,101,2,3:1:0:0:
110,254,182980,2,0,P|56:245|29:241,1,60,2|0,3:1|3:2,2:0:0:0:
12,206,183313,22,0,P|4:161|-1:136,1,60,10|10,2:1|2:1,2:0:0:0:
135,55,183980,2,0,P|143:100|148:125,1,60,10|10,2:1|2:1,2:0:0:0:
304,147,184646,2,0,P|296:102|291:77,1,60,10|10,2:1|2:1,2:0:0:0:
427,0,185313,2,0,P|435:45|440:70,1,60,10|10,2:1|2:1,2:0:0:0:
497,149,185813,1,2,3:0:0:0:
497,149,185980,1,4,3:2:0:0:
95,309,187313,5,12,2:1:0:0:
67,204,187646,1,12,2:0:0:0:
171,177,187980,1,12,2:0:0:0:
199,282,188313,1,12,2:1:0:0:
294,332,188646,102,0,P|369:340|419:349,1,120,4|10,3:1|2:0,2:0:0:0:
459,320,189146,1,2,2:3:0:0:
459,320,189313,2,0,P|468:249|477:182,1,120,0|10,3:1|2:0,2:0:0:0:
434,164,189813,1,2,2:3:0:0:
434,164,189980,2,0,P|425:93|416:26,2,120,0|10|4,3:1|2:0|3:2,2:0:0:0:
396,203,190813,1,2,2:3:0:0:
322,124,191146,5,2,2:3:0:0:
322,124,191313,2,0,P|247:111|189:76,1,120,4|8,3:2|2:0,2:0:0:0:
114,38,191980,2,0,P|105:84|98:111,1,60,0|2,3:0|2:3,2:0:0:0:
128,144,192313,2,0,P|134:173|140:202,1,60,8|2,2:0|2:3,2:0:0:0:
113,249,192646,2,0,P|184:250|338:360,1,240,0|2,3:0|3:1,2:0:0:0:
426,369,193646,1,10,2:1:0:0:
483,279,193980,102,0,P|485:242|488:208,1,60,4|2,3:1|2:3,2:0:0:0:
501,166,194313,2,0,P|464:164|430:161,1,60,8|2,2:0|2:3,2:0:0:0:
388,148,194646,2,0,P|386:185|383:219,1,60,0|2,3:0|2:3,2:0:0:0:
370,261,194980,2,0,P|407:263|441:266,1,60,8|2,2:0|2:3,2:0:0:0:
483,279,195313,1,4,3:2:0:0:
131,28,196646,6,0,P|129:65|126:99,1,60,0|2,3:0|2:3,2:0:0:0:
113,141,196980,2,0,P|150:143|184:146,1,60,8|2,2:0|2:3,2:0:0:0:
226,159,197313,2,0,P|228:122|231:88,1,60,0|2,3:0|2:3,2:0:0:0:
244,46,197646,2,0,P|207:44|173:41,1,60,8|2,2:0|2:3,2:0:0:0:
131,28,197980,1,4,3:2:0:0:
424,344,199313,102,0,P|387:346|353:349,1,60,0|2,3:0|2:3,2:0:0:0:
311,362,199646,2,0,P|309:325|306:291,1,60,8|2,2:0|2:3,2:0:0:0:
293,249,199980,2,0,P|330:247|364:244,1,60,0|2,3:0|2:3,2:0:0:0:
406,231,200313,2,0,P|408:268|411:302,1,60,8|2,2:0|2:3,2:0:0:0:
424,344,200646,1,0,3:0:0:0:
161,282,201480,5,2,2:3:0:0:
161,282,201646,2,0,P|170:242|178:202,1,60,8|10,2:0|2:3,2:0:0:0:
153,173,201980,101,6,3:1:0:0:
258,195,202313,1,6,3:1:0:0:
356,150,202646,1,6,3:1:0:0:
356,150,202813,1,2,3:1:0:0:
356,150,202980,1,6,3:1:0:0:
395,49,203313,1,6,3:1:0:0:
125,37,204146,5,10,2:3:0:0:
125,37,204313,2,0,P|83:47|50:53,1,60,10|10,2:3|2:3,2:0:0:0:
37,96,204646,1,4,3:1:0:0:
256,192,204813,12,4,207313,3:2:0:0:
88,222,208646,102,0,P|69:298|60:342,2,120,0|8|0,3:0|2:0|3:0,2:0:0:0:
131,190,209480,1,2,2:3:0:0:
131,190,209646,1,8,2:0:0:0:
106,84,209980,6,0,P|177:76|253:66,1,120,4|8,3:2|2:0,2:0:0:0:
285,159,210646,2,0,P|356:167|432:177,1,120,0|8,3:2|2:0,2:0:0:0:
451,148,211146,1,2,2:3:0:0:
451,148,211313,2,0,P|460:206|463:227,1,60,0|2,3:0|2:3,2:0:0:0:
499,244,211646,2,0,P|490:302|487:323,1,60,8|2,2:0|2:3,2:0:0:0:
442,329,211980,1,0,3:0:0:0:
365,252,212313,1,8,2:0:0:0:
260,280,212646,102,0,P|226:289|190:300,2,60,4|2|8,3:2|2:3|2:0,2:0:0:0:
281,173,213313,2,0,P|315:164|351:153,2,60,0|2|8,3:0|2:3|2:0,2:0:0:0:
207,93,213980,1,0,3:0:0:0:
12,352,214980,86,0,P|19:307|35:211,1,120,10|4,2:0|3:2,2:0:0:0:
31,233,216980,5,4,3:2:0:0:
102,152,217313,1,4,3:2:0:0:
201,193,217646,1,8,2:0:0:0:
