osu file format v14

[General]
AudioFilename: audio.mp3
AudioLeadIn: 0
PreviewTime: 563
Countdown: 0
SampleSet: Soft
StackLeniency: 0.4
Mode: 0
LetterboxInBreaks: 0
WidescreenStoryboard: 1

[Editor]
DistanceSpacing: 1.2
BeatDivisor: 4
GridSize: 32
TimelineZoom: 1

[Metadata]
Title:Kyun Kyun MIKO Kyun kyun <3
TitleUnicode:きゅんきゅんみこきゅんきゅん♡
Artist:Sakura Miko
ArtistUnicode:さくらみこ
Creator:Left
Version:Hard
Source:
Tags:Amateurre Shizuku- Kazato Asa Shikibe Mayu Ayesha Altugle Affirmation みこち Mikochi 35p ホロライブ hololive vtuber virtual youtuber original japanese pop jpop j-pop
BeatmapID:4521732
BeatmapSetID:2146215

[Difficulty]
HPDrainRate:5
CircleSize:3.5
OverallDifficulty:6
ApproachRate:8
SliderMultiplier:1.4
SliderTickRate:1

[Events]
//Background and Video events
0,0,"miko.jpg",0,0
Video,0,"optc.flv"
//Break Periods
2,81980,88730
2,148313,149396
//Storyboard Layer 0 (Background)
//Storyboard Layer 1 (Fail)
//Storyboard Layer 2 (Pass)
//Storyboard Layer 3 (Foreground)
//Storyboard Layer 4 (Overlay)
//Storyboard Sound Samples

[TimingPoints]
647,333.333333333333,4,2,7,70,1,0
1646,-111.111111111111,4,2,7,70,0,0
1812,-111.111111111111,4,2,7,5,0,0
1980,-111.111111111111,4,2,7,70,0,0
9980,-100,4,2,7,75,0,0
10313,-86.9565217391304,4,2,7,80,0,0
10646,-86.9565217391304,4,2,7,90,0,0
10980,-76.9230769230769,4,2,7,90,0,0
12146,-76.9230769230769,4,2,7,80,0,0
12646,-100,4,2,7,80,0,0
23479,-100,4,2,7,75,0,0
28313,-133.333333333333,4,2,7,75,0,0
28980,-100,4,2,7,75,0,0
44646,-111.111111111111,4,2,7,70,0,0
49980,-100,4,2,7,75,0,0
52980,-100,4,2,7,60,0,0
55313,-100,4,2,8,60,0,0
56146,-100,4,2,8,65,0,0
56479,-100,4,2,8,70,0,0
56561,-100,4,2,7,70,0,0
56813,-86.9565217391304,4,2,8,75,0,0
56895,-86.9565217391304,4,2,7,75,0,0
57146,-76.9230769230769,4,2,7,80,0,0
57980,-100,4,2,7,80,0,1
79313,-100,4,2,7,80,0,0
89480,-100,4,2,7,75,0,0
94980,-133.333333333333,4,2,7,75,0,0
95646,-100,4,2,7,75,0,0
108646,-83.3333333333333,4,2,7,75,0,0
109980,-100,4,2,7,75,0,0
111313,-111.111111111111,4,2,7,70,0,0
116646,-100,4,2,7,75,0,0
119646,-100,4,2,7,60,0,0
121980,-100,4,2,8,60,0,0
122813,-100,4,2,8,65,0,0
123146,-100,4,2,8,70,0,0
123313,-100,4,2,8,75,0,0
123480,-86.9565217391304,4,2,8,75,0,0
123813,-76.9230769230769,4,2,7,80,0,0
124646,-100,4,2,7,80,0,1
145980,-100,4,2,7,80,0,0
150146,-100,4,2,7,55,0,0
150313,-133.333333333333,4,2,7,55,0,0
151313,-133.333333333333,4,2,7,60,0,0
154646,-111.111111111111,4,2,7,60,0,0
155313,-95.2380952380952,4,2,7,60,0,0
155980,-95.2380952380952,4,2,7,65,0,0
156146,-95.2380952380952,4,2,7,70,0,0
156313,-95.2380952380952,4,2,7,75,0,0
156646,-100,4,2,7,75,0,0
178313,-100,4,2,7,60,0,0
180646,-100,4,2,8,60,0,0
181812,-100,4,2,8,65,0,0
181890,-100,4,2,7,65,0,0
182146,-86.9565217391304,4,2,8,70,0,0
182224,-86.9565217391304,4,2,7,70,0,0
182480,-76.9230769230769,4,2,7,75,0,0
182813,-76.9230769230769,4,2,7,80,0,0
183313,-76.9230769230769,4,2,7,75,0,0
187313,-76.9230769230769,4,2,7,70,0,0
187480,-100,4,2,7,70,0,0
187813,-86.9565217391304,4,2,7,70,0,0
188146,-76.9230769230769,4,2,7,80,0,0
188646,-100,4,2,7,80,0,1
204646,-100,4,2,7,80,0,0
217729,-100,4,2,7,5,0,0

[Colours]
Combo1 : 163,222,254
Combo2 : 100,100,100
Combo3 : 222,222,222
Combo4 : 253,89,118
Combo5 : 254,194,205
Combo6 : 255,232,153
Combo7 : 217,157,0
Combo8 : 210,255,117

[HitObjects]
159,239,647,21,2,2:0:0:0:
159,239,980,1,2,2:0:0:0:
159,239,1313,1,10,2:0:0:0:
141,329,1480,1,0,3:0:0:0:
141,329,1563,1,0,3:0:0:0:
141,329,1646,2,0,P|196:318|228:314,1,63.0000000000001,8|0,2:0|2:0,2:0:0:0:
282,298,1980,69,2,3:2:0:0:
439,341,2313,1,10,2:0:0:0:
397,186,2646,1,2,3:2:0:0:
397,186,2813,1,2,2:0:0:0:
397,186,2980,1,10,2:0:0:0:
355,31,3313,5,2,3:1:0:0:
512,74,3646,1,10,2:1:0:0:
397,186,3980,1,2,3:1:0:0:
397,186,4146,1,0,2:0:0:0:
397,186,4313,1,10,2:1:0:0:
173,250,4646,101,2,3:2:0:0:
50,359,4980,1,10,2:0:0:0:
0,202,5313,1,2,3:2:0:0:
0,202,5480,1,2,2:0:0:0:
0,202,5646,1,10,2:0:0:0:
173,250,5980,5,2,3:1:0:0:
122,99,6313,1,10,2:1:0:0:
0,202,6646,1,2,3:1:0:0:
0,202,6813,1,0,2:0:0:0:
0,202,6980,1,10,2:1:0:0:
211,129,7313,101,2,3:1:0:0:
263,318,7646,1,10,2:1:0:0:
395,178,7980,1,2,3:1:0:0:
395,178,8146,1,2,2:0:0:0:
395,178,8313,1,10,2:1:0:0:
140,237,8646,5,2,3:1:0:0:
191,13,8980,1,10,2:1:0:0:
352,168,9313,1,10,2:1:0:0:
352,168,9480,1,2,2:0:0:0:
352,168,9646,1,10,2:1:0:0:
72,141,9980,38,0,P|61:91|49:48,1,70,4|0,3:1|2:0,2:0:0:0:
176,231,10313,6,0,P|166:192|155:153,1,80.5,4|0,3:2|2:0,2:0:0:0:
283,337,10646,101,0,3:2:0:0:
283,337,10813,1,0,3:0:0:0:
283,337,10980,2,0,P|256:246|250:224,1,91,4|0,3:2|3:0,2:0:0:0:
264,228,11230,1,0,3:0:0:0:
270,211,11313,1,4,3:1:0:0:
436,114,12146,5,10,2:3:0:0:
449,36,12313,1,10,2:3:0:0:
371,20,12480,1,10,2:3:0:0:
358,98,12646,102,0,P|323:105|289:112,1,70,4|2,3:1|2:3,2:0:0:0:
221,69,12980,2,0,P|186:61|152:54,1,70,8|2,2:0|2:3,2:0:0:0:
88,104,13313,1,0,3:0:0:0:
88,104,13480,1,2,2:3:0:0:
10,124,13646,2,0,P|2:180|-3:212,1,70,8|2,2:0|2:3,2:0:0:0:
65,242,13980,6,0,P|55:300|42:387,2,140,0|8|0,3:0|2:0|3:0,2:0:0:0:
202,189,14980,2,0,P|210:248|215:276,1,70,8|2,2:0|2:3,2:0:0:0:
266,322,15313,1,0,3:0:0:0:
404,367,15646,102,0,P|406:324|411:282,1,70,8|2,2:0|2:3,2:0:0:0:
457,233,15980,1,0,3:0:0:0:
457,233,16146,2,0,P|448:193|439:154,1,70,2|8,2:3|2:0,2:0:0:0:
494,101,16480,2,0,P|503:61|512:22,1,70,2|0,2:3|3:0,2:0:0:0:
435,0,16813,5,2,2:3:0:0:
364,40,16980,2,0,P|313:32|281:29,1,70,8|2,2:0|2:3,2:0:0:0:
223,67,17313,1,0,3:0:0:0:
149,100,17480,1,2,2:3:0:0:
149,100,17563,1,2,2:3:0:0:
149,100,17646,2,0,P|98:92|66:89,1,70,10|2,2:0|2:3,2:0:0:0:
0,175,17980,102,0,P|9:222|24:316,2,140,4|8|0,3:2|2:0|3:2,2:0:0:0:
68,128,18813,2,0,P|110:133|145:140,1,70,2|8,2:3|2:0,2:0:0:0:
202,188,19146,1,2,2:3:0:0:
266,139,19313,6,0,P|308:134|343:127,1,70,0|2,3:0|2:3,2:0:0:0:
408,70,19646,2,0,P|413:112|420:147,1,70,8|2,2:0|2:3,2:0:0:0:
480,212,19980,2,0,P|438:217|403:224,1,70,0|2,3:0|2:3,2:0:0:0:
338,281,20313,2,0,P|333:239|326:204,1,70,8|2,2:0|2:3,2:0:0:0:
335,128,20646,101,0,3:0:0:0:
291,59,20813,1,2,2:3:0:0:
291,59,20896,1,2,2:3:0:0:
291,59,20980,2,0,P|237:46|202:36,2,70,8|2|0,2:0|2:3|3:0,2:0:0:0:
357,8,21480,1,2,2:3:0:0:
357,8,21563,1,2,2:3:0:0:
357,8,21646,1,8,2:0:0:0:
371,88,21813,1,2,2:3:0:0:
310,143,21980,2,0,P|233:146|145:323,1,280,0|0,3:2|3:0,2:0:0:0:
71,370,22813,85,10,2:1:0:0:
71,370,22980,2,0,P|61:320|49:272,1,70,10|2,2:1|3:1,2:0:0:0:
101,233,23313,6,0,P|111:166|127:87,2,140,4|8|0,3:2|2:0|3:2,2:0:0:0:
56,301,24146,1,0,2:0:0:0:
193,140,24480,101,2,2:0:0:0:
193,140,24646,2,0,P|260:150|339:166,2,140,2|8|0,3:2|2:0|3:2,2:0:0:0:
125,95,25480,1,0,2:0:0:0:
285,232,25813,5,2,2:0:0:0:
285,232,25980,2,0,P|275:299|259:378,2,140,2|8|0,3:2|2:0|3:2,2:0:0:0:
330,164,26813,1,0,2:0:0:0:
192,324,27146,101,2,2:0:0:0:
192,324,27313,2,0,P|125:314|46:298,2,140,0|8|0,3:2|2:0|3:2,2:0:0:0:
260,369,28146,1,2,2:0:0:0:
372,347,28313,22,2,P|377:301|387:236,1,105,2|6,2:1|3:1,2:1:0:0:
456,195,28813,101,2,2:0:0:0:
456,195,28980,2,0,P|446:145|440:112,1,70,8|2,2:0|2:0,2:0:0:0:
458,45,29313,2,0,P|413:36|363:23,1,70,0|2,3:0|2:0,2:0:0:0:
332,88,29646,2,0,P|297:96|263:102,1,70,8|2,2:0|2:0,2:0:0:0:
188,70,29980,2,0,P|179:24|174:-6,1,70,0|2,3:0|2:0,2:0:0:0:
96,18,30313,2,0,P|105:64|110:94,1,70,8|0,2:0|2:3,2:0:0:0:
163,148,30646,2,0,P|157:182|150:216,1,70,0|2,3:0|2:0,2:0:0:0:
92,273,30980,2,0,P|46:283|6:290,1,70,8|2,2:0|2:0,2:0:0:0:
131,346,31313,2,0,P|177:356|217:363,1,70,0|2,3:0|2:0,2:0:0:0:
263,307,31646,2,0,P|309:297|349:290,1,70,8|2,2:0|2:0,2:0:0:0:
412,307,31980,2,0,P|422:354|429:381,2,70,0|2|10,3:0|2:0|2:0,2:0:0:0:
473,254,32480,102,0,P|485:173|496:102,1,140,4|8,3:1|2:0,2:0:0:0:
493,115,32896,1,8,2:0:0:0:
493,115,32980,1,0,3:0:0:0:
446,48,33146,1,0,3:0:0:0:
446,48,33230,1,0,3:0:0:0:
446,48,33313,2,0,P|386:40|356:36,1,70,0|0,3:0|3:0,2:0:0:0:
304,76,33646,1,8,2:0:0:0:
304,76,33813,1,0,3:0:0:0:
252,181,33980,70,0,B|300:187|370:185|383:124,1,140,4|8,3:2|2:0,2:0:0:0:
252,101,34646,2,0,B|305:92|380:107|383:165,1,140,0|8,3:0|2:0,2:0:0:0:
252,181,35313,2,0,B|229:207|196:204|196:204|198:169|229:149|229:149|195:115|188:81|188:81|233:76|259:109,1,280,0|4,3:0|3:2,2:0:0:0:
252,101,36646,37,4,3:2:0:0:
173,73,36813,5,2,2:0:0:0:
96,46,36980,101,8,2:0:0:0:
146,148,37313,5,0,3:0:0:0:
329,128,37646,101,8,2:0:0:0:
119,224,37980,5,0,3:0:0:0:
356,53,38646,101,2,3:2:0:0:
91,300,39313,5,4,3:2:0:0:
461,4,39980,101,0,3:0:0:0:
64,378,40646,5,2,3:1:0:0:
64,378,40980,1,10,2:1:0:0:
64,378,41313,38,0,P|43:270|31:216,1,140,2|10,3:1|2:1,2:0:0:0:
210,224,41980,2,0,P|153:242|112:248,1,70,4|0,3:2|2:0,2:0:0:0:
144,244,42313,1,8,2:0:0:0:
148,373,42646,2,0,P|218:348|285:334,1,140,0|8,3:0|2:0,2:0:0:0:
406,257,43313,2,0,B|360:267|327:238|288:254|288:254|328:209|353:165|353:165|322:171|293:154,1,280,0|4,3:0|3:2,2:0:0:0:
336,85,44146,1,2,2:0:0:0:
268,36,44313,2,0,P|207:29|165:24,1,70,8|0,2:0|3:0,2:0:0:0:
198,27,44563,1,0,3:0:0:0:
198,27,44646,22,0,P|210:86|222:165,1,126,4|0,3:1|2:0,2:0:0:0:
303,140,45146,1,0,3:0:0:0:
303,140,45313,2,0,P|291:81|279:2,1,126,0|10,3:0|2:3,2:0:0:0:
156,101,45980,2,0,P|66:119|31:270,1,252,0|0,3:0|3:2,2:0:0:0:
160,359,46980,1,10,2:3:0:0:
160,359,47313,6,0,P|249:347|309:343,1,126,0|0,3:2|2:0,2:0:0:0:
274,260,47813,1,0,3:0:0:0:
274,260,47980,2,0,P|185:272|125:276,2,126,0|10|0,3:0|2:3|3:0,2:0:0:0:
350,292,48813,2,0,P|401:283|435:280,1,63.0000000000001,0|0,2:0|2:0,2:0:0:0:
499,268,49146,1,2,3:0:0:0:
499,268,49230,1,2,2:3:0:0:
499,268,49313,2,0,P|499:218|500:191,1,63.0000000000001,0|0,3:0|2:0,2:0:0:0:
418,201,49646,1,10,2:3:0:0:
493,62,49980,102,0,P|429:48|407:43,1,70,4|2,3:2|2:3,2:0:0:0:
355,3,50313,2,0,P|291:17|269:22,1,70,8|2,2:0|2:3,2:0:0:0:
222,80,50646,2,0,P|212:39|200:-3,2,70,0|2|8,3:0|2:3|2:0,2:0:0:0:
302,97,51146,1,2,2:3:0:0:
248,159,51313,6,0,P|164:166|83:178,1,140,4|8,3:2|2:0,2:0:0:0:
29,161,51813,1,2,2:3:0:0:
20,245,51980,2,0,P|90:252|138:334,2,140,0|12|4,3:0|2:0|3:2,2:0:0:0:
20,245,52980,21,8,2:0:0:0:
105,335,53313,1,0,3:0:0:0:
224,368,53646,1,8,2:0:0:0:
345,344,53980,1,0,3:0:0:0:
421,249,54313,1,8,2:0:0:0:
430,128,54646,1,0,3:0:0:0:
390,12,54980,1,8,2:0:0:0:
202,61,55313,101,2,3:0:0:0:
202,61,55813,1,2,3:0:0:0:
213,142,55980,1,0,3:0:0:0:
134,119,56146,1,0,3:2:0:0:
134,119,56230,1,0,3:2:0:0:
134,119,56313,2,0,P|122:66|117:45,2,70,0|2|0,3:0|3:0|3:0,2:0:0:0:
213,142,56813,6,0,P|209:192|206:246,1,80.5,2|0,2:3|3:0,2:0:0:0:
271,273,57146,102,0,P|249:333|240:366,1,91,10|0,2:0|2:0,2:0:0:0:
129,359,57480,85,2,3:1:0:0:
60,326,57646,5,2,3:1:0:0:
28,248,57813,101,2,3:1:0:0:
44,155,57980,54,0,P|125:144|136:142,1,70,4|2,3:1|2:3,2:0:0:0:
192,133,58313,1,8,2:0:0:0:
192,133,58480,1,2,2:3:0:0:
201,214,58646,6,0,P|120:225|109:227,1,70,0|2,3:0|2:3,2:0:0:0:
53,236,58980,1,8,2:0:0:0:
53,236,59146,1,2,2:3:0:0:
44,155,59313,102,0,P|125:144|136:142,1,70,0|2,3:0|2:3,2:0:0:0:
192,133,59646,1,8,2:0:0:0:
192,133,59813,1,2,2:3:0:0:
243,67,59980,6,0,P|235:140|231:217,1,140,0|8,3:0|2:0,2:0:0:0:
290,264,60480,1,2,2:3:0:0:
290,264,60646,2,0,P|348:256|380:255,1,70,0|2,3:2|2:3,2:0:0:0:
433,222,60980,2,0,P|467:219|502:213,2,70,8|2|0,2:0|2:3|3:0,2:0:0:0:
365,176,61480,2,0,P|352:132|338:94,1,70,2|8,2:3|2:0,2:0:0:0:
355,29,61813,1,2,2:3:0:0:
279,57,61980,102,0,P|232:48|192:38,1,70,0|2,3:0|2:3,2:0:0:0:
133,18,62313,2,0,P|124:65|114:105,1,70,8|2,2:0|2:3,2:0:0:0:
99,164,62646,2,0,P|146:173|186:183,1,70,2|2,3:1|2:3,2:0:0:0:
245,203,62980,2,0,P|254:156|264:116,1,70,10|2,2:1|2:3,2:0:0:0:
279,57,63313,5,4,3:1:0:0:
429,4,63646,1,8,2:0:0:0:
456,78,63813,1,2,2:3:0:0:
413,146,63980,1,0,3:0:0:0:
279,57,64313,1,8,2:0:0:0:
413,146,64646,101,0,3:0:0:0:
279,57,64980,1,8,2:0:0:0:
236,125,65146,1,2,2:3:0:0:
263,199,65313,2,0,P|321:209|348:216,2,70,0|2|8,3:0|2:3|2:0,2:0:0:0:
196,246,65813,5,2,2:3:0:0:
196,246,65980,2,0,P|119:231|46:222,1,140,4|8,3:2|2:0,2:0:0:0:
29,147,66480,1,2,2:3:0:0:
89,92,66646,2,0,P|79:42|71:5,1,70,0|2,3:0|2:3,2:0:0:0:
155,8,66980,2,0,P|165:58|173:95,1,70,8|2,2:0|2:3,2:0:0:0:
246,98,67313,2,0,P|314:93|400:49,1,140,0|8,3:0|2:0,2:0:0:0:
299,243,67980,101,2,3:1:0:0:
299,243,68313,5,10,2:1:0:0:
299,243,68646,101,4,3:1:0:0:
203,235,68813,1,2,2:3:0:0:
212,139,68980,1,8,2:0:0:0:
308,148,69146,1,2,2:3:0:0:
299,243,69313,1,0,3:0:0:0:
299,243,69646,5,8,2:0:0:0:
299,243,69980,101,4,3:2:0:0:
227,145,71313,5,0,3:2:0:0:
227,145,71646,101,8,2:0:0:0:
227,145,71980,5,0,3:0:0:0:
229,241,72146,1,2,2:3:0:0:
311,191,72313,1,8,2:0:0:0:
227,145,72480,1,2,2:3:0:0:
229,241,72646,1,4,3:2:0:0:
274,110,73980,101,0,3:0:0:0:
184,149,74146,1,2,2:3:0:0:
193,246,74313,1,8,2:0:0:0:
288,268,74480,1,2,2:3:0:0:
339,184,74646,1,0,3:0:0:0:
339,184,74980,5,8,2:0:0:0:
339,184,75313,101,0,3:0:0:0:
48,33,76146,5,10,2:3:0:0:
48,33,76230,1,10,2:3:0:0:
48,33,76313,2,0,P|105:42|136:46,1,70,0|10,3:0|2:3,2:0:0:0:
197,55,76646,102,0,P|183:104|176:138,1,70,6|0,3:1|2:0,2:0:0:0:
78,191,76980,2,0,P|92:142|99:108,1,70,6|2,3:1|2:0,2:0:0:0:
161,205,77313,1,6,3:1:0:0:
161,205,77480,1,2,3:1:0:0:
140,285,77646,2,0,P|89:277|41:269,1,70,2|8,3:1|2:0,2:0:0:0:
70,274,77896,1,8,2:0:0:0:
70,274,77980,1,6,3:1:0:0:
397,353,78813,5,10,2:3:0:0:
397,353,78980,2,0,P|407:302|417:265,1,70,10|10,2:3|2:3,2:0:0:0:
434,207,79313,1,4,3:1:0:0:
256,192,79396,12,12,81646,2:0:0:0:
348,26,89480,69,10,2:1:0:0:
348,26,89646,2,0,P|358:70|365:107,1,70,10|2,2:1|3:1,2:0:0:0:
381,175,89980,6,0,P|423:167|470:162,1,70,4|2,3:2|2:0,2:0:0:0:
348,26,90480,1,2,2:0:0:0:
268,44,90646,2,0,P|226:52|179:57,1,70,0|2,3:0|2:0,2:0:0:0:
209,243,91146,1,2,2:0:0:0:
289,225,91313,2,0,P|331:217|378:212,1,70,0|2,3:0|2:0,2:0:0:0:
180,94,91813,1,2,2:0:0:0:
100,112,91980,2,0,P|58:120|11:125,1,70,0|2,3:0|2:0,2:0:0:0:
213,306,92480,101,2,2:0:0:0:
228,225,92646,2,0,P|235:172|241:137,1,70,0|2,3:0|2:0,2:0:0:0:
45,42,93146,1,2,2:0:0:0:
30,123,93313,2,0,P|23:176|17:211,1,70,0|2,3:0|2:0,2:0:0:0:
276,150,93813,1,2,2:0:0:0:
291,69,93980,2,0,P|298:16|304:-19,1,70,0|2,3:0|2:0,2:0:0:0:
68,110,94480,1,2,2:0:0:0:
53,191,94646,2,0,P|46:244|40:279,1,70,0|2,3:0|2:0,2:0:0:0:
0,336,94980,22,2,P|71:344|112:353,1,105,2|4,2:1|3:2,2:1:0:0:
174,307,95480,101,2,2:0:0:0:
174,307,95646,2,0,P|237:297|268:292,1,70,8|2,2:0|2:0,2:0:0:0:
311,343,95980,2,0,P|374:353|405:358,1,70,0|2,3:0|2:0,2:0:0:0:
460,367,96313,2,0,P|469:306|475:272,1,70,8|2,2:0|2:0,2:0:0:0:
427,229,96646,2,0,P|418:168|412:134,1,70,0|2,3:0|2:0,2:0:0:0:
370,90,96980,2,0,P|423:82|463:80,1,70,8|2,2:0|2:0,2:0:0:0:
427,0,97313,2,0,P|374:8|334:10,1,70,0|2,3:0|2:0,2:0:0:0:
293,56,97646,2,0,P|240:48|200:46,1,70,8|2,2:0|2:0,2:0:0:0:
146,22,97980,2,0,P|82:37|56:44,1,70,0|2,3:0|2:0,2:0:0:0:
20,95,98313,2,0,P|9:145|-1:177,1,70,8|2,2:0|2:0,2:0:0:0:
83,184,98646,2,0,P|94:134|104:102,2,70,0|2|10,3:0|2:0|2:0,2:0:0:0:
25,242,99146,102,0,P|98:226|175:226,1,140,4|8,3:1|2:0,2:0:0:0:
163,224,99563,1,8,2:0:0:0:
163,224,99646,1,0,3:0:0:0:
254,273,99813,1,0,3:0:0:0:
254,273,99896,1,0,3:0:0:0:
254,273,99980,2,0,P|301:280|339:281,1,70,0|0,3:0|3:0,2:0:0:0:
390,237,100313,1,8,2:0:0:0:
390,237,100480,1,0,3:0:0:0:
428,130,100646,70,0,B|380:120|310:122|297:183,1,140,4|8,3:2|2:0,2:0:0:0:
425,210,101313,2,0,B|373:218|298:203|299:144,1,140,0|8,3:0|2:0,2:0:0:0:
428,130,101980,2,0,P|460:104|502:87,1,70,0|2,3:0|2:0,2:0:0:0:
485,91,102230,1,0,0:0:0:0:
485,91,102313,2,0,P|483:119|479:136,2,35,10|0|2,2:0|2:0|2:0,2:0:0:0:
425,210,102646,2,0,P|475:243|505:252,1,70,0|10,3:0|2:0,2:0:0:0:
484,246,102896,1,10,2:0:0:0:
484,246,102980,2,0,P|479:217|471:196,2,35,2|0|10,3:2|2:0|2:0,2:0:0:0:
455,328,103313,101,4,3:2:0:0:
111,228,103980,1,0,3:0:0:0:
111,228,104646,6,0,P|94:147|77:85,1,140,2|10,3:1|2:1,2:0:0:0:
191,209,105313,2,0,P|174:128|157:66,1,140,2|10,3:1|2:1,2:0:0:0:
265,149,105980,2,0,P|283:119|308:83,1,70,4|0,3:2|2:0,2:0:0:0:
254,100,106313,2,0,P|281:122|309:144,1,70,8|0,2:0|2:0,2:0:0:0:
383,179,106646,2,0,P|387:93|387:29,1,140,0|8,3:0|2:0,2:0:0:0:
464,186,107313,2,0,P|468:100|468:36,1,140,2|10,3:2|2:0,2:0:0:0:
381,196,107980,2,0,P|338:187|297:180,1,70,2|10,3:2|2:0,2:0:0:0:
370,274,108313,2,0,P|327:265|286:258,1,70,2|10,3:2|2:0,2:0:0:0:
239,212,108646,102,0,B|204:207|176:217|176:217|200:191|219:156|223:102|194:80|147:85|130:136,1,252,4|0,3:2|2:0,2:0:0:0:
81,172,109313,2,0,B|47:160|18:165|18:165|46:144|71:113|84:60|59:34|12:30|-13:78,1,252,0|0,3:0|2:0,2:0:0:0:
114,5,109980,6,0,P|138:54|143:95,1,70,0|0,3:0|3:0,2:0:0:0:
216,101,110313,2,0,P|212:155|196:193,1,70,8|0,2:0|3:0,2:0:0:0:
156,234,110646,2,0,P|208:205|311:191,1,140,4|8,3:2|2:0,2:0:0:0:
386,208,111146,5,0,3:0:0:0:
386,208,111230,1,0,3:0:0:0:
386,208,111313,2,0,P|401:127|412:72,1,126,4|0,3:2|2:0,2:0:0:0:
359,20,111813,1,0,3:0:0:0:
359,20,111980,1,0,3:0:0:0:
453,154,112313,2,0,P|463:187|477:224,1,63.0000000000001,10|0,2:3|2:0,2:0:0:0:
428,282,112646,6,0,P|359:288|290:335,1,126,0|0,3:0|2:0,2:0:0:0:
243,361,113146,1,0,3:0:0:0:
172,322,113313,2,0,P|112:302|21:304,2,126,0|10|4,3:0|2:3|3:2,2:0:0:0:
13,194,114480,101,0,3:0:0:0:
13,194,114646,2,0,P|21:151|35:52,2,126,0|10|0,3:0|2:3|3:0,2:0:0:0:
98,176,115480,2,0,P|103:128|109:85,1,63.0000000000001,2|0,2:0|2:0,2:0:0:0:
105,31,115813,1,2,3:0:0:0:
105,31,115896,1,2,2:3:0:0:
105,31,115980,2,0,P|149:25|183:20,1,63.0000000000001,0|0,3:0|2:0,2:0:0:0:
247,8,116313,1,10,2:3:0:0:
404,59,116646,6,0,P|411:101|418:144,1,70,4|2,3:2|2:3,2:0:0:0:
325,71,116980,2,0,P|330:105|336:140,1,70,8|2,2:0|2:3,2:0:0:0:
387,207,117313,2,0,P|428:213|467:221,2,70,0|2|8,3:0|2:3|2:0,2:0:0:0:
306,216,117813,1,2,2:3:0:0:
258,282,117980,102,0,P|214:293|116:331,1,140,4|8,3:2|2:0,2:0:0:0:
58,371,118480,1,2,2:3:0:0:
54,290,118646,2,0,P|43:206|28:137,2,140,0|8|0,3:0|2:0|3:0,2:0:0:0:
54,290,119646,37,8,2:0:0:0:
61,166,119980,1,0,3:0:0:0:
131,64,120313,1,8,2:0:0:0:
239,5,120646,1,0,3:0:0:0:
358,29,120980,1,8,2:0:0:0:
443,116,121313,1,0,3:0:0:0:
487,230,121646,1,8,2:0:0:0:
309,304,121980,101,2,3:0:0:0:
309,304,122480,1,2,3:0:0:0:
303,223,122646,1,0,3:0:0:0:
386,265,122813,1,0,3:0:0:0:
386,265,122896,1,0,3:0:0:0:
386,265,122980,2,0,P|398:318|403:339,2,70,0|2|0,3:0|2:3|3:0,2:0:0:0:
303,223,123480,6,0,P|316:166|326:113,1,80.5,2|0,2:3|3:0,2:0:0:0:
292,67,123813,102,0,P|346:33|392:6,1,91,8|0,2:0|3:0,2:0:0:0:
457,89,124146,85,2,3:1:0:0:
457,89,124313,1,2,3:1:0:0:
457,89,124480,1,10,3:1:0:0:
457,89,124646,54,0,P|408:98|375:105,1,70,4|2,3:1|2:3,2:0:0:0:
309,118,124980,1,8,2:0:0:0:
309,118,125146,1,2,2:3:0:0:
287,37,125313,6,0,P|336:28|369:21,1,70,0|2,3:0|2:3,2:0:0:0:
435,8,125646,1,8,2:0:0:0:
435,8,125813,1,2,2:3:0:0:
457,89,125980,102,0,P|408:98|375:105,1,70,0|2,3:0|2:3,2:0:0:0:
309,118,126313,1,8,2:0:0:0:
309,118,126480,1,2,2:3:0:0:
364,180,126646,6,0,P|293:166|226:157,1,140,0|8,3:0|2:0,2:0:0:0:
146,143,127146,1,2,2:3:0:0:
146,143,127313,2,0,P|152:97|158:56,1,70,0|2,3:0|2:3,2:0:0:0:
76,61,127646,2,0,P|70:107|64:148,1,70,8|2,2:0|2:3,2:0:0:0:
94,206,127980,1,0,3:0:0:0:
74,285,128146,2,0,P|24:291|-23:302,1,70,2|8,2:3|2:0,2:0:0:0:
117,354,128480,1,2,2:3:0:0:
196,343,128646,102,0,P|243:335|284:331,1,70,0|2,3:0|2:3,2:0:0:0:
346,329,128980,2,0,P|338:281|334:240,1,70,8|2,2:0|2:3,2:0:0:0:
328,180,129313,2,0,P|280:187|239:191,1,70,2|2,3:1|2:3,2:0:0:0:
178,194,129646,2,0,P|185:241|189:282,1,70,10|2,2:1|2:3,2:0:0:0:
196,343,129980,5,4,3:1:0:0:
353,362,130313,1,8,2:0:0:0:
359,283,130480,1,2,2:3:0:0:
381,205,130646,1,0,3:0:0:0:
219,170,130980,1,8,2:0:0:0:
381,205,131313,101,0,3:0:0:0:
219,170,131646,1,8,2:0:0:0:
241,92,131813,1,2,2:3:0:0:
247,13,131980,2,0,P|300:20|331:26,2,70,0|2|8,3:0|2:3|2:0,2:0:0:0:
172,47,132480,5,2,2:3:0:0:
172,47,132646,2,0,P|98:41|15:36,1,140,4|8,3:2|2:0,2:0:0:0:
0,111,133146,1,2,2:3:0:0:
49,175,133313,2,0,P|57:215|63:254,1,70,0|2,3:0|2:3,2:0:0:0:
143,228,133646,2,0,P|135:188|129:149,1,70,8|2,2:0|2:3,2:0:0:0:
207,130,133980,2,0,P|215:74|254:-5,1,140,0|8,3:0|2:0,2:0:0:0:
313,158,134646,101,2,3:1:0:0:
313,158,134980,5,10,2:1:0:0:
313,158,135313,101,4,3:1:0:0:
220,133,135480,1,2,2:3:0:0:
196,226,135646,1,8,2:0:0:0:
289,251,135813,1,2,2:3:0:0:
314,157,135980,1,0,3:0:0:0:
314,157,136313,5,8,2:0:0:0:
314,157,136646,101,4,3:2:0:0:
244,246,137980,5,0,3:0:0:0:
244,246,138313,101,8,2:0:0:0:
244,246,138646,5,0,3:0:0:0:
213,155,138813,1,2,2:3:0:0:
308,174,138980,1,8,2:0:0:0:
244,246,139146,1,2,2:3:0:0:
213,155,139313,1,4,3:2:0:0:
274,274,140646,101,0,3:0:0:0:
184,235,140813,1,2,2:3:0:0:
193,138,140980,1,8,2:0:0:0:
288,116,141146,1,2,2:3:0:0:
339,200,141313,1,0,3:0:0:0:
339,200,141646,5,8,2:0:0:0:
339,200,141980,101,0,3:0:0:0:
125,326,142813,5,2,2:3:0:0:
125,326,142980,2,0,P|182:317|213:313,1,70,8|10,2:0|2:3,2:0:0:0:
195,316,143230,1,10,2:3:0:0:
195,316,143313,102,0,P|205:363|213:397,1,70,6|2,3:1|2:0,2:0:0:0:
134,259,143646,2,0,P|124:212|116:178,1,70,6|2,3:1|2:0,2:0:0:0:
196,169,143980,1,6,3:1:0:0:
196,169,144146,1,0,3:0:0:0:
166,93,144313,2,0,P|125:105|81:115,1,70,2|8,3:1|2:0,2:0:0:0:
99,112,144563,1,8,2:0:0:0:
99,112,144646,1,4,3:1:0:0:
314,287,145480,5,10,2:3:0:0:
314,287,145646,2,0,P|324:236|334:199,1,70,10|10,2:3|2:3,2:0:0:0:
351,141,145980,1,6,2:0:0:0:
118,202,150146,5,2,2:0:0:0:
118,202,150313,2,0,P|109:147|105:128,1,52.5000000000001,2|2,2:0|2:0,2:0:0:0:
199,211,150646,2,0,P|213:282|226:337,1,105,2|2,2:0|2:0,2:0:0:0:
72,293,151313,1,4,3:2:0:0:
256,192,151396,12,8,153313,2:0:0:0:
234,301,153980,102,0,P|320:313|359:321,1,105,0|2,3:0|2:0,2:0:0:0:
192,215,154646,6,0,P|120:202|42:187,1,126,8|2,2:0|2:0,2:0:0:0:
257,148,155313,102,0,P|365:166|431:175,1,147,0|2,2:0|2:0,2:0:0:0:
224,60,155980,5,10,2:3:0:0:
146,46,156146,1,10,2:3:0:0:
78,88,156313,1,10,2:3:0:0:
0,68,156480,1,10,3:0:0:0:
0,68,156563,1,2,3:0:0:0:
0,68,156646,86,0,P|9:22|16:-19,1,70,4|2,3:1|2:3,2:0:0:0:
78,88,156980,2,0,P|69:134|62:175,1,70,8|2,2:0|2:3,2:0:0:0:
0,205,157313,2,0,P|82:196|151:192,1,140,0|8,3:0|2:0,2:0:0:0:
215,164,157813,6,0,P|267:161|310:157,1,70,2|0,2:3|3:0,2:0:0:0:
369,187,158146,1,2,2:3:0:0:
369,187,158230,1,2,2:3:0:0:
369,187,158313,2,0,P|377:134|385:91,2,70,8|2|0,2:0|2:3|3:0,2:0:0:0:
309,245,158813,1,2,2:3:0:0:
309,245,158896,1,2,2:3:0:0:
309,245,158980,2,0,P|317:281|325:319,1,70,8|2,2:0|2:3,2:0:0:0:
406,341,159313,101,0,3:2:0:0:
406,341,159646,2,0,P|466:326|497:321,1,70,8|2,2:0|2:3,2:0:0:0:
497,247,159980,2,0,P|482:189|472:153,1,70,0|2,3:0|2:3,2:0:0:0:
465,164,160230,1,2,2:3:0:0:
451,152,160313,2,0,P|460:118|468:84,1,70,8|2,2:0|2:3,2:0:0:0:
415,23,160646,1,0,3:0:0:0:
338,49,160813,1,2,2:3:0:0:
338,49,160896,1,2,2:3:0:0:
338,49,160980,2,0,P|309:46|282:42,2,35,8|2|2,2:3|2:3|2:3,2:0:0:0:
279,122,161313,5,0,3:0:0:0:
226,62,161480,1,2,2:3:0:0:
152,93,161646,1,8,2:0:0:0:
159,173,161813,1,2,2:3:0:0:
238,192,161980,1,4,3:2:0:0:
238,192,162313,101,8,2:0:0:0:
279,122,162480,1,2,2:3:0:0:
226,62,162646,1,4,3:2:0:0:
226,62,162980,1,8,2:0:0:0:
152,93,163146,1,2,2:3:0:0:
159,173,163313,1,4,3:2:0:0:
96,243,163480,5,2,2:3:0:0:
96,243,163563,1,2,2:3:0:0:
96,243,163646,2,0,P|47:230|14:220,1,70,8|2,2:0|2:3,2:0:0:0:
8,303,163980,2,0,P|57:316|90:326,1,70,4|2,3:2|2:3,2:0:0:0:
156,304,164313,1,8,2:0:0:0:
156,304,164480,1,2,2:3:0:0:
210,241,164646,102,0,P|293:229|359:218,2,140,4|8|0,3:2|2:0|3:0,2:0:0:0:
130,226,165480,1,2,2:3:0:0:
130,226,165563,1,2,2:3:0:0:
130,226,165646,2,0,P|122:171|115:132,1,70,8|2,2:0|2:3,2:0:0:0:
129,76,165980,1,0,3:0:0:0:
256,192,166063,12,12,167313,2:1:0:0:
79,130,167646,86,0,P|130:121|179:111,1,70,8|2,2:0|2:3,2:0:0:0:
222,86,167980,1,8,2:0:0:0:
6,165,168313,1,8,2:0:0:0:
6,165,168480,1,2,2:3:0:0:
79,130,168646,2,0,P|130:121|179:111,1,70,8|2,2:0|2:3,2:0:0:0:
222,86,168980,1,8,2:0:0:0:
368,10,169313,5,12,2:0:0:0:
443,60,169480,1,10,2:3:0:0:
443,60,169563,1,10,2:3:0:0:
443,60,169646,2,0,P|450:103|457:135,1,70,0|2,3:0|3:0,2:0:0:0:
512,199,169980,2,0,P|441:211|368:253,1,140,14|10,2:0|2:0,2:0:0:0:
317,290,170480,1,2,2:3:0:0:
239,264,170646,2,0,P|229:316|222:347,1,70,10|2,2:0|2:3,2:0:0:0:
148,311,170980,2,0,P|158:259|165:228,1,70,10|2,2:0|2:3,2:0:0:0:
101,187,171313,102,0,P|91:135|84:104,1,70,10|2,2:1|2:3,2:0:0:0:
10,140,171646,2,0,P|20:192|27:223,1,70,10|2,2:1|2:3,2:0:0:0:
82,267,171980,1,10,2:1:0:0:
161,242,172146,1,2,2:3:0:0:
161,242,172230,1,2,2:3:0:0:
161,242,172313,1,12,2:0:0:0:
232,83,172646,86,0,P|276:73|312:63,1,70,4|2,3:2|2:3,2:0:0:0:
379,88,172980,1,10,2:0:0:0:
379,88,173146,1,2,2:3:0:0:
322,147,173313,2,0,P|278:157|242:167,1,70,2|2,2:0|2:3,2:0:0:0:
232,83,173646,2,0,P|276:73|312:63,1,70,8|2,2:0|2:3,2:0:0:0:
379,88,173980,1,2,3:2:0:0:
379,88,174146,1,2,2:3:0:0:
322,147,174313,2,0,P|278:157|242:167,1,70,8|2,2:0|2:3,2:0:0:0:
361,219,174646,6,0,P|417:230|453:242,1,70,0|2,3:0|3:0,2:0:0:0:
429,233,174896,1,10,2:3:0:0:
429,233,174980,1,8,2:0:0:0:
508,212,175146,1,10,2:3:0:0:
505,310,175313,2,0,P|403:326|341:340,2,140,4|8|0,3:2|2:0|3:0,2:0:0:0:
450,231,176146,1,2,3:0:0:0:
450,231,176313,2,0,P|387:241|360:245,1,70,8|2,2:0|2:3,2:0:0:0:
305,270,176646,102,0,P|244:260|209:256,1,70,0|2,3:0|2:3,2:0:0:0:
149,232,176980,2,0,P|160:286|166:313,1,70,8|2,2:0|2:3,2:0:0:0:
95,370,177313,2,0,P|84:316|78:289,1,70,0|2,3:0|3:0,2:0:0:0:
68,222,177646,2,0,P|51:155|35:79,1,140,12|0,2:0|3:0,2:0:0:0:
37,86,178313,37,8,2:0:0:0:
136,11,178646,1,0,3:0:0:0:
259,0,178980,1,8,2:0:0:0:
374,44,179313,1,0,3:0:0:0:
432,150,179646,1,8,2:0:0:0:
420,271,179980,1,0,3:0:0:0:
361,378,180313,1,8,2:0:0:0:
169,339,180646,101,2,3:0:0:0:
169,339,181146,1,2,3:0:0:0:
187,259,181313,1,0,3:0:0:0:
109,280,181480,1,0,3:0:0:0:
109,280,181563,1,0,3:0:0:0:
109,280,181646,2,0,P|97:230|91:202,2,70,0|2|0,3:0|3:0|3:0,2:0:0:0:
168,178,182146,6,0,P|175:128|183:79,1,80.5,2|0,2:3|3:0,2:0:0:0:
262,87,182480,102,0,P|287:35|317:-14,1,91,8|0,2:0|3:0,2:0:0:0:
413,28,182813,85,2,3:1:0:0:
444,100,182980,5,2,3:1:0:0:
414,190,183146,101,0,3:2:0:0:
297,220,183313,54,0,P|246:212|189:205,1,91,10|10,2:1|2:1,2:0:0:0:
371,283,183813,1,2,2:3:0:0:
371,283,183980,2,0,P|379:232|386:175,1,91,10|10,2:1|2:1,2:0:0:0:
309,357,184480,1,2,2:3:0:0:
309,357,184646,2,0,P|360:365|417:372,1,91,10|10,2:1|2:1,2:0:0:0:
235,294,185146,1,2,2:3:0:0:
235,294,185313,2,0,P|227:345|220:402,1,91,10|10,2:1|2:1,2:0:0:0:
297,220,185813,1,2,3:0:0:0:
272,217,185896,1,2,3:0:0:0:
244,213,185980,1,4,3:2:0:0:
97,110,187313,5,12,2:1:0:0:
64,36,187480,2,0,P|38:15|17:-3,2,35,6|4|12,2:3|2:3|2:0,2:0:0:0:
176,121,187813,102,0,P|207:108|236:99,2,40.25,6|4|12,2:3|2:3|2:0,2:0:0:0:
43,170,188146,6,0,P|37:203|32:235,2,45.5,6|4|12,2:3|2:3|2:1,2:0:0:0:
97,110,188480,1,6,2:3:0:0:
119,208,188646,102,0,P|173:201|218:196,1,70,4|2,3:1|2:3,2:0:0:0:
269,189,188980,1,10,2:0:0:0:
269,189,189146,1,2,2:3:0:0:
285,272,189313,6,0,P|231:279|186:284,1,70,0|2,3:1|2:3,2:0:0:0:
135,291,189646,1,10,2:0:0:0:
135,291,189813,1,2,2:3:0:0:
119,208,189980,102,0,P|173:201|218:196,1,70,0|2,3:1|2:3,2:0:0:0:
269,189,190313,1,10,2:0:0:0:
269,189,190480,1,2,2:3:0:0:
346,214,190646,6,0,P|362:142|367:125,2,70,4|2|10,3:2|2:3|2:3,2:0:0:0:
286,269,191146,1,2,2:3:0:0:
315,345,191313,102,0,P|387:331|475:319,1,140,4|8,3:2|2:0,2:0:0:0:
512,266,191813,1,2,2:3:0:0:
435,242,191980,2,0,P|416:179|409:155,1,70,0|2,3:0|2:3,2:0:0:0:
430,95,192313,2,0,P|420:61|409:27,1,70,8|2,2:0|2:3,2:0:0:0:
336,63,192646,2,0,P|266:65|200:43,1,140,0|8,3:0|2:0,2:0:0:0:
213,243,193313,5,2,3:1:0:0:
213,243,193646,101,10,2:1:0:0:
213,243,193980,5,4,3:1:0:0:
309,235,194146,1,2,2:3:0:0:
300,139,194313,1,8,2:0:0:0:
204,148,194480,1,2,2:3:0:0:
213,244,194646,1,0,3:0:0:0:
213,244,194980,101,8,2:0:0:0:
213,244,195313,5,4,3:2:0:0:
285,145,196646,101,0,3:0:0:0:
285,145,196980,5,8,2:0:0:0:
285,145,197313,101,0,3:0:0:0:
283,241,197480,1,2,2:3:0:0:
201,191,197646,1,8,2:0:0:0:
285,145,197813,1,2,2:3:0:0:
283,241,197980,1,4,3:2:0:0:
238,110,199313,5,0,3:0:0:0:
328,149,199480,1,2,2:3:0:0:
319,246,199646,1,8,2:0:0:0:
224,268,199813,1,2,2:3:0:0:
173,184,199980,1,0,3:0:0:0:
173,184,200313,101,8,2:0:0:0:
173,184,200646,5,0,3:0:0:0:
384,44,201480,101,2,2:3:0:0:
384,44,201646,2,0,P|327:53|296:57,1,70,8|10,2:0|2:3,2:0:0:0:
315,55,201896,1,10,2:3:0:0:
315,55,201980,6,0,P|329:104|336:138,1,70,6|2,3:1|2:0,2:0:0:0:
413,124,202313,2,0,P|447:119|482:113,1,70,6|2,3:1|2:0,2:0:0:0:
455,200,202646,1,6,3:1:0:0:
455,200,202813,1,2,3:1:0:0:
372,196,202980,2,0,P|337:200|302:206,1,70,6|8,3:1|2:0,2:0:0:0:
302,206,203230,1,8,2:0:0:0:
302,206,203313,1,6,3:1:0:0:
115,353,204146,101,10,2:3:0:0:
115,353,204313,2,0,P|105:302|95:265,1,70,10|10,2:3|2:3,2:0:0:0:
78,207,204646,1,4,3:1:0:0:
256,192,204730,12,12,206980,2:0:0:0:
276,125,207313,5,0,3:2:0:0:
276,125,207646,2,0,P|333:139|372:149,1,70,8|2,2:0|2:3,2:0:0:0:
425,119,207980,1,0,3:0:0:0:
425,119,208146,2,0,P|415:71|408:38,1,70,2|8,2:3|2:0,2:0:0:0:
491,35,208480,2,0,P|501:83|508:116,1,70,2|0,2:3|3:0,2:0:0:0:
481,180,208813,101,2,2:3:0:0:
402,199,208980,2,0,P|396:240|391:275,1,70,8|2,2:0|2:3,2:0:0:0:
423,343,209313,1,0,3:0:0:0:
342,334,209480,1,2,2:3:0:0:
342,334,209563,1,2,2:3:0:0:
342,334,209646,2,0,P|290:341|258:345,1,70,8|2,2:0|2:3,2:0:0:0:
164,364,209980,6,0,P|108:323|39:321,2,140,4|8|0,3:2|2:0|3:2,2:0:0:0:
244,346,210813,2,0,P|232:291|224:255,1,70,2|8,2:3|2:0,2:0:0:0:
158,238,211146,1,2,2:3:0:0:
105,176,211313,102,0,P|114:134|120:99,1,70,0|2,3:0|2:3,2:0:0:0:
88,18,211646,2,0,P|129:27|164:33,1,70,8|2,2:0|2:3,2:0:0:0:
246,0,211980,2,0,P|236:41|230:76,1,70,0|2,3:0|2:3,2:0:0:0:
263,156,212313,2,0,P|221:146|186:140,1,70,8|2,2:0|2:3,2:0:0:0:
119,107,212646,5,4,3:2:0:0:
41,133,212813,1,2,2:3:0:0:
41,133,212896,1,2,2:3:0:0:
41,133,212980,2,0,P|29:82|19:47,2,70,8|2|0,2:0|2:3|3:0,2:0:0:0:
104,198,213480,1,2,2:3:0:0:
104,198,213563,1,2,2:3:0:0:
104,198,213646,1,8,2:0:0:0:
61,267,213813,1,2,2:3:0:0:
106,334,213980,2,0,P|247:337|461:370,1,350,0|2,3:0|2:3,2:0:0:0:
392,312,214980,70,0,P|400:283|408:250,3,35,10|2|2|2,2:0|2:3|2:3|2:3,2:0:0:0:
435,255,215313,1,4,3:2:0:0:
166,217,216980,5,4,3:2:0:0:
346,167,217313,1,4,3:2:0:0:
166,217,217646,2,0,P|158:191|149:165,1,35,8|0,2:0|2:0,2:0:0:0:
