osu file format v14

[General]
AudioFilename: audio.mp3
AudioLeadIn: 0
PreviewTime: 563
Countdown: 0
SampleSet: Soft
StackLeniency: 0.7
Mode: 0
LetterboxInBreaks: 0
WidescreenStoryboard: 1

[Editor]
DistanceSpacing: 1
BeatDivisor: 4
GridSize: 32
TimelineZoom: 1

[Metadata]
Title:Kyun Kyun MIKO Kyun kyun <3
TitleUnicode:きゅんきゅんみこきゅんきゅん♡
Artist:Sakura Miko
ArtistUnicode:さくらみこ
Creator:Left
Version:Easy
Source:
Tags:Amateurre Shizuku- Kazato Asa Shikibe Mayu Ayesha Altugle Affirmation みこち Mikochi 35p ホロライブ hololive vtuber virtual youtuber original japanese pop jpop j-pop
BeatmapID:4522769
BeatmapSetID:2146215

[Difficulty]
HPDrainRate:2.5
CircleSize:2.5
OverallDifficulty:2.5
ApproachRate:4
SliderMultiplier:0.9
SliderTickRate:1

[Events]
//Background and Video events
0,0,"miko.jpg",0,0
Video,0,"optc.flv"
//Break Periods
2,81980,88660
2,148313,149993
//Storyboard Layer 0 (Background)
//Storyboard Layer 1 (Fail)
//Storyboard Layer 2 (Pass)
//Storyboard Layer 3 (Foreground)
//Storyboard Layer 4 (Overlay)
//Storyboard Sound Samples

[TimingPoints]
647,333.333333333333,4,2,7,70,1,0
9980,-100,4,2,7,75,0,0
10313,-100,4,2,7,80,0,0
10646,-100,4,2,7,90,0,0
12646,-100,4,2,7,80,0,0
23479,-100,4,2,7,75,0,0
44646,-100,4,2,7,70,0,0
49980,-100,4,2,7,75,0,0
52811,-100,4,2,7,60,0,0
55312,-100,4,2,8,60,0,0
57980,-100,4,2,7,80,0,1
79313,-100,4,2,7,80,0,0
89980,-100,4,2,7,75,0,0
111313,-100,4,2,7,70,0,0
116646,-100,4,2,7,75,0,0
119476,-100,4,2,7,60,0,0
121979,-100,4,2,8,60,0,0
124646,-100,4,2,7,80,0,1
145980,-100,4,2,7,80,0,0
153980,-100,4,2,7,60,0,0
156646,-100,4,2,7,75,0,0
178141,-100,4,2,7,60,0,0
180646,-100,4,2,8,60,0,0
183313,-100,4,2,7,75,0,0
187313,-100,4,2,7,70,0,0
188313,-100,4,2,7,80,0,0
188646,-100,4,2,7,80,0,1
204646,-100,4,2,7,80,0,0

[Colours]
Combo1 : 163,222,254
Combo2 : 100,100,100
Combo3 : 222,222,222
Combo4 : 253,89,118
Combo5 : 254,194,205
Combo6 : 255,232,153
Combo7 : 217,157,0
Combo8 : 210,255,117

[HitObjects]
149,307,1313,22,0,P|210:293|251:283,1,90,10|8,2:0|2:0,2:0:0:0:
319,249,1980,69,2,3:2:0:0:
497,268,2646,1,2,3:2:0:0:
418,106,3313,2,0,P|424:60|430:2,2,90,2|10|2,3:1|2:1|3:1,2:0:0:0:
238,99,4646,5,2,3:2:0:0:
60,80,5313,1,2,3:2:0:0:
139,242,5980,2,0,P|133:288|127:346,2,90,2|10|2,3:1|2:1|3:1,2:0:0:0:
305,312,7313,101,2,3:1:0:0:
460,221,7980,2,0,P|469:155|476:115,1,90,2|10,3:1|2:1,2:0:0:0:
428,53,8646,1,2,3:1:0:0:
273,144,9313,2,0,P|264:210|257:250,1,90,10|10,2:1|2:1,2:0:0:0:
237,320,9980,6,0,P|180:305|133:297,1,90,4|4,3:1|3:2,2:0:0:0:
59,299,10646,2,0,P|39:324|20:347,2,45,0|0|4,3:0|3:0|3:2,2:0:0:0:
24,215,11313,1,4,3:1:0:0:
342,58,12646,38,0,P|419:42|450:36,2,90,4|8|0,3:1|2:0|3:0,2:0:0:0:
252,43,13646,1,8,2:0:0:0:
247,132,13980,2,0,P|319:142|385:233,1,180,0|0,3:0|3:0,2:0:0:0:
363,310,14980,2,0,P|308:319|262:330,1,90,8|0,2:0|3:0,2:0:0:0:
141,204,15980,6,0,P|86:195|40:184,1,90,0|8,3:0|2:0,2:0:0:0:
38,276,16646,2,0,P|93:285|139:296,2,90,0|8|0,3:0|2:0|3:0,2:0:0:0:
6,191,17646,1,10,2:0:0:0:
52,113,17980,102,0,P|135:104|228:52,1,180,4|0,3:2|3:2,2:0:0:0:
303,26,18980,1,8,2:0:0:0:
369,86,19313,2,0,P|428:153|507:193,1,180,0|0,3:0|3:0,2:0:0:0:
399,337,20646,6,0,P|347:346|299:356,1,90,0|8,3:0|2:0,2:0:0:0:
241,296,21313,2,0,P|189:287|141:277,1,90,0|8,3:0|2:0,2:0:0:0:
70,317,21980,1,0,3:2:0:0:
299,40,23313,70,0,P|397:58|492:66,1,180,4|0,3:2|3:2,2:0:0:0:
455,244,24646,2,0,P|365:235|277:218,1,180,2|0,3:2|3:2,2:0:0:0:
195,180,25646,1,8,2:0:0:0:
117,134,25980,6,0,P|72:158|57:285,1,180,2|0,3:2|3:2,2:0:0:0:
215,351,27313,2,0,P|260:327|275:200,1,180,0|0,3:2|3:2,2:0:0:0:
227,136,28313,1,2,2:1:0:0:
251,49,28646,102,0,P|309:41|358:34,1,90,6|8,3:1|2:0,2:0:0:0:
408,95,29313,2,0,P|466:87|515:80,1,90,0|8,3:0|2:0,2:0:0:0:
510,171,29980,2,0,P|452:179|403:186,1,90,0|8,3:0|2:0,2:0:0:0:
372,259,30646,2,0,P|327:265|282:271,1,90,0|8,3:0|2:0,2:0:0:0:
210,217,31313,6,0,P|152:225|103:232,1,90,0|8,3:0|2:0,2:0:0:0:
62,298,31980,1,0,3:0:0:0:
10,173,32480,2,0,P|24:97|36:26,1,135,4|0,3:1|3:0,2:0:0:0:
120,16,33313,1,0,3:0:0:0:
198,59,33646,1,8,2:0:0:0:
286,42,33980,54,0,P|352:31|388:27,2,90,4|8|0,3:2|2:0|3:0,2:0:0:0:
226,211,35313,2,0,P|313:212|383:282,1,180,0|4,3:0|3:2,2:0:0:0:
399,360,36313,1,8,2:0:0:0:
312,334,36646,102,0,P|242:344|131:359,1,180,4|0,3:2|3:0,2:0:0:0:
88,184,37980,2,0,P|34:178|-15:173,2,90,0|10|2,3:0|2:3|3:2,2:0:0:0:
145,114,38980,1,8,2:0:0:0:
194,38,39313,6,0,P|248:44|297:49,2,90,4|8|0,3:2|2:0|3:0,2:0:0:0:
265,203,40646,1,2,3:1:0:0:
337,150,40980,1,10,2:1:0:0:
421,180,41313,2,0,P|432:232|443:274,1,90,2|10,3:1|2:1,2:0:0:0:
390,342,41980,102,0,P|307:310|204:312,1,180,4|0,3:2|3:0,2:0:0:0:
41,265,43313,2,0,P|38:171|91:97,1,180,0|4,3:0|3:2,2:0:0:0:
172,82,44313,1,8,2:0:0:0:
230,14,44646,22,0,P|313:26|421:33,1,180,4|0,3:1|3:0,2:0:0:0:
457,108,45646,1,10,2:3:0:0:
396,174,45980,2,0,P|306:161|217:155,2,180,0|0|0,3:0|3:2|3:2,2:0:0:0:
295,323,47980,6,0,P|241:330|191:340,1,90,0|10,3:0|2:3,2:0:0:0:
120,363,48646,2,0,P|68:306|75:204,1,180,0|0,3:0|3:0,2:0:0:0:
158,180,49646,1,10,2:3:0:0:
89,121,49980,102,0,P|28:110|-14:105,1,90,4|8,3:2|2:0,2:0:0:0:
15,17,50646,2,0,P|76:28|118:33,1,90,0|8,3:0|2:0,2:0:0:0:
172,89,51313,1,4,3:2:0:0:
333,9,51980,2,0,P|342:51|356:107,1,90,0|12,3:0|2:0,2:0:0:0:
428,145,52646,38,0,P|269:132|182:303,2,360,4|0|2,3:2|3:0|3:0,2:0:0:0:
103,332,57980,6,0,P|88:272|75:229,1,90,4|8,3:1|2:0,2:0:0:0:
168,225,58646,2,0,P|183:285|196:328,1,90,0|8,3:0|2:0,2:0:0:0:
279,328,59313,1,0,3:0:0:0:
353,276,59646,2,0,P|419:287|453:292,2,90,8|0|8,2:0|3:0|2:0,2:0:0:0:
296,205,60646,1,0,3:2:0:0:
468,154,61313,6,0,P|475:94|481:50,1,90,0|8,3:0|2:0,2:0:0:0:
413,2,61980,1,0,3:0:0:0:
329,35,62313,1,8,2:0:0:0:
240,21,62646,2,0,P|192:15|143:10,1,90,2|10,3:1|2:1,2:0:0:0:
70,52,63313,102,0,P|66:77|50:155,1,90,4|8,3:1|2:0,2:0:0:0:
121,199,63980,2,0,P|125:224|141:302,1,90,0|8,3:0|2:0,2:0:0:0:
62,336,64646,2,0,P|160:334|229:376,1,180,0|0,3:0|3:0,2:0:0:0:
389,295,65980,6,0,P|444:301|489:304,2,90,4|8|0,3:2|2:0|3:0,2:0:0:0:
300,311,66980,1,8,2:0:0:0:
291,221,67313,2,0,P|360:207|410:105,1,180,0|2,3:0|3:1,2:0:0:0:
384,30,68313,1,10,2:1:0:0:
295,14,68646,102,0,P|243:22|196:28,1,90,4|8,3:1|2:0,2:0:0:0:
221,115,69313,2,0,P|273:107|320:101,1,90,0|8,3:0|2:0,2:0:0:0:
381,47,69980,1,4,3:2:0:0:
63,217,71313,6,0,P|71:165|77:118,1,90,0|8,3:2|2:0,2:0:0:0:
164,143,71980,2,0,P|156:195|150:242,1,90,0|8,3:0|2:0,2:0:0:0:
96,303,72646,1,4,3:2:0:0:
414,136,73980,102,0,P|362:128|315:122,1,90,0|8,3:0|2:0,2:0:0:0:
340,35,74646,2,0,P|392:43|439:49,1,90,0|8,3:0|2:0,2:0:0:0:
500,103,75313,1,0,3:0:0:0:
226,337,76646,5,6,3:1:0:0:
238,248,76980,1,6,3:1:0:0:
173,184,77313,2,0,P|178:149|182:121,1,45,6|2,3:1|3:1,2:0:0:0:
155,101,77646,1,2,3:1:0:0:
167,12,77980,1,6,3:1:0:0:
505,135,79313,101,4,3:1:0:0:
256,192,79480,12,12,81646,2:0:0:0:
77,129,89980,86,0,P|62:76|47:30,2,90,4|8|0,3:2|2:0|3:0,2:0:0:0:
171,282,91313,2,0,P|118:297|72:312,2,90,0|8|0,3:0|2:0|3:0,2:0:0:0:
328,195,92646,2,0,P|343:248|358:294,2,90,0|8|0,3:0|2:0|3:0,2:0:0:0:
234,42,93980,2,0,P|287:27|333:12,2,90,0|8|0,3:0|2:0|3:0,2:0:0:0:
156,88,94980,1,2,2:1:0:0:
66,77,95313,6,0,P|57:151|54:183,1,90,4|8,3:2|2:0,2:0:0:0:
106,240,95980,2,0,P|97:314|94:346,1,90,0|8,3:0|2:0,2:0:0:0:
184,340,96646,2,0,P|193:266|196:234,1,90,0|8,3:0|2:0,2:0:0:0:
265,195,97313,2,0,P|274:121|277:89,1,90,0|8,3:0|2:0,2:0:0:0:
343,46,97980,102,0,P|391:44|448:38,1,90,0|8,3:0|2:0,2:0:0:0:
509,86,98646,1,0,3:0:0:0:
471,215,99146,2,0,P|404:217|344:259,1,135,4|0,3:1|3:0,2:0:0:0:
284,316,99980,1,0,3:0:0:0:
194,312,100313,1,8,2:0:0:0:
114,354,100646,70,0,P|93:265|70:173,1,180,4|0,3:2|3:0,2:0:0:0:
154,19,101980,2,0,P|207:25|257:32,1,90,0|10,3:0|2:0,2:0:0:0:
299,100,102646,2,0,P|352:94|402:87,1,90,0|2,3:0|3:2,2:0:0:0:
453,26,103313,102,0,P|417:105|423:198,1,180,4|0,3:2|3:0,2:0:0:0:
329,350,104646,1,2,3:1:0:0:
258,293,104980,1,10,2:1:0:0:
175,330,105313,2,0,P|120:337|73:345,1,90,2|10,3:1|2:1,2:0:0:0:
72,253,105980,6,0,P|127:246|174:238,2,90,4|8|0,3:2|2:0|3:0,2:0:0:0:
43,74,107313,1,2,3:2:0:0:
132,61,107646,2,0,P|144:121|152:158,1,90,10|2,2:0|3:2,2:0:0:0:
239,141,108313,1,2,3:2:0:0:
314,189,108646,102,0,P|391:182|485:237,1,180,4|0,3:2|3:0,2:0:0:0:
335,338,109980,1,0,3:0:0:0:
256,294,110313,1,8,2:0:0:0:
172,327,110646,2,0,P|128:323|62:319,1,90,4|8,3:2|2:0,2:0:0:0:
32,245,111313,22,0,P|17:163|-3:58,1,180,4|0,3:2|3:0,2:0:0:0:
66,8,112313,1,10,2:3:0:0:
149,42,112646,2,0,P|164:124|184:229,2,180,0|0|4,2:0|3:0|3:2,2:0:0:0:
327,18,114646,6,0,P|390:28|426:44,1,90,0|10,3:0|2:3,2:0:0:0:
421,127,115313,2,0,P|333:137|264:207,1,180,0|0,3:0|3:0,2:0:0:0:
257,287,116313,1,10,2:3:0:0:
185,231,116646,102,0,P|177:178|169:122,1,90,4|8,3:2|2:0,2:0:0:0:
83,156,117313,2,0,P|91:209|99:265,1,90,0|8,3:0|2:0,2:0:0:0:
152,315,117980,1,4,3:2:0:0:
328,280,118646,2,0,P|334:217|340:172,1,90,0|8,3:0|2:0,2:0:0:0:
377,110,119313,38,0,P|276:68|116:236,2,360,0|0|2,2:0|3:0|3:0,2:0:0:0:
436,320,124646,6,0,P|391:328|347:337,1,90,4|8,3:1|2:0,2:0:0:0:
329,248,125313,2,0,P|373:239|417:230,1,90,0|8,3:0|2:0,2:0:0:0:
466,154,125980,1,0,3:0:0:0:
389,107,126313,2,0,P|345:116|301:125,2,90,8|0|8,2:0|3:0|2:0,2:0:0:0:
437,31,127313,1,0,3:0:0:0:
257,45,127980,6,0,P|195:37|157:34,1,90,0|8,3:0|2:0,2:0:0:0:
79,17,128646,1,0,3:0:0:0:
16,82,128980,1,8,2:0:0:0:
50,164,129313,2,0,P|69:226|81:264,1,90,2|10,3:1|2:1,2:0:0:0:
83,339,129980,102,0,P|146:343|188:348,1,90,4|8,3:1|2:0,2:0:0:0:
243,290,130646,2,0,P|306:286|348:281,1,90,0|8,3:0|2:0,2:0:0:0:
383,357,131313,2,0,P|380:267|421:181,1,180,0|0,3:0|3:0,2:0:0:0:
299,49,132646,6,0,P|361:36|399:19,2,90,4|8|0,3:2|2:0|3:0,2:0:0:0:
209,58,133646,1,8,2:0:0:0:
212,147,133980,2,0,P|155:149|59:238,1,180,0|2,3:0|3:1,2:0:0:0:
52,314,134980,1,10,2:1:0:0:
134,278,135313,102,0,P|186:270|233:264,1,90,4|8,3:1|2:0,2:0:0:0:
208,177,135980,2,0,P|156:185|109:191,1,90,0|8,3:0|2:0,2:0:0:0:
48,245,136646,1,4,3:2:0:0:
383,116,137980,6,0,P|391:168|397:215,1,90,0|0,3:0|2:0,2:0:0:0:
484,190,138646,2,0,P|476:138|470:91,1,90,0|8,3:0|2:0,2:0:0:0:
416,30,139313,1,4,3:2:0:0:
128,246,140646,102,0,P|136:194|142:147,1,90,0|8,3:0|2:0,2:0:0:0:
229,172,141313,2,0,P|221:224|215:271,1,90,0|8,3:0|2:0,2:0:0:0:
161,332,141980,1,0,3:0:0:0:
377,44,143313,5,6,3:1:0:0:
287,57,143646,1,6,3:1:0:0:
241,134,143980,2,0,P|208:140|184:145,1,45,6|0,3:1|3:0,2:0:0:0:
175,182,144313,1,2,3:1:0:0:
85,195,144646,1,4,3:1:0:0:
416,334,145980,101,6,2:0:0:0:
256,192,151313,12,0,153980,3:0:0:0:
398,134,156646,6,0,P|447:125|498:114,2,90,4|8|0,3:1|2:0|3:0,2:0:0:0:
307,130,157646,1,8,2:0:0:0:
306,220,157980,2,0,P|359:216|468:283,2,180,0|0|0,3:0|3:0|3:2,2:0:0:0:
222,253,159646,101,8,2:0:0:0:
139,216,159980,2,0,P|127:154|119:116,1,90,0|8,3:0|2:0,2:0:0:0:
181,60,160646,1,0,3:0:0:0:
4,22,161313,2,0,P|16:84|24:122,1,90,0|8,3:0|2:0,2:0:0:0:
81,177,161980,6,0,P|69:239|61:277,2,90,4|8|4,3:2|2:0|3:2,2:0:0:0:
169,157,162980,1,8,2:0:0:0:
246,202,163313,2,0,P|315:189|426:174,1,180,4|4,3:2|3:2,2:0:0:0:
445,352,164646,101,4,3:2:0:0:
365,310,164980,1,8,2:0:0:0:
278,336,165313,2,0,P|225:345|181:350,1,90,0|8,3:0|2:0,2:0:0:0:
104,319,165980,2,0,P|91:237|160:159,2,180,0|0|12,3:0|3:0|2:1,2:0:0:0:
282,339,167980,85,8,2:0:0:0:
349,278,168313,2,0,P|392:265|443:255,1,90,8|8,2:0|2:0,2:0:0:0:
505,198,168980,1,8,2:0:0:0:
444,131,169313,2,0,P|429:78|419:38,1,90,12|0,2:0|3:0,2:0:0:0:
333,68,169980,6,0,P|348:121|358:161,2,90,14|10|10,2:0|2:0|2:0,2:0:0:0:
245,44,170980,1,10,2:0:0:0:
173,99,171313,2,0,P|112:94|69:93,1,90,10|10,2:1|2:1,2:0:0:0:
14,151,171980,1,10,2:1:0:0:
130,288,172646,70,0,P|123:339|115:393,2,90,4|10|2,3:2|2:0|2:0,2:0:0:0:
194,224,173646,2,0,P|201:173|209:119,2,90,8|2|8,2:0|3:2|2:0,2:0:0:0:
216,311,174646,2,0,P|278:308|391:360,1,180,0|4,3:0|3:2,2:0:0:0:
468,321,175646,5,8,2:0:0:0:
480,231,175980,1,0,3:0:0:0:
437,56,176646,2,0,P|389:64|335:69,1,90,0|8,3:0|2:0,2:0:0:0:
282,130,177313,2,0,P|234:122|180:117,1,90,0|12,3:0|2:0,2:0:0:0:
135,48,177980,22,0,P|172:131|38:336,2,360,0|0|2,3:0|3:0|3:0,2:0:0:0:
363,279,183313,5,10,2:1:0:0:
185,249,183980,1,10,2:1:0:0:
214,71,184646,1,10,2:1:0:0:
392,101,185313,1,10,2:1:0:0:
363,279,185980,5,4,3:2:0:0:
62,81,187313,101,12,2:1:0:0:
150,94,187646,1,12,2:0:0:0:
165,181,187980,1,12,2:0:0:0:
86,223,188313,1,12,2:1:0:0:
22,159,188646,6,0,P|13:99|5:53,2,90,4|10|0,3:1|2:0|3:1,2:0:0:0:
86,223,189646,1,10,2:0:0:0:
23,288,189980,2,0,P|113:291|189:351,1,180,0|4,3:1|3:2,2:0:0:0:
360,371,191313,102,0,P|368:311|375:270,1,90,4|8,3:2|2:0,2:0:0:0:
296,233,191980,2,0,P|288:173|281:132,1,90,0|8,3:0|2:0,2:0:0:0:
369,117,192646,2,0,P|448:93|464:-13,1,180,0|2,3:0|3:1,2:0:0:0:
384,30,193646,1,10,2:1:0:0:
295,14,193980,6,0,P|243:22|196:28,1,90,4|8,3:1|2:0,2:0:0:0:
221,115,194646,2,0,P|273:107|320:101,1,90,0|8,3:0|2:0,2:0:0:0:
381,47,195313,1,4,3:2:0:0:
63,217,196646,102,0,P|71:165|77:118,1,90,0|8,3:0|2:0,2:0:0:0:
164,143,197313,2,0,P|156:195|150:242,1,90,0|8,3:0|2:0,2:0:0:0:
96,303,197980,1,4,3:2:0:0:
414,136,199313,6,0,P|362:128|315:122,1,90,0|8,3:0|2:0,2:0:0:0:
340,35,199980,2,0,P|392:43|439:49,1,90,0|8,3:0|2:0,2:0:0:0:
500,103,200646,1,0,3:0:0:0:
246,358,201980,101,6,3:1:0:0:
264,270,202313,1,6,3:1:0:0:
216,193,202646,2,0,P|226:156|233:132,1,45,6|2,3:1|3:1,2:0:0:0:
205,110,202980,1,6,3:1:0:0:
223,22,203313,1,6,3:1:0:0:
16,316,204646,5,4,3:1:0:0:
256,192,204813,12,4,207313,3:2:0:0:
245,295,209980,102,0,P|198:225|204:117,1,180,4|0,3:2|3:2,2:0:0:0:
280,95,210980,1,8,2:0:0:0:
369,91,211313,2,0,P|416:161|410:269,1,180,0|0,3:0|3:0,2:0:0:0:
266,354,212646,6,0,P|211:346|161:343,1,90,4|8,3:2|2:0,2:0:0:0:
122,271,213313,2,0,P|67:279|17:282,1,90,0|8,3:0|2:0,2:0:0:0:
6,367,213980,1,0,3:0:0:0:
132,29,215313,69,4,3:2:0:0:
132,29,216980,2,0,P|191:40|241:45,1,90,4|4,3:2|3:2,2:0:0:0:
206,132,217646,1,8,2:0:0:0:
