osu file format v14

[General]
AudioFilename: audio.mp3
AudioLeadIn: 0
PreviewTime: 563
Countdown: 0
SampleSet: Soft
StackLeniency: 0.7
Mode: 0
LetterboxInBreaks: 0
WidescreenStoryboard: 1

[Editor]
Bookmarks: 23313,33980,44646,57980,79313,111313,124646,145980,156646,167313,183313,188646,204646
DistanceSpacing: 1
BeatDivisor: 4
GridSize: 4
TimelineZoom: 1.5

[Metadata]
Title:Kyun Kyun MIKO Kyun kyun <3
TitleUnicode:きゅんきゅんみこきゅんきゅん♡
Artist:Sakura Miko
ArtistUnicode:さくらみこ
Creator:Left
Version:Ayesha's Expert
Source:
Tags:Amateurre Shizuku- Kazato Asa Shikibe Mayu Ayesha Altugle Affirmation みこち Mikochi 35p ホロライブ hololive vtuber virtual youtuber original japanese pop jpop j-pop
BeatmapID:4525625
BeatmapSetID:2146215

[Difficulty]
HPDrainRate:5
CircleSize:4
OverallDifficulty:8.7
ApproachRate:9.3
SliderMultiplier:1.8
SliderTickRate:1

[Events]
//Background and Video events
0,0,"miko.jpg",0,0
Video,0,"optc.flv"
//Break Periods
2,122180,123426
2,148646,150759
//Storyboard Layer 0 (Background)
//Storyboard Layer 1 (Fail)
//Storyboard Layer 2 (Pass)
//Storyboard Layer 3 (Foreground)
//Storyboard Layer 4 (Overlay)
//Storyboard Sound Samples

[TimingPoints]
647,333.333333333333,4,2,7,70,1,0
1812,-100,4,2,7,5,0,0
1980,-142.857142857143,4,2,7,70,0,0
9980,-90.9090909090909,4,2,7,75,0,0
10313,-90.9090909090909,4,2,7,80,0,0
10646,-90.9090909090909,4,2,7,90,0,0
12146,-90.9090909090909,4,2,7,80,0,0
12646,-100,4,2,7,80,0,0
17896,-100,4,2,7,5,0,0
17980,-100,4,2,7,80,0,0
23313,-125,4,2,7,80,0,0
23479,-125,4,2,7,75,0,0
32480,-76.9230769230769,4,2,7,75,0,0
39313,-100,4,2,7,75,0,0
44646,-125,4,2,7,70,0,0
49980,-100,4,2,7,75,0,0
52813,-100,4,2,7,60,0,0
55313,-100,4,2,8,60,0,0
56146,-100,4,2,8,65,0,0
56479,-100,4,2,8,70,0,0
56813,-100,4,2,8,75,0,0
57146,-100,4,2,7,80,0,0
57396,-100,4,2,7,5,0,0
57480,-100,4,2,7,80,0,0
57563,-100,4,2,7,5,0,0
57646,-100,4,2,7,80,0,0
57729,-100,4,2,7,5,0,0
57813,-100,4,2,7,80,0,0
57980,-100,4,2,7,80,0,1
62646,-71.4285714285714,4,2,7,80,0,1
62729,-71.4285714285714,4,2,7,5,0,1
62813,-71.4285714285714,4,2,7,80,0,1
62896,-71.4285714285714,4,2,7,5,0,1
62980,-71.4285714285714,4,2,7,80,0,1
63063,-71.4285714285714,4,2,7,5,0,1
63146,-71.4285714285714,4,2,7,80,0,1
63313,-100,4,2,7,80,0,1
68396,-100,4,2,7,5,0,1
68480,-100,4,2,7,80,0,1
68563,-100,4,2,7,5,0,1
68646,-100,4,2,7,80,0,1
75896,-100,4,2,7,5,0,1
75980,-100,4,2,7,80,0,1
79313,-100,4,2,7,80,0,0
89480,-100,4,2,7,75,0,0
89980,-125,4,2,7,75,0,0
95230,-125,4,2,7,5,0,0
95313,-125,4,2,7,75,0,0
99146,-76.9230769230769,4,2,7,75,0,0
101646,-100,4,2,7,75,0,0
111313,-125,4,2,7,75,0,0
111393,-125,4,2,7,70,0,0
116646,-100,4,2,7,75,0,0
119480,-100,4,2,7,60,0,0
121980,-100,4,2,8,60,0,0
123980,-100,4,2,8,80,0,0
124480,-100,4,2,7,80,0,0
124646,-100,4,2,7,80,0,1
129313,-71.4285714285714,4,2,7,80,0,1
129396,-71.4285714285714,4,2,7,5,0,1
129480,-71.4285714285714,4,2,7,80,0,1
129563,-71.4285714285714,4,2,7,5,0,1
129646,-71.4285714285714,4,2,7,80,0,1
129729,-71.4285714285714,4,2,7,5,0,1
129813,-71.4285714285714,4,2,7,80,0,1
129980,-100,4,2,7,80,0,1
145980,-100,4,2,7,80,0,0
151313,-100,4,2,7,60,0,0
155980,-100,4,2,7,65,0,0
156146,-100,4,2,7,70,0,0
156313,-100,4,2,7,75,0,0
171563,-100,4,2,7,5,0,0
171646,-100,4,2,7,75,0,0
178146,-100,4,2,7,60,0,0
180646,-100,4,2,8,60,0,0
181812,-100,4,2,8,65,0,0
182313,-100,4,2,8,70,0,0
182480,-100,4,2,7,75,0,0
182812,-100,4,2,7,80,0,0
183313,-100,4,2,7,75,0,0
186146,-100,4,2,7,55,0,0
187313,-50,4,2,7,70,0,0
188140,-50,4,2,7,80,0,0
188646,-50,4,2,7,80,0,1
190313,-100,4,2,7,80,0,1
204646,-100,4,2,7,80,0,0

[Colours]
Combo1 : 163,222,254
Combo2 : 100,100,100
Combo3 : 222,222,222
Combo4 : 253,89,118
Combo5 : 254,194,205
Combo6 : 255,232,153
Combo7 : 217,157,0
Combo8 : 210,255,117

[HitObjects]
256,192,647,21,2,2:0:0:0:
256,192,980,1,2,2:0:0:0:
256,192,1313,1,10,2:0:0:0:
282,112,1480,1,0,3:0:0:0:
321,125,1563,1,0,3:0:0:0:
337,165,1646,2,0,P|384:159|427:149,1,90,8|0,2:0|2:0,2:0:0:0:
184,238,1980,70,0,P|120:245|59:260,2,126,2|10|2,3:2|2:0|3:2,2:0:0:0:
256,192,2813,1,2,2:0:0:0:
239,108,2980,1,10,2:0:0:0:
367,318,3313,5,2,3:1:0:0:
60,259,3646,1,10,2:1:0:0:
304,144,3980,101,2,3:1:0:0:
261,283,4146,1,0,2:0:0:0:
161,176,4313,1,10,2:1:0:0:
245,202,4480,5,2,2:0:0:0:
245,202,4563,1,2,2:0:0:0:
245,202,4646,2,0,P|251:156|251:76,2,126,2|10|2,3:2|2:0|3:2,2:0:0:0:
161,176,5480,1,2,2:0:0:0:
105,242,5646,1,10,2:0:0:0:
301,368,5980,101,2,3:1:0:0:
251,76,6313,1,10,2:1:0:0:
400,342,6646,5,2,3:1:0:0:
375,188,6813,1,0,2:0:0:0:
254,286,6980,1,10,2:1:0:0:
206,204,7146,101,2,2:0:0:0:
206,204,7230,1,2,2:0:0:0:
206,204,7313,2,0,P|237:201|273:191,1,62.9999999999999,2|0,3:1|2:0,2:0:0:0:
423,263,7646,2,0,P|392:266|356:276,1,62.9999999999999,10|0,2:1|2:0,2:0:0:0:
222,118,7980,5,2,3:1:0:0:
401,176,8146,1,2,2:0:0:0:
254,286,8313,1,10,2:1:0:0:
254,286,8646,102,0,P|223:283|187:273,1,62.9999999999999,2|0,3:1|2:0,2:0:0:0:
37,345,8980,2,0,P|68:348|104:358,1,62.9999999999999,10|0,2:1|2:0,2:0:0:0:
238,200,9313,5,10,2:1:0:0:
59,258,9480,1,2,2:0:0:0:
206,368,9646,1,10,2:1:0:0:
161,133,9813,37,0,3:0:0:0:
161,133,9896,1,0,3:0:0:0:
161,133,9980,2,0,P|152:182|138:236,1,99,4|0,3:1|2:0,2:0:0:0:
351,251,10313,2,0,P|360:202|374:148,1,99,4|0,3:2|2:0,2:0:0:0:
227,66,10646,5,0,3:2:0:0:
284,317,10813,1,0,3:0:0:0:
227,66,10980,1,4,3:2:0:0:
256,192,11146,101,0,3:0:0:0:
256,192,11230,1,0,3:0:0:0:
256,192,11313,1,4,3:1:0:0:
104,212,12146,5,10,2:3:0:0:
256,192,12313,1,10,2:3:0:0:
408,172,12480,1,10,2:3:0:0:
182,44,12646,102,0,P|176:88|166:132,1,90,4|2,3:1|2:3,2:0:0:0:
346,246,12980,1,8,2:0:0:0:
281,75,13146,1,2,2:3:0:0:
229,278,13313,1,0,3:0:0:0:
370,140,13480,5,2,2:3:0:0:
385,145,13535,1,2,2:3:0:0:
399,145,13591,1,2,2:3:0:0:
414,140,13646,2,0,P|422:96|432:50,1,90,8|2,2:0|2:3,2:0:0:0:
270,207,13980,101,0,3:0:0:0:
141,234,14146,1,2,2:3:0:0:
74,121,14313,1,8,2:0:0:0:
161,22,14480,1,2,2:3:0:0:
281,75,14646,1,0,3:0:0:0:
281,75,14980,5,8,2:0:0:0:
187,156,15146,1,2,2:3:0:0:
211,277,15313,1,0,3:0:0:0:
211,277,15646,101,8,2:0:0:0:
399,116,15813,1,2,2:3:0:0:
165,33,15980,1,0,3:0:0:0:
244,81,16146,5,2,2:3:0:0:
252,73,16202,1,2,2:3:0:0:
257,63,16258,1,2,2:3:0:0:
258,53,16313,2,0,B|306:49|346:34|346:34,1,90,8|2,2:0|2:3,2:0:0:0:
152,144,16646,101,0,3:0:0:0:
360,200,16813,1,2,2:3:0:0:
152,260,16980,1,8,2:0:0:0:
360,316,17146,1,2,2:3:0:0:
152,376,17313,5,0,3:0:0:0:
264,132,17480,1,2,2:3:0:0:
264,132,17563,1,2,2:3:0:0:
264,132,17646,2,0,B|272:216|244:184|256:268,1,135,10|0,2:0|2:0,2:0:0:0:
263,275,17980,101,4,3:2:0:0:
448,197,18146,1,2,2:3:0:0:
252,151,18313,1,8,2:0:0:0:
383,302,18480,1,0,2:3:0:0:
366,102,18646,1,0,3:2:0:0:
336,177,18813,5,2,2:3:0:0:
332,194,18869,1,2,2:3:0:0:
335,210,18924,1,2,2:3:0:0:
348,223,18980,2,0,P|393:213|444:207,1,90,8|2,2:0|2:3,2:0:0:0:
252,151,19313,101,0,3:0:0:0:
158,240,19480,1,2,2:3:0:0:
44,178,19646,1,8,2:0:0:0:
67,50,19813,1,2,2:3:0:0:
196,33,19980,1,0,3:0:0:0:
196,33,20313,5,8,2:0:0:0:
158,240,20480,1,2,2:3:0:0:
364,184,20646,101,0,3:0:0:0:
278,180,20813,1,2,2:3:0:0:
247,142,20896,1,2,2:3:0:0:
249,95,20980,1,8,2:0:0:0:
303,20,21146,1,2,2:3:0:0:
387,28,21313,5,0,3:0:0:0:
278,180,21480,1,2,2:3:0:0:
247,142,21563,1,2,2:3:0:0:
249,95,21646,1,8,2:0:0:0:
364,184,21813,1,2,2:3:0:0:
128,256,21980,102,0,P|116:166|92:80,2,180,0|8|0,3:2|2:0|3:0,2:0:0:0:
183,114,22813,85,10,2:1:0:0:
24,240,22980,1,10,2:1:0:0:
217,313,23146,1,2,3:1:0:0:
140,366,23313,6,0,P|136:330|128:294,1,72,4|0,3:2|2:0,2:0:0:0:
258,112,23646,2,0,P|273:182|281:253,1,144,8|0,2:0|3:2,2:0:0:0:
217,313,24146,1,0,2:0:0:0:
128,295,24313,2,0,P|89:304|57:308,1,72,8|2,2:0|2:0,2:0:0:0:
281,253,24646,101,2,3:2:0:0:
217,313,24813,1,0,2:0:0:0:
308,336,24980,1,8,2:0:0:0:
281,253,25146,1,0,2:0:0:0:
128,295,25313,6,0,P|113:224|112:152,1,144,0|8,3:2|2:0,2:0:0:0:
303,57,25813,101,2,2:0:0:0:
303,57,25896,1,2,2:0:0:0:
303,57,25980,2,0,P|310:92|310:128,1,72,2|0,3:2|2:0,2:0:0:0:
354,274,26313,2,0,P|422:256|519:242,1,144,8|0,2:0|3:2,2:0:0:0:
494,244,26813,1,2,2:0:0:0:
449,169,26980,2,0,P|415:178|366:185,1,72,8|2,2:0|2:0,2:0:0:0:
217,313,27313,6,0,P|149:295|52:281,2,144,0|8|0,3:2|2:0|3:2,2:0:0:0:
345,177,28146,1,2,2:0:0:0:
262,62,28313,2,2,P|266:100|274:134,1,72,2|0,2:1|2:0,2:1:0:0:
221,199,28646,102,0,P|153:181|56:167,2,144,4|8|0,3:2|2:0|3:0,2:0:0:0:
273,132,29480,1,2,2:0:0:0:
345,177,29646,2,0,P|352:216|361:248,1,72,8|2,2:0|2:0,2:0:0:0:
327,383,29980,5,0,3:0:0:0:
460,336,30146,1,2,2:0:0:0:
360,247,30313,1,8,2:0:0:0:
327,383,30480,1,0,2:0:0:0:
177,345,30646,102,0,P|106:350|35:364,1,144,0|8,3:0|2:0,2:0:0:0:
245,292,31146,5,2,2:0:0:0:
245,292,31230,1,2,2:0:0:0:
245,292,31313,2,0,P|316:286|387:272,1,144,0|8,3:0|2:0,2:0:0:0:
387,272,31813,1,2,2:0:0:0:
307,243,31980,1,0,3:0:0:0:
211,271,32146,1,2,2:0:0:0:
150,354,32313,1,10,2:0:0:0:
375,188,32480,102,0,P|263:185|192:66,1,234,4|8,3:1|2:0,2:0:0:0:
216,59,32896,1,8,2:0:0:0:
213,18,32980,1,0,3:0:0:0:
324,14,33146,5,0,3:0:0:0:
310,59,33230,1,0,3:0:0:0:
316,106,33313,2,0,P|371:93|435:84,1,117,0|0,3:0|3:0,2:0:0:0:
430,84,33563,1,0,3:0:0:0:
430,84,33646,1,8,2:0:0:0:
216,59,33813,1,0,3:0:0:0:
64,160,33980,53,4,3:2:0:0:
448,224,34313,1,8,2:0:0:0:
169,209,34646,101,0,3:0:0:0:
256,192,34813,1,0,2:0:0:0:
343,175,34980,1,8,2:0:0:0:
181,102,35313,5,0,3:0:0:0:
331,282,35480,1,0,2:0:0:0:
346,117,35646,101,8,2:0:0:0:
166,267,35813,1,0,2:0:0:0:
96,192,35980,5,4,3:2:0:0:
237,185,36146,1,8,2:0:0:0:
256,192,36230,1,8,2:0:0:0:
274,198,36313,1,0,3:0:0:0:
416,192,36480,1,8,2:0:0:0:
166,267,36646,101,4,3:2:0:0:
346,117,36980,1,8,2:0:0:0:
32,160,37313,5,0,3:0:0:0:
480,224,37646,1,8,2:0:0:0:
222,293,37980,101,0,3:0:0:0:
342,255,38146,1,2,2:0:0:0:
342,129,38313,1,10,2:3:0:0:
222,90,38480,1,0,2:0:0:0:
148,192,38646,1,2,3:2:0:0:
289,293,38813,5,8,2:0:0:0:
222,90,38980,1,8,2:0:0:0:
289,293,39146,1,8,2:0:0:0:
96,384,39313,102,0,P|85:293|67:206,1,180,4|8,3:2|2:0,2:0:0:0:
416,0,39980,2,0,P|427:91|445:178,1,180,0|8,3:0|2:0,2:0:0:0:
136,72,40646,6,0,P|192:84|232:92,1,90,2|0,3:1|2:0,2:0:0:0:
376,312,40980,2,0,P|320:300|280:292,1,90,10|0,2:1|2:0,2:0:0:0:
144,152,41313,101,2,3:1:0:0:
220,208,41480,1,8,2:0:0:0:
256,192,41563,1,8,2:0:0:0:
292,176,41646,1,2,3:1:0:0:
368,232,41813,1,8,2:0:0:0:
396,36,41980,6,0,P|308:56|218:63,1,180,4|8,3:2|2:0,2:0:0:0:
293,320,42646,2,0,P|203:327|116:348,1,180,0|8,3:0|2:0,2:0:0:0:
62,230,43146,1,2,2:0:0:0:
62,230,43230,1,2,2:0:0:0:
62,230,43313,2,0,P|71:186|75:142,1,90,0|8,3:0|2:3,2:0:0:0:
128,113,43563,1,8,2:3:0:0:
168,158,43646,2,0,P|159:202|155:246,1,90,0|8,3:0|2:3,2:0:0:0:
204,276,43896,1,8,2:3:0:0:
247,239,43980,2,0,P|336:217|425:210,1,180,4|8,3:2|2:0,2:0:0:0:
340,172,44480,5,0,3:0:0:0:
340,172,44563,1,0,3:0:0:0:
340,172,44646,2,0,P|354:109|359:22,1,144,4|0,3:1|2:0,2:0:0:0:
442,1,45146,1,0,3:0:0:0:
487,76,45313,1,0,3:0:0:0:
487,76,45646,2,0,P|444:81|413:88,1,72,10|0,2:3|2:0,2:0:0:0:
248,0,45980,6,0,P|177:14|105:22,1,144,0|0,3:0|2:0,2:0:0:0:
62,90,46480,1,2,3:0:0:0:
131,145,46646,1,0,3:2:0:0:
175,71,46813,1,2,2:0:0:0:
175,71,46896,1,2,2:0:0:0:
175,71,46980,1,10,2:3:0:0:
131,145,47146,1,2,2:0:0:0:
38,117,47313,102,0,P|34:192|20:263,1,144,0|0,3:2|2:0,2:0:0:0:
20,259,47813,1,0,3:0:0:0:
208,348,47980,5,0,3:1:0:0:
120,232,48202,1,2,2:3:0:0:
56,380,48424,1,2,2:3:0:0:
120,232,48646,101,0,3:0:0:0:
224,188,48813,1,2,2:0:0:0:
297,273,48980,1,0,2:0:0:0:
238,369,49146,1,2,3:2:0:0:
129,343,49313,1,0,3:0:0:0:
129,343,49646,2,0,P|92:348|56:356,1,72,10|0,2:3|2:0,2:0:0:0:
297,273,49980,6,0,P|385:260|470:230,1,180,4|8,3:2|2:0,2:0:0:0:
394,300,50480,1,2,2:3:0:0:
196,196,50646,102,0,P|189:245|175:295,1,90,0|2,3:0|2:3,2:0:0:0:
219,325,50896,1,2,2:3:0:0:
274,306,50980,2,0,P|281:257|295:207,1,90,8|2,2:0|2:3,2:0:0:0:
92,24,51313,5,4,3:2:0:0:
27,116,51480,1,2,2:3:0:0:
203,170,51646,101,8,2:0:0:0:
200,57,51813,1,2,2:3:0:0:
95,207,51980,1,0,3:0:0:0:
178,284,52146,1,2,3:0:0:0:
220,279,52230,1,2,2:3:0:0:
257,310,52313,2,0,P|301:300|345:294,1,90,12|0,2:0|2:0,2:0:0:0:
478,128,52646,37,4,3:2:0:0:
393,100,52813,1,2,2:0:0:0:
326,159,52980,1,8,2:0:0:0:
241,131,53146,1,2,2:0:0:0:
358,19,53313,101,0,3:0:0:0:
393,100,53480,1,2,2:0:0:0:
393,100,53563,1,2,2:0:0:0:
393,100,53646,1,8,2:0:0:0:
326,159,53813,1,2,2:0:0:0:
121,240,53980,5,0,3:0:0:0:
206,212,54146,1,2,2:0:0:0:
273,271,54313,1,8,2:0:0:0:
358,243,54480,1,2,2:0:0:0:
241,131,54646,101,0,3:0:0:0:
206,212,54813,1,2,2:0:0:0:
206,212,54896,1,2,2:0:0:0:
206,212,54980,1,8,2:0:0:0:
273,271,55146,1,2,2:0:0:0:
238,352,55313,1,2,3:0:0:0:
241,131,55813,5,2,3:0:0:0:
273,271,55980,1,0,3:0:0:0:
135,228,56146,1,0,3:2:0:0:
135,228,56230,1,0,3:2:0:0:
135,228,56313,2,0,P|92:234|42:245,1,90,0|2,3:0|3:0,2:0:0:0:
241,131,56646,101,0,3:0:0:0:
414,143,56813,2,0,P|371:149|321:160,1,90,2|0,2:3|3:0,2:0:0:0:
131,100,57146,2,0,P|195:91|270:74,1,135,10|0,2:0|2:0,2:0:0:0:
263,76,57480,86,0,P|258:98|253:120,1,45,2|0,3:1|2:0,2:0:0:0:
325,158,57646,2,0,P|330:136|335:114,1,45,2|0,3:1|2:0,2:0:0:0:
408,72,57813,1,2,3:1:0:0:
273,271,57980,53,4,3:1:0:0:
196,218,58146,1,2,2:3:0:0:
177,233,58230,1,2,2:3:0:0:
148,234,58313,1,8,2:0:0:0:
96,308,58480,1,2,2:3:0:0:
71,181,58646,5,0,3:0:0:0:
148,234,58813,1,2,2:3:0:0:
167,219,58896,1,2,2:3:0:0:
196,218,58980,1,8,2:0:0:0:
248,144,59146,1,2,2:3:0:0:
430,260,59313,101,0,3:0:0:0:
294,348,59480,1,2,2:3:0:0:
317,236,59646,5,8,2:0:0:0:
406,372,59813,2,0,P|452:362|504:351,1,90,2|0,2:3|3:0,2:0:0:0:
317,236,60146,101,2,2:3:0:0:
103,290,60313,1,8,2:0:0:0:
163,77,60480,1,2,2:3:0:0:
163,77,60563,1,2,2:3:0:0:
163,77,60646,1,0,3:2:0:0:
253,269,60813,5,2,2:3:0:0:
164,252,60980,1,8,2:0:0:0:
152,162,61146,1,2,2:3:0:0:
233,123,61313,1,0,3:0:0:0:
296,189,61480,1,0,2:3:0:0:
304,187,61535,1,2,2:3:0:0:
313,188,61591,1,2,2:3:0:0:
321,191,61646,2,0,P|366:182|412:177,1,90,8|2,2:0|2:3,2:0:0:0:
173,54,61980,101,0,3:0:0:0:
152,162,62146,1,2,2:3:0:0:
236,241,62313,1,8,2:0:0:0:
81,259,62480,5,2,2:3:0:0:
81,259,62563,1,2,2:3:0:0:
81,259,62646,2,0,P|113:265|144:276,1,63,2|0,3:1|2:0,2:0:0:0:
298,98,62813,2,0,P|276:122|251:144,1,63,2|0,2:3|2:0,2:0:0:0:
328,366,62980,2,0,P|317:335|311:302,1,63,10|0,2:1|2:0,2:0:0:0:
236,241,63146,101,2,2:3:0:0:
238,235,63230,1,2,2:3:0:0:
239,229,63313,2,0,P|285:221|329:209,1,90,4|2,3:1|2:3,2:0:0:0:
377,226,63563,1,2,2:3:0:0:
418,195,63646,1,8,2:0:0:0:
358,124,63813,1,2,2:3:0:0:
311,305,63980,5,0,3:0:0:0:
215,249,64146,1,2,2:3:0:0:
186,271,64230,1,2,2:3:0:0:
148,268,64313,1,8,2:0:0:0:
82,353,64480,1,2,2:3:0:0:
311,305,64646,101,0,3:0:0:0:
163,184,64813,1,2,2:3:0:0:
176,318,64980,5,8,2:0:0:0:
297,170,65146,2,0,P|318:177|341:182,1,45,2|2,2:3|2:3,2:0:0:0:
410,287,65313,101,0,3:0:0:0:
237,243,65480,1,2,2:3:0:0:
369,102,65646,1,8,2:0:0:0:
236,233,65813,5,2,2:3:0:0:
233,224,65896,1,2,2:3:0:0:
229,210,65980,1,4,3:2:0:0:
160,174,66146,1,2,2:3:0:0:
79,184,66313,1,8,2:0:0:0:
20,240,66480,1,2,2:3:0:0:
160,174,66646,101,0,3:0:0:0:
321,206,66813,1,2,2:3:0:0:
233,224,66980,1,8,2:0:0:0:
368,136,67146,5,2,2:3:0:0:
368,136,67230,1,2,2:3:0:0:
368,136,67313,2,0,P|374:89|382:48,1,90,0|2,3:0|2:3,2:0:0:0:
159,74,67646,2,0,P|153:121|145:162,1,90,8|2,2:0|2:3,2:0:0:0:
347,232,67980,101,2,3:1:0:0:
296,7,68146,1,0,3:0:0:0:
256,96,68313,6,0,L|249:142,1,45,10|0,2:1|2:0,2:0:0:0:
323,167,68480,2,0,L|329:122,1,45,0|0,2:0|2:0,2:0:0:0:
174,85,68646,101,4,3:1:0:0:
336,112,68813,1,2,2:3:0:0:
382,9,68980,5,8,2:0:0:0:
249,140,69146,1,2,2:3:0:0:
484,256,69313,101,0,3:0:0:0:
448,118,69480,1,2,2:3:0:0:
448,118,69563,1,2,2:3:0:0:
448,118,69646,1,8,2:0:0:0:
347,219,69813,1,2,2:3:0:0:
428,195,69980,5,4,3:2:0:0:
100,240,70313,1,8,2:0:0:0:
410,278,70646,101,0,3:0:0:0:
320,208,70813,1,2,2:3:0:0:
320,208,70896,1,2,2:3:0:0:
320,208,70980,2,0,P|310:251|304:301,1,90,8|2,2:0|2:3,2:0:0:0:
88,368,71313,5,0,3:2:0:0:
167,244,71480,1,2,2:3:0:0:
65,266,71646,101,8,2:0:0:0:
189,345,71813,1,2,2:3:0:0:
293,141,71980,5,0,3:0:0:0:
219,230,72146,1,2,2:3:0:0:
219,230,72230,1,2,2:3:0:0:
219,230,72313,1,8,2:0:0:0:
176,112,72480,1,2,2:3:0:0:
253,33,72646,101,4,3:2:0:0:
305,361,72980,1,8,2:0:0:0:
208,288,73313,5,0,3:0:0:0:
332,156,73480,1,2,2:3:0:0:
399,331,73646,1,8,2:0:0:0:
432,321,73730,1,2,2:3:0:0:
456,306,73813,1,2,2:3:0:0:
480,284,73896,1,2,2:3:0:0:
492,256,73980,101,0,3:0:0:0:
329,236,74146,1,2,2:3:0:0:
416,209,74313,5,8,2:0:0:0:
293,327,74480,1,2,2:3:0:0:
252,132,74646,101,0,3:0:0:0:
385,189,74813,1,2,2:3:0:0:
225,367,74980,5,8,2:0:0:0:
152,239,75146,1,2,2:3:0:0:
370,336,75313,102,0,P|417:343|460:355,1,90,0|2,3:0|2:3,2:0:0:0:
236,165,75646,2,0,P|165:154|101:136,1,135,8|0,2:0|2:0,2:0:0:0:
104,137,75980,1,4,3:2:0:0:
324,95,76146,1,10,2:3:0:0:
324,95,76230,1,10,2:3:0:0:
324,95,76313,1,0,3:0:0:0:
104,137,76480,1,10,2:3:0:0:
372,171,76646,5,6,3:1:0:0:
19,93,76980,1,6,3:1:0:0:
303,19,77313,101,6,3:1:0:0:
104,137,77480,1,2,3:1:0:0:
304,234,77646,1,2,3:1:0:0:
243,106,77813,5,8,2:0:0:0:
240,115,77896,1,8,2:0:0:0:
237,127,77980,1,6,3:1:0:0:
237,127,78813,101,10,2:3:0:0:
392,300,78980,1,10,2:3:0:0:
464,78,79146,1,10,2:3:0:0:
299,248,79313,5,4,3:1:0:0:
408,156,79480,1,2,2:3:0:0:
332,171,79646,101,8,2:0:0:0:
463,214,79813,1,2,2:3:0:0:
392,300,79980,5,0,3:0:0:0:
408,156,80146,1,2,2:3:0:0:
400,147,80202,1,2,2:3:0:0:
398,136,80258,1,2,2:3:0:0:
403,126,80313,2,0,P|392:82|384:38,1,90,8|2,2:0|2:3,2:0:0:0:
256,88,80646,101,0,3:0:0:0:
189,162,80813,1,2,2:3:0:0:
97,121,80980,1,8,2:0:0:0:
108,21,81146,1,2,2:3:0:0:
207,1,81313,1,0,3:0:0:0:
344,301,81646,5,8,2:0:0:0:
399,226,81813,1,2,2:3:0:0:
492,238,81980,1,0,3:0:0:0:
492,238,82313,101,8,2:0:0:0:
344,292,82480,1,2,2:3:0:0:
266,151,82646,1,0,3:0:0:0:
191,216,82813,5,2,2:3:0:0:
184,210,82869,1,2,2:3:0:0:
175,208,82924,1,2,2:3:0:0:
164,203,82980,2,0,P|120:215|64:224,1,90,8|2,2:0|2:3,2:0:0:0:
372,202,83313,101,0,3:0:0:0:
174,103,83480,1,2,2:3:0:0:
322,53,83646,5,8,2:0:0:0:
223,251,83813,1,2,2:3:0:0:
174,103,83980,101,0,3:0:0:0:
372,202,84146,1,2,2:3:0:0:
372,202,84230,1,2,2:3:0:0:
372,202,84313,2,0,P|376:157|388:108,1,90,8|2,2:0|2:3,2:0:0:0:
158,4,84646,5,4,3:2:0:0:
82,83,84813,1,2,2:3:0:0:
244,161,84980,101,8,2:0:0:0:
257,51,85146,1,2,2:3:0:0:
136,182,85313,5,0,3:0:0:0:
319,259,85480,1,2,2:3:0:0:
323,243,85535,1,2,2:3:0:0:
322,232,85591,1,2,2:3:0:0:
315,218,85646,2,0,P|361:211|402:200,1,90,8|2,2:0|2:3,2:0:0:0:
343,5,85980,101,0,3:0:0:0:
464,61,86146,1,2,2:3:0:0:
447,193,86313,1,8,2:0:0:0:
315,218,86480,1,2,2:3:0:0:
250,101,86646,1,0,3:0:0:0:
93,178,86813,5,2,2:3:0:0:
93,178,86896,1,2,2:3:0:0:
93,178,86980,2,0,P|136:174|189:160,1,90,8|2,2:0|2:3,2:0:0:0:
486,255,87313,101,0,3:0:0:0:
400,196,87480,1,2,2:3:0:0:
365,218,87563,1,2,2:3:0:0:
319,213,87646,1,8,2:0:0:0:
272,316,87813,1,2,2:3:0:0:
215,102,87980,5,0,3:0:0:0:
65,205,88146,1,2,2:3:0:0:
101,222,88230,1,2,2:3:0:0:
112,267,88313,1,8,2:0:0:0:
179,367,88480,1,2,2:3:0:0:
341,337,88646,102,0,P|347:292|358:249,1,90,0|2,3:0|2:3,2:0:0:0:
171,47,88980,2,0,P|165:92|154:135,1,90,8|2,2:0|2:3,2:0:0:0:
153,135,89230,1,2,2:3:0:0:
153,135,89313,1,0,3:0:0:0:
215,210,89480,85,10,2:1:0:0:
39,90,89646,1,10,2:1:0:0:
0,299,89813,1,2,3:1:0:0:
67,238,89980,6,0,P|107:244|139:255,1,72,4|2,3:2|2:0,2:0:0:0:
215,210,90313,2,0,P|221:170|232:138,1,72,8|2,2:0|2:0,2:0:0:0:
187,62,90646,2,0,P|147:56|115:45,1,72,0|2,3:0|2:0,2:0:0:0:
39,90,90980,2,0,P|33:130|22:162,1,72,8|2,2:0|2:0,2:0:0:0:
231,140,91313,102,0,P|271:133|311:123,1,72,0|2,3:0|2:0,2:0:0:0:
391,79,91646,2,0,P|398:119|408:159,1,72,8|2,2:0|2:0,2:0:0:0:
452,239,91980,2,0,P|412:246|372:256,1,72,0|2,3:0|2:0,2:0:0:0:
292,300,92313,2,0,P|285:260|275:220,1,72,8|2,2:0|2:0,2:0:0:0:
350,54,92646,5,0,3:0:0:0:
272,39,92813,1,2,2:0:0:0:
194,24,92980,1,8,2:0:0:0:
116,9,93146,1,2,2:0:0:0:
101,87,93313,1,0,3:0:0:0:
86,165,93480,1,2,2:0:0:0:
71,243,93646,1,8,2:0:0:0:
149,258,93813,1,2,2:0:0:0:
227,273,93980,1,0,3:0:0:0:
305,288,94146,1,2,2:0:0:0:
320,210,94313,1,8,2:0:0:0:
335,132,94480,1,2,2:0:0:0:
257,117,94646,1,0,3:0:0:0:
179,102,94813,1,2,2:0:0:0:
164,180,94980,2,2,P|172:233|179:286,1,108,2|0,2:1|2:1,2:1:0:0:
179,286,95313,102,0,P|213:292|261:304,1,72,4|2,3:2|2:0,2:0:0:0:
384,181,95646,2,0,P|349:173|314:167,1,72,8|2,2:0|2:0,2:0:0:0:
277,190,95896,1,2,2:0:0:0:
234,181,95980,2,0,P|227:145|219:110,1,72,0|2,3:0|2:0,2:0:0:0:
299,96,96313,2,0,P|305:131|313:166,1,72,8|2,2:0|2:0,2:0:0:0:
135,294,96646,5,0,3:0:0:0:
299,238,96813,1,2,2:0:0:0:
152,209,96980,101,8,2:0:0:0:
282,323,97146,1,2,2:0:0:0:
234,181,97313,5,0,3:0:0:0:
199,351,97480,1,2,2:0:0:0:
233,180,97646,102,0,P|227:145|224:109,1,72,8|2,2:0|2:0,2:0:0:0:
56,122,97980,5,0,3:0:0:0:
140,152,98146,1,2,2:0:0:0:
89,93,98313,101,8,2:0:0:0:
106,180,98480,1,2,2:0:0:0:
131,108,98646,5,0,3:0:0:0:
64,165,98813,1,2,2:0:0:0:
131,108,98980,1,10,2:0:0:0:
299,238,99146,102,0,P|413:234|499:158,1,234,4|8,3:1|2:0,2:0:0:0:
460,113,99563,1,8,2:0:0:0:
471,60,99646,1,0,3:0:0:0:
336,78,99813,5,0,3:0:0:0:
370,127,99896,1,0,3:0:0:0:
358,179,99980,2,0,P|302:187|244:206,1,117,0|0,3:0|3:0,2:0:0:0:
244,205,100230,1,0,3:0:0:0:
244,205,100313,1,8,2:0:0:0:
73,73,100480,1,0,3:0:0:0:
143,9,100646,53,4,3:2:0:0:
369,375,100980,1,8,2:0:0:0:
152,208,101313,101,0,3:0:0:0:
256,188,101480,1,2,2:0:0:0:
360,176,101646,2,0,P|368:132|380:88,1,90,8|2,2:0|2:0,2:0:0:0:
235,83,101980,5,0,3:0:0:0:
276,300,102146,1,2,2:0:0:0:
164,129,102313,1,10,2:0:0:0:
346,254,102480,1,2,2:0:0:0:
150,212,102646,1,0,3:0:0:0:
368,171,102813,1,10,2:0:0:0:
368,171,102896,1,10,2:0:0:0:
368,171,102980,1,2,3:2:0:0:
194,280,103146,1,10,2:0:0:0:
320,97,103313,101,4,3:2:0:0:
252,384,103646,1,8,2:0:0:0:
7,148,103980,6,0,B|72:122|122:170|122:170|176:225|255:187,1,270,0|0,3:0|2:0,2:0:0:0:
348,212,104646,101,2,3:1:0:0:
348,212,104813,1,0,2:0:0:0:
163,171,104980,5,10,2:1:0:0:
163,171,105146,1,0,2:0:0:0:
355,128,105313,101,2,3:1:0:0:
319,291,105480,1,8,2:0:0:0:
156,255,105646,1,10,2:1:0:0:
192,92,105813,1,8,2:0:0:0:
371,217,105980,6,0,P|418:206|484:198,1,90,4|0,3:2|2:0,2:0:0:0:
141,167,106313,2,0,P|94:178|28:186,1,90,8|0,2:0|2:0,2:0:0:0:
256,192,106646,101,0,3:0:0:0:
256,192,106980,1,8,2:0:0:0:
305,78,107313,5,2,3:2:0:0:
379,203,107480,1,0,2:0:0:0:
149,255,107646,101,10,2:0:0:0:
162,110,107813,1,0,2:0:0:0:
283,313,107980,5,2,3:2:0:0:
467,182,108146,1,10,2:0:0:0:
467,182,108230,1,8,2:0:0:0:
467,182,108313,2,0,P|421:194|376:203,1,90,2|10,3:2|2:0,2:0:0:0:
149,255,108646,101,4,3:2:0:0:
256,192,108813,1,2,2:0:0:0:
162,110,108980,1,8,2:0:0:0:
256,192,109146,1,2,2:0:0:0:
305,78,109313,5,0,3:2:0:0:
379,202,109480,1,2,2:0:0:0:
283,313,109646,1,8,2:0:0:0:
283,313,109980,101,0,3:0:0:0:
149,255,110146,1,0,3:0:0:0:
149,255,110230,1,0,3:0:0:0:
149,255,110313,1,8,2:0:0:0:
312,168,110480,1,0,3:0:0:0:
312,168,110563,1,0,3:0:0:0:
312,168,110646,1,4,3:2:0:0:
116,96,110813,1,2,2:0:0:0:
348,16,110980,21,8,2:0:0:0:
348,16,111063,1,0,2:0:0:0:
348,16,111146,1,0,3:0:0:0:
348,16,111230,1,0,3:0:0:0:
348,16,111313,2,0,P|410:44|484:35,1,144,4|0,3:2|2:0,2:0:0:0:
412,68,111813,1,0,3:0:0:0:
396,150,111980,1,0,3:0:0:0:
396,150,112313,6,0,P|404:185|403:228,1,72,10|0,2:3|2:0,2:0:0:0:
343,299,112646,102,0,L|197:275,1,144,0|0,2:0|2:0,2:0:0:0:
89,299,113146,1,0,3:0:0:0:
179,330,113313,1,0,3:0:0:0:
197,240,113480,1,0,2:0:0:0:
197,240,113563,1,0,2:0:0:0:
197,240,113646,2,0,P|191:203|192:163,1,72,10|0,2:3|2:0,2:0:0:0:
357,112,113980,6,0,P|369:186|367:266,1,144,4|0,3:2|2:0,2:0:0:0:
356,337,114480,1,0,3:0:0:0:
436,304,114646,101,0,3:0:0:0:
275,226,114869,1,2,2:3:0:0:
171,376,115091,1,2,2:3:0:0:
145,288,115313,5,0,3:0:0:0:
133,190,115480,1,2,2:0:0:0:
220,150,115646,1,0,2:0:0:0:
286,220,115813,1,2,3:2:0:0:
239,306,115980,1,0,3:0:0:0:
239,306,116313,2,0,P|250:342|258:391,1,72,10|0,2:3|2:0,2:0:0:0:
296,237,116646,102,0,P|367:209|470:195,1,180,4|8,3:2|2:0,2:0:0:0:
282,148,117146,1,2,2:3:0:0:
214,201,117313,2,0,P|178:215|127:222,1,90,0|2,3:0|2:3,2:0:0:0:
127,221,117563,1,2,2:3:0:0:
127,221,117646,2,0,P|123:268|110:314,1,90,8|2,2:0|2:3,2:0:0:0:
175,381,117980,5,4,3:2:0:0:
239,251,118146,1,2,2:3:0:0:
8,219,118313,101,8,2:0:0:0:
32,361,118480,1,2,2:3:0:0:
136,153,118646,5,0,3:0:0:0:
239,251,118813,101,2,3:0:0:0:
239,251,118896,1,2,2:3:0:0:
239,251,118980,2,0,P|195:261|150:264,1,90,8|0,2:0|2:0,2:0:0:0:
316,375,119313,37,0,3:0:0:0:
351,306,119480,1,2,2:0:0:0:
421,275,119646,1,8,2:0:0:0:
480,227,119813,1,2,2:0:0:0:
481,150,119980,1,0,3:0:0:0:
428,94,120146,1,2,2:0:0:0:
428,94,120230,1,2,2:0:0:0:
428,94,120313,1,8,2:0:0:0:
351,102,120480,1,2,2:0:0:0:
304,163,120646,1,0,3:0:0:0:
241,119,120813,1,2,2:0:0:0:
164,125,120980,1,8,2:0:0:0:
111,180,121146,1,2,2:0:0:0:
111,256,121313,1,0,3:0:0:0:
181,306,121480,1,2,2:0:0:0:
181,306,121563,1,2,2:0:0:0:
181,306,121646,1,8,2:0:0:0:
256,321,121813,1,2,2:0:0:0:
316,375,121980,101,2,3:0:0:0:
256,192,123980,85,2,3:1:0:0:
256,192,124146,1,2,3:1:0:0:
256,192,124313,1,2,3:1:0:0:
256,192,124480,1,10,3:1:0:0:
374,16,124646,53,4,3:1:0:0:
348,104,124813,1,2,2:3:0:0:
399,116,124896,1,2,2:3:0:0:
444,76,124980,1,8,2:0:0:0:
374,16,125146,1,2,2:3:0:0:
170,82,125313,5,0,3:0:0:0:
87,141,125480,1,2,2:3:0:0:
56,110,125563,1,2,2:3:0:0:
69,62,125646,1,8,2:0:0:0:
170,82,125813,1,2,2:3:0:0:
40,221,125980,101,0,3:0:0:0:
181,311,126146,1,2,2:3:0:0:
65,336,126313,5,8,2:0:0:0:
155,195,126480,2,0,P|200:207|245:216,1,90,2|0,2:3|3:0,2:0:0:0:
442,45,126813,101,2,2:3:0:0:
358,290,126980,1,8,2:0:0:0:
187,94,127146,1,2,2:3:0:0:
127,172,127313,6,0,P|172:180|214:194,1,90,0|2,3:0|2:3,2:0:0:0:
499,51,127646,2,0,P|454:43|412:29,1,90,8|2,2:0|2:3,2:0:0:0:
272,122,127980,101,0,3:0:0:0:
439,171,128146,1,2,2:3:0:0:
443,164,128202,1,2,2:3:0:0:
443,154,128258,1,2,2:3:0:0:
438,143,128313,2,0,L|342:165,1,90,8|2,2:0|2:3,2:0:0:0:
110,62,128646,5,0,3:0:0:0:
168,146,128813,1,2,2:3:0:0:
272,122,128980,1,8,2:0:0:0:
58,218,129146,101,2,2:3:0:0:
58,218,129230,1,2,2:3:0:0:
58,218,129313,2,0,P|88:230|120:248,1,63,2|0,3:1|2:0,2:0:0:0:
256,16,129480,2,0,P|230:35|199:54,1,63,2|0,2:3|2:0,2:0:0:0:
331,288,129646,2,0,P|326:256|325:219,1,63,10|0,2:1|2:0,2:0:0:0:
204,165,129813,5,2,2:3:0:0:
204,165,129896,1,2,2:3:0:0:
204,165,129980,2,0,P|218:240|230:366,1,180,4|8,3:1|2:0,2:0:0:0:
296,195,130480,1,2,2:3:0:0:
117,233,130646,2,0,P|110:195|104:132,1,90,0|2,3:0|2:3,2:0:0:0:
112,136,130896,1,2,2:3:0:0:
107,129,130980,2,0,P|60:139|7:142,1,90,8|2,2:0|2:3,2:0:0:0:
315,38,131313,101,0,3:0:0:0:
204,165,131480,1,2,2:3:0:0:
204,165,131563,1,2,2:3:0:0:
204,165,131646,1,8,2:0:0:0:
152,0,131813,1,2,2:3:0:0:
18,142,131980,5,0,3:0:0:0:
219,69,132146,1,2,2:3:0:0:
179,290,132313,1,8,2:0:0:0:
107,251,132480,102,0,P|103:206|94:162,1,90,2|4,2:3|3:2,2:0:0:0:
162,102,132813,1,2,2:3:0:0:
248,124,132980,1,8,2:0:0:0:
266,212,133146,1,2,2:3:0:0:
201,274,133313,1,0,3:0:0:0:
208,363,133480,1,2,2:3:0:0:
295,383,133646,1,8,2:0:0:0:
359,318,133813,5,2,2:3:0:0:
359,318,133896,1,2,2:3:0:0:
359,318,133980,2,0,P|403:325|448:337,1,90,0|2,3:0|2:3,2:0:0:0:
485,302,134230,1,2,2:3:0:0:
467,255,134313,2,0,P|423:248|378:236,1,90,8|2,2:0|2:3,2:0:0:0:
168,294,134646,101,2,3:1:0:0:
346,114,134813,1,0,3:0:0:0:
346,114,134896,1,0,3:0:0:0:
346,114,134980,1,10,2:1:0:0:
135,171,135146,1,0,3:0:0:0:
379,236,135313,5,4,3:1:0:0:
300,199,135480,1,2,2:3:0:0:
374,151,135646,1,8,2:0:0:0:
379,236,135813,1,2,2:3:0:0:
249,288,135980,101,0,3:0:0:0:
353,82,136146,1,2,2:3:0:0:
390,310,136313,1,8,2:0:0:0:
226,147,136480,1,2,2:3:0:0:
455,183,136646,1,4,3:2:0:0:
455,183,136980,1,8,2:0:0:0:
455,183,137313,5,0,3:0:0:0:
379,236,137480,1,2,2:3:0:0:
300,199,137646,2,0,P|255:204|211:214,1,90,8|2,2:0|2:3,2:0:0:0:
42,103,137980,101,0,3:0:0:0:
130,16,138146,1,2,2:3:0:0:
194,256,138313,5,8,2:0:0:0:
74,223,138480,1,2,2:3:0:0:
251,48,138646,101,0,3:0:0:0:
282,167,138813,1,2,2:3:0:0:
282,167,138896,1,2,2:3:0:0:
282,167,138980,2,0,P|321:177|372:187,1,90,8|2,2:0|2:3,2:0:0:0:
194,256,139313,5,4,3:2:0:0:
194,256,139646,102,0,P|186:203|174:159,1,90,8|2,2:0|2:3,2:0:0:0:
264,78,139980,2,0,P|272:131|284:175,1,90,0|2,3:0|2:3,2:0:0:0:
107,307,140313,2,0,P|99:254|87:210,1,90,8|2,2:0|2:3,2:0:0:0:
34,33,140646,5,0,3:0:0:0:
174,130,140813,1,2,2:3:0:0:
242,50,140980,101,8,2:0:0:0:
72,115,141146,1,2,2:3:0:0:
239,236,141313,5,0,3:0:0:0:
172,170,141480,1,2,2:3:0:0:
172,170,141563,1,2,2:3:0:0:
172,170,141646,1,8,2:0:0:0:
140,261,141813,1,2,2:3:0:0:
258,30,141980,101,0,3:0:0:0:
26,229,142313,1,8,2:0:0:0:
344,360,142646,2,0,P|387:350|432:345,1,90,0|2,3:0|2:3,2:0:0:0:
456,299,142896,1,2,2:3:0:0:
423,260,142980,2,0,P|379:269|334:274,1,90,8|10,2:0|2:3,2:0:0:0:
312,317,143230,1,10,2:3:0:0:
344,360,143313,1,6,3:1:0:0:
256,8,143646,1,6,3:1:0:0:
344,360,143980,5,6,3:1:0:0:
292,174,144146,1,0,3:0:0:0:
158,308,144313,1,2,3:1:0:0:
273,270,144480,1,8,2:0:0:0:
273,270,144563,1,8,2:0:0:0:
273,270,144646,1,4,3:1:0:0:
273,270,145480,101,10,2:3:0:0:
234,71,145646,1,10,2:3:0:0:
273,270,145813,1,10,2:3:0:0:
253,170,145980,5,6,2:0:0:0:
256,192,146063,12,0,148313,2:0:0:0:
256,192,151313,5,4,3:2:0:0:
256,192,151396,12,8,153313,2:0:0:0:
137,46,153646,101,2,2:0:0:0:
214,67,153813,1,2,2:0:0:0:
270,10,153980,1,0,3:0:0:0:
374,111,154313,5,2,2:0:0:0:
281,136,154480,1,2,2:0:0:0:
214,67,154646,1,8,2:0:0:0:
89,189,154980,101,2,2:0:0:0:
200,219,155146,1,2,2:0:0:0:
281,136,155313,1,0,2:0:0:0:
431,283,155646,5,2,2:0:0:0:
297,319,155813,1,2,2:0:0:0:
200,219,155980,1,10,2:3:0:0:
64,253,156146,85,10,2:3:0:0:
238,84,156313,1,10,2:3:0:0:
297,319,156480,1,10,3:0:0:0:
294,331,156563,1,2,3:0:0:0:
292,344,156646,2,0,P|338:333|385:328,1,90,4|2,3:1|2:3,2:0:0:0:
200,219,156980,2,0,P|154:230|107:235,1,90,8|2,2:0|2:3,2:0:0:0:
344,20,157313,5,0,3:0:0:0:
407,95,157480,1,2,2:3:0:0:
407,95,157563,1,2,2:3:0:0:
407,95,157646,1,8,2:0:0:0:
488,49,157813,1,2,2:3:0:0:
319,167,157980,101,0,3:0:0:0:
225,34,158146,1,2,2:3:0:0:
225,34,158230,1,2,2:3:0:0:
225,34,158313,1,8,2:0:0:0:
70,104,158480,1,2,2:3:0:0:
70,104,158563,1,2,2:3:0:0:
70,104,158646,2,0,P|90:179|112:315,1,180,0|8,3:0|2:0,2:0:0:0:
235,339,159146,1,2,2:3:0:0:
311,214,159313,6,0,P|301:176|290:108,1,90,0|2,3:2|2:3,2:0:0:0:
242,106,159563,1,2,2:3:0:0:
202,148,159646,2,0,P|212:185|223:253,1,90,8|2,2:0|2:3,2:0:0:0:
404,384,159980,102,0,P|441:374|509:363,1,90,0|2,3:0|2:3,2:0:0:0:
512,315,160230,1,2,2:3:0:0:
470,275,160313,2,0,P|432:285|364:296,1,90,8|2,2:0|2:3,2:0:0:0:
206,181,160646,5,0,3:0:0:0:
228,103,160813,1,2,2:3:0:0:
265,126,160896,1,2,2:3:0:0:
306,125,160980,1,8,2:3:0:0:
284,203,161146,1,2,2:3:0:0:
145,121,161313,101,0,3:0:0:0:
224,263,161480,1,2,2:3:0:0:
366,184,161646,1,8,2:0:0:0:
287,42,161813,1,2,2:3:0:0:
206,181,161980,6,0,P|139:207|18:218,1,180,4|8,3:2|2:0,2:0:0:0:
224,263,162480,1,2,2:3:0:0:
297,114,162646,2,0,P|284:172|285:218,1,90,4|2,3:2|2:3,2:0:0:0:
322,238,162896,1,2,2:3:0:0:
377,227,162980,2,0,P|390:169|389:123,1,90,8|2,2:0|2:3,2:0:0:0:
458,24,163313,101,4,3:2:0:0:
287,50,163480,1,2,2:3:0:0:
287,50,163563,1,2,2:3:0:0:
287,50,163646,1,8,2:0:0:0:
116,76,163813,1,2,2:3:0:0:
116,76,163896,1,2,2:3:0:0:
116,76,163980,2,0,P|102:121|97:185,1,90,4|2,3:2|2:3,2:0:0:0:
46,182,164230,1,2,2:3:0:0:
6,146,164313,2,0,P|19:100|24:36,1,90,8|2,2:0|2:3,2:0:0:0:
193,149,164646,5,4,3:2:0:0:
260,79,164813,1,2,2:3:0:0:
260,79,164896,1,2,2:3:0:0:
260,79,164980,1,8,2:0:0:0:
347,121,165146,1,2,2:3:0:0:
333,217,165313,1,0,3:0:0:0:
238,234,165480,1,2,2:3:0:0:
238,234,165563,1,2,2:3:0:0:
238,234,165646,1,8,2:0:0:0:
193,149,165813,1,2,2:3:0:0:
330,5,165980,102,0,P|409:32|510:44,1,180,0|8,3:0|2:0,2:0:0:0:
373,378,166646,2,0,P|333:364|283:358,1,90,0|2,3:0|3:0,2:0:0:0:
268,304,166896,1,2,3:0:0:0:
314,269,166980,2,0,P|353:282|404:288,1,90,2|2,3:2|3:0,2:0:0:0:
466,148,167313,85,12,2:1:0:0:
451,47,167480,1,2,2:3:0:0:
350,29,167646,1,8,2:0:0:0:
303,118,167813,1,2,2:3:0:0:
373,192,167980,1,8,2:0:0:0:
64,256,168313,5,8,2:0:0:0:
79,357,168480,1,2,2:3:0:0:
180,375,168646,1,8,2:0:0:0:
227,286,168813,1,2,2:3:0:0:
157,212,168980,2,0,P|147:169|135:118,1,90,8|2,2:0|2:3,2:0:0:0:
332,88,169313,101,12,2:0:0:0:
273,279,169480,1,10,2:3:0:0:
273,279,169563,1,10,2:3:0:0:
273,279,169646,1,0,3:0:0:0:
136,124,169813,1,2,3:0:0:0:
267,159,169980,6,0,P|309:173|353:182,1,90,14|2,2:0|2:3,2:0:0:0:
197,213,170313,1,10,2:0:0:0:
267,159,170480,1,2,2:3:0:0:
149,20,170646,102,0,P|106:34|62:43,1,90,10|2,2:0|2:3,2:0:0:0:
287,78,170980,2,0,P|329:92|373:101,1,90,10|2,2:0|2:3,2:0:0:0:
197,213,171313,6,0,P|182:266|198:348,1,135,10|0,2:1|2:0,2:0:0:0:
227,361,171646,2,0,P|271:350|316:344,1,90,10|2,2:1|2:3,2:0:0:0:
480,192,171980,2,0,P|436:203|391:209,1,90,10|2,2:1|2:3,2:0:0:0:
369,249,172230,1,2,2:3:0:0:
391,283,172313,2,0,P|402:327|408:372,1,90,12|2,2:0|2:3,2:0:0:0:
227,361,172646,69,4,3:2:0:0:
124,336,172813,1,2,2:3:0:0:
227,361,172980,1,10,2:0:0:0:
124,336,173146,1,2,2:3:0:0:
198,263,173313,5,2,3:2:0:0:
28,297,173480,1,2,2:3:0:0:
28,297,173563,1,2,2:3:0:0:
28,297,173646,1,8,2:0:0:0:
198,263,173813,1,2,2:3:0:0:
127,179,173980,101,2,3:2:0:0:
294,223,174146,1,2,2:3:0:0:
127,179,174313,1,8,2:0:0:0:
294,223,174480,1,2,2:3:0:0:
151,78,174646,6,0,P|107:90|63:98,1,90,0|2,3:0|3:0,2:0:0:0:
63,98,174896,1,10,2:3:0:0:
63,98,174980,1,8,2:0:0:0:
352,136,175146,101,10,2:3:0:0:
352,136,175230,1,10,2:3:0:0:
352,136,175313,2,0,P|395:123|439:115,1,90,4|2,3:2|2:3,2:0:0:0:
295,0,175646,1,8,2:0:0:0:
264,90,175813,1,2,2:3:0:0:
16,64,175980,5,0,3:0:0:0:
152,212,176146,1,2,3:0:0:0:
211,18,176313,1,8,2:0:0:0:
128,32,176480,101,2,2:3:0:0:
128,32,176563,1,2,2:3:0:0:
128,32,176646,2,0,P|121:79|113:121,1,90,0|2,3:0|2:3,2:0:0:0:
384,318,176980,2,0,P|391:271|399:229,1,90,8|2,2:0|2:3,2:0:0:0:
215,181,177313,5,0,3:0:0:0:
301,163,177480,1,2,3:0:0:0:
215,181,177646,1,12,2:0:0:0:
301,163,177813,1,2,2:3:0:0:
288,256,177980,21,0,3:0:0:0:
366,294,178146,1,2,2:0:0:0:
426,231,178313,1,8,2:0:0:0:
385,153,178480,1,2,2:0:0:0:
299,169,178646,1,0,3:0:0:0:
337,91,178813,1,2,2:0:0:0:
274,30,178980,1,8,2:0:0:0:
197,72,179146,1,2,2:0:0:0:
213,157,179313,1,0,3:0:0:0:
134,119,179480,1,2,2:0:0:0:
74,182,179646,1,8,2:0:0:0:
115,259,179813,1,2,2:0:0:0:
201,244,179980,1,0,3:0:0:0:
163,322,180146,1,2,2:0:0:0:
226,382,180313,1,8,2:0:0:0:
303,341,180480,1,2,2:0:0:0:
288,256,180646,101,2,3:0:0:0:
288,256,181146,5,2,3:0:0:0:
201,244,181313,1,0,3:0:0:0:
163,322,181480,1,0,3:0:0:0:
163,322,181563,1,0,3:0:0:0:
163,322,181646,2,0,P|122:318|64:303,1,90,0|2,3:0|3:0,2:0:0:0:
288,256,181980,102,0,P|282:178|258:76,1,180,0|0,3:0|3:0,2:0:0:0:
291,0,182480,1,8,2:0:0:0:
437,59,182646,2,0,P|440:98|452:149,1,90,0|2,3:0|3:1,2:0:0:0:
414,193,182896,1,2,2:0:0:0:
359,161,182980,2,0,P|356:122|344:71,1,90,2|0,3:1|3:2,2:0:0:0:
291,0,183313,21,10,2:1:0:0:
220,283,183480,1,10,2:1:0:0:
360,242,183980,5,10,2:1:0:0:
150,40,184146,1,10,2:1:0:0:
115,181,184646,101,10,2:1:0:0:
395,101,184813,1,10,2:1:0:0:
150,40,185313,5,10,2:1:0:0:
360,242,185480,1,10,2:1:0:0:
115,181,185646,102,0,P|157:172|205:159,1,90,2|2,2:3|3:0,2:0:0:0:
251,175,185896,1,2,3:0:0:0:
289,151,185980,2,0,P|297:105|310:59,1,90,4|2,3:2|2:0,2:0:0:0:
61,202,187313,6,0,B|30:164|56:114|56:114|90:126|90:126|113:94|113:94|159:125|157:178,1,270,12|4,2:1|2:3,2:0:0:0:
219,235,187646,2,0,B|247:231|268:243|268:243|248:226|248:226|267:128|267:128|244:105|244:105|269:120|302:115,1,270,12|4,2:0|2:3,2:0:0:0:
353,276,187980,2,0,B|348:228|335:187|335:187|362:212|362:212|381:176|381:176|371:202|367:221|367:221|386:233|402:262,1,270,12|4,2:0|2:3,2:0:0:0:
494,206,188313,2,0,P|477:291|485:203,1,270,12|4,2:1|2:3,2:0:0:0:
456,325,188646,101,4,3:1:0:0:
380,259,188813,1,2,2:3:0:0:
344,286,188896,1,2,2:3:0:0:
297,279,188980,1,10,2:0:0:0:
273,380,189146,1,2,2:3:0:0:
229,210,189313,5,0,3:1:0:0:
167,331,189480,1,2,2:3:0:0:
127,299,189563,1,2,2:3:0:0:
76,303,189646,1,10,2:0:0:0:
39,181,189813,1,2,2:3:0:0:
107,377,189980,101,0,3:1:0:0:
144,208,190146,1,2,2:3:0:0:
144,208,190230,1,2,2:3:0:0:
144,208,190313,2,0,P|132:160|122:109,1,90,10|2,2:0|2:3,2:0:0:0:
176,54,190646,5,4,3:2:0:0:
115,298,190813,1,2,2:3:0:0:
176,54,190980,1,10,2:3:0:0:
115,298,191146,101,2,2:3:0:0:
115,298,191230,1,2,2:3:0:0:
115,298,191313,1,4,3:2:0:0:
197,265,191480,1,2,2:3:0:0:
282,294,191646,1,8,2:0:0:0:
317,376,191813,1,2,2:3:0:0:
410,203,191980,5,0,3:0:0:0:
282,294,192146,1,2,2:3:0:0:
364,274,192313,1,8,2:0:0:0:
197,265,192480,1,2,2:3:0:0:
77,384,192646,102,0,P|70:339|58:296,1,90,0|2,3:0|2:3,2:0:0:0:
71,266,192896,1,2,2:3:0:0:
87,236,192980,2,0,P|74:192|68:148,1,90,8|2,2:0|2:3,2:0:0:0:
0,95,193313,5,2,3:1:0:0:
157,149,193480,1,2,3:0:0:0:
157,149,193563,1,2,3:0:0:0:
157,149,193646,1,10,2:1:0:0:
308,20,193813,101,2,3:0:0:0:
308,20,193896,1,2,2:3:0:0:
308,20,193980,2,0,P|264:33|216:43,1,90,4|2,3:1|2:3,2:0:0:0:
396,187,194313,1,8,2:0:0:0:
420,63,194480,1,2,2:3:0:0:
229,119,194646,5,0,3:0:0:0:
298,211,194813,1,2,2:3:0:0:
231,305,194980,1,8,2:0:0:0:
121,271,195146,1,2,2:3:0:0:
120,155,195313,1,4,3:2:0:0:
120,155,195646,1,8,2:0:0:0:
120,155,195980,101,0,3:0:0:0:
298,211,196146,1,2,2:3:0:0:
394,21,196313,1,8,2:0:0:0:
316,62,196480,5,2,2:3:0:0:
316,62,196563,1,2,2:3:0:0:
316,62,196646,1,0,3:0:0:0:
441,98,196813,1,2,2:3:0:0:
325,272,196980,101,8,2:0:0:0:
244,170,197146,1,2,2:3:0:0:
448,227,197313,5,0,3:0:0:0:
384,72,197480,1,2,2:3:0:0:
384,72,197563,1,2,2:3:0:0:
384,72,197646,1,8,2:0:0:0:
244,170,197813,1,2,2:3:0:0:
152,132,197980,102,0,P|142:93|135:38,1,90,4|2,3:2|2:3,2:0:0:0:
301,10,198313,2,0,P|311:49|318:104,1,90,8|2,2:0|2:3,2:0:0:0:
60,322,198646,2,0,P|137:331|235:366,1,180,0|8,3:0|2:0,2:0:0:0:
443,207,199146,5,2,2:3:0:0:
443,207,199230,1,2,2:3:0:0:
443,207,199313,1,0,3:0:0:0:
257,166,199480,1,2,2:3:0:0:
360,142,199646,1,8,2:0:0:0:
217,258,199813,1,2,2:3:0:0:
88,55,199980,101,0,3:0:0:0:
257,166,200146,1,2,2:3:0:0:
146,151,200313,1,8,2:0:0:0:
356,109,200480,1,2,2:3:0:0:
458,282,200646,5,0,3:0:0:0:
458,282,200980,1,8,2:0:0:0:
458,282,201313,101,4,3:2:0:0:
371,213,201480,5,2,2:3:0:0:
327,248,201563,1,2,2:3:0:0:
269,240,201646,1,8,2:0:0:0:
189,384,201813,101,10,2:3:0:0:
145,349,201896,1,10,2:3:0:0:
87,357,201980,1,6,3:1:0:0:
458,282,202313,1,6,3:1:0:0:
162,167,202646,5,6,3:1:0:0:
231,381,202813,1,2,3:1:0:0:
371,213,202980,1,6,3:1:0:0:
254,254,203146,101,8,2:0:0:0:
254,254,203230,1,8,2:0:0:0:
254,254,203313,1,6,3:1:0:0:
64,285,204146,5,10,2:3:0:0:
127,104,204313,1,10,2:3:0:0:
265,230,204480,1,10,2:3:0:0:
175,31,204646,101,4,3:1:0:0:
79,177,204813,1,2,2:3:0:0:
54,56,204980,5,8,2:0:0:0:
200,152,205146,1,2,2:3:0:0:
175,31,205313,101,0,3:0:0:0:
79,177,205480,1,2,2:3:0:0:
75,168,205535,1,2,2:3:0:0:
73,159,205591,1,2,2:3:0:0:
75,151,205646,2,0,P|84:107|88:62,1,90,8|2,2:0|2:3,2:0:0:0:
312,16,205980,5,0,3:0:0:0:
194,66,206146,1,2,2:3:0:0:
205,193,206313,1,8,2:0:0:0:
329,221,206480,1,2,2:3:0:0:
395,112,206646,1,0,3:0:0:0:
395,112,206980,101,8,2:0:0:0:
270,135,207146,1,2,2:3:0:0:
252,270,207313,1,4,3:2:0:0:
252,270,207646,5,8,2:0:0:0:
378,178,207813,1,2,2:3:0:0:
286,22,207980,1,0,2:0:0:0:
233,91,208146,101,2,2:3:0:0:
239,98,208202,1,2,2:3:0:0:
247,106,208258,1,2,2:3:0:0:
252,116,208313,2,0,P|298:107|346:99,1,90,8|2,2:0|2:3,2:0:0:0:
286,22,208646,5,0,3:0:0:0:
103,110,208813,1,2,2:3:0:0:
131,311,208980,1,8,2:0:0:0:
331,347,209146,1,2,2:3:0:0:
426,167,209313,1,0,3:0:0:0:
256,192,209480,101,2,2:3:0:0:
256,192,209563,1,2,2:3:0:0:
256,192,209646,2,0,P|264:232|272:280,1,90,8|2,2:0|2:3,2:0:0:0:
344,224,209980,5,4,3:2:0:0:
327,131,210146,1,2,2:3:0:0:
239,99,210313,1,8,2:0:0:0:
168,160,210480,1,2,2:3:0:0:
184,252,210646,1,0,3:2:0:0:
272,284,210813,1,2,2:3:0:0:
276,294,210869,1,2,2:3:0:0:
277,305,210924,1,2,2:3:0:0:
274,314,210980,2,0,P|317:325|358:343,1,90,8|2,2:0|2:3,2:0:0:0:
296,96,211313,101,0,3:0:0:0:
359,200,211480,1,2,2:3:0:0:
167,246,211646,1,8,2:0:0:0:
177,124,211813,1,2,2:3:0:0:
280,293,211980,1,0,3:0:0:0:
280,293,212313,1,8,2:0:0:0:
167,246,212480,1,2,2:3:0:0:
177,124,212646,5,4,3:2:0:0:
229,33,212813,1,2,2:3:0:0:
278,43,212896,1,2,2:3:0:0:
315,12,212980,1,8,2:0:0:0:
400,80,213146,1,2,2:3:0:0:
440,207,213313,101,0,3:0:0:0:
400,80,213480,1,2,2:3:0:0:
344,96,213563,1,2,2:3:0:0:
305,64,213646,1,8,2:0:0:0:
201,171,213813,1,2,2:3:0:0:
264,246,213980,6,0,P|248:157|224:70,2,180,0|8|0,3:0|2:0|3:0,2:0:0:0:
264,246,214813,1,2,2:3:0:0:
416,328,214980,1,10,2:0:0:0:
458,314,215063,1,2,2:3:0:0:
458,269,215146,1,2,2:3:0:0:
416,255,215230,1,2,2:3:0:0:
389,291,215313,69,4,3:2:0:0:
264,334,215480,5,2,2:0:0:0:
157,300,215646,101,2,2:0:0:0:
126,181,215813,5,2,2:0:0:0:
190,88,215980,101,2,2:0:0:0:
283,78,216146,5,2,2:0:0:0:
322,124,216313,101,2,2:0:0:0:
304,179,216480,5,2,2:0:0:0:
256,192,216646,101,2,2:0:0:0:
32,236,216980,5,4,3:2:0:0:
480,148,217313,1,4,3:2:0:0:
256,192,217646,101,8,2:0:0:0:
