osu file format v14

[General]
AudioFilename: audio.mp3
AudioLeadIn: 0
PreviewTime: 563
Countdown: 0
SampleSet: Soft
StackLeniency: 0.5
Mode: 0
LetterboxInBreaks: 0
WidescreenStoryboard: 1

[Editor]
DistanceSpacing: 1.2
BeatDivisor: 4
GridSize: 32
TimelineZoom: 2.1

[Metadata]
Title:Kyun Kyun MIKO Kyun kyun <3
TitleUnicode:きゅんきゅんみこきゅんきゅん♡
Artist:Sakura Miko
ArtistUnicode:さくらみこ
Creator:Left
Version:Amateurre's Extra
Source:
Tags:Amateurre Shizuku- Kazato Asa Shikibe Mayu Ayesha Altugle Affirmation みこち Mikochi 35p ホロライブ hololive vtuber virtual youtuber original japanese pop jpop j-pop
BeatmapID:4526697
BeatmapSetID:2146215

[Difficulty]
HPDrainRate:5
CircleSize:3.5
OverallDifficulty:8.6
ApproachRate:9.2
SliderMultiplier:1.8
SliderTickRate:1

[Events]
//Background and Video events
0,0,"miko.jpg",0,0
Video,0,"optc.flv"
//Break Periods
//Storyboard Layer 0 (Background)
//Storyboard Layer 1 (Fail)
//Storyboard Layer 2 (Pass)
//Storyboard Layer 3 (Foreground)
//Storyboard Layer 4 (Overlay)
//Storyboard Sound Samples

[TimingPoints]
647,333.333333333333,4,2,7,70,1,0
1812,-100,4,2,7,5,0,0
1980,-100,4,2,7,70,0,0
9980,-100,4,2,7,75,0,0
10313,-100,4,2,7,80,0,0
10646,-100,4,2,7,90,0,0
12146,-100,4,2,7,80,0,0
22896,-100,4,2,7,5,0,0
22980,-100,4,2,7,80,0,0
23063,-100,4,2,7,5,0,0
23146,-100,4,2,7,80,0,0
23479,-100,4,2,7,75,0,0
44646,-100,4,2,7,70,0,0
49563,-100,4,2,7,5,0,0
49646,-100,4,2,7,70,0,0
49980,-100,4,2,7,75,0,0
52563,-100,4,2,7,5,0,0
52646,-100,4,2,7,75,0,0
52980,-100,4,2,7,60,0,0
55313,-100,4,2,8,60,0,0
57480,-100,4,2,8,80,0,0
57563,-100,4,2,7,5,0,0
57646,-100,4,2,7,80,0,0
57729,-100,4,2,7,5,0,0
57813,-100,4,2,7,80,0,0
57896,-100,4,2,7,5,0,0
57980,-100,4,2,7,80,0,1
66063,-100,4,2,7,5,0,1
66146,-100,4,2,7,80,0,1
77396,-100,4,2,7,5,0,1
77480,-100,4,2,7,80,0,1
77729,-100,4,2,7,5,0,1
77813,-100,4,2,7,80,0,1
79313,-100,4,2,7,80,0,0
89479,-100,4,2,7,75,0,0
95230,-100,4,2,7,5,0,0
95313,-100,4,2,7,75,0,0
111393,-100,4,2,7,70,0,0
116646,-100,4,2,7,75,0,0
119646,-100,4,2,7,60,0,0
121980,-100,4,2,8,60,0,0
124146,-100,4,2,8,80,0,0
124229,-100,4,2,7,5,0,0
124313,-100,4,2,7,80,0,0
124396,-100,4,2,7,5,0,0
124480,-100,4,2,7,80,0,0
124563,-100,4,2,7,5,0,0
124646,-100,4,2,7,80,0,1
129563,-100,4,2,7,5,0,1
129646,-100,4,2,7,80,0,1
132730,-100,4,2,7,5,0,1
132813,-100,4,2,7,80,0,1
144063,-100,4,2,7,5,0,1
144146,-100,4,2,7,80,0,1
144396,-100,4,2,7,5,0,1
144480,-100,4,2,7,80,0,1
145980,-100,4,2,7,80,0,0
148646,-100,4,2,7,55,0,0
153980,-100,4,2,7,60,0,0
155980,-100,4,2,7,65,0,0
156146,-100,4,2,7,70,0,0
156313,-100,4,2,7,75,0,0
159563,-100,4,2,7,5,0,0
159646,-100,4,2,7,75,0,0
178313,-100,4,2,7,60,0,0
180646,-100,4,2,8,60,0,0
182813,-100,4,2,8,80,0,0
182896,-100,4,2,7,5,0,0
182980,-100,4,2,7,80,0,0
183063,-100,4,2,7,5,0,0
183146,-100,4,2,7,80,0,0
183229,-100,4,2,7,5,0,0
183313,-100,4,2,7,75,0,0
187313,-100,4,2,7,70,0,0
188146,-100,4,2,7,80,0,0
188646,-100,4,2,7,80,0,1
192896,-100,4,2,7,5,0,1
192980,-100,4,2,7,80,0,1
200896,-100,4,2,7,5,0,1
200980,-100,4,2,7,80,0,1
202729,-100,4,2,7,5,0,1
202813,-100,4,2,7,80,0,1
203063,-100,4,2,7,5,0,1
203146,-100,4,2,7,80,0,1
204646,-100,4,2,7,80,0,0
212230,-100,4,2,7,5,0,0
212313,-100,4,2,7,80,0,0

[Colours]
Combo1 : 163,222,254
Combo2 : 100,100,100
Combo3 : 222,222,222
Combo4 : 253,89,118
Combo5 : 254,194,205
Combo6 : 255,232,153
Combo7 : 217,157,0
Combo8 : 210,255,117

[HitObjects]
256,192,647,21,2,2:0:0:0:
256,192,980,1,2,2:0:0:0:
256,192,1313,1,10,2:0:0:0:
187,266,1480,1,0,3:0:0:0:
187,266,1563,1,0,3:0:0:0:
187,266,1646,2,0,P|140:276|100:289,1,90,8|0,2:0|2:0,2:0:0:0:
325,118,1980,70,0,P|371:108|411:94,1,90,2|0,3:2|2:0,2:0:0:0:
512,68,2313,2,0,P|497:112|488:154,1,90,10|0,2:0|2:0,2:0:0:0:
461,254,2646,2,0,P|429:219|397:190,1,90,2|2,3:2|2:0,2:0:0:0:
325,118,2980,1,10,2:0:0:0:
0,318,3313,6,0,P|46:328|86:341,1,90,2|0,3:1|2:0,2:0:0:0:
231,371,3646,2,0,P|216:326|207:284,1,90,10|0,2:1|2:0,2:0:0:0:
162,145,3980,2,0,P|130:179|98:208,1,90,2|0,3:1|2:0,2:0:0:0:
0,318,4313,1,10,2:1:0:0:
326,178,4646,102,0,P|370:192|412:201,1,90,2|0,3:2|2:0,2:0:0:0:
512,229,4980,2,0,P|477:260|448:292,1,90,10|0,2:0|2:0,2:0:0:0:
375,364,5313,2,0,P|365:317|351:277,1,90,2|2,3:2|2:0,2:0:0:0:
326,178,5646,1,10,2:0:0:0:
21,310,5980,6,0,P|66:298|108:291,1,90,2|0,3:1|2:0,2:0:0:0:
250,252,6313,2,0,P|216:218|189:185,1,90,10|0,2:1|2:0,2:0:0:0:
86,82,6646,2,0,P|73:127|58:167,1,90,2|0,3:1|2:0,2:0:0:0:
21,310,6980,1,10,2:1:0:0:
336,277,7313,102,0,P|321:232|312:190,1,90,2|0,3:1|2:0,2:0:0:0:
285,91,7646,2,0,P|253:125|221:154,1,90,10|0,2:1|2:0,2:0:0:0:
150,228,7980,2,0,P|196:237|236:251,1,90,2|2,3:1|2:0,2:0:0:0:
336,277,8313,1,10,2:1:0:0:
221,154,8646,6,0,P|189:118|164:84,1,90,2|0,3:1|2:0,2:0:0:0:
312,190,8980,2,0,P|354:176|398:166,1,90,10|0,2:1|2:0,2:0:0:0:
236,251,9313,2,0,P|226:294|212:337,1,90,10|2,2:1|2:0,2:0:0:0:
212,337,9563,1,2,2:0:0:0:
212,337,9646,1,10,2:1:0:0:
285,91,9813,37,0,3:0:0:0:
285,91,9896,1,0,3:0:0:0:
285,91,9980,2,0,P|299:46|317:6,1,90,4|0,3:1|2:0,2:0:0:0:
150,228,10313,2,0,P|107:241|63:251,1,90,4|0,3:2|2:0,2:0:0:0:
341,281,10646,1,0,3:2:0:0:
164,111,10813,1,0,3:0:0:0:
341,281,10980,2,0,P|374:311|404:344,1,90,4|0,3:2|3:0,2:0:0:0:
256,192,11313,5,4,3:1:0:0:
260,181,12146,101,10,2:3:0:0:
256,192,12313,1,10,2:3:0:0:
253,201,12480,1,10,2:3:0:0:
159,175,12646,5,4,3:1:0:0:
218,102,12813,1,2,2:3:0:0:
287,279,12980,1,8,2:0:0:0:
193,263,13146,1,2,2:3:0:0:
312,117,13313,1,0,3:0:0:0:
345,205,13480,2,0,L|396:216,3,30,2|2|2|8,2:3|2:3|2:3|2:0,2:0:0:0:
159,175,13813,101,2,2:3:0:0:
193,263,13980,2,0,P|153:298|101:307,1,90,0|2,3:0|2:3,2:0:0:0:
100,98,14313,2,0,P|89:45|107:-3,1,90,8|2,2:0|2:3,2:0:0:0:
75,215,14646,2,0,P|24:197|-9:157,1,90,0|2,3:0|2:3,2:0:0:0:
218,102,14980,6,0,P|257:67|309:58,1,90,8|2,2:0|2:3,2:0:0:0:
292,57,15230,1,2,2:3:0:0:
292,57,15313,1,0,3:0:0:0:
340,298,15646,101,8,2:0:0:0:
512,264,15813,1,2,2:3:0:0:
417,231,15980,1,0,3:0:0:0:
440,334,16146,2,0,L|451:385,3,30,2|2|2|8,2:3|2:3|2:3|2:0,2:0:0:0:
396,144,16480,1,2,2:3:0:0:
316,206,16646,6,0,L|293:104,1,90,0|2,3:0|2:3,2:0:0:0:
495,173,16980,2,0,L|475:85,1,90,8|2,2:0|2:3,2:0:0:0:
376,33,17313,1,0,3:0:0:0:
428,243,17480,1,2,2:3:0:0:
428,243,17563,1,2,2:3:0:0:
428,243,17646,1,10,2:0:0:0:
220,102,17980,101,4,3:2:0:0:
244,11,18146,1,2,2:3:0:0:
211,116,18313,1,8,2:0:0:0:
118,140,18480,1,2,2:3:0:0:
228,117,18646,1,0,3:2:0:0:
294,184,18813,2,0,L|330:221,3,30,2|2|2|8,2:3|2:3|2:3|2:0,2:0:0:0:
142,32,19146,1,2,2:3:0:0:
192,211,19313,6,0,L|165:315,1,90,0|2,3:0|2:3,2:0:0:0:
338,87,19646,2,0,L|365:-17,1,90,8|2,2:0|2:3,2:0:0:0:
360,0,19896,1,2,2:3:0:0:
360,0,19980,1,0,3:0:0:0:
512,237,20313,101,8,2:0:0:0:
466,343,20480,1,2,2:3:0:0:
365,372,20646,1,0,3:0:0:0:
276,315,20813,1,2,2:3:0:0:
276,315,20896,1,2,2:3:0:0:
276,315,20980,2,0,P|263:249|242:219,1,90,8|2,2:0|2:3,2:0:0:0:
176,297,21313,1,0,3:0:0:0:
103,363,21480,1,2,2:3:0:0:
103,363,21563,1,2,2:3:0:0:
103,363,21646,2,0,P|83:323|79:279,1,90,8|2,2:0|2:3,2:0:0:0:
26,167,21980,6,0,L|138:188,1,90,0|2,3:2|2:3,2:0:0:0:
103,363,22313,2,0,L|215:384,1,90,8|2,2:0|2:3,2:0:0:0:
320,198,22646,69,0,3:0:0:0:
415,216,22813,2,0,L|406:166,1,45,10|0,2:1|2:0,2:0:0:0:
511,232,22980,2,0,L|502:182,1,45,10|0,2:1|2:0,2:0:0:0:
485,108,23146,1,2,3:1:0:0:
346,290,23313,6,0,P|306:301|260:317,1,90,4|0,3:2|2:0,2:0:0:0:
320,198,23646,2,0,P|330:157|338:109,1,90,8|0,2:0|2:0,2:0:0:0:
415,216,23980,2,0,P|444:245|481:276,2,90,0|0|8,3:2|2:0|2:0,2:0:0:0:
320,198,24480,101,2,2:0:0:0:
320,198,24646,2,0,P|277:213|234:225,1,90,2|0,3:2|2:0,2:0:0:0:
415,216,24980,2,0,P|422:171|433:128,1,90,8|0,2:0|2:0,2:0:0:0:
346,290,25313,2,0,P|375:319|412:350,2,90,0|0|8,3:2|2:0|2:0,2:0:0:0:
320,198,25813,5,2,2:0:0:0:
225,227,25980,2,0,P|184:238|139:254,1,90,2|0,3:2|2:0,2:0:0:0:
251,124,26313,2,0,P|221:94|184:63,1,90,8|0,2:0|2:0,2:0:0:0:
346,103,26646,2,0,P|356:62|364:14,2,90,0|0|8,3:2|2:0|2:0,2:0:0:0:
320,198,27146,101,2,2:0:0:0:
293,288,27313,2,0,P|282:331|275:375,1,90,0|2,3:2|2:0,2:0:0:0:
417,177,27646,2,0,P|460:163|502:148,1,90,8|2,2:0|2:0,2:0:0:0:
392,271,27980,2,0,P|424:302|458:331,1,90,0|2,3:2|2:0,2:0:0:0:
346,103,28313,21,2,2:1:0:0:
87,209,28646,102,0,P|44:222|1:238,1,90,6|2,3:1|2:0,2:0:0:0:
179,235,28980,1,8,2:0:0:0:
87,209,29146,1,2,2:0:0:0:
179,235,29313,2,0,P|211:265|247:294,1,90,0|2,3:0|2:0,2:0:0:0:
162,146,29646,2,0,P|171:102|179:57,1,90,8|2,2:0|2:0,2:0:0:0:
108,296,29980,102,0,P|98:339|90:384,1,90,0|2,3:0|2:0,2:0:0:0:
247,179,30313,1,8,2:0:0:0:
69,127,30480,1,0,2:3:0:0:
247,179,30646,2,0,P|289:165|332:149,1,90,0|2,3:0|2:0,2:0:0:0:
68,127,30980,2,0,P|35:96|1:67,1,90,8|2,2:0|2:0,2:0:0:0:
1,191,31313,6,0,P|9:234|21:279,1,90,0|2,3:0|2:0,2:0:0:0:
235,90,31646,2,0,P|192:75|149:63,1,90,8|2,2:0|2:0,2:0:0:0:
197,330,31980,2,0,P|230:300|262:268,1,90,0|2,3:0|2:0,2:0:0:0:
262,268,32230,1,0,2:0:0:0:
262,268,32313,1,10,2:0:0:0:
145,203,32480,101,4,3:1:0:0:
510,103,32813,5,8,2:0:0:0:
507,123,32896,1,8,2:0:0:0:
505,141,32980,1,0,3:0:0:0:
429,63,33146,1,0,3:0:0:0:
414,155,33313,1,0,3:0:0:0:
329,76,33480,1,0,3:0:0:0:
326,96,33563,1,0,3:0:0:0:
324,114,33646,1,8,2:0:0:0:
421,112,33813,1,0,3:0:0:0:
387,295,33980,54,0,P|377:334|368:383,1,90,4|0,3:2|2:0,2:0:0:0:
366,381,34313,2,0,P|326:371|277:362,1,90,8|0,2:0|2:0,2:0:0:0:
279,361,34646,2,0,P|288:321|297:272,1,90,0|0,3:0|2:0,2:0:0:0:
297,273,34980,2,0,P|257:263|208:254,1,90,8|0,2:0|2:0,2:0:0:0:
131,297,35313,102,0,P|121:336|112:385,1,90,0|0,3:0|2:0,2:0:0:0:
86,218,35646,2,0,P|41:210|-1:199,1,90,8|0,2:0|2:0,2:0:0:0:
164,176,35980,2,0,P|174:132|182:88,1,90,4|8,3:2|2:0,2:0:0:0:
182,88,36230,1,8,2:0:0:0:
182,88,36313,1,0,3:0:0:0:
209,254,36480,1,8,2:0:0:0:
295,207,36646,6,0,P|304:167|313:118,1,90,4|2,3:2|2:0,2:0:0:0:
312,118,36980,2,0,P|351:127|400:136,1,90,8|2,2:0|2:0,2:0:0:0:
400,135,37313,2,0,P|407:91|419:48,1,90,0|2,3:0|2:0,2:0:0:0:
419,48,37646,2,0,P|458:57|507:66,1,90,8|2,2:0|2:0,2:0:0:0:
295,207,37980,2,0,P|250:198|206:188,1,90,0|2,3:0|2:0,2:0:0:0:
121,167,38313,2,0,P|77:156|32:148,1,90,10|0,2:3|2:0,2:0:0:0:
187,98,38646,101,2,3:2:0:0:
144,255,38813,1,8,2:0:0:0:
191,107,38980,5,8,2:0:0:0:
148,264,39146,1,8,2:0:0:0:
32,148,39313,102,0,P|41:108|50:59,1,90,4|0,3:2|2:0,2:0:0:0:
49,59,39646,2,0,P|89:68|138:77,1,90,8|0,2:0|2:0,2:0:0:0:
137,76,39980,2,0,P|128:116|119:165,1,90,0|0,3:0|2:0,2:0:0:0:
119,164,40313,2,0,P|163:172|207:181,1,90,8|0,2:0|2:0,2:0:0:0:
261,253,40646,6,0,P|252:297|243:341,1,90,2|0,3:1|2:0,2:0:0:0:
119,164,40980,2,0,P|127:119|137:76,1,90,10|0,2:1|2:0,2:0:0:0:
231,30,41313,101,2,3:1:0:0:
311,83,41480,1,8,2:0:0:0:
313,92,41563,1,8,2:0:0:0:
315,99,41646,1,2,3:1:0:0:
409,64,41813,1,8,2:0:0:0:
462,137,41980,6,0,P|453:177|444:226,1,90,4|0,3:2|2:0,2:0:0:0:
445,226,42313,2,0,P|406:217|357:208,1,90,8|0,2:0|2:0,2:0:0:0:
356,208,42646,2,0,P|348:252|337:295,1,90,0|0,3:0|2:0,2:0:0:0:
338,296,42980,2,0,P|299:287|250:278,1,90,8|0,2:0|2:0,2:0:0:0:
225,367,43313,101,0,3:0:0:0:
122,340,43480,1,8,2:3:0:0:
124,349,43563,1,8,2:3:0:0:
127,359,43646,1,0,3:0:0:0:
18,328,43813,1,8,2:3:0:0:
20,337,43896,1,8,2:3:0:0:
23,347,43980,2,0,L|41:250,1,90,4|0,3:2|2:0,2:0:0:0:
285,198,44313,2,0,L|303:101,1,90,8|0,2:0|3:0,2:0:0:0:
301,109,44563,1,0,3:0:0:0:
301,109,44646,22,0,P|372:168|480:151,1,180,4|0,3:1|2:0,2:0:0:0:
455,164,45146,1,0,3:0:0:0:
374,283,45313,2,0,P|363:327|362:371,1,90,0|0,3:0|2:0,2:0:0:0:
261,358,45646,2,0,P|271:313|272:269,1,90,10|0,2:3|2:0,2:0:0:0:
179,301,45980,6,0,B|67:281|111:341|2:322,1,180,0|0,3:0|2:0,2:0:0:0:
38,228,46480,1,2,3:2:0:0:
38,228,46563,1,2,2:0:0:0:
38,228,46646,2,0,P|35:182|28:138,1,90,0|0,3:2|2:0,2:0:0:0:
131,123,46980,2,0,P|134:169|140:212,1,90,10|2,2:3|2:3,2:0:0:0:
140,212,47230,1,2,2:3:0:0:
140,212,47313,101,0,3:2:0:0:
465,384,47646,2,0,P|462:339|450:295,1,90,0|0,2:0|3:0,2:0:0:0:
378,244,47980,2,0,P|436:250|500:217,2,120,0|2|2,3:0|2:3|2:3,2:0:0:0:
279,249,48646,6,0,P|295:149|309:71,1,180,0|0,3:0|2:0,2:0:0:0:
229,12,49146,1,2,3:2:0:0:
229,12,49230,1,2,2:0:0:0:
229,12,49313,2,0,P|164:45|95:32,1,135,0|0,3:0|2:0,2:0:0:0:
96,30,49646,2,0,P|66:68|60:112,1,90,10|0,2:3|2:0,2:0:0:0:
114,249,49980,101,4,3:2:0:0:
27,309,50146,1,2,2:3:0:0:
27,309,50230,1,2,2:3:0:0:
27,309,50313,2,0,P|19:265|7:221,1,90,8|2,2:0|2:3,2:0:0:0:
152,97,50646,1,0,3:0:0:0:
240,146,50813,1,2,3:0:0:0:
240,146,50896,1,2,2:3:0:0:
240,146,50980,2,0,P|248:190|259:233,1,90,8|2,2:0|2:3,2:0:0:0:
423,326,51313,5,4,3:2:0:0:
505,271,51480,1,2,2:3:0:0:
505,271,51563,1,2,2:3:0:0:
505,271,51646,2,0,P|497:227|486:184,1,90,8|2,2:0|2:3,2:0:0:0:
318,297,51980,2,0,P|326:341|337:384,1,90,0|2,3:0|3:0,2:0:0:0:
484,183,52313,102,0,P|413:200|351:167,1,135,12|0,2:0|2:0,2:0:0:0:
351,166,52646,1,4,3:2:0:0:
214,376,52980,37,8,2:0:0:0:
166,312,53146,1,2,2:0:0:0:
85,292,53313,1,0,3:0:0:0:
7,316,53480,1,2,2:0:0:0:
7,316,53563,1,2,2:0:0:0:
7,316,53646,2,0,P|4:270|0:226,1,90,8|2,2:0|2:0,2:0:0:0:
119,89,53980,102,0,P|122:135|126:178,1,90,0|2,3:0|2:0,2:0:0:0:
273,353,54313,2,0,P|270:307|265:263,1,90,8|2,2:0|2:0,2:0:0:0:
253,181,54646,1,0,3:0:0:0:
408,10,54813,1,2,2:0:0:0:
408,10,54896,1,2,2:0:0:0:
408,10,54980,2,0,P|411:56|415:99,1,90,8|2,2:0|2:0,2:0:0:0:
496,194,55313,5,2,3:0:0:0:
246,197,57480,70,0,L|255:153,1,45,2|0,3:1|2:0,2:0:0:0:
251,204,57646,2,0,L|260:160,1,45,2|0,3:1|2:0,2:0:0:0:
257,211,57813,2,0,L|266:167,1,45,2|0,3:1|2:0,2:0:0:0:
222,71,57980,53,4,3:1:0:0:
343,103,58146,1,2,2:3:0:0:
343,103,58230,1,2,2:3:0:0:
343,103,58313,1,8,2:0:0:0:
375,224,58480,1,2,2:3:0:0:
167,279,58646,5,0,3:0:0:0:
135,158,58813,1,2,2:3:0:0:
135,158,58896,1,2,2:3:0:0:
135,158,58980,1,8,2:0:0:0:
222,71,59146,1,2,2:3:0:0:
375,224,59313,101,0,3:0:0:0:
288,311,59480,1,2,2:3:0:0:
288,311,59563,1,2,2:3:0:0:
288,311,59646,1,8,2:0:0:0:
167,279,59813,2,0,L|63:298,1,90,2|0,2:3|3:0,2:0:0:0:
288,311,60146,2,0,L|356:391,1,90,2|8,2:3|2:0,2:0:0:0:
263,186,60480,2,0,L|298:86,1,90,2|0,2:3|3:2,2:0:0:0:
338,12,60813,5,2,2:3:0:0:
338,12,60896,1,2,2:3:0:0:
338,12,60980,1,8,2:0:0:0:
451,163,61146,1,2,2:3:0:0:
263,186,61313,1,0,3:0:0:0:
395,88,61480,2,0,L|429:66,3,30,2|2|2|8,2:3|2:3|2:3|2:0,2:0:0:0:
359,174,61813,1,2,2:3:0:0:
150,35,61980,101,0,3:0:0:0:
242,24,62146,1,2,2:3:0:0:
205,110,62313,2,0,P|164:129|118:126,1,90,8|2,2:0|2:3,2:0:0:0:
77,117,62563,1,2,2:3:0:0:
45,87,62646,6,0,P|56:42|66:0,1,90,2|2,3:1|2:3,2:0:0:0:
234,285,62980,2,0,P|223:328|212:372,1,90,10|2,2:1|2:3,2:0:0:0:
256,192,63313,101,4,3:1:0:0:
155,166,63480,1,2,2:3:0:0:
155,166,63563,1,2,2:3:0:0:
155,166,63646,1,8,2:0:0:0:
83,239,63813,1,2,2:3:0:0:
256,192,63980,5,0,3:0:0:0:
327,117,64146,1,2,2:3:0:0:
327,117,64230,1,2,2:3:0:0:
327,117,64313,1,8,2:0:0:0:
300,19,64480,1,2,2:3:0:0:
256,192,64646,101,0,3:0:0:0:
284,291,64813,1,2,2:3:0:0:
284,291,64896,1,2,2:3:0:0:
284,291,64980,1,8,2:0:0:0:
383,317,65146,1,2,2:3:0:0:
352,220,65313,5,0,3:0:0:0:
206,355,65480,2,0,P|164:343|117:336,1,90,2|8,2:3|2:0,2:0:0:0:
15,136,65813,2,0,P|79:154|146:165,1,135,2|0,2:3|2:0,2:0:0:0:
146,165,66146,1,2,2:3:0:0:
69,249,66313,1,8,2:0:0:0:
118,61,66480,1,2,2:3:0:0:
256,192,66646,101,0,3:0:0:0:
366,175,66813,1,2,2:3:0:0:
366,175,66896,1,2,2:3:0:0:
366,175,66980,1,8,2:0:0:0:
448,226,67146,2,0,P|455:182|464:137,1,90,2|0,2:3|3:0,2:0:0:0:
295,2,67480,1,2,2:3:0:0:
295,2,67563,1,2,2:3:0:0:
295,2,67646,2,0,P|288:46|278:90,1,90,8|2,2:0|2:3,2:0:0:0:
156,224,67980,5,2,3:1:0:0:
260,194,68146,1,2,3:0:0:0:
260,194,68230,1,0,3:0:0:0:
260,194,68313,1,10,2:1:0:0:
334,262,68480,1,2,2:3:0:0:
129,330,68646,102,0,P|86:331|46:308,1,90,4|2,3:1|2:3,2:0:0:0:
260,194,68980,2,0,P|279:155|320:132,1,90,8|2,2:0|2:3,2:0:0:0:
151,217,69313,1,0,3:0:0:0:
127,134,69480,1,2,2:3:0:0:
334,262,69646,1,8,2:0:0:0:
424,287,69813,1,2,2:3:0:0:
424,287,69896,1,2,2:3:0:0:
424,287,69980,6,0,P|473:278|513:274,1,90,4|2,3:2|2:3,2:0:0:0:
260,194,70313,2,0,P|243:240|226:277,1,90,8|2,2:0|2:3,2:0:0:0:
422,98,70646,2,0,P|389:60|366:27,1,90,0|2,3:0|2:3,2:0:0:0:
369,21,70896,1,2,2:3:0:0:
372,12,70980,2,0,P|322:21|282:24,1,90,8|2,2:0|2:3,2:0:0:0:
0,162,71313,102,0,P|8:117|14:73,1,90,0|2,3:2|2:3,2:0:0:0:
170,197,71646,2,0,P|176:152|184:108,1,90,8|2,2:0|2:3,2:0:0:0:
0,162,71980,1,0,3:0:0:0:
184,108,72146,1,2,2:3:0:0:
170,197,72313,1,8,2:0:0:0:
14,73,72480,1,2,2:3:0:0:
76,230,72646,6,0,P|67:274|61:318,1,90,4|2,3:2|2:3,2:0:0:0:
267,162,72980,2,0,P|275:117|281:73,1,90,8|2,2:0|2:3,2:0:0:0:
404,274,73313,2,0,P|395:318|389:362,1,90,0|2,3:0|2:3,2:0:0:0:
389,362,73563,1,2,2:3:0:0:
389,362,73646,1,8,2:0:0:0:
504,221,73813,1,2,2:3:0:0:
294,326,73980,102,0,P|249:327|208:309,1,90,0|2,3:0|2:3,2:0:0:0:
405,187,74313,2,0,P|426:147|462:121,1,90,8|2,2:0|2:3,2:0:0:0:
404,274,74646,1,0,3:0:0:0:
303,225,74813,1,2,2:3:0:0:
279,186,74896,1,2,2:3:0:0:
274,142,74980,1,8,2:0:0:0:
504,221,75146,5,2,2:3:0:0:
508,227,75230,1,2,2:3:0:0:
512,233,75313,2,0,L|495:335,1,90,0|2,3:0|2:3,2:0:0:0:
274,142,75646,2,0,L|291:40,1,90,8|2,2:0|2:3,2:0:0:0:
248,293,75980,101,4,3:2:0:0:
373,165,76146,1,10,2:3:0:0:
373,165,76230,1,10,2:3:0:0:
373,165,76313,1,0,3:0:0:0:
184,122,76480,1,10,2:3:0:0:
486,384,76646,5,6,3:1:0:0:
510,312,76813,1,0,2:0:0:0:
412,244,76980,101,6,3:1:0:0:
373,165,77146,1,2,2:0:0:0:
265,232,77313,6,0,L|216:218,1,45,6|0,3:1|2:0,2:0:0:0:
110,192,77480,1,2,3:1:0:0:
172,293,77646,102,0,L|128:317,1,45,6|0,3:1|2:0,2:0:0:0:
0,384,77813,1,8,0:0:0:0:
0,384,77896,1,8,0:0:0:0:
0,384,77980,1,2,3:1:0:0:
260,181,78813,5,10,2:3:0:0:
256,192,78980,1,10,2:3:0:0:
253,201,79146,1,10,2:3:0:0:
269,93,79313,101,4,3:1:0:0:
256,192,79480,12,2,81313,2:0:0:0:
205,207,81646,6,0,P|152:220|104:232,1,90,12|2,2:0|2:3,2:0:0:0:
307,177,81980,2,0,P|360:164|408:152,1,90,0|2,3:0|2:3,2:0:0:0:
491,127,82313,101,8,2:0:0:0:
462,215,82480,1,2,2:3:0:0:
424,71,82646,1,0,3:0:0:0:
462,215,82813,2,0,L|470:255,3,30,2|2|2|8,2:3|2:3|2:3|2:0,2:0:0:0:
394,155,83146,1,2,2:3:0:0:
406,307,83313,6,0,P|449:330|491:329,1,90,0|2,3:0|2:3,2:0:0:0:
278,221,83646,2,0,P|278:270|301:306,1,90,8|2,2:0|2:3,2:0:0:0:
291,47,83980,2,0,P|248:72|229:110,1,90,0|2,3:0|2:3,2:0:0:0:
229,107,84230,1,2,2:3:0:0:
229,107,84313,1,8,2:0:0:0:
0,15,84646,102,0,P|60:7|96:-3,1,90,4|2,3:2|2:3,2:0:0:0:
278,221,84980,2,0,P|218:229|182:239,1,90,8|2,2:0|2:3,2:0:0:0:
103,267,85313,1,0,3:0:0:0:
124,178,85480,2,0,L|132:138,3,30,2|2|2|8,2:3|2:3|2:3|2:0,2:0:0:0:
82,359,85813,1,2,2:3:0:0:
40,200,85980,5,0,3:0:0:0:
174,324,86146,1,2,2:3:0:0:
17,295,86313,1,8,2:0:0:0:
189,236,86480,1,2,2:3:0:0:
103,267,86646,101,0,3:0:0:0:
10,99,86980,5,8,2:0:0:0:
100,8,87146,1,2,2:3:0:0:
227,64,87313,2,0,P|237:113|245:152,1,90,4|2,3:2|2:3,2:0:0:0:
245,152,87563,1,2,2:3:0:0:
245,152,87646,1,8,2:0:0:0:
295,0,87813,1,2,2:3:0:0:
491,114,87980,102,0,P|481:65|472:25,1,90,0|2,3:0|2:3,2:0:0:0:
472,25,88230,1,2,2:3:0:0:
472,25,88313,1,8,2:0:0:0:
433,182,88480,1,2,2:3:0:0:
314,80,88646,6,0,P|361:97|400:103,1,90,0|2,3:0|2:3,2:0:0:0:
154,132,88980,2,0,P|145:82|131:44,1,90,8|2,2:0|2:3,2:0:0:0:
277,258,89313,2,0,P|238:290|213:321,1,90,0|10,3:0|2:1,2:0:0:0:
213,320,89563,1,2,2:0:0:0:
213,320,89646,1,10,2:1:0:0:
258,167,89813,69,2,3:1:0:0:
258,167,89896,1,0,2:0:0:0:
258,167,89980,1,4,3:2:0:0:
307,384,90146,1,2,2:0:0:0:
307,384,90313,2,0,P|313:339|326:296,1,90,8|2,2:0|2:0,2:0:0:0:
205,384,90646,2,0,P|198:339|185:296,1,90,0|2,3:0|2:0,2:0:0:0:
185,296,90896,1,0,2:0:0:0:
185,296,90980,1,8,2:0:0:0:
419,267,91146,5,2,2:0:0:0:
507,146,91313,2,0,P|462:139|419:126,1,90,0|2,3:0|2:0,2:0:0:0:
419,267,91646,2,0,P|462:254|507:248,1,90,8|2,2:0|2:0,2:0:0:0:
507,248,91896,1,0,2:0:0:0:
507,248,91980,1,0,3:0:0:0:
419,126,92146,1,2,2:0:0:0:
359,193,92313,1,8,2:0:0:0:
161,190,92480,101,2,2:0:0:0:
100,116,92646,2,0,P|57:129|13:134,1,90,0|2,3:0|2:0,2:0:0:0:
100,256,92980,2,0,P|57:243|13:237,1,90,8|2,2:0|2:0,2:0:0:0:
13,237,93230,1,0,2:0:0:0:
13,237,93313,1,0,3:0:0:0:
13,134,93480,1,2,2:0:0:0:
161,190,93646,1,8,2:0:0:0:
326,87,93813,5,2,2:0:0:0:
205,0,93980,2,0,P|199:45|186:88,1,90,0|2,3:0|2:0,2:0:0:0:
186,87,94230,1,0,2:0:0:0:
186,87,94313,1,8,2:0:0:0:
307,0,94480,1,2,2:0:0:0:
307,0,94563,1,0,2:0:0:0:
307,0,94646,2,0,P|313:44|326:87,1,90,0|2,3:0|2:0,2:0:0:0:
260,301,94980,6,2,B|248:219|274:265|264:167,1,135,2|0,2:1|2:1,2:1:0:0:
264,167,95313,86,0,P|311:174|353:175,1,90,4|2,3:2|2:0,2:0:0:0:
260,301,95646,2,0,P|212:293|170:292,1,90,8|2,2:0|2:0,2:0:0:0:
13,232,95980,1,0,3:0:0:0:
114,214,96146,1,2,2:0:0:0:
170,292,96313,2,0,P|157:333|154:380,1,90,8|2,2:0|2:0,2:0:0:0:
13,232,96646,6,0,P|25:190|28:143,1,90,0|2,3:0|2:0,2:0:0:0:
28,144,96896,1,0,2:0:0:0:
28,144,96980,1,8,2:0:0:0:
217,101,97146,1,2,2:0:0:0:
217,101,97230,1,0,2:0:0:0:
217,101,97313,2,0,P|219:56|232:12,1,90,0|2,3:0|2:0,2:0:0:0:
115,90,97646,2,0,P|127:133|130:178,1,90,8|2,2:0|2:0,2:0:0:0:
153,379,97980,102,0,P|197:377|237:357,1,90,0|2,3:0|2:0,2:0:0:0:
360,244,98313,2,0,P|363:199|384:159,1,90,8|2,2:0|2:0,2:0:0:0:
211,207,98646,2,0,P|235:244|271:269,1,90,0|2,3:0|2:0,2:0:0:0:
271,269,98896,1,0,2:0:0:0:
271,269,98980,1,10,2:0:0:0:
428,300,99146,6,0,P|468:280|512:278,1,90,4|0,3:1|2:0,2:0:0:0:
486,364,99480,1,8,2:0:0:0:
483,373,99563,1,8,2:0:0:0:
481,380,99646,1,0,3:0:0:0:
467,197,99813,101,0,3:0:0:0:
470,188,99896,1,0,3:0:0:0:
472,181,99980,1,0,3:0:0:0:
331,151,100146,1,0,3:0:0:0:
322,148,100230,1,0,3:0:0:0:
315,146,100313,1,8,2:0:0:0:
285,293,100480,1,0,3:0:0:0:
395,71,100646,70,0,P|372:33|334:12,1,90,4|0,3:2|2:0,2:0:0:0:
334,12,100980,2,0,P|289:13|251:35,1,90,8|0,2:0|2:0,2:0:0:0:
251,35,101313,2,0,P|229:74|230:118,1,90,0|2,3:0|2:0,2:0:0:0:
230,118,101646,2,0,P|253:156|291:177,1,90,8|0,2:0|2:0,2:0:0:0:
439,246,101980,102,0,P|443:289|449:335,1,90,0|2,3:0|2:0,2:0:0:0:
407,364,102230,1,2,2:0:0:0:
362,346,102313,2,0,P|358:303|351:256,1,90,10|2,2:0|2:0,2:0:0:0:
307,239,102563,1,2,2:0:0:0:
265,265,102646,2,0,P|269:308|275:354,1,90,0|10,3:0|2:0,2:0:0:0:
233,383,102896,1,8,2:0:0:0:
188,365,102980,2,0,P|184:322|177:275,1,90,2|10,3:2|2:0,2:0:0:0:
160,149,103313,6,0,P|121:171|76:172,1,90,4|0,3:2|2:0,2:0:0:0:
77,173,103646,2,0,P|37:151|14:113,1,90,8|0,2:0|2:0,2:0:0:0:
14,114,103980,2,0,P|13:69|35:31,2,90,0|0|8,3:0|2:0|2:0,2:0:0:0:
77,173,104480,1,0,2:0:0:0:
19,276,104646,102,0,P|62:264|106:256,1,90,2|0,3:1|2:0,2:0:0:0:
246,229,104980,2,0,P|290:221|334:210,1,90,10|0,2:1|2:0,2:0:0:0:
147,102,105313,2,0,P|158:145|166:189,1,90,2|10,3:1|2:0,2:0:0:0:
191,297,105563,1,2,2:0:0:0:
191,297,105646,2,0,P|199:341|211:385,1,90,10|8,2:1|2:0,2:0:0:0:
439,313,105980,6,0,P|477:290|498:252,1,90,4|0,3:2|2:0,2:0:0:0:
499,251,106313,2,0,P|498:206|476:168,1,90,8|0,2:0|2:0,2:0:0:0:
476,168,106646,2,0,P|437:146|393:147,1,90,0|0,3:0|2:0,2:0:0:0:
393,147,106980,2,0,P|355:170|334:208,1,90,8|0,2:0|2:0,2:0:0:0:
143,194,107313,102,0,P|136:150|127:106,1,90,2|0,3:2|2:0,2:0:0:0:
214,88,107646,2,0,P|221:132|230:176,1,90,10|0,2:0|2:0,2:0:0:0:
126,105,107980,2,0,P|170:98|214:89,1,90,2|10,3:2|2:0,2:0:0:0:
248,127,108230,1,2,2:0:0:0:
231,177,108313,2,0,P|187:184|143:193,1,90,2|10,3:2|2:0,2:0:0:0:
19,312,108646,6,0,P|58:334|103:335,1,90,4|0,3:2|2:0,2:0:0:0:
102,336,108980,2,0,P|142:314|165:276,1,90,8|0,2:0|2:0,2:0:0:0:
164,277,109313,2,0,P|165:232|143:194,2,90,0|0|8,3:0|2:0|2:0,2:0:0:0:
59,180,109813,1,0,2:0:0:0:
185,384,109980,101,0,3:0:0:0:
345,311,110146,1,0,3:0:0:0:
360,308,110230,1,0,3:0:0:0:
372,305,110313,1,8,2:0:0:0:
236,223,110480,1,0,3:0:0:0:
251,220,110563,1,0,3:0:0:0:
263,217,110646,2,0,L|278:121,1,90,4|0,3:2|2:0,2:0:0:0:
511,167,110980,2,0,L|496:263,1,90,8|0,2:0|3:0,2:0:0:0:
497,255,111230,1,0,3:0:0:0:
497,255,111313,22,0,P|434:245|342:320,1,180,4|0,3:2|2:0,2:0:0:0:
346,311,111813,1,0,3:0:0:0:
393,226,111980,2,0,P|387:181|361:145,1,90,0|0,3:0|2:0,2:0:0:0:
219,210,112313,2,0,P|224:254|250:290,1,90,10|0,2:3|2:0,2:0:0:0:
308,217,112646,6,0,L|328:38,1,180,0|0,2:0|2:0,2:0:0:0:
327,38,113146,1,0,3:0:0:0:
417,75,113313,2,0,P|473:68|516:62,1,90,0|0,3:0|2:0,2:0:0:0:
397,206,113646,2,0,P|341:213|298:219,1,90,10|2,2:3|2:3,2:0:0:0:
307,217,113896,1,2,2:3:0:0:
307,217,113980,1,4,3:2:0:0:
175,48,114313,102,0,P|132:46|87:59,1,90,0|0,2:0|3:0,2:0:0:0:
18,17,114646,2,0,P|43:71|41:131,2,120,0|2|2,3:0|2:3|2:3,2:0:0:0:
33,150,115313,6,0,B|138:137|98:200|218:182,1,180,0|0,3:0|2:0,2:0:0:0:
59,248,115813,1,2,3:2:0:0:
59,248,115896,1,2,2:0:0:0:
59,248,115980,2,0,P|47:307|43:340,1,90,0|0,3:0|2:0,2:0:0:0:
158,354,116313,2,0,P|170:295|174:262,1,90,10|2,2:3|2:3,2:0:0:0:
173,265,116563,1,2,2:3:0:0:
173,265,116646,101,4,3:2:0:0:
265,336,116813,2,0,P|322:343|360:351,1,90,2|8,2:3|2:0,2:0:0:0:
512,122,117146,5,2,2:3:0:0:
420,51,117313,2,0,P|363:44|325:36,1,90,0|2,3:0|2:3,2:0:0:0:
322,32,117563,1,2,2:3:0:0:
314,23,117646,2,0,P|310:68|301:112,1,90,8|2,2:0|2:3,2:0:0:0:
378,223,117980,102,0,P|382:178|391:134,1,90,4|2,3:2|2:3,2:0:0:0:
200,193,118313,2,0,P|204:148|213:104,1,90,8|2,2:0|2:3,2:0:0:0:
22,163,118646,2,0,P|26:118|35:74,1,90,0|2,3:0|3:0,2:0:0:0:
35,74,118896,1,2,2:3:0:0:
35,74,118980,1,8,2:0:0:0:
117,139,119146,1,2,2:3:0:0:
212,104,119313,1,0,3:0:0:0:
512,383,119646,38,0,P|478:345|427:334,1,90,8|2,2:0|2:0,2:0:0:0:
436,243,119980,2,0,P|386:253|351:292,1,90,0|2,3:0|2:0,2:0:0:0:
358,279,120230,1,2,2:0:0:0:
358,279,120313,1,8,2:0:0:0:
356,375,120480,1,2,2:0:0:0:
444,247,120646,102,0,P|432:204|422:159,1,90,0|2,3:0|2:0,2:0:0:0:
245,201,120980,2,0,P|257:244|266:288,1,90,8|2,2:0|2:0,2:0:0:0:
90,319,121313,2,0,P|78:276|68:231,1,90,0|2,3:0|2:0,2:0:0:0:
68,231,121563,1,2,2:0:0:0:
68,231,121646,1,8,2:0:0:0:
174,266,121813,1,2,2:0:0:0:
174,266,121896,1,2,2:0:0:0:
174,266,121980,1,2,3:0:0:0:
228,308,124146,86,0,L|237:264,1,45,2|0,3:1|2:0,2:0:0:0:
233,315,124313,2,0,L|242:271,1,45,2|0,3:1|2:0,2:0:0:0:
239,322,124480,2,0,L|248:278,1,45,10|0,3:1|2:0,2:0:0:0:
377,141,124646,53,4,3:1:0:0:
256,192,124813,1,2,2:3:0:0:
256,192,124896,1,2,2:3:0:0:
256,192,124980,1,8,2:0:0:0:
134,242,125146,1,2,2:3:0:0:
151,112,125313,5,0,3:0:0:0:
256,192,125480,1,2,2:3:0:0:
256,192,125563,1,2,2:3:0:0:
256,192,125646,1,8,2:0:0:0:
360,271,125813,1,2,2:3:0:0:
239,322,125980,101,0,3:0:0:0:
256,192,126146,1,2,2:3:0:0:
256,192,126230,1,2,2:3:0:0:
256,192,126313,1,8,2:0:0:0:
273,62,126480,2,0,P|318:57|361:48,1,90,2|0,2:3|3:0,2:0:0:0:
441,219,126813,2,0,P|414:182|384:148,1,90,2|8,2:3|2:0,2:0:0:0:
498,0,127146,2,0,P|479:41|465:83,1,90,2|0,2:3|3:0,2:0:0:0:
345,240,127480,5,2,2:3:0:0:
345,240,127563,1,2,2:3:0:0:
345,240,127646,1,8,2:0:0:0:
413,311,127813,1,2,2:3:0:0:
384,148,127980,1,0,3:0:0:0:
245,250,128146,2,0,L|203:257,3,30,2|2|2|8,2:3|2:3|2:3|2:0,2:0:0:0:
444,223,128480,1,2,2:3:0:0:
276,163,128646,2,0,P|265:121|273:73,1,90,0|2,3:0|2:3,2:0:0:0:
315,334,128980,2,0,P|284:363|238:380,1,90,8|2,2:0|2:3,2:0:0:0:
3,337,129313,101,2,3:1:0:0:
203,304,129480,2,0,P|185:291|165:279,1,45,2|0,2:3|2:0,2:0:0:0:
75,283,129646,5,10,2:1:0:0:
240,380,129813,1,2,2:3:0:0:
361,272,129980,101,4,3:1:0:0:
256,191,130146,1,2,2:3:0:0:
256,191,130230,1,2,2:3:0:0:
256,191,130313,1,8,2:0:0:0:
135,243,130480,1,2,2:3:0:0:
239,322,130646,5,0,3:0:0:0:
256,191,130813,1,2,2:3:0:0:
256,191,130896,1,2,2:3:0:0:
256,191,130980,1,8,2:0:0:0:
151,112,131146,1,2,2:3:0:0:
134,242,131313,101,0,3:0:0:0:
256,192,131480,1,2,2:3:0:0:
256,192,131563,1,2,2:3:0:0:
256,192,131646,1,8,2:0:0:0:
272,61,131813,1,2,2:3:0:0:
151,112,131980,5,0,3:0:0:0:
377,141,132146,2,0,P|422:135|465:127,1,90,2|8,2:3|2:0,2:0:0:0:
336,279,132480,102,0,P|269:287|202:299,1,135,2|0,2:3|2:0,2:0:0:0:
202,299,132813,1,2,2:3:0:0:
255,195,132980,1,8,2:0:0:0:
413,358,133146,1,2,2:3:0:0:
413,358,133230,1,2,2:3:0:0:
413,358,133313,2,0,L|439:267,1,90,0|2,3:0|2:3,2:0:0:0:
381,200,133646,1,8,2:0:0:0:
496,94,133813,6,0,L|471:180,1,90,2|0,2:3|3:0,2:0:0:0:
512,338,134146,101,2,2:3:0:0:
512,338,134230,1,2,2:3:0:0:
512,338,134313,1,8,2:0:0:0:
437,271,134480,1,2,2:3:0:0:
339,308,134646,1,2,3:1:0:0:
246,233,134813,1,10,2:3:0:0:
246,233,134896,1,10,2:3:0:0:
246,233,134980,1,10,2:1:0:0:
160,362,135146,1,10,2:3:0:0:
9,242,135313,6,0,P|-6:199|5:152,1,90,4|2,3:1|2:3,2:0:0:0:
169,143,135646,2,0,P|135:113|92:105,1,90,8|2,2:0|2:3,2:0:0:0:
3,156,135980,1,0,3:0:0:0:
169,143,136146,1,2,2:3:0:0:
181,138,136230,1,2,2:3:0:0:
193,131,136313,2,0,P|199:84|205:41,1,90,8|2,2:0|2:3,2:0:0:0:
172,272,136646,2,0,P|165:316|159:361,1,90,4|2,3:2|2:3,2:0:0:0:
253,212,136980,102,0,P|300:218|342:224,1,90,8|2,2:0|2:3,2:0:0:0:
112,191,137313,2,0,P|67:184|22:178,1,90,0|2,3:0|2:3,2:0:0:0:
22,178,137563,1,2,2:3:0:0:
22,178,137646,1,8,2:0:0:0:
253,212,137813,1,2,2:3:0:0:
241,127,137980,6,0,P|234:82|228:37,1,90,0|2,3:0|2:3,2:0:0:0:
271,295,138313,2,0,P|277:339|283:384,1,90,8|2,2:0|2:3,2:0:0:0:
353,253,138646,101,0,3:0:0:0:
146,379,138813,1,2,2:3:0:0:
146,379,138896,1,2,2:3:0:0:
146,379,138980,1,8,2:0:0:0:
187,275,139146,1,2,2:3:0:0:
422,334,139313,2,0,P|463:352|508:352,1,90,4|2,3:2|2:3,2:0:0:0:
499,182,139646,6,0,L|478:283,1,90,8|2,2:0|2:3,2:0:0:0:
417,95,139980,1,0,3:0:0:0:
267,215,140146,1,2,2:3:0:0:
267,215,140230,1,2,2:3:0:0:
267,215,140313,2,0,L|284:126,1,90,8|2,2:0|2:3,2:0:0:0:
314,23,140646,102,0,L|225:41,1,90,0|2,3:0|2:3,2:0:0:0:
181,161,140980,2,0,L|92:179,1,90,8|2,2:0|2:3,2:0:0:0:
92,179,141230,1,2,2:3:0:0:
92,179,141313,5,0,3:0:0:0:
225,41,141480,1,2,2:3:0:0:
225,41,141563,1,2,2:3:0:0:
225,41,141646,1,8,2:0:0:0:
43,9,141813,1,2,2:3:0:0:
181,161,141980,102,0,P|180:205|161:246,1,90,0|2,3:0|2:3,2:0:0:0:
13,210,142313,2,0,P|13:165|32:124,1,90,8|2,2:0|2:3,2:0:0:0:
125,89,142646,1,0,3:0:0:0:
161,246,142813,1,2,2:3:0:0:
161,246,142896,1,2,2:3:0:0:
161,246,142980,1,8,2:0:0:0:
326,212,143146,2,0,L|337:158,1,45,10|10,2:3|2:3,2:0:0:0:
404,20,143313,5,6,3:1:0:0:
465,72,143480,1,2,2:0:0:0:
322,53,143646,101,6,3:1:0:0:
344,151,143813,1,2,2:0:0:0:
227,45,143980,6,0,L|217:98,1,45,6|0,3:1|2:0,2:0:0:0:
198,199,144146,1,0,3:0:0:0:
141,17,144313,102,0,L|98:62,1,45,2|0,3:1|2:0,2:0:0:0:
10,132,144480,1,8,2:0:0:0:
10,132,144563,1,8,2:0:0:0:
10,132,144646,1,4,3:1:0:0:
260,181,145480,5,10,2:3:0:0:
256,192,145646,1,10,2:3:0:0:
253,201,145813,1,10,2:3:0:0:
260,285,145980,101,6,2:0:0:0:
256,192,146146,12,2,148646,2:0:0:0:
256,192,151313,12,0,153980,3:0:0:0:
256,192,154063,12,8,154646,2:0:0:0:
256,192,154730,12,0,155313,2:0:0:0:
256,192,155396,12,10,155980,2:3:0:0:
291,279,156146,5,10,2:3:0:0:
256,192,156313,1,10,2:3:0:0:
220,104,156480,1,10,3:0:0:0:
220,104,156563,1,2,3:0:0:0:
220,104,156646,2,0,P|231:60|240:16,1,90,4|2,3:1|2:3,2:0:0:0:
153,178,156980,2,0,P|109:189|67:204,1,90,8|2,2:0|2:3,2:0:0:0:
256,192,157313,2,0,P|287:223|321:253,1,90,0|2,3:0|2:3,2:0:0:0:
321,253,157563,1,2,2:3:0:0:
321,253,157646,1,8,2:0:0:0:
134,98,157813,101,2,2:3:0:0:
134,98,157896,1,2,2:3:0:0:
134,98,157980,1,0,3:0:0:0:
318,129,158146,1,2,2:3:0:0:
318,129,158230,1,2,2:3:0:0:
318,129,158313,1,8,2:0:0:0:
191,302,158480,2,0,L|201:242,1,45,2|2,2:3|2:3,2:0:0:0:
220,104,158646,1,0,3:0:0:0:
398,187,158813,5,2,2:3:0:0:
398,187,158896,1,2,2:3:0:0:
398,187,158980,2,0,P|441:198|485:207,1,90,8|2,2:0|2:3,2:0:0:0:
191,302,159313,102,0,P|124:285|58:273,1,135,0|0,3:2|2:0,2:0:0:0:
59,273,159646,1,8,2:0:0:0:
162,198,159813,1,2,2:3:0:0:
165,189,159896,1,2,2:3:0:0:
169,177,159980,1,0,3:0:0:0:
285,282,160146,1,2,2:3:0:0:
285,282,160230,1,2,2:3:0:0:
285,282,160313,2,0,P|280:326|268:369,1,90,8|2,2:0|2:3,2:0:0:0:
64,189,160646,6,0,P|68:144|80:101,1,90,0|2,3:0|2:3,2:0:0:0:
112,111,160896,1,2,2:3:0:0:
146,111,160980,1,8,2:3:0:0:
178,100,161063,1,2,2:3:0:0:
205,80,161146,1,2,2:3:0:0:
128,19,161313,1,0,3:0:0:0:
174,192,161480,1,2,2:3:0:0:
332,148,161646,2,0,P|317:103|307:61,1,90,8|2,2:0|2:3,2:0:0:0:
308,54,161896,1,2,2:3:0:0:
314,46,161980,102,0,P|373:34|410:23,1,90,4|2,3:2|2:3,2:0:0:0:
174,192,162313,2,0,P|129:207|87:216,1,90,8|2,2:0|2:3,2:0:0:0:
80,216,162563,1,2,2:3:0:0:
72,210,162646,2,0,P|60:151|49:114,1,90,4|2,3:2|2:3,2:0:0:0:
273,249,162980,2,0,P|288:294|297:335,1,90,8|2,2:0|2:3,2:0:0:0:
296,345,163230,1,2,2:3:0:0:
291,351,163313,2,0,P|232:363|195:374,1,90,4|2,3:2|2:3,2:0:0:0:
203,371,163563,1,2,2:3:0:0:
203,371,163646,1,8,2:0:0:0:
378,252,163813,6,0,P|437:240|474:229,1,90,2|4,2:3|3:2,2:0:0:0:
438,120,164146,1,2,2:3:0:0:
406,76,164230,1,2,2:3:0:0:
354,92,164313,1,8,2:0:0:0:
354,146,164396,1,2,2:3:0:0:
406,163,164480,1,2,2:3:0:0:
279,21,164646,102,0,P|204:37|168:39,1,90,4|2,3:2|2:3,2:0:0:0:
181,34,164896,1,2,2:3:0:0:
169,29,164980,2,0,P|174:73|186:117,1,90,8|2,2:0|2:3,2:0:0:0:
121,205,165313,1,0,3:0:0:0:
1,68,165480,1,2,2:3:0:0:
1,68,165563,1,2,2:3:0:0:
1,68,165646,2,0,P|12:111|18:156,1,90,8|2,2:0|2:3,2:0:0:0:
0,374,165980,5,0,3:0:0:0:
137,285,166146,1,2,2:3:0:0:
49,300,166313,1,8,2:0:0:0:
220,334,166480,1,2,2:3:0:0:
220,334,166563,1,2,2:3:0:0:
220,334,166646,101,0,3:0:0:0:
333,259,166813,1,2,3:0:0:0:
333,259,166896,1,2,3:0:0:0:
333,259,166980,1,2,3:2:0:0:
463,298,167146,1,2,3:0:0:0:
333,259,167313,86,0,P|338:213|344:169,1,90,12|2,2:1|2:3,2:0:0:0:
179,125,167646,2,0,P|174:171|167:214,1,90,8|2,2:0|2:3,2:0:0:0:
256,192,167980,1,8,2:0:0:0:
167,214,168313,6,0,P|174:169|179:125,1,90,8|2,2:0|2:3,2:0:0:0:
344,169,168646,2,0,P|337:214|333:259,1,90,8|2,2:0|2:3,2:0:0:0:
256,192,168980,1,8,2:0:0:0:
272,107,169313,101,12,2:0:0:0:
244,284,169480,1,10,2:3:0:0:
244,284,169563,1,10,2:3:0:0:
244,284,169646,2,0,P|198:306|157:310,1,90,0|2,3:0|3:0,2:0:0:0:
62,372,169980,6,0,L|38:184,1,180,14|10,2:0|2:0,2:0:0:0:
161,310,170480,1,2,2:3:0:0:
39,193,170646,2,0,P|98:227|138:215,1,90,10|2,2:0|2:3,2:0:0:0:
244,284,170980,2,0,P|302:249|312:209,1,90,10|2,2:0|2:3,2:0:0:0:
310,232,171230,1,2,2:3:0:0:
310,232,171313,102,0,P|356:245|397:253,1,90,10|2,2:1|2:3,2:0:0:0:
226,193,171646,2,0,P|214:146|200:106,1,90,10|2,2:1|2:3,2:0:0:0:
233,279,171980,2,0,P|198:312|171:344,1,90,10|2,2:1|2:3,2:0:0:0:
171,344,172230,1,2,2:3:0:0:
171,344,172313,1,12,2:0:0:0:
233,280,172480,85,2,2:3:0:0:
233,280,172563,1,2,2:3:0:0:
233,280,172646,2,0,P|278:273|323:269,1,90,4|2,3:2|2:3,2:0:0:0:
278,103,172980,2,0,P|233:110|189:115,1,90,10|2,2:0|2:3,2:0:0:0:
256,192,173313,1,2,3:2:0:0:
188,115,173646,6,0,P|233:110|278:104,1,90,8|2,2:0|2:3,2:0:0:0:
322,269,173980,2,0,P|277:274|233:281,1,90,2|2,3:2|2:3,2:0:0:0:
256,192,174313,1,8,2:0:0:0:
512,112,174646,101,0,3:0:0:0:
413,92,174813,1,2,3:0:0:0:
413,92,174896,1,10,2:3:0:0:
413,92,174980,1,8,2:0:0:0:
388,189,175146,1,10,2:3:0:0:
388,189,175230,1,10,2:3:0:0:
388,189,175313,6,0,P|399:230|406:277,1,90,4|2,3:2|2:3,2:0:0:0:
512,112,175646,2,0,P|501:71|493:23,1,90,8|2,2:0|2:3,2:0:0:0:
413,92,175980,2,0,P|351:52|248:55,1,180,0|8,3:0|2:0,2:0:0:0:
181,108,176480,1,2,2:3:0:0:
30,65,176646,102,0,P|76:61|119:52,1,90,0|2,3:0|2:3,2:0:0:0:
143,189,176980,2,0,P|97:193|53:201,1,90,8|2,2:0|2:3,2:0:0:0:
54,201,177230,1,2,2:3:0:0:
54,201,177313,2,0,P|62:245|66:289,1,90,0|2,3:0|3:0,2:0:0:0:
204,384,177646,2,0,P|196:340|192:296,1,90,12|2,2:0|2:3,2:0:0:0:
273,183,177980,1,0,3:0:0:0:
508,333,178313,37,8,2:0:0:0:
460,269,178480,1,2,2:0:0:0:
379,249,178646,1,0,3:0:0:0:
301,273,178813,1,2,2:0:0:0:
301,273,178896,1,2,2:0:0:0:
301,273,178980,102,0,P|250:281|212:259,1,90,8|2,2:0|2:0,2:0:0:0:
58,109,179313,2,0,P|103:132|121:172,1,90,0|2,3:0|2:0,2:0:0:0:
158,384,179646,2,0,P|134:337|143:295,1,90,8|2,2:0|2:0,2:0:0:0:
238,102,179980,2,0,P|229:152|197:182,1,90,0|2,3:0|2:0,2:0:0:0:
7,283,180313,2,0,P|43:246|87:241,1,90,8|2,2:0|2:0,2:0:0:0:
79,240,180563,1,2,2:0:0:0:
79,240,180646,1,2,3:0:0:0:
246,197,182813,86,0,L|255:153,1,45,2|0,3:1|2:0,2:0:0:0:
251,204,182980,2,0,L|260:160,1,45,2|0,3:1|2:0,2:0:0:0:
257,211,183146,2,0,L|266:167,1,45,0|0,3:2|2:0,2:0:0:0:
222,71,183313,53,10,2:1:0:0:
288,311,183480,1,10,2:1:0:0:
194,298,183980,5,10,2:1:0:0:
317,82,184146,1,10,2:1:0:0:
377,158,184646,101,10,2:1:0:0:
137,224,184813,1,10,2:1:0:0:
149,130,185313,5,10,2:1:0:0:
365,253,185480,1,10,2:1:0:0:
256,192,185813,101,2,3:0:0:0:
256,192,185896,1,2,3:0:0:0:
256,192,185980,1,4,3:2:0:0:
255,75,187313,6,0,P|211:87|167:94,1,90,12|6,2:1|2:3,2:0:0:0:
373,191,187563,1,4,2:3:0:0:
373,191,187646,2,0,P|360:147|353:103,1,90,12|6,2:0|2:3,2:0:0:0:
257,309,187896,1,4,2:3:0:0:
257,309,187980,2,0,P|300:296|344:289,1,90,12|6,2:0|2:3,2:0:0:0:
139,193,188230,1,4,2:3:0:0:
139,193,188313,2,0,P|151:236|158:280,1,90,12|6,2:1|2:3,2:0:0:0:
239,322,188646,101,4,3:1:0:0:
377,141,188813,1,2,2:3:0:0:
377,141,188896,1,2,2:3:0:0:
377,141,188980,1,10,2:0:0:0:
151,112,189146,1,2,2:3:0:0:
360,271,189313,5,0,3:1:0:0:
273,61,189480,1,2,2:3:0:0:
273,61,189563,1,2,2:3:0:0:
273,61,189646,1,10,2:0:0:0:
135,242,189813,1,2,2:3:0:0:
377,141,189980,101,0,3:1:0:0:
151,112,190146,1,2,2:3:0:0:
151,112,190230,1,2,2:3:0:0:
151,112,190313,1,10,2:0:0:0:
239,322,190480,1,2,2:3:0:0:
256,192,190646,5,4,3:2:0:0:
135,242,190813,2,0,P|94:253|47:261,1,90,2|10,2:3|2:3,2:0:0:0:
389,378,191146,2,0,P|430:367|476:358,1,90,2|4,2:3|3:2,2:0:0:0:
447,116,191480,101,2,2:3:0:0:
385,100,191563,1,2,2:3:0:0:
333,136,191646,1,8,2:0:0:0:
378,203,191813,5,2,2:3:0:0:
404,184,191896,1,2,2:3:0:0:
437,193,191980,1,0,3:0:0:0:
428,279,192146,101,2,2:3:0:0:
428,279,192230,1,2,2:3:0:0:
428,279,192313,1,8,2:0:0:0:
249,169,192480,2,0,P|246:123|261:81,1,90,2|0,2:3|3:0,2:0:0:0:
302,263,192813,2,0,P|307:286|305:307,1,45,2|0,2:3|2:0,2:0:0:0:
233,349,192980,2,0,P|194:374|150:381,1,90,8|2,2:0|2:3,2:0:0:0:
11,236,193313,5,2,3:1:0:0:
54,224,193396,1,2,2:3:0:0:
98,231,193480,1,2,3:0:0:0:
136,254,193563,1,2,3:0:0:0:
162,291,193646,1,10,2:1:0:0:
34,126,193813,101,2,3:0:0:0:
34,126,193896,1,2,2:3:0:0:
34,126,193980,2,0,L|50:37,1,90,4|2,3:1|2:3,2:0:0:0:
227,164,194313,2,0,L|243:75,1,90,8|2,2:0|2:3,2:0:0:0:
130,143,194646,5,0,3:0:0:0:
146,54,194813,1,2,2:3:0:0:
322,185,194980,101,8,2:0:0:0:
338,96,195146,1,2,2:3:0:0:
241,212,195313,6,0,L|156:242,1,90,4|2,3:2|2:3,2:0:0:0:
287,368,195646,2,0,L|303:279,1,90,8|2,2:0|2:3,2:0:0:0:
384,246,195980,2,0,L|452:304,1,90,0|2,3:0|2:3,2:0:0:0:
452,304,196230,1,2,2:3:0:0:
452,304,196313,1,8,2:0:0:0:
322,185,196480,101,2,2:3:0:0:
510,25,196646,6,0,P|466:54|406:47,1,90,0|2,3:0|2:3,2:0:0:0:
259,126,196980,2,0,P|255:73|291:24,1,90,8|2,2:0|2:3,2:0:0:0:
359,6,197313,1,0,3:0:0:0:
412,151,197480,1,2,2:3:0:0:
347,99,197646,1,8,2:0:0:0:
347,99,197730,1,2,2:3:0:0:
347,99,197813,1,2,2:3:0:0:
259,126,197980,102,0,P|218:141|172:150,1,90,4|2,3:2|2:3,2:0:0:0:
210,317,198313,2,0,P|217:273|232:229,1,90,8|2,2:0|2:3,2:0:0:0:
69,175,198646,2,0,P|102:203|133:237,1,90,0|2,3:0|2:3,2:0:0:0:
133,237,198896,1,2,2:3:0:0:
133,237,198980,1,8,2:0:0:0:
231,230,199146,1,2,2:3:0:0:
172,149,199313,6,0,P|186:106|193:62,1,90,0|2,3:0|2:3,2:0:0:0:
236,244,199646,2,0,P|221:286|214:330,1,90,8|2,2:0|2:3,2:0:0:0:
144,246,199980,101,0,3:0:0:0:
261,157,200146,1,2,2:3:0:0:
63,222,200313,5,8,2:0:0:0:
342,181,200480,1,2,2:3:0:0:
63,222,200646,102,0,P|27:154|32:89,1,135,0|0,3:0|2:0,2:0:0:0:
30,97,200980,2,0,P|73:90|118:81,1,90,8|2,2:0|2:3,2:0:0:0:
281,140,201313,2,0,P|309:175|339:209,1,90,4|2,3:2|2:3,2:0:0:0:
158,234,201563,1,2,2:3:0:0:
158,234,201646,2,0,P|174:192|188:149,1,90,8|10,2:0|2:3,2:0:0:0:
217,69,201896,1,10,2:3:0:0:
217,69,201980,5,6,3:1:0:0:
314,37,202146,1,2,2:0:0:0:
281,139,202313,101,6,3:1:0:0:
399,189,202480,1,2,2:0:0:0:
232,211,202646,6,0,L|253:263,1,45,6|0,3:1|2:0,2:0:0:0:
290,349,202813,1,2,3:1:0:0:
137,199,202980,102,0,L|118:269,1,45,6|0,3:1|2:0,2:0:0:0:
84,384,203146,1,8,2:0:0:0:
84,384,203230,1,8,2:0:0:0:
84,384,203313,1,6,3:1:0:0:
260,181,204146,5,10,2:3:0:0:
256,192,204313,1,10,2:3:0:0:
253,201,204480,1,10,2:3:0:0:
353,175,204646,101,4,3:1:0:0:
294,102,204813,1,2,2:3:0:0:
225,279,204980,1,8,2:0:0:0:
319,263,205146,1,2,2:3:0:0:
200,117,205313,1,0,3:0:0:0:
167,205,205480,2,0,L|116:216,3,30,2|2|2|8,2:3|2:3|2:3|2:0,2:0:0:0:
294,102,205813,1,2,2:3:0:0:
319,263,205980,6,0,P|359:298|401:305,1,90,0|2,3:0|2:3,2:0:0:0:
167,205,206313,2,0,P|116:222|89:255,1,90,8|2,2:0|2:3,2:0:0:0:
294,102,206646,2,0,P|304:49|289:9,1,90,0|2,3:0|2:3,2:0:0:0:
256,192,206980,101,8,2:0:0:0:
353,175,207146,1,2,2:3:0:0:
353,175,207230,1,2,2:3:0:0:
353,175,207313,2,0,L|441:161,1,90,4|2,3:2|2:3,2:0:0:0:
225,279,207646,2,0,L|192:362,1,90,8|2,2:0|2:3,2:0:0:0:
200,117,207980,2,0,L|143:46,1,90,0|2,3:0|2:3,2:0:0:0:
139,37,208202,2,0,L|142:2,2,30,2|2|8,2:3|2:3|2:0,2:0:0:0:
118,194,208480,1,2,2:3:0:0:
0,127,208646,6,0,P|50:120|88:113,1,90,0|2,3:0|2:3,2:0:0:0:
204,207,208980,2,0,P|248:199|292:193,1,90,8|2,2:0|2:3,2:0:0:0:
292,193,209230,1,2,2:3:0:0:
292,193,209313,1,0,3:0:0:0:
71,277,209480,1,2,2:3:0:0:
71,277,209563,1,2,2:3:0:0:
71,277,209646,1,8,2:0:0:0:
408,143,209980,101,4,3:2:0:0:
494,176,210146,1,2,2:3:0:0:
391,141,210313,1,8,2:0:0:0:
316,202,210480,1,2,2:3:0:0:
400,127,210646,1,0,3:2:0:0:
384,34,210813,2,0,L|375:-16,3,30,2|2|2|8,2:3|2:3|2:3|2:0,2:0:0:0:
416,230,211146,5,2,2:3:0:0:
297,105,211313,2,0,P|276:65|277:12,1,90,0|2,3:0|2:3,2:0:0:0:
343,293,211646,2,0,P|318:331|272:356,1,90,8|2,2:0|2:3,2:0:0:0:
3,281,211980,2,0,L|154:256,1,135,0|0,3:0|2:0,2:0:0:0:
136,258,212313,2,0,L|157:157,1,90,8|2,2:0|2:3,2:0:0:0:
177,77,212646,101,4,3:2:0:0:
86,106,212813,1,2,2:3:0:0:
86,106,212896,1,2,2:3:0:0:
86,106,212980,1,8,2:0:0:0:
106,10,213146,1,2,2:3:0:0:
177,77,213313,5,0,3:0:0:0:
249,149,213480,1,2,2:3:0:0:
249,149,213563,1,2,2:3:0:0:
249,149,213646,1,8,2:0:0:0:
269,53,213813,1,2,2:3:0:0:
155,170,213980,102,0,L|136:258,1,90,0|2,3:0|2:3,2:0:0:0:
249,149,214313,2,0,L|315:209,1,90,8|2,2:0|2:3,2:0:0:0:
269,53,214646,2,0,L|354:25,1,90,0|2,3:0|2:3,2:0:0:0:
424,96,214980,5,10,2:0:0:0:
419,117,215063,1,2,2:3:0:0:
414,139,215146,1,2,2:3:0:0:
409,161,215230,1,2,2:3:0:0:
405,183,215313,1,4,3:2:0:0:
256,192,215396,12,2,216646,2:0:0:0:
57,239,216980,85,4,3:2:0:0:
455,145,217313,1,4,3:2:0:0:
256,192,217646,101,8,2:0:0:0:
