osu file format v14

[General]
AudioFilename: audio.mp3
AudioLeadIn: 0
PreviewTime: 563
Countdown: 0
SampleSet: Soft
StackLeniency: 0.5
Mode: 0
LetterboxInBreaks: 0
WidescreenStoryboard: 1

[Editor]
Bookmarks: 647,1980,12646,23313,44646,57980,79313,89980,111313,124646,145980,156646,167313,183313,188646,204646,217646
DistanceSpacing: 1
BeatDivisor: 4
GridSize: 16
TimelineZoom: 1.7

[Metadata]
Title:Kyun Kyun MIKO Kyun kyun <3
TitleUnicode:きゅんきゅんみこきゅんきゅん♡
Artist:Sakura Miko
ArtistUnicode:さくらみこ
Creator:Left
Version:AF's Insane
Source:
Tags:Amateurre Shizuku- Kazato Asa Shikibe Mayu Ayesha Altugle Affirmation みこち Mikochi 35p ホロライブ hololive vtuber virtual youtuber original japanese pop jpop j-pop
BeatmapID:4523846
BeatmapSetID:2146215

[Difficulty]
HPDrainRate:5
CircleSize:4
OverallDifficulty:7.8
ApproachRate:9
SliderMultiplier:1
SliderTickRate:1

[Events]
//Background and Video events
0,0,"miko.jpg",0,0
Video,0,"optc.flv"
//Break Periods
2,146180,154713
//Storyboard Layer 0 (Background)
//Storyboard Layer 1 (Fail)
//Storyboard Layer 2 (Pass)
//Storyboard Layer 3 (Foreground)
//Storyboard Layer 4 (Overlay)
//Storyboard Sound Samples

[TimingPoints]
647,333.333333333333,4,2,7,70,1,0
1980,-71.4285714285714,4,2,7,70,0,0
9980,-71.4285714285714,4,2,7,75,0,0
10313,-71.4285714285714,4,2,7,80,0,0
10646,-71.4285714285714,4,2,7,90,0,0
12146,-71.4285714285714,4,2,7,80,0,0
12229,-71.4285714285714,4,2,7,5,0,0
12313,-71.4285714285714,4,2,7,80,0,0
12396,-71.4285714285714,4,2,7,5,0,0
12480,-71.4285714285714,4,2,7,80,0,0
12563,-71.4285714285714,4,2,7,5,0,0
12646,-61.7283950617284,4,2,7,80,0,0
22896,-61.7283950617284,4,2,7,5,0,0
22980,-61.7283950617284,4,2,7,80,0,0
23063,-61.7283950617284,4,2,7,5,0,0
23146,-61.7283950617284,4,2,7,80,0,0
23313,-79.3650793650794,4,2,7,80,0,0
23479,-79.3650793650794,4,2,7,75,0,0
32480,-63.2911392405063,4,2,7,75,0,0
33980,-75.7575757575758,4,2,7,75,0,0
44646,-86.2068965517241,4,2,7,70,0,0
49980,-76.9230769230769,4,2,7,75,0,0
52812,-76.9230769230769,4,2,7,60,0,0
55313,-76.9230769230769,4,2,8,60,0,0
56146,-76.9230769230769,4,2,8,65,0,0
56480,-76.9230769230769,4,2,8,70,0,0
56812,-76.9230769230769,4,2,8,75,0,0
57146,-76.9230769230769,4,2,7,80,0,0
57980,-59.5238095238095,4,2,7,80,0,1
78146,-59.5238095238095,4,2,7,5,0,1
78813,-59.5238095238095,4,2,7,80,0,1
78896,-59.5238095238095,4,2,7,5,0,1
78980,-59.5238095238095,4,2,7,80,0,1
79063,-59.5238095238095,4,2,7,5,0,1
79146,-59.5238095238095,4,2,7,80,0,1
79229,-59.5238095238095,4,2,7,5,0,1
79313,-61.7283950617284,4,2,7,80,0,0
89480,-61.7283950617284,4,2,7,75,0,0
89563,-61.7283950617284,4,2,7,5,0,0
89646,-61.7283950617284,4,2,7,75,0,0
89729,-61.7283950617284,4,2,7,5,0,0
89813,-61.7283950617284,4,2,7,75,0,0
89980,-79.3650793650794,4,2,7,75,0,0
99146,-63.2911392405063,4,2,7,75,0,0
100646,-75.7575757575758,4,2,7,75,0,0
105230,-75.7575757575758,4,2,7,5,0,0
105313,-75.7575757575758,4,2,7,75,0,0
111313,-86.2068965517241,4,2,7,75,0,0
111393,-86.2068965517241,4,2,7,70,0,0
116646,-76.9230769230769,4,2,7,75,0,0
119479,-76.9230769230769,4,2,7,60,0,0
121980,-76.9230769230769,4,2,8,60,0,0
122813,-76.9230769230769,4,2,8,65,0,0
123146,-76.9230769230769,4,2,8,70,0,0
123313,-76.9230769230769,4,2,8,75,0,0
123813,-76.9230769230769,4,2,7,80,0,0
124646,-59.5238095238095,4,2,7,80,0,1
144812,-59.5238095238095,4,2,7,5,0,1
145480,-59.5238095238095,4,2,7,80,0,1
145563,-59.5238095238095,4,2,7,5,0,1
145646,-59.5238095238095,4,2,7,80,0,1
145729,-59.5238095238095,4,2,7,5,0,1
145813,-59.5238095238095,4,2,7,80,0,1
145896,-59.5238095238095,4,2,7,5,0,1
145980,-59.5238095238095,4,2,7,80,0,0
155313,-94.3396226415094,4,2,7,60,0,0
155979,-94.3396226415094,4,2,7,65,0,0
156146,-94.3396226415094,4,2,7,70,0,0
156313,-94.3396226415094,4,2,7,75,0,0
156646,-61.7283950617284,4,2,7,75,0,0
167313,-67.5675675675676,4,2,7,75,0,0
168230,-67.5675675675676,4,2,7,5,0,0
168313,-67.5675675675676,4,2,7,75,0,0
169230,-67.5675675675676,4,2,7,5,0,0
169313,-67.5675675675676,4,2,7,75,0,0
170230,-67.5675675675676,4,2,7,5,0,0
170313,-67.5675675675676,4,2,7,75,0,0
173563,-67.5675675675676,4,2,7,5,0,0
173646,-67.5675675675676,4,2,7,75,0,0
174563,-67.5675675675676,4,2,7,5,0,0
174646,-67.5675675675676,4,2,7,75,0,0
177980,-76.9230769230769,4,2,7,75,0,0
178146,-76.9230769230769,4,2,7,60,0,0
180646,-76.9230769230769,4,2,8,60,0,0
181813,-76.9230769230769,4,2,8,65,0,0
182313,-76.9230769230769,4,2,8,70,0,0
182480,-76.9230769230769,4,2,7,75,0,0
182813,-76.9230769230769,4,2,7,80,0,0
185813,-59.5238095238095,4,2,7,80,0,0
187313,-59.5238095238095,4,2,7,70,0,0
187646,-59.5238095238095,4,2,7,75,0,0
187729,-59.5238095238095,4,2,7,5,0,0
187813,-59.5238095238095,4,2,7,70,0,0
187980,-59.5238095238095,4,2,7,80,0,0
188396,-59.5238095238095,4,2,7,5,0,0
188480,-59.5238095238095,4,2,7,80,0,0
188646,-59.5238095238095,4,2,7,80,0,1
203479,-59.5238095238095,4,2,7,5,0,1
204146,-59.5238095238095,4,2,7,80,0,1
204229,-59.5238095238095,4,2,7,5,0,1
204313,-59.5238095238095,4,2,7,80,0,1
204396,-59.5238095238095,4,2,7,5,0,1
204480,-59.5238095238095,4,2,7,80,0,1
204563,-59.5238095238095,4,2,7,5,0,1
204646,-61.7283950617284,4,2,7,80,0,0
217230,-61.7283950617284,4,2,7,5,0,0
217313,-61.7283950617284,4,2,7,80,0,0
217563,-61.7283950617284,4,2,7,5,0,0
217646,-61.7283950617284,4,2,7,80,0,0

[Colours]
Combo1 : 163,222,254
Combo2 : 100,100,100
Combo3 : 222,222,222
Combo4 : 253,89,118
Combo5 : 254,194,205
Combo6 : 255,232,153
Combo7 : 217,157,0
Combo8 : 210,255,117

[HitObjects]
135,190,647,21,2,2:0:0:0:
215,231,980,1,2,2:0:0:0:
278,167,1313,1,10,2:0:0:0:
196,102,1480,101,0,3:0:0:0:
197,114,1563,1,0,3:0:0:0:
198,126,1646,1,8,2:0:0:0:
414,278,1980,86,0,P|441:215|412:153,2,140,2|10|2,3:2|2:0|3:2,2:0:0:0:
339,317,2813,1,2,2:0:0:0:
339,317,2980,1,10,2:0:0:0:
81,222,3313,6,0,B|127:215|127:215|168:237|168:237|214:230,1,140,2|10,3:1|2:1,2:0:0:0:
295,197,3980,1,2,3:1:0:0:
223,240,4146,1,0,2:0:0:0:
272,306,4313,2,0,P|266:340|263:375,1,70,10|0,2:1|2:0,2:0:0:0:
383,261,4646,102,0,P|373:191|361:122,2,140,2|10|2,3:2|2:0|3:2,2:0:0:0:
441,322,5480,1,2,2:0:0:0:
441,322,5646,1,10,2:0:0:0:
188,346,5980,6,0,P|127:317|118:251,1,140,2|10,3:1|2:1,2:0:0:0:
184,189,6646,1,2,3:1:0:0:
141,116,6813,1,0,2:0:0:0:
203,59,6980,2,0,P|237:65|272:69,1,70,10|0,2:1|2:0,2:0:0:0:
393,23,7313,102,0,P|399:57|403:92,1,70,2|0,3:1|2:0,2:0:0:0:
350,157,7646,2,0,P|353:191|360:226,1,70,10|0,2:1|2:0,2:0:0:0:
445,228,7980,1,2,3:1:0:0:
490,157,8146,1,2,2:0:0:0:
422,107,8313,2,0,P|418:72|411:37,1,70,10|0,2:1|2:0,2:0:0:0:
261,100,8646,6,0,P|254:134|250:169,1,70,2|0,3:1|2:0,2:0:0:0:
304,234,8980,2,0,P|300:268|293:303,1,70,10|0,2:1|2:0,2:0:0:0:
209,305,9313,1,10,2:1:0:0:
164,234,9480,1,2,2:0:0:0:
232,184,9646,2,0,P|235:149|242:114,1,70,10|0,2:1|3:0,2:0:0:0:
384,155,9980,37,4,3:1:0:0:
79,211,10313,1,4,3:2:0:0:
384,155,10646,1,0,3:2:0:0:
232,184,10813,1,0,3:0:0:0:
79,211,10980,1,4,3:2:0:0:
406,339,11313,6,0,L|475:327,1,70,4|0,3:1|2:0,2:0:0:0:
485,337,12146,2,0,L|490:302,1,35,10|0,2:3|2:0,2:0:0:0:
456,225,12313,2,0,L|461:190,1,35,10|0,2:3|2:0,2:0:0:0:
427,113,12480,2,0,L|432:78,1,35,10|0,2:3|2:0,2:0:0:0:
371,20,12646,102,0,P|332:30|293:39,1,81,4|2,3:1|2:3,2:0:0:0:
244,104,12980,2,0,P|204:112|165:123,1,81,8|2,2:0|2:3,2:0:0:0:
122,228,13313,1,0,3:0:0:0:
152,303,13480,2,0,L|154:330,3,27,2|2|2|8,2:3|2:3|2:3|2:0,2:0:0:0:
125,217,13813,1,2,2:3:0:0:
292,254,13980,6,0,P|302:215|305:174,1,81,0|2,3:0|2:3,2:0:0:0:
193,54,14313,2,0,P|182:92|179:133,1,81,8|2,2:0|2:3,2:0:0:0:
227,198,14646,1,0,3:0:0:0:
227,198,14980,1,8,2:0:0:0:
189,269,15146,1,2,2:3:0:0:
246,326,15313,102,0,P|323:304|402:283,1,162,0|8,3:0|2:0,2:0:0:0:
446,214,15813,1,2,2:3:0:0:
321,268,15980,1,0,3:0:0:0:
495,310,16146,2,0,L|497:283,3,27,2|2|2|8,2:3|2:3|2:3|2:0,2:0:0:0:
446,214,16480,1,2,2:3:0:0:
295,349,16646,6,0,P|334:358|373:353,1,81,0|2,3:0|2:3,2:0:0:0:
423,289,16980,1,8,2:0:0:0:
299,166,17146,1,2,2:3:0:0:
147,270,17313,1,0,3:0:0:0:
242,287,17480,1,2,2:3:0:0:
240,276,17563,1,2,2:3:0:0:
239,266,17646,1,10,2:0:0:0:
424,268,17980,102,0,P|384:257|345:248,1,81,4|2,3:2|2:3,2:0:0:0:
289,189,18313,2,0,P|249:180|210:169,1,81,8|0,2:0|2:3,2:0:0:0:
166,55,18646,1,0,3:2:0:0:
93,88,18813,2,0,L|67:86,3,27,2|2|2|8,2:3|2:3|2:3|2:0,2:0:0:0:
177,65,19146,1,2,2:3:0:0:
344,34,19313,6,0,P|354:72|357:113,1,81,0|2,3:0|2:3,2:0:0:0:
245,234,19646,2,0,P|234:195|231:154,1,81,8|2,2:0|2:3,2:0:0:0:
424,268,19980,1,0,3:0:0:0:
424,268,20313,1,8,2:0:0:0:
321,184,20480,1,2,2:3:0:0:
168,280,20646,102,0,L|88:268,1,81,0|2,3:0|2:3,2:0:0:0:
50,251,20896,1,2,2:3:0:0:
50,250,20980,2,0,P|43:211|45:170,1,81,8|2,2:0|2:3,2:0:0:0:
249,314,21313,2,0,P|251:273|244:233,1,81,0|2,3:0|2:3,2:0:0:0:
218,201,21563,1,2,2:3:0:0:
218,201,21646,2,0,L|206:121,1,81,8|2,2:0|2:3,2:0:0:0:
346,29,21980,6,0,L|332:190,2,162,0|8|0,3:2|2:0|3:0,2:0:0:0:
205,120,22813,2,0,L|244:110,1,40.5,10|0,2:1|2:0,2:0:0:0:
110,48,22980,2,0,L|149:38,1,40.5,10|0,2:1|2:0,2:0:0:0:
63,148,23146,1,2,3:1:0:0:
133,227,23313,70,0,P|131:258|127:289,1,63,4|0,3:2|2:0,2:0:0:0:
48,314,23646,2,0,P|44:282|42:251,1,63,8|0,2:0|2:0,2:0:0:0:
213,182,23980,2,0,P|216:213|218:244,1,63,0|0,3:2|2:0,2:0:0:0:
331,334,24480,6,0,P|368:283|388:223,1,126,2|0,2:0|2:0,2:0:0:0:
311,194,24980,2,0,P|312:225|316:256,1,63,8|0,2:0|2:0,2:0:0:0:
462,342,25313,2,0,P|460:310|456:279,1,63,0|0,3:2|2:0,2:0:0:0:
303,31,25813,101,2,2:0:0:0:
293,112,25980,2,0,P|324:109|355:103,1,63,2|0,3:2|2:0,2:0:0:0:
396,31,26313,2,0,P|365:24|333:22,1,63,8|0,2:0|2:0,2:0:0:0:
248,185,26646,2,0,P|278:191|310:193,1,63,0|0,3:2|2:0,2:0:0:0:
105,36,27146,6,0,P|127:94|136:156,1,126,2|2,2:0|2:0,2:0:0:0:
61,189,27646,2,0,P|55:158|54:126,1,63,8|2,2:0|2:0,2:0:0:0:
204,20,27980,2,0,P|209:50|210:82,2,63,0|2|2,3:2|2:0|2:1,2:0:0:0:
204,20,28480,1,0,2:0:0:0:
268,164,28646,102,0,P|299:157|330:151,1,63,4|2,3:2|2:0,2:0:0:0:
371,80,28980,2,0,P|339:74|309:67,1,63,8|2,2:0|2:0,2:0:0:0:
223,236,29313,2,0,P|254:241|284:248,1,63,0|2,3:0|2:0,2:0:0:0:
114,167,29813,5,2,2:0:0:0:
114,167,29980,2,0,P|107:136|106:104,1,63,0|2,3:0|2:0,2:0:0:0:
182,75,30313,2,0,P|188:105|189:137,1,63,8|0,2:0|2:3,2:0:0:0:
25,122,30646,2,0,P|25:90|32:59,1,63,0|2,3:0|2:0,2:0:0:0:
136,283,31146,101,2,2:0:0:0:
136,283,31230,1,2,2:0:0:0:
136,283,31313,2,0,P|197:294|255:319,1,126,0|8,3:0|2:0,2:0:0:0:
320,370,31813,1,2,2:0:0:0:
261,214,31980,2,0,P|235:232|213:254,2,63,0|2|10,3:0|2:0|2:0,2:0:0:0:
458,86,32480,6,0,L|449:244,1,158,4|8,3:1|2:0,2:0:0:0:
451,254,32896,1,8,2:0:0:0:
453,264,32980,1,0,3:0:0:0:
259,204,33146,101,0,3:0:0:0:
261,214,33230,1,0,3:0:0:0:
263,224,33313,1,0,3:0:0:0:
69,164,33480,5,0,3:0:0:0:
71,174,33563,1,0,3:0:0:0:
73,184,33646,1,8,2:0:0:0:
259,204,33813,101,0,3:0:0:0:
449,243,33980,70,0,P|495:198|498:134,1,132,4|8,3:2|2:0,2:0:0:0:
498,134,34480,1,0,2:0:0:0:
400,56,34646,2,0,P|407:88|414:121,1,66,0|0,3:0|2:0,2:0:0:0:
309,210,34980,2,0,P|341:203|374:197,1,66,8|0,2:0|2:0,2:0:0:0:
324,126,35313,101,0,3:0:0:0:
243,155,35480,2,0,P|178:169|113:182,1,132,0|0,2:0|2:0,2:0:0:0:
324,126,35980,5,4,3:2:0:0:
141,72,36146,1,8,2:0:0:0:
132,71,36230,1,8,2:0:0:0:
124,70,36313,1,0,3:0:0:0:
243,155,36480,1,8,2:0:0:0:
309,210,36646,102,0,P|303:242|302:275,1,66,4|2,3:2|2:0,2:0:0:0:
385,302,36980,2,0,P|395:236|397:170,1,132,8|0,2:0|3:0,2:0:0:0:
324,126,37480,1,2,2:0:0:0:
324,126,37646,1,8,2:0:0:0:
83,218,37980,6,0,P|51:210|22:193,2,66,0|2|8,3:0|2:0|2:3,2:0:0:0:
93,129,38646,101,2,3:2:0:0:
99,321,38813,1,8,2:0:0:0:
93,129,38980,1,8,2:0:0:0:
99,321,39146,1,8,2:0:0:0:
182,301,39313,6,0,P|178:268|175:235,1,66,4|0,3:2|2:0,2:0:0:0:
257,257,39646,2,0,P|323:246|386:228,2,132,8|0|8,2:0|3:0|2:0,2:0:0:0:
462,305,40646,102,0,P|471:239|489:176,2,132,2|10|2,3:1|2:1|3:1,2:0:0:0:
374,138,41480,1,8,2:0:0:0:
372,130,41563,1,8,2:0:0:0:
370,122,41646,1,2,3:1:0:0:
269,271,41813,1,8,2:0:0:0:
183,258,41980,6,0,P|152:268|122:281,1,66,4|0,3:2|2:0,2:0:0:0:
151,362,42313,2,0,P|215:375|281:379,1,132,8|0,2:0|3:0,2:0:0:0:
357,339,42813,1,0,2:0:0:0:
360,253,42980,2,0,P|346:223|333:192,1,66,8|0,2:0|2:0,2:0:0:0:
236,253,43313,101,0,3:0:0:0:
433,299,43480,1,8,2:3:0:0:
441,297,43563,1,8,2:3:0:0:
449,295,43646,1,0,3:0:0:0:
245,376,43813,1,8,2:3:0:0:
237,374,43896,1,8,2:3:0:0:
229,372,43980,1,4,3:2:0:0:
395,50,44313,5,8,2:0:0:0:
395,50,44396,1,2,2:0:0:0:
395,50,44480,1,2,3:2:0:0:
395,50,44563,1,2,3:2:0:0:
394,49,44646,6,0,P|405:106|401:164,1,116,4|0,3:1|2:0,2:0:0:0:
342,220,45146,1,0,3:0:0:0:
342,220,45313,2,0,L|457:232,1,116,0|10,3:0|2:3,2:0:0:0:
277,105,45980,6,0,L|161:92,1,116,0|0,3:0|2:0,2:0:0:0:
81,80,46480,1,2,3:0:0:0:
81,80,46646,1,0,3:2:0:0:
19,249,46980,2,0,P|46:240|73:229,1,58,10|2,2:3|2:0,2:0:0:0:
142,185,47313,102,0,P|192:212|201:267,1,116,0|0,3:2|2:0,2:0:0:0:
246,335,47813,1,0,3:0:0:0:
246,335,47980,2,0,P|208:344|171:355,2,77.3333333333334,0|2|2,3:0|2:0|2:0,2:0:0:0:
351,235,48646,6,0,P|403:260|430:311,1,116,0|0,3:0|2:0,2:0:0:0:
498,354,49146,1,0,3:0:0:0:
498,354,49313,2,0,P|505:296|508:238,1,116,0|10,3:0|2:3,2:0:0:0:
401,97,49980,102,0,P|391:67|382:36,1,65,4|2,3:2|2:3,2:0:0:0:
311,81,50313,2,0,P|302:112|291:142,1,65,8|2,2:0|2:3,2:0:0:0:
161,41,50646,1,0,3:0:0:0:
151,124,50813,1,2,2:3:0:0:
151,124,50980,2,0,P|183:122|215:117,1,65,8|2,2:0|2:3,2:0:0:0:
192,286,51313,6,0,P|182:254|178:222,1,65,4|2,3:2|2:3,2:0:0:0:
258,193,51646,2,0,P|267:224|271:256,1,65,8|2,2:0|2:3,2:0:0:0:
260,340,51980,1,0,3:0:0:0:
344,345,52146,1,2,3:0:0:0:
344,345,52313,1,12,2:0:0:0:
44,350,52646,22,0,P|38:318|34:285,1,65,4|2,3:2|2:0,2:0:0:0:
91,224,52980,2,0,P|147:190|192:144,1,130,8|0,2:0|3:0,2:0:0:0:
160,66,53480,1,2,2:0:0:0:
75,66,53646,2,0,P|80:97|91:128,1,65,8|2,2:0|2:0,2:0:0:0:
176,207,53980,102,0,P|186:176|192:144,1,65,0|2,3:0|2:0,2:0:0:0:
266,103,54313,2,0,P|276:167|271:231,1,130,8|0,2:0|3:0,2:0:0:0:
245,312,54813,1,2,2:0:0:0:
309,366,54980,2,0,P|321:336|328:304,1,65,8|2,2:0|2:0,2:0:0:0:
423,216,55313,5,2,3:0:0:0:
439,129,55813,1,2,3:0:0:0:
439,129,55980,1,0,3:0:0:0:
356,159,56146,1,2,3:2:0:0:
356,159,56230,1,0,3:2:0:0:
356,159,56313,1,0,3:0:0:0:
423,216,56480,1,2,3:0:0:0:
439,129,56646,102,0,P|433:96|427:65,2,65,0|2|0,3:0|2:3|3:0,2:0:0:0:
332,239,57146,1,10,2:0:0:0:
253,129,57313,85,2,3:1:0:0:
253,129,57480,1,2,3:1:0:0:
253,129,57646,1,2,3:1:0:0:
253,129,57813,1,2,3:1:0:0:
133,332,57980,54,0,P|174:335|215:325,1,84.0000000000001,4|2,3:1|2:3,2:0:0:0:
246,296,58230,1,2,2:3:0:0:
246,296,58313,2,0,P|244:254|234:213,1,84.0000000000001,8|2,2:0|2:3,2:0:0:0:
92,47,58646,2,0,P|47:88|53:149,1,126,0|2,3:0|2:3,2:0:0:0:
86,175,58980,2,0,L|167:155,1,84.0000000000001,8|2,2:0|2:3,2:0:0:0:
442,83,59313,6,0,B|400:89|363:69|368:43|331:23|290:29,1,168,0|8,3:0|2:0,2:0:0:0:
208,5,59813,2,0,P|204:46|208:88,1,84.0000000000001,2|0,2:3|3:0,2:0:0:0:
344,288,60146,1,2,2:3:0:0:
394,221,60313,1,8,2:0:0:0:
336,158,60480,2,0,P|297:173|256:183,1,84.0000000000001,2|0,2:3|3:2,2:0:0:0:
467,263,60813,102,0,P|487:181|477:98,1,168,2|2,2:3|2:3,2:0:0:0:
387,294,61313,1,0,3:0:0:0:
306,267,61480,1,2,2:3:0:0:
247,326,61646,2,0,P|212:349|180:377,1,84.0000000000001,8|2,2:0|2:3,2:0:0:0:
62,230,61980,5,0,3:0:0:0:
184,261,62146,1,2,2:3:0:0:
283,182,62313,2,0,P|278:98|252:18,1,168,8|2,2:0|3:1,2:0:0:0:
186,70,62813,1,2,2:3:0:0:
368,200,62980,2,0,P|407:186|447:174,1,84.0000000000001,10|2,2:1|2:3,2:0:0:0:
297,378,63313,102,0,P|266:350|258:309,1,84.0000000000001,4|2,3:1|2:3,2:0:0:0:
286,277,63563,1,2,2:3:0:0:
286,277,63646,2,0,P|327:285|367:295,1,84.0000000000001,8|2,2:0|2:3,2:0:0:0:
162,170,63980,2,0,P|102:183|61:229,1,126,0|2,3:0|2:3,2:0:0:0:
46,269,64313,2,0,P|51:310|60:351,1,84.0000000000001,8|2,2:0|2:3,2:0:0:0:
249,205,64646,6,0,P|267:123|278:39,1,168,0|8,3:0|2:0,2:0:0:0:
195,52,65146,1,2,2:3:0:0:
344,157,65313,1,0,3:0:0:0:
407,102,65480,2,0,P|436:72|470:47,1,84.0000000000001,2|8,2:3|2:0,2:0:0:0:
470,265,65813,102,0,P|413:204|344:157,1,168,2|2,2:3|2:3,2:0:0:0:
210,310,66313,1,8,2:0:0:0:
359,260,66480,1,2,2:3:0:0:
229,165,66646,1,0,3:0:0:0:
96,288,66813,2,0,L|107:371,1,84.0000000000001,2|8,2:3|2:0,2:0:0:0:
168,223,67146,6,0,P|190:143|198:59,1,168,2|2,2:3|2:3,2:0:0:0:
168,29,67563,1,2,2:3:0:0:
168,28,67646,2,0,P|127:39|86:47,1,84.0000000000001,8|2,2:0|2:3,2:0:0:0:
293,77,67980,2,0,P|333:66|374:58,1,84.0000000000001,2|0,3:1|3:0,2:0:0:0:
408,84,68230,1,0,3:0:0:0:
408,84,68313,2,0,P|412:125|400:165,1,84.0000000000001,10|0,2:1|3:0,2:0:0:0:
294,281,68646,101,4,3:1:0:0:
284,197,68813,1,2,2:3:0:0:
456,270,68980,1,8,2:0:0:0:
446,354,69146,1,2,2:3:0:0:
256,364,69313,2,0,P|259:322|268:281,1,84.0000000000001,0|2,3:0|2:3,2:0:0:0:
385,174,69646,2,0,P|343:177|302:186,1,84.0000000000001,8|2,2:0|2:3,2:0:0:0:
145,71,69980,1,4,3:2:0:0:
59,50,70313,6,0,P|63:91|68:133,1,84.0000000000001,8|2,2:0|2:3,2:0:0:0:
235,28,70646,2,0,P|225:111|215:194,1,168,0|8,3:0|2:0,2:0:0:0:
173,349,71313,101,0,3:2:0:0:
150,268,71480,1,2,2:3:0:0:
319,190,71646,1,8,2:0:0:0:
296,271,71813,1,2,2:3:0:0:
136,167,71980,2,0,P|177:175|214:194,1,84.0000000000001,0|2,3:0|2:3,2:0:0:0:
323,349,72313,2,0,P|315:307|295:270,1,84.0000000000001,8|2,2:0|2:3,2:0:0:0:
436,131,72646,1,4,3:2:0:0:
467,33,72980,6,0,P|425:39|384:49,1,84.0000000000001,8|2,2:0|2:3,2:0:0:0:
483,223,73313,2,0,P|400:209|318:189,1,168,0|8,3:0|2:0,2:0:0:0:
125,78,73980,101,0,3:0:0:0:
207,63,74146,1,2,2:3:0:0:
318,189,74313,1,8,2:0:0:0:
236,204,74480,1,2,2:3:0:0:
305,23,74646,2,0,P|315:64|315:106,1,84.0000000000001,0|2,3:0|2:3,2:0:0:0:
153,247,74980,2,0,P|143:206|143:164,1,84.0000000000001,8|2,2:0|2:3,2:0:0:0:
338,313,75313,1,0,3:0:0:0:
433,329,75646,6,0,P|425:287|422:245,1,84.0000000000001,8|2,2:0|2:3,2:0:0:0:
273,377,75980,1,4,3:2:0:0:
142,330,76146,1,10,2:3:0:0:
142,330,76230,1,10,2:3:0:0:
142,330,76313,2,0,P|149:288|152:246,1,84.0000000000001,0|10,3:0|2:3,2:0:0:0:
148,133,76646,101,6,3:1:0:0:
483,194,76980,1,6,3:1:0:0:
148,133,77313,1,6,3:1:0:0:
315,164,77480,1,2,3:1:0:0:
483,194,77646,1,2,3:1:0:0:
142,330,77980,6,0,L|48:319,1,84.0000000000001,6|0,3:1|2:0,2:0:0:0:
314,229,78813,102,0,P|322:210|332:192,1,42,10|0,2:3|2:0,2:0:0:0:
180,172,78980,2,0,P|188:191|198:209,1,42,10|0,2:3|2:0,2:0:0:0:
231,351,79146,2,0,P|241:332|249:313,1,42,10|0,2:3|2:0,2:0:0:0:
258,151,79313,6,0,P|218:161|179:171,1,81,4|2,3:1|2:3,2:0:0:0:
119,225,79646,2,0,P|79:214|40:204,1,81,8|2,2:0|2:3,2:0:0:0:
149,75,79980,1,0,3:0:0:0:
82,121,80146,2,0,L|55:117,3,27,2|2|2|8,2:3|2:3|2:3|2:0,2:0:0:0:
167,75,80480,1,2,2:3:0:0:
287,156,80646,102,0,P|283:196|272:235,1,81,0|2,3:0|2:3,2:0:0:0:
104,304,80980,2,0,P|107:263|118:224,1,81,8|2,2:0|2:3,2:0:0:0:
189,264,81313,1,0,3:0:0:0:
189,264,81646,1,8,2:0:0:0:
265,237,81813,1,2,2:3:0:0:
324,292,81980,6,0,P|401:292|437:224,1,162,0|8,3:0|2:0,2:0:0:0:
381,165,82480,1,2,2:3:0:0:
245,239,82646,1,0,3:0:0:0:
176,195,82813,2,0,L|149:191,3,27,2|2|2|8,2:3|2:3|2:3|2:0,2:0:0:0:
260,230,83146,1,2,2:3:0:0:
355,154,83313,102,0,P|346:114|342:74,1,81,0|2,3:0|2:3,2:0:0:0:
270,114,83646,1,8,2:0:0:0:
435,238,83813,1,2,2:3:0:0:
273,363,83980,1,0,3:0:0:0:
348,333,84146,1,2,2:3:0:0:
346,323,84230,1,2,2:3:0:0:
344,313,84313,1,8,2:0:0:0:
229,139,84646,6,0,P|268:149|307:159,1,81,4|2,3:2|2:3,2:0:0:0:
368,213,84980,2,0,P|407:202|446:192,1,81,8|2,2:0|2:3,2:0:0:0:
338,63,85313,1,0,3:0:0:0:
405,109,85480,2,0,L|431:105,3,27,2|2|2|8,2:3|2:3|2:3|2:0,2:0:0:0:
320,63,85813,1,2,2:3:0:0:
200,157,85980,102,0,P|194:197|201:236,1,81,0|2,3:0|2:3,2:0:0:0:
369,292,86313,2,0,P|374:251|367:212,1,81,8|2,2:0|2:3,2:0:0:0:
141,338,86646,1,0,3:0:0:0:
141,338,86980,1,8,2:0:0:0:
280,270,87146,1,2,2:3:0:0:
384,372,87313,6,0,P|424:378|464:382,1,81,0|2,3:0|2:3,2:0:0:0:
499,361,87563,1,2,2:3:0:0:
499,361,87646,2,0,P|505:321|495:282,1,81,8|2,2:0|2:3,2:0:0:0:
391,51,87980,2,0,P|380:89|387:129,1,81,0|2,3:0|2:3,2:0:0:0:
416,157,88230,1,2,2:3:0:0:
416,157,88313,2,0,L|496:146,1,81,8|2,2:0|2:3,2:0:0:0:
280,270,88646,102,0,P|200:255|135:208,2,162,0|8|0,3:0|2:0|3:0,2:0:0:0:
290,128,89480,2,0,P|280:145|274:164,1,40.5,10|0,2:1|2:0,2:0:0:0:
372,247,89646,2,0,P|365:227|356:210,1,40.5,10|0,2:1|2:0,2:0:0:0:
300,348,89813,1,2,3:1:0:0:
202,282,89980,86,0,P|171:289|142:301,1,63,4|2,3:2|2:0,2:0:0:0:
77,352,90313,2,0,P|48:339|17:333,1,63,8|2,2:0|2:0,2:0:0:0:
88,174,90646,2,0,P|100:202|106:233,1,63,0|2,3:0|2:0,2:0:0:0:
335,334,91146,5,2,2:0:0:0:
335,334,91313,2,0,P|328:303|316:274,1,63,0|2,3:0|2:0,2:0:0:0:
309,192,91646,2,0,P|279:204|249:210,1,63,8|2,2:0|2:0,2:0:0:0:
409,275,91980,2,0,P|438:262|468:256,1,63,0|2,3:0|2:0,2:0:0:0:
301,37,92480,101,2,2:0:0:0:
300,36,92646,2,0,P|310:65|319:95,1,63,0|2,3:0|2:0,2:0:0:0:
392,137,92980,2,0,P|402:107|411:77,1,63,8|2,2:0|2:0,2:0:0:0:
249,172,93313,2,0,P|279:181|308:191,1,63,0|2,3:0|2:0,2:0:0:0:
171,100,93813,6,0,P|117:133|55:143,1,126,2|2,2:0|2:0,2:0:0:0:
24,67,94313,2,0,P|55:61|86:58,1,63,8|2,2:0|2:0,2:0:0:0:
163,214,94646,2,0,P|131:219|100:222,2,63,0|2|2,3:0|2:0|2:1,2:0:0:0:
163,214,95146,1,0,2:0:0:0:
336,265,95313,102,0,P|329:296|324:327,1,63,4|2,3:2|2:0,2:0:0:0:
247,356,95646,2,0,P|241:324|235:294,1,63,8|2,2:0|2:0,2:0:0:0:
261,143,95980,2,0,P|266:174|272:204,1,63,0|2,3:0|2:0,2:0:0:0:
488,337,96480,5,2,2:0:0:0:
487,337,96646,2,0,P|501:309|506:278,1,63,0|2,3:0|2:0,2:0:0:0:
437,233,96980,2,0,P|422:260|417:291,1,63,8|2,2:0|2:0,2:0:0:0:
492,146,97313,2,0,P|487:114|472:87,1,63,0|2,3:0|2:0,2:0:0:0:
231,62,97813,101,2,2:0:0:0:
230,61,97980,2,0,P|261:65|292:65,1,63,0|2,3:0|2:0,2:0:0:0:
370,38,98313,2,0,P|365:69|365:100,1,63,8|2,2:0|2:0,2:0:0:0:
240,212,98646,2,0,P|244:180|244:149,2,63,0|2|10,3:0|2:0|2:0,2:0:0:0:
45,350,99146,6,0,L|54:192,1,158,4|8,3:1|2:0,2:0:0:0:
52,182,99563,1,8,2:0:0:0:
50,172,99646,1,0,3:0:0:0:
244,232,99813,101,0,3:0:0:0:
242,222,99896,1,0,3:0:0:0:
240,212,99980,1,0,3:0:0:0:
434,272,100146,5,0,3:0:0:0:
432,262,100230,1,0,3:0:0:0:
430,252,100313,1,8,2:0:0:0:
244,232,100480,101,0,3:0:0:0:
53,192,100646,70,0,P|12:142|28:80,1,132,4|8,3:2|2:0,2:0:0:0:
28,80,101146,1,0,2:0:0:0:
146,37,101313,2,0,P|142:69|129:99,1,66,0|2,3:0|2:0,2:0:0:0:
211,209,101646,2,0,P|180:195|148:192,1,66,8|0,2:0|2:0,2:0:0:0:
291,43,101980,101,0,3:0:0:0:
311,126,102146,1,2,2:0:0:0:
454,206,102313,5,10,2:0:0:0:
387,259,102480,1,2,2:0:0:0:
211,209,102646,101,0,3:0:0:0:
231,292,102813,1,10,2:0:0:0:
231,292,102896,1,10,2:0:0:0:
231,292,102980,1,2,3:2:0:0:
211,209,103146,1,10,2:0:0:0:
46,352,103313,6,0,P|78:354|111:350,1,66,4|0,3:2|2:0,2:0:0:0:
151,273,103646,2,0,P|86:263|21:273,2,132,8|0|8,2:0|3:0|2:0,2:0:0:0:
379,139,104646,102,0,P|371:170|369:203,1,66,2|0,3:1|2:0,2:0:0:0:
215,112,104980,2,0,P|264:108|307:85,1,99,10|0,2:1|2:0,2:0:0:0:
316,71,105313,1,2,3:1:0:0:
390,29,105480,1,10,2:0:0:0:
390,29,105563,1,2,2:0:0:0:
390,29,105646,2,0,L|474:35,1,66,10|8,2:1|2:0,2:0:0:0:
509,168,105980,6,0,P|479:182|447:191,1,66,4|0,3:2|2:0,2:0:0:0:
422,273,106313,2,0,P|357:258|292:247,1,132,8|0,2:0|3:0,2:0:0:0:
216,207,106813,1,0,2:0:0:0:
216,207,106980,1,8,2:0:0:0:
122,373,107313,102,0,P|113:341|101:310,1,66,2|0,3:2|2:0,2:0:0:0:
216,207,107646,2,0,P|184:215|153:227,1,66,10|0,2:0|2:0,2:0:0:0:
54,117,107980,1,2,3:2:0:0:
125,69,108146,1,10,2:0:0:0:
125,69,108230,1,8,2:0:0:0:
125,69,108313,2,0,P|133:100|135:133,1,66,2|10,3:2|2:0,2:0:0:0:
291,179,108646,6,0,P|282:147|280:114,1,66,4|0,3:2|2:0,2:0:0:0:
339,52,108980,2,0,P|404:67|465:91,1,132,8|0,2:0|3:0,2:0:0:0:
498,171,109480,1,0,2:0:0:0:
498,171,109646,1,8,2:0:0:0:
407,354,109980,101,0,3:0:0:0:
262,235,110146,1,0,3:0:0:0:
262,226,110230,1,0,3:0:0:0:
263,218,110313,1,8,2:0:0:0:
121,356,110480,1,0,3:0:0:0:
121,365,110563,1,0,3:0:0:0:
122,373,110646,1,4,3:2:0:0:
27,82,110980,5,8,2:0:0:0:
27,82,111063,1,2,2:0:0:0:
27,82,111146,1,2,3:2:0:0:
27,82,111230,1,2,3:2:0:0:
26,82,111313,6,0,P|83:90|137:109,1,116,4|0,3:2|2:0,2:0:0:0:
202,158,111813,1,0,3:0:0:0:
202,158,111980,2,0,P|197:100|191:42,1,116,0|10,3:0|2:3,2:0:0:0:
34,196,112646,6,0,P|38:253|44:311,1,116,0|0,2:0|2:0,2:0:0:0:
107,363,113146,1,2,3:0:0:0:
107,363,113313,1,2,3:0:0:0:
304,249,113646,2,0,P|275:249|246:250,1,58,10|0,2:3|2:0,2:0:0:0:
168,276,113980,102,0,P|219:302|273:323,1,116,4|0,3:2|2:0,2:0:0:0:
350,351,114480,1,0,3:0:0:0:
392,281,114646,2,0,P|412:248|437:218,2,77.3333333333334,0|2|2,3:0|2:0|2:0,2:0:0:0:
223,126,115313,6,0,P|265:163|321:162,1,116,0|0,3:0|2:0,2:0:0:0:
381,107,115813,1,2,3:2:0:0:
381,107,115980,2,0,L|496:120,1,116,0|10,3:0|2:3,2:0:0:0:
121,294,116646,102,0,P|122:261|125:229,1,65,4|2,3:2|2:3,2:0:0:0:
209,220,116980,2,0,P|207:252|204:284,1,65,8|2,2:0|2:3,2:0:0:0:
309,368,117313,1,0,3:0:0:0:
368,308,117480,1,2,2:3:0:0:
368,308,117646,2,0,P|345:285|315:273,1,65,8|2,2:0|2:3,2:0:0:0:
266,177,117980,6,0,P|297:167|328:160,1,65,4|2,3:2|2:3,2:0:0:0:
397,110,118313,2,0,P|428:117|459:126,1,65,8|2,2:0|2:3,2:0:0:0:
313,47,118646,1,0,3:0:0:0:
239,87,118813,1,2,3:0:0:0:
239,87,118980,1,8,2:0:0:0:
179,338,119313,22,0,P|167:307|160:275,1,65,0|2,3:0|2:0,2:0:0:0:
220,215,119646,2,0,P|273:177|317:130,1,130,8|0,2:0|3:0,2:0:0:0:
397,159,120146,1,2,2:0:0:0:
369,238,120313,2,0,P|338:227|307:216,1,65,8|2,2:0|2:0,2:0:0:0:
217,118,120646,102,0,P|228:87|238:56,1,65,0|2,3:0|2:0,2:0:0:0:
165,14,120980,2,0,P|105:27|100:88,1,130,8|0,2:0|3:0,2:0:0:0:
136,164,121480,1,2,2:0:0:0:
71,218,121646,2,0,L|6:208,1,65,8|2,2:0|2:0,2:0:0:0:
142,360,121980,5,2,3:0:0:0:
158,273,122480,1,2,3:0:0:0:
158,273,122646,1,0,3:0:0:0:
75,303,122813,1,0,3:0:0:0:
75,303,122896,1,0,3:0:0:0:
75,303,122980,1,0,3:0:0:0:
142,360,123146,1,2,2:3:0:0:
158,273,123313,102,0,L|153:208,2,65,0|2|0,3:0|2:3|3:0,2:0:0:0:
288,352,123813,1,8,2:0:0:0:
394,280,123980,85,2,3:1:0:0:
394,280,124146,1,2,3:1:0:0:
394,280,124313,1,2,3:1:0:0:
394,280,124480,1,10,3:1:0:0:
312,188,124646,54,0,P|353:189|391:173,1,84.0000000000001,4|2,3:1|2:3,2:0:0:0:
418,140,124896,1,2,2:3:0:0:
418,140,124980,2,0,L|401:57,1,84.0000000000001,8|2,2:0|2:3,2:0:0:0:
231,197,125313,2,0,P|171:212|133:261,1,126,0|2,3:0|2:3,2:0:0:0:
161,293,125646,2,0,L|171:376,1,84.0000000000001,8|2,2:0|2:3,2:0:0:0:
10,199,125980,6,0,P|70:140|118:71,1,168,0|8,3:0|2:0,2:0:0:0:
55,15,126480,2,0,P|42:56|42:97,1,84.0000000000001,2|0,2:3|3:0,2:0:0:0:
220,177,126813,1,2,2:3:0:0:
300,201,126980,1,8,2:0:0:0:
348,133,127146,2,0,P|347:91|335:51,1,84.0000000000001,2|0,2:3|3:0,2:0:0:0:
509,162,127480,102,0,P|436:202|381:266,1,168,2|2,2:3|2:3,2:0:0:0:
164,303,127980,1,0,3:0:0:0:
239,339,128146,1,2,2:3:0:0:
303,284,128313,2,0,P|305:242|299:200,1,84.0000000000001,8|2,2:0|2:3,2:0:0:0:
329,369,128646,5,0,3:0:0:0:
412,270,128813,1,2,2:3:0:0:
305,175,128980,2,0,P|309:91|323:8,1,168,8|2,2:0|3:1,2:0:0:0:
394,53,129480,1,2,2:3:0:0:
213,180,129646,2,0,P|174:192|133:203,1,84.0000000000001,10|2,2:1|2:3,2:0:0:0:
63,5,129980,102,0,P|103:15|143:28,1,84.0000000000001,4|2,3:1|2:3,2:0:0:0:
180,48,130230,1,2,2:3:0:0:
180,48,130313,2,0,P|176:89|154:125,1,84.0000000000001,8|2,2:0|2:3,2:0:0:0:
47,349,130646,2,0,P|34:287|26:224,1,126,0|2,3:0|2:3,2:0:0:0:
50,188,130980,2,0,P|91:195|132:203,1,84.0000000000001,8|2,2:0|2:3,2:0:0:0:
358,322,131313,6,0,P|277:312|219:253,1,168,0|8,3:0|2:0,2:0:0:0:
288,206,131813,1,2,2:3:0:0:
446,358,131980,1,0,3:0:0:0:
463,274,132146,2,0,P|434:244|414:208,1,84.0000000000001,2|8,2:3|2:0,2:0:0:0:
473,25,132480,102,0,P|420:90|357:145,1,168,2|2,2:3|2:3,2:0:0:0:
179,128,132980,1,8,2:0:0:0:
333,40,133146,1,2,2:3:0:0:
445,182,133313,1,0,3:0:0:0:
278,216,133480,2,0,P|271:174|266:132,1,84.0000000000001,2|8,2:3|2:0,2:0:0:0:
208,289,133813,6,0,P|128:315|56:359,1,168,2|2,2:3|2:3,2:0:0:0:
21,381,134230,1,2,2:3:0:0:
21,381,134313,2,0,P|9:340|3:299,1,84.0000000000001,8|2,2:0|2:3,2:0:0:0:
59,88,134646,2,0,P|70:128|76:169,1,84.0000000000001,2|0,3:1|3:0,2:0:0:0:
64,210,134896,1,0,3:0:0:0:
64,210,134980,2,0,L|147:215,1,84.0000000000001,10|0,2:1|3:0,2:0:0:0:
268,76,135313,101,4,3:1:0:0:
184,86,135480,1,2,2:3:0:0:
322,183,135646,1,8,2:0:0:0:
406,193,135813,1,2,2:3:0:0:
246,252,135980,2,0,P|232:212|229:170,1,84.0000000000001,0|2,3:0|2:3,2:0:0:0:
337,26,136313,2,0,P|350:65|353:107,1,84.0000000000001,8|2,2:0|2:3,2:0:0:0:
366,281,136646,1,4,3:2:0:0:
454,277,136980,6,0,P|446:235|438:194,1,84.0000000000001,8|2,2:0|2:3,2:0:0:0:
292,323,137313,2,0,P|276:240|260:157,1,168,0|8,3:0|2:0,2:0:0:0:
440,56,137980,101,0,3:0:0:0:
424,138,138146,1,2,2:3:0:0:
265,69,138313,1,0,2:0:0:0:
346,50,138480,1,2,2:3:0:0:
439,224,138646,2,0,P|398:228|356:228,1,84.0000000000001,0|2,3:0|2:3,2:0:0:0:
213,163,138980,2,0,P|171:162|129:167,1,84.0000000000001,8|2,2:0|2:3,2:0:0:0:
308,157,139313,1,4,3:2:0:0:
259,249,139646,6,0,P|263:290|276:330,1,84.0000000000001,8|2,2:0|2:3,2:0:0:0:
395,183,139980,2,0,P|420:262|430:346,1,168,0|8,3:0|2:0,2:0:0:0:
309,304,140646,101,0,3:0:0:0:
389,280,140813,1,2,2:3:0:0:
238,369,140980,1,8,2:0:0:0:
158,345,141146,1,2,2:3:0:0:
218,198,141313,2,0,P|226:240|225:282,1,84.0000000000001,0|2,3:0|2:3,2:0:0:0:
58,360,141646,2,0,P|57:318|64:276,1,84.0000000000001,8|2,2:0|2:3,2:0:0:0:
150,127,141980,1,0,3:0:0:0:
55,107,142313,6,0,P|61:148|72:189,1,84.0000000000001,8|2,2:0|2:3,2:0:0:0:
224,33,142646,2,0,P|245:114|259:196,1,168,0|8,3:0|2:0,2:0:0:0:
394,278,143146,101,10,2:3:0:0:
394,278,143230,1,10,2:3:0:0:
394,278,143313,1,6,3:1:0:0:
59,216,143646,1,6,3:1:0:0:
394,278,143980,1,6,3:1:0:0:
227,246,144146,1,0,3:0:0:0:
59,216,144313,1,2,3:1:0:0:
386,37,144646,6,0,L|469:24,1,84.0000000000001,4|0,3:1|2:0,2:0:0:0:
184,154,145480,102,0,L|169:114,1,42,10|0,2:3|2:0,2:0:0:0:
293,210,145646,2,0,L|307:170,1,42,10|0,2:3|2:0,2:0:0:0:
213,328,145813,2,0,L|180:301,1,42,10|0,2:3|2:0,2:0:0:0:
211,231,145980,5,6,2:0:0:0:
428,232,155313,6,0,L|439:126,2,106,2|2|10,2:0|2:0|2:3,2:0:0:0:
359,335,156146,1,10,2:3:0:0:
359,335,156313,1,10,2:3:0:0:
359,335,156480,1,10,3:0:0:0:
261,113,156646,86,0,P|267:153|268:193,1,81,4|2,3:1|2:3,2:0:0:0:
210,251,156980,2,0,P|211:291|217:331,1,81,8|2,2:0|2:3,2:0:0:0:
143,141,157313,1,0,3:0:0:0:
74,184,157480,1,2,2:3:0:0:
120,249,157646,2,0,P|121:289|127:329,1,81,8|2,2:0|2:3,2:0:0:0:
314,266,157980,5,0,3:0:0:0:
268,193,158146,2,0,L|307:183,1,40.5,2|2,2:3|2:3,2:0:0:0:
347,174,158313,1,8,2:0:0:0:
193,256,158480,2,0,L|183:216,1,40.5,2|2,2:3|2:3,2:0:0:0:
173,176,158646,2,0,P|135:165|95:170,1,81,0|2,3:0|2:3,2:0:0:0:
65,198,158896,1,2,2:3:0:0:
65,198,158980,1,8,2:0:0:0:
33,123,159146,1,2,2:3:0:0:
158,29,159313,102,0,P|197:36|238:40,1,81,0|2,3:2|2:3,2:0:0:0:
267,68,159563,1,0,2:0:0:0:
267,68,159646,2,0,P|307:63|347:56,1,81,8|2,2:0|2:3,2:0:0:0:
474,165,159980,1,0,3:0:0:0:
404,205,160146,1,2,2:3:0:0:
404,205,160230,1,2,2:3:0:0:
404,205,160313,2,0,P|393:165|390:125,1,81,8|2,2:0|2:3,2:0:0:0:
463,279,160646,6,0,P|383:292|303:309,1,162,0|8,3:0|2:3,2:0:0:0:
241,361,161146,2,0,L|201:350,2,40.5,2|2|0,2:3|2:3|3:0,2:0:0:0:
277,209,161480,1,2,2:3:0:0:
142,278,161646,1,8,2:0:0:0:
23,198,161813,1,2,2:3:0:0:
92,74,161980,102,0,P|125:97|163:110,1,81,4|0,3:2|2:0,2:0:0:0:
213,172,162313,2,0,P|251:157|285:134,1,81,8|2,2:0|2:3,2:0:0:0:
152,13,162646,2,0,P|227:40|308:43,1,162,4|8,3:2|2:0,2:0:0:0:
382,9,163146,1,2,2:3:0:0:
490,113,163313,6,0,L|485:193,1,81,4|2,3:2|2:3,2:0:0:0:
495,233,163563,2,0,L|456:220,1,40.5,2|8,2:3|2:0,2:0:0:0:
214,302,163813,2,0,B|258:295|297:316|281:328|320:349|364:342,1,162,2|2,2:3|2:3,2:0:0:0:
403,329,164230,1,2,2:3:0:0:
403,329,164313,2,0,L|398:288,1,40.5,8|2,2:0|2:3,2:0:0:0:
485,306,164480,1,2,2:3:0:0:
386,169,164646,102,0,P|389:128|399:89,1,81,4|2,3:2|2:3,2:0:0:0:
427,60,164896,1,2,2:3:0:0:
427,60,164980,2,0,P|467:54|506:43,1,81,8|2,2:0|2:3,2:0:0:0:
307,119,165313,2,0,P|266:113|227:102,1,81,0|2,3:0|2:3,2:0:0:0:
209,66,165563,1,2,2:3:0:0:
209,66,165646,2,0,L|128:74,1,81,8|2,2:0|2:3,2:0:0:0:
22,164,165980,6,0,P|11:83|9:2,2,162,0|8|0,3:0|2:0|3:0,2:0:0:0:
152,295,166813,1,2,3:0:0:0:
152,295,166896,1,2,3:0:0:0:
152,295,166980,1,2,3:2:0:0:
162,121,167146,1,2,3:0:0:0:
62,267,167313,70,0,P|61:304|65:341,1,74,12|2,2:1|2:3,2:0:0:0:
248,303,167646,1,8,2:0:0:0:
320,339,167813,1,2,2:3:0:0:
388,297,167980,2,0,P|394:241|392:186,1,111,8|0,2:0|2:0,2:0:0:0:
372,149,168313,6,0,L|445:138,1,74,8|2,2:0|2:3,2:0:0:0:
316,61,168646,1,8,2:0:0:0:
252,111,168813,1,2,2:3:0:0:
191,56,168980,2,0,P|138:39|83:43,1,111,8|0,2:0|2:0,2:0:0:0:
51,69,169313,2,0,P|55:105|65:141,1,74,12|10,2:0|2:3,2:0:0:0:
89,174,169563,1,10,2:3:0:0:
89,174,169646,1,0,3:0:0:0:
169,163,169813,1,2,3:0:0:0:
237,296,169980,102,0,P|187:270|133:260,1,111,14|0,2:0|2:0,2:0:0:0:
98,282,170313,2,0,P|103:318|106:355,1,74,10|2,2:0|2:3,2:0:0:0:
270,214,170646,2,0,P|273:177|278:140,1,74,10|2,2:0|2:3,2:0:0:0:
284,99,170896,1,2,2:3:0:0:
284,99,170980,1,10,2:0:0:0:
363,118,171146,1,2,2:3:0:0:
466,178,171313,6,0,P|397:207|341:254,2,148,10|10|10,2:1|2:1|2:1,2:0:0:0:
505,315,172146,1,2,2:3:0:0:
505,315,172230,1,0,2:0:0:0:
505,315,172313,1,12,2:0:0:0:
427,290,172480,1,2,2:3:0:0:
302,361,172646,70,0,P|265:355|229:348,1,74,4|2,3:2|2:3,2:0:0:0:
91,273,172980,1,10,2:0:0:0:
157,226,173146,1,2,2:3:0:0:
234,248,173313,2,0,P|245:194|238:139,1,111,2|0,3:2|2:0,2:0:0:0:
210,108,173646,6,0,P|175:120|139:130,1,74,8|2,2:0|2:3,2:0:0:0:
249,24,173980,1,2,3:2:0:0:
322,58,174146,1,2,2:3:0:0:
395,26,174313,2,0,P|411:80|412:135,1,111,8|0,2:0|2:0,2:0:0:0:
385,166,174646,1,0,3:0:0:0:
438,227,174813,2,0,L|473:217,2,37,2|10|8,3:0|2:3|2:0,2:0:0:0:
314,298,175146,1,10,2:3:0:0:
314,298,175230,1,10,2:3:0:0:
314,298,175313,102,0,P|279:285|243:276,1,74,4|2,3:2|2:3,2:0:0:0:
284,205,175646,2,0,P|290:168|303:134,1,74,8|2,2:0|2:3,2:0:0:0:
146,263,175980,1,0,3:0:0:0:
192,196,176146,1,2,3:0:0:0:
153,124,176313,1,8,2:0:0:0:
36,364,176646,6,0,P|72:371|108:380,1,74,4|2,3:2|2:3,2:0:0:0:
180,343,176980,2,0,P|215:352|252:359,1,74,8|2,2:0|2:3,2:0:0:0:
146,263,177313,1,0,3:0:0:0:
107,191,177480,1,2,3:0:0:0:
153,124,177646,1,12,2:0:0:0:
422,196,177980,22,0,P|415:227|412:260,1,65,0|2,3:0|2:0,2:0:0:0:
440,339,178313,2,0,P|377:353|313:360,1,130,8|0,2:0|3:0,2:0:0:0:
253,300,178813,1,2,2:0:0:0:
276,218,178980,2,0,P|308:215|340:211,1,65,8|2,2:0|2:0,2:0:0:0:
191,243,179313,102,0,P|188:210|184:178,1,65,0|2,3:0|2:0,2:0:0:0:
109,138,179646,2,0,P|102:73|96:8,1,130,8|0,2:0|3:0,2:0:0:0:
181,5,180146,1,2,2:0:0:0:
254,46,180313,2,0,P|258:78|259:110,1,65,8|2,2:0|2:0,2:0:0:0:
177,210,180646,5,2,3:0:0:0:
264,194,181146,1,2,3:0:0:0:
264,194,181313,1,0,3:0:0:0:
234,277,181480,1,0,3:0:0:0:
234,277,181563,1,0,3:0:0:0:
234,277,181646,1,0,3:0:0:0:
177,210,181813,1,2,3:0:0:0:
285,115,181980,102,0,L|349:123,2,65,0|2|0,3:0|2:3|3:0,2:0:0:0:
137,130,182480,1,8,2:0:0:0:
81,268,182646,85,2,3:1:0:0:
81,268,182813,1,2,3:1:0:0:
81,268,182980,1,2,3:1:0:0:
81,268,183146,1,0,3:2:0:0:
42,168,183313,53,10,2:1:0:0:
293,264,183480,1,10,2:1:0:0:
217,75,183980,5,10,2:1:0:0:
165,324,184146,1,10,2:1:0:0:
329,180,184646,101,10,2:1:0:0:
81,268,184813,1,10,2:1:0:0:
358,311,185313,5,10,2:1:0:0:
156,145,185480,1,10,2:1:0:0:
272,52,185813,102,0,L|275:93,1,42,2|2,3:0|3:0,2:0:0:0:
187,262,185980,1,4,3:2:0:0:
177,345,187313,6,0,P|182:303|186:261,1,84.0000000000001,12|6,2:1|2:3,2:0:0:0:
156,231,187563,1,4,2:3:0:0:
156,231,187646,2,0,L|114:239,1,42,12|0,2:0|2:0,2:0:0:0:
228,175,187813,1,6,2:3:0:0:
228,175,187896,1,4,2:3:0:0:
228,175,187980,102,0,L|310:189,1,84.0000000000001,12|6,2:0|2:3,2:0:0:0:
349,206,188230,1,4,2:3:0:0:
349,206,188313,2,0,L|389:195,1,42,12|0,2:1|2:0,2:0:0:0:
327,108,188480,1,6,2:3:0:0:
470,257,188646,6,0,P|485:217|490:176,1,84.0000000000001,4|2,3:1|2:3,2:0:0:0:
468,140,188896,1,2,2:3:0:0:
468,140,188980,2,0,L|474:56,1,84.0000000000001,10|2,2:0|2:3,2:0:0:0:
277,31,189313,2,0,P|338:34|377:81,1,126,0|2,3:1|2:3,2:0:0:0:
365,122,189646,2,0,P|324:123|282:120,1,84.0000000000001,10|2,2:0|2:3,2:0:0:0:
133,26,189980,102,0,P|149:108|164:190,1,168,0|10,3:1|2:0,2:0:0:0:
98,242,190480,1,2,2:3:0:0:
255,338,190646,1,4,3:2:0:0:
317,282,190813,2,0,P|357:266|397:255,1,84.0000000000001,2|10,2:3|2:3,2:0:0:0:
191,271,191146,6,0,P|131:329|64:381,1,168,2|2,2:3|2:3,2:0:0:0:
162,197,191646,1,8,2:0:0:0:
199,368,191813,1,2,2:3:0:0:
59,258,191980,1,0,3:0:0:0:
153,111,192146,2,0,P|173:113|194:115,2,42,2|2|8,2:3|2:3|2:0,2:0:0:0:
1,325,192480,102,0,P|82:304|159:270,1,168,2|2,2:3|2:3,2:0:0:0:
190,241,192896,1,2,2:3:0:0:
190,241,192980,2,0,L|270:265,1,84.0000000000001,8|2,2:0|2:3,2:0:0:0:
70,160,193313,2,0,P|60:119|64:77,1,84.0000000000001,2|0,3:1|3:0,2:0:0:0:
87,41,193563,1,0,3:0:0:0:
87,41,193646,2,0,L|10:6,1,84.0000000000001,10|0,2:1|3:0,2:0:0:0:
198,121,193980,5,4,3:1:0:0:
271,80,194146,1,2,2:3:0:0:
429,177,194313,1,8,2:0:0:0:
356,218,194480,1,2,2:3:0:0:
383,35,194646,2,0,P|374:77|369:118,1,84.0000000000001,0|2,3:0|2:3,2:0:0:0:
261,203,194980,2,0,P|269:244|274:285,1,84.0000000000001,8|2,2:0|2:3,2:0:0:0:
96,295,195313,1,4,3:2:0:0:
174,351,195646,102,0,P|182:309|187:268,1,84.0000000000001,8|2,2:0|2:3,2:0:0:0:
9,342,195980,2,0,P|18:258|35:176,1,168,0|8,3:0|2:0,2:0:0:0:
210,57,196646,5,0,3:0:0:0:
126,47,196813,1,2,2:3:0:0:
303,123,196980,1,8,2:0:0:0:
313,39,197146,1,2,2:3:0:0:
158,135,197313,2,0,P|169:175|179:216,1,84.0000000000001,0|2,3:0|2:3,2:0:0:0:
324,296,197646,2,0,P|312:255|302:214,1,84.0000000000001,8|2,2:0|2:3,2:0:0:0:
438,86,197980,1,4,3:2:0:0:
373,17,198313,102,0,P|331:25|290:30,1,84.0000000000001,8|2,2:0|2:3,2:0:0:0:
438,168,198646,2,0,P|354:178|272:194,1,168,0|8,3:0|2:0,2:0:0:0:
53,30,199313,5,0,3:0:0:0:
135,45,199480,1,2,2:3:0:0:
63,213,199646,1,8,2:0:0:0:
41,131,199813,1,2,2:3:0:0:
172,248,199980,2,0,P|172:289|168:331,1,84.0000000000001,0|2,3:0|2:3,2:0:0:0:
3,331,200313,2,0,L|82:305,1,84.0000000000001,8|2,2:0|2:3,2:0:0:0:
262,214,200646,1,0,3:0:0:0:
172,248,200980,102,0,P|171:206|175:164,1,84.0000000000001,8|2,2:0|2:3,2:0:0:0:
347,286,201313,2,0,P|356:202|354:118,1,168,4|8,3:2|2:0,2:0:0:0:
454,20,201813,5,10,2:3:0:0:
454,20,201896,1,10,2:3:0:0:
454,20,201980,1,6,3:1:0:0:
119,82,202313,1,6,3:1:0:0:
454,20,202646,1,6,3:1:0:0:
287,52,202813,1,2,3:1:0:0:
119,82,202980,1,6,3:1:0:0:
499,191,203313,102,0,L|507:107,1,84.0000000000001,6|0,3:1|2:0,2:0:0:0:
334,329,204146,6,0,L|324:288,1,42,10|0,2:3|2:0,2:0:0:0:
454,284,204313,2,0,L|413:293,1,42,10|0,2:3|2:0,2:0:0:0:
326,194,204480,2,0,L|366:203,1,42,10|0,2:3|2:0,2:0:0:0:
240,302,204646,102,0,P|202:317|164:332,1,81,4|2,3:1|2:3,2:0:0:0:
96,288,204980,2,0,P|58:303|20:317,1,81,8|2,2:0|2:3,2:0:0:0:
157,209,205313,1,0,3:0:0:0:
88,164,205480,2,0,L|61:159,3,27,2|2|2|8,2:3|2:3|2:3|2:0,2:0:0:0:
171,195,205813,1,2,2:3:0:0:
172,14,205980,6,0,P|150:48|132:84,1,81,0|2,3:0|2:3,2:0:0:0:
258,223,206313,2,0,P|279:188|297:152,1,81,8|2,2:0|2:3,2:0:0:0:
246,88,206646,1,0,3:0:0:0:
246,88,206980,1,8,2:0:0:0:
321,57,207146,1,2,2:3:0:0:
385,106,207313,102,0,P|398:185|415:265,1,162,4|8,3:2|2:0,2:0:0:0:
449,191,207813,1,2,2:3:0:0:
335,307,207980,1,0,3:0:0:0:
274,253,208146,2,0,L|278:226,3,27,2|2|2|8,2:3|2:3|2:3|2:0,2:0:0:0:
196,312,208480,1,2,2:3:0:0:
133,259,208646,6,0,P|168:239|203:218,1,81,0|2,3:0|2:3,2:0:0:0:
63,326,208980,1,8,2:0:0:0:
140,171,209146,1,2,2:3:0:0:
22,49,209313,1,0,3:0:0:0:
32,128,209480,1,2,2:3:0:0:
42,126,209563,1,2,2:3:0:0:
52,124,209646,1,8,2:0:0:0:
267,32,209980,102,0,P|306:40|346:44,1,81,4|2,3:2|2:3,2:0:0:0:
408,96,210313,2,0,P|446:82|481:63,1,81,8|2,2:0|2:3,2:0:0:0:
325,173,210646,1,0,3:2:0:0:
387,223,210813,2,0,L|413:216,3,27,2|2|2|8,2:3|2:3|2:3|2:0,2:0:0:0:
307,177,211146,1,2,2:3:0:0:
248,308,211313,6,0,P|238:268|235:228,1,81,0|2,3:0|2:3,2:0:0:0:
378,48,211646,2,0,P|387:87|390:127,1,81,8|2,2:0|2:3,2:0:0:0:
243,28,211980,1,0,3:0:0:0:
243,28,212313,1,8,2:0:0:0:
126,89,212480,1,2,2:3:0:0:
156,228,212646,102,0,L|235:211,1,81,4|2,3:2|2:3,2:0:0:0:
267,187,212896,1,2,2:3:0:0:
267,187,212980,2,0,P|306:193|345:181,1,81,8|2,2:0|2:3,2:0:0:0:
189,325,213313,2,0,P|149:318|110:330,1,81,0|2,3:0|2:3,2:0:0:0:
74,349,213563,1,2,2:3:0:0:
74,349,213646,2,0,L|63:268,1,81,8|2,2:0|2:3,2:0:0:0:
183,191,213980,6,0,L|204:30,2,162,0|8|0,3:0|2:0|3:0,2:0:0:0:
183,191,214813,1,2,2:3:0:0:
324,98,214980,70,0,P|306:105|286:110,1,40.5,10|2,2:0|2:3,2:0:0:0:
422,176,215146,2,0,P|403:168|383:163,1,40.5,2|2,2:3|2:3,2:0:0:0:
269,223,215313,1,4,3:2:0:0:
124,84,216980,6,0,P|184:84|243:71,1,121.5,4|0,3:2|2:0,2:0:0:0:
275,97,217313,2,0,P|214:96|155:109,1,121.5,4|0,3:2|2:0,2:0:0:0:
137,146,217646,1,8,2:0:0:0:
