osu file format v14

[General]
AudioFilename: audio.mp3
AudioLeadIn: 0
PreviewTime: 58428
Countdown: 0
SampleSet: Soft
StackLeniency: 0.7
Mode: 0
LetterboxInBreaks: 0
WidescreenStoryboard: 0

[Editor]
DistanceSpacing: 1.4
BeatDivisor: 4
GridSize: 4
TimelineZoom: 2.2

[Metadata]
Title:Aikotoba (TV Size)
TitleUnicode:アイコトバ (TV Size)
Artist:Sakura Merry-Men
ArtistUnicode:サクラメリーメン
Creator:[Kurose Riku]
Version:Prophecy's Hard
Source:世界一初恋 2
Tags:Prophecy kanor Sekai Ichi Hatsukoi Season 2 boys love yaoi ending bl Ryota Morinishi 森西亮太 Tohta Konishi 小西透太 Ippei イッペイ
BeatmapID:1584467
BeatmapSetID:747683

[Difficulty]
HPDrainRate:5
CircleSize:4
OverallDifficulty:5
ApproachRate:7
SliderMultiplier:1.2
SliderTickRate:1

[Events]
//Background and Video events
0,0,"CG4.jpg",0,0
Video,0,"ed.mp4"
//Break Periods
//Storyboard Layer 0 (Background)
//Storyboard Layer 1 (Fail)
//Storyboard Layer 2 (Pass)
//Storyboard Layer 3 (Foreground)
//Storyboard Sound Samples

[TimingPoints]
506,451.807228915663,4,2,1,50,1,0
7057,445.103857566766,4,2,1,50,1,0
7502,448.430493273543,4,2,1,50,1,0
7950,453.001132502831,4,2,1,50,1,0
8176,453.001132502831,4,2,1,50,1,0
11348,447.761194029851,4,2,1,50,1,0
11795,521.739130434783,4,2,1,50,1,0
12055,442.80442804428,4,2,1,50,1,0
12719,454.545454545455,4,2,1,50,1,0
14991,455.407969639469,4,2,1,50,1,0
20000,461.538461538462,4,2,1,50,1,0
22076,428.571428571429,4,2,1,50,1,0
22504,456.62100456621,4,2,1,50,1,0
22732,456.62100456621,4,2,1,50,1,0
24558,454.545454545455,4,2,1,50,1,0
25921,440.852314474651,4,2,1,50,1,0
26361,454.545454545455,4,2,1,50,1,0
29542,454.545454545455,4,2,1,50,1,0
42723,461.538461538462,4,2,1,50,1,0
44107,454.545454545455,4,2,1,50,1,0
47743,446.927374301676,4,2,1,50,1,0
48189,451.127819548872,4,2,1,50,1,0
48414,445.269016697588,4,2,1,50,1,0
48636,456.273764258555,4,2,1,50,1,0
49548,441.176470588235,4,2,1,50,1,0
49989,465.116279069767,4,2,1,50,1,0
50454,451.127819548872,4,2,1,50,1,0
51356,456.273764258555,4,2,1,50,1,0
58428,455.407969639469,4,2,1,70,1,1
58883,454.545454545455,4,2,1,70,1,1
59110,454.545454545455,4,2,1,70,1,1
61837,457.491422035837,4,2,1,70,1,1
62523,456.273764258555,4,2,1,70,1,1
62751,456.273764258555,4,2,1,70,1,1
63891,454.545454545455,4,2,1,70,1,1
64345,451.127819548872,4,2,1,70,1,1
64570,451.127819548872,4,2,1,70,1,1
65924,454.545454545455,4,2,1,70,1,1
67742,444.444444444444,4,2,1,70,1,1
68186,454.545454545455,4,2,1,70,1,1
68640,458.015267175573,4,2,1,70,1,1
69556,454.545454545455,4,2,1,70,1,1
71146,451.127819548872,4,2,1,70,1,1
71822,451.127819548872,4,2,1,70,1,1
72949,465.116279069767,4,2,1,70,1,1
73646,454.545454545455,4,2,1,70,1,1
75009,454.545454545455,4,2,1,70,1,1
80463,454.545454545455,4,2,1,70,1,1
87281,-100,4,2,1,50,0,0

[Colours]
Combo1 : 185,255,185
Combo2 : 255,170,170
Combo3 : 149,197,255
Combo4 : 227,200,255

[HitObjects]
374,216,506,5,4,0:0:0:0:
374,216,2313,5,4,0:0:0:0:
374,216,4120,5,4,0:0:0:0:
374,216,5927,5,4,0:0:0:0:
374,216,6831,6,0,L|376:144,1,60,8|0,0:0|0:0,0:0:0:0:
488,32,7502,6,0,L|356:-4,1,120,2|0,0:0|0:0,0:0:0:0:
292,28,8176,2,0,P|261:32|233:25,1,60,8|0,0:0|0:0,0:0:0:0:
156,56,8629,1,2,0:0:0:0:
36,40,8855,2,0,P|19:91|51:170,1,120,2|8,0:0|0:0,0:0:0:0:
108,200,9535,6,0,L|108:324,1,120,2|8,0:0|0:0,0:0:0:0:
188,344,10214,2,0,P|240:339|268:263,1,120,2|10,0:0|0:0,0:0:0:0:
280,200,10894,1,8,0:0:0:0:
440,272,11348,5,6,0:0:0:0:
336,372,11795,1,8,0:0:0:0:
240,344,12055,2,0,P|256:287|240:230,1,120,6|2,0:0|0:0,0:0:0:0:
188,164,12719,1,8,0:0:0:0:
292,164,12946,6,0,P|272:99|299:36,1,120,6|0,0:0|0:0,0:0:0:0:
356,0,13628,1,8,0:0:0:0:
396,75,13855,2,0,L|398:134,1,60,2|8,0:0|0:0,0:0:0:0:
476,171,14309,2,0,L|466:230,1,60,2|2,0:0|0:0,0:0:0:0:
332,332,14991,6,0,L|204:332,1,120,0|8,0:0|0:0,0:0:0:0:
64,252,15901,2,0,L|48:190,1,60,0|2,0:0|0:0,0:0:0:0:
135,97,16357,2,0,L|124:156,1,60,8|2,0:0|0:0,0:0:0:0:
160,232,16812,6,0,L|288:216,1,120,0|8,0:0|0:0,0:0:0:0:
440,172,17723,2,0,L|461:111,1,60,0|2,0:0|0:0,0:0:0:0:
382,11,18178,2,0,L|388:70,1,60,8|2,0:0|0:0,0:0:0:0:
340,140,18634,6,0,L|212:124,1,120,0|8,0:0|0:0,0:0:0:0:
104,248,19545,2,0,L|188:248,1,60,0|2,0:0|0:0,0:0:0:0:
228,300,20000,1,10,0:0:0:0:
292,244,20230,6,0,P|278:186|304:133,1,120,6|0,0:0|0:0,0:0:0:0:
364,76,20923,1,8,0:0:0:0:
448,76,21153,2,0,P|428:131|376:160,1,120,6|2,0:0|0:0,0:0:0:0:
300,192,21846,1,8,0:0:0:0:
224,240,22076,6,0,P|210:182|236:129,1,120,6|0,0:0|0:0,0:0:0:0:
204,52,22732,2,0,L|140:52,1,60,8|0,0:0|0:0,0:0:0:0:
80,104,23188,2,0,L|108:240,1,120,2|8,0:0|0:0,0:0:0:0:
132,300,23873,1,2,0:0:0:0:
216,308,24101,2,0,P|274:294|327:320,1,120,0|8,0:0|0:0,0:0:0:0:
452,204,25012,5,2,0:0:0:0:
452,204,25239,1,2,0:0:0:0:
396,140,25467,2,0,L|336:140,1,60,8|2,0:0|0:0,0:0:0:0:
268,84,25921,2,0,P|246:142|276:203,1,120,0|8,0:0|0:0,0:0:0:0:
412,276,26816,5,2,0:0:0:0:
412,276,27042,1,2,0:0:0:0:
344,324,27270,2,0,L|260:324,1,60,8|2,0:0|0:0,0:0:0:0:
200,324,27724,1,2,0:0:0:0:
200,324,27951,2,0,L|132:312,1,60,2|8,0:0|0:0,0:0:0:0:
8,208,28633,5,2,0:0:0:0:
8,208,28861,1,2,0:0:0:0:
60,140,29088,2,0,L|60:80,1,60,8|2,0:0|0:0,0:0:0:0:
116,16,29542,1,2,0:0:0:0:
276,68,29996,2,0,P|280:100|268:144,1,60,8|2,0:0|0:0,0:0:0:0:
264,212,30450,5,2,0:0:0:0:
264,212,30678,1,2,0:0:0:0:
348,200,30905,2,0,L|408:200,1,60,8|2,0:0|0:0,0:0:0:0:
477,150,31359,2,0,P|493:214|457:272,1,120,2|8,0:0|0:0,0:0:0:0:
408,200,32041,2,0,P|381:260|406:324,1,120,2|2,0:0|0:0,0:0:0:0:
444,380,32723,1,8,0:0:0:0:
276,356,33177,6,0,L|144:332,1,120,4|8,0:0|0:0,0:0:0:0:
76,316,33860,1,0,0:0:0:0:
52,236,34087,2,0,P|83:231|120:246,1,60,0|2,0:0|0:0,0:0:0:0:
172,180,34541,2,0,B|207:129|172:66,1,120,8|0,0:0|0:0,0:0:0:0:
324,136,35450,6,0,L|456:112,1,120,8|0,0:0|0:0,0:0:0:0:
496,180,36133,1,2,0:0:0:0:
428,228,36360,2,0,P|396:233|360:218,1,60,8|0,0:0|0:0,0:0:0:0:
256,192,36814,6,0,P|236:136|259:78,1,120,4|8,0:0|0:0,0:0:0:0:
308,16,37496,1,0,0:0:0:0:
344,92,37724,2,0,L|480:72,1,120,0|10,0:0|0:0,0:0:0:0:
508,144,38405,1,2,0:0:0:0:
468,216,38632,6,0,P|388:212|352:244,1,120,0|8,0:0|0:0,0:0:0:0:
296,288,39314,1,0,0:0:0:0:
212,268,39542,2,0,L|188:200,1,60,0|2,0:0|0:0,0:0:0:0:
156,136,39995,1,8,0:0:0:0:
360,52,40450,6,0,L|344:188,1,120,6|8,0:0|0:0,0:0:0:0:
332,256,41133,1,2,0:0:0:0:
416,248,41360,2,0,L|473:231,1,60,0|0,0:0|0:0,0:0:0:0:
385,326,41814,2,0,L|328:345,1,60,10|0,0:0|0:0,0:0:0:0:
252,308,42269,6,0,P|234:251|260:194,1,120,6|8,0:0|0:0,0:0:0:0:
368,128,42953,2,0,P|390:182|373:238,1,120,6|2,0:0|0:0,0:0:0:0:
336,316,43646,1,8,0:0:0:0:
232,180,44107,6,0,L|312:184,1,60,4|0,0:0|0:0,0:0:0:0:
360,132,44561,1,8,0:0:0:0:
428,184,44788,2,0,L|428:264,1,60,2|2,0:0|0:0,0:0:0:0:
384,316,45243,1,0,0:0:0:0:
364,310,45356,1,0,0:0:0:0:
345,305,45471,2,0,L|287:289,1,60,8|0,0:0|0:0,0:0:0:0:
196,204,45925,6,0,L|212:144,1,60
244,68,46380,1,8,0:0:0:0:
316,112,46607,2,0,P|352:117|391:106,1,60,2|2,0:0|0:0,0:0:0:0:
428,180,47061,1,0,0:0:0:0:
415,196,47174,1,0,0:0:0:0:
403,212,47288,2,0,L|367:260,1,60,8|0,0:0|0:0,0:0:0:0:
248,292,47743,6,0,P|192:272|132:289,1,120,0|8,0:0|0:0,0:0:0:0:
56,252,48414,1,2,0:0:0:0:
48,172,48636,2,0,L|36:44,1,120,2|8,0:0|0:0,0:0:0:0:
128,16,49320,2,0,L|116:74,1,60,2|2,0:0|0:0,0:0:0:0:
228,188,49989,5,8,0:0:0:0:
284,252,50221,1,2,0:0:0:0:
344,192,50454,2,0,P|412:212|468:176,1,120,2|8,0:0|0:0,0:0:0:0:
512,132,51130,1,0,0:0:0:0:
416,72,51356,6,0,P|400:97|398:127,1,60,4|0,0:0|0:0,0:0:0:0:
453,192,51812,1,8,0:0:0:0:
400,256,52040,1,2,0:0:0:0:
344,192,52268,2,0,L|280:169,1,60,2|0,0:0|0:0,0:0:0:0:
208,224,52724,2,0,P|200:252|207:281,1,60,8|0,0:0|0:0,0:0:0:0:
288,368,53181,6,0,P|306:312|286:256,1,120,2|8,0:0|0:0,0:0:0:0:
287,171,53865,2,0,L|347:127,1,60,2|2,0:0|0:0,0:0:0:0:
404,88,54321,1,8,0:0:0:0:
404,88,54549,1,8,0:0:0:0:
248,24,55006,6,0,P|216:30|186:19,1,60,4|0,0:0|0:0,0:0:0:0:
160,100,55462,2,0,P|131:91|102:97,1,60,8|0,0:0|0:0,0:0:0:0:
68,171,55918,2,0,P|38:177|10:168,1,60,8|0,0:0|0:0,0:0:0:0:
132,228,56375,2,0,P|162:222|190:231,1,60,8|0,0:0|0:0,0:0:0:0:
260,276,56831,5,10,0:0:0:0:
260,276,57059,1,0,0:0:0:0:
320,216,57287,2,0,L|328:140,1,60,10|0,0:0|0:0,0:0:0:0:
398,72,57743,2,0,L|408:132,1,60,10|10,0:0|0:0,0:0:0:0:
488,280,58428,6,0,B|516:216|491:162,1,120,4|0,0:0|0:0,0:0:0:0:
448,92,59110,2,0,B|392:124|312:76,1,120,8|2,0:0|0:0,0:0:0:0:
260,48,59792,1,2,0:0:0:0:
184,84,60019,1,8,0:0:0:0:
136,156,60246,2,0,P|124:198|135:241,1,90,4|0,0:0|0:0,0:0:0:0:
164,272,60700,2,0,L|224:252,1,60,0|8,0:0|0:0,0:0:0:0:
380,200,61382,5,2,0:0:0:0:
352,280,61609,1,2,0:0:0:0:
324,360,61837,1,8,0:0:0:0:
445,338,62065,2,0,P|457:295|444:248,1,90,4|0,0:0|0:0,0:0:0:0:
460,212,62523,2,0,L|512:144,1,60,0|8,0:0|0:0,0:0:0:0:
340,100,63207,5,2,0:0:0:0:
276,48,63434,1,2,0:0:0:0:
208,0,63662,1,8,0:0:0:0:
104,60,63891,2,0,P|92:103|102:146,1,90,4|0,0:0|0:0,0:0:0:0:
128,180,64345,2,0,B|204:160,1,60,0|8,0:0|0:0,0:0:0:0:
260,204,64795,1,0,0:0:0:0:
324,260,65021,2,0,B|334:300|324:319,1,60,2|2,0:0|0:0,0:0:0:0:
404,236,65472,2,0,B|394:216|404:176,1,60,8|0,0:0|0:0,0:0:0:0:
400,56,65924,6,0,L|256:80,1,120,6|8,0:0|0:0,0:0:0:0:
200,96,66605,1,2,0:0:0:0:
120,72,66833,2,0,L|60:79,1,60,2|2,0:0|0:0,0:0:0:0:
172,8,67287,2,0,L|236:-1,1,60,8|0,0:0|0:0,0:0:0:0:
120,72,67742,6,0,P|112:116|123:159,1,90,2|0,0:0|0:0,0:0:0:0:
152,188,68186,2,0,L|272:172,1,120,8|2,0:0|0:0,0:0:0:0:
340,220,68869,1,2,0:0:0:0:
420,192,69098,2,0,L|432:120,1,60,8|0,0:0|0:0,0:0:0:0:
376,68,69556,6,0,P|333:55|289:63,1,90,2|0,0:0|0:0,0:0:0:0:
252,80,70010,2,0,L|112:44,1,120,8|2,0:0|0:0,0:0:0:0:
56,24,70692,1,8,0:0:0:0:
56,24,70920,1,8,0:0:0:0:
56,144,71146,6,0,P|44:200|68:264,1,120,4|0,0:0|0:0,0:0:0:0:
116,324,71822,1,10,0:0:0:0:
196,296,72047,1,0,0:0:0:0:
248,364,72273,2,0,L|384:332,1,120,2|2,0:0|0:0,0:0:0:0:
428,240,72949,6,0,P|448:180|428:128,1,120,4|0,0:0|0:0,0:0:0:0:
352,88,73646,2,0,B|220:56,1,120,8|2,0:0|0:0,0:0:0:0:
156,32,74327,1,2,0:0:0:0:
76,4,74555,1,8,0:0:0:0:
156,116,74782,2,0,P|164:159|148:204,1,90,4|0,0:0|0:0,0:0:0:0:
152,244,75236,2,0,L|224:236,1,60,0|8,0:0|0:0,0:0:0:0:
380,224,75918,5,2,0:0:0:0:
320,168,76146,2,0,B|275:153|236:180,1,60,2|8,0:0|0:0,0:0:0:0:
152,244,76600,2,0,P|160:287|144:332,1,90,4|0,0:0|0:0,0:0:0:0:
148,372,77054,2,0,L|220:364,1,60,0|8,0:0|0:0,0:0:0:0:
372,336,77736,6,0,B|357:304|373:278,1,60,2|2,0:0|0:0,0:0:0:0:
408,204,78191,1,8,0:0:0:0:
488,112,78418,2,0,P|504:48|472:-8,1,120,4|0,0:0|0:0,0:0:0:0:
400,12,79100,1,8,0:0:0:0:
332,64,79327,1,0,0:0:0:0:
256,28,79555,2,0,L|175:41,1,60,2|0,0:0|0:0,0:0:0:0:
96,103,80009,2,0,L|156:112,1,60,8|0,0:0|0:0,0:0:0:0:
244,192,80463,6,0,P|224:256|260:320,1,120,6|8,0:0|0:0,0:0:0:0:
304,360,81144,1,0,0:0:0:0:
348,288,81372,2,0,L|407:296,1,60,2|2,0:0|0:0,0:0:0:0:
508,213,81826,2,0,L|448:223,1,60,8|2,0:0|0:0,0:0:0:0:
368,131,82281,6,0,L|428:140,1,60,2|0,0:0|0:0,0:0:0:0:
488,84,82735,1,8,0:0:0:0:
416,40,82963,2,0,P|359:22|297:42,1,120,2|2,0:0|0:0,0:0:0:0:
224,64,83644,1,8,0:0:0:0:
156,12,83872,1,8,0:0:0:0:
112,124,84099,6,0,L|124:208,1,60,4|0,0:0|0:0,0:0:0:0:
189,231,84553,1,8,0:0:0:0:
264,324,84781,6,0,L|398:323,1,120,4|2,0:0|0:0,0:0:0:0:
468,324,85463,1,8,0:0:0:0:
468,204,85690,6,0,P|433:143|369:119,1,120,4|2,0:0|0:0,0:0:0:0:
316,84,86372,1,10,0:0:0:0:
224,164,86599,6,0,P|228:196|220:228,1,60,0|4,0:0|0:0,0:0:0:0:
184,300,87053,1,0,0:0:0:0:
108,264,87281,2,0,P|96:220|116:172,1,90,4|0,0:0|0:0,0:0:0:0:
