osu file format v14

[General]
AudioFilename: audio.mp3
AudioLeadIn: 0
PreviewTime: 58428
Countdown: 0
SampleSet: Soft
StackLeniency: 0.7
Mode: 0
LetterboxInBreaks: 0
WidescreenStoryboard: 0

[Editor]
DistanceSpacing: 1
BeatDivisor: 4
GridSize: 4
TimelineZoom: 1.5

[Metadata]
Title:Aikotoba (TV Size)
TitleUnicode:アイコトバ (TV Size)
Artist:Sakura Merry-Men
ArtistUnicode:サクラメリーメン
Creator:[Kurose Riku]
Version:Normal
Source:世界一初恋 2
Tags:Prophecy kanor Sekai Ichi Hatsukoi Season 2 boys love yaoi ending bl Ryota Morinishi 森西亮太 Tohta Konishi 小西透太 Ippei イッペイ
BeatmapID:1576394
BeatmapSetID:747683

[Difficulty]
HPDrainRate:3
CircleSize:3.5
OverallDifficulty:4
ApproachRate:5
SliderMultiplier:1
SliderTickRate:1

[Events]
//Background and Video events
0,0,"CG3.jpg",0,0
Video,0,"ed.mp4"
//Break Periods
//Storyboard Layer 0 (Background)
//Storyboard Layer 1 (Fail)
//Storyboard Layer 2 (Pass)
//Storyboard Layer 3 (Foreground)
//Storyboard Sound Samples

[TimingPoints]
506,451.807228915663,4,2,1,50,1,0
7057,445.103857566766,4,2,1,50,1,0
7502,448.430493273543,4,2,1,50,1,0
7950,453.001132502831,4,2,1,50,1,0
8176,453.001132502831,4,2,1,50,1,0
11348,447.761194029851,4,2,1,50,1,0
11795,521.739130434783,4,2,1,50,1,0
12055,442.80442804428,4,2,1,50,1,0
12719,454.545454545455,4,2,1,50,1,0
14991,455.407969639469,4,2,1,50,1,0
20000,461.538461538462,4,2,1,50,1,0
22076,428.571428571429,4,2,1,50,1,0
22504,456.62100456621,4,2,1,50,1,0
22732,456.62100456621,4,2,1,50,1,0
24558,454.545454545455,4,2,1,50,1,0
25921,440.852314474651,4,2,1,50,1,0
26361,454.545454545455,4,2,1,50,1,0
29542,454.545454545455,4,2,1,50,1,0
42723,461.538461538462,4,2,1,50,1,0
44107,454.545454545455,4,2,1,50,1,0
47743,446.927374301676,4,2,1,50,1,0
48189,451.127819548872,4,2,1,50,1,0
48414,445.269016697588,4,2,1,50,1,0
48636,456.273764258555,4,2,1,50,1,0
49548,441.176470588235,4,2,1,50,1,0
49989,465.116279069767,4,2,1,50,1,0
50454,451.127819548872,4,2,1,50,1,0
51356,456.273764258555,4,2,1,50,1,0
58428,455.407969639469,4,2,1,70,1,1
58883,454.545454545455,4,2,1,50,1,1
59110,454.545454545455,4,2,1,70,1,1
61837,457.491422035837,4,2,1,70,1,1
62523,456.273764258555,4,2,1,70,1,1
62751,456.273764258555,4,2,1,70,1,1
63891,454.545454545455,4,2,1,70,1,1
64345,451.127819548872,4,2,1,70,1,1
64570,451.127819548872,4,2,1,70,1,1
65924,454.545454545455,4,2,1,70,1,1
67742,444.444444444444,4,2,1,70,1,1
68186,454.545454545455,4,2,1,70,1,1
68640,458.015267175573,4,2,1,70,1,1
69556,454.545454545455,4,2,1,70,1,1
71146,451.127819548872,4,2,1,70,1,1
71822,451.127819548872,4,2,1,70,1,1
72949,465.116279069767,4,2,1,70,1,1
73646,454.545454545455,4,2,1,70,1,1
75009,454.545454545455,4,2,1,70,1,1
80463,454.545454545455,4,2,1,70,1,1
87281,-100,4,2,1,70,0,0

[Colours]
Combo1 : 185,255,185
Combo2 : 255,170,170
Combo3 : 149,197,255
Combo4 : 227,200,255

[HitObjects]
80,220,506,6,0,P|128:232|184:220,1,100,4|0,0:0|0:0,0:0:0:0:
260,168,1409,2,0,P|308:159|357:171,1,100
400,200,2087,1,0,0:0:0:0:
400,200,2313,2,0,P|409:248|397:297,1,100,4|0,0:0|0:0,0:0:0:0:
320,360,3216,6,0,P|271:348|222:358,1,100
176,376,3894,1,0,0:0:0:0:
176,376,4120,2,0,P|166:326|179:278,1,100,4|0,0:0|0:0,0:0:0:0:
212,182,5024,2,0,P|261:194|310:184,1,100
356,170,5701,1,0,0:0:0:0:
356,170,5927,2,0,P|368:121|358:72,1,100,4|0,0:0|0:0,0:0:0:0:
272,20,6831,2,0,L|204:20,1,50,8|0,0:0|0:0,0:0:0:0:
140,76,7502,6,0,P|112:156|144:232,1,150.519031141869,2|8,0:0|0:0,0:0:0:0:
208,280,8629,2,0,P|260:265|315:295,1,100,0|8,0:0|0:0,0:0:0:0:
352,280,9308,1,0,0:0:0:0:
352,280,9535,2,0,L|352:168,1,100,0|8,0:0|0:0,0:0:0:0:
416,100,10441,2,0,P|420:72|408:32,2,50,2|10|8,0:0|0:0|0:0,0:0:0:0:
320,72,11348,6,0,L|208:48,1,100,6|8,0:0|0:0,0:0:0:0:
164,36,12055,1,6,0:0:0:0:
76,84,12497,2,0,L|48:136,1,50,2|8,0:0|0:0,0:0:0:0:
32,172,12946,2,0,P|63:213|115:225,1,100,6|0,0:0|0:0,0:0:0:0:
160,228,13628,1,8,0:0:0:0:
252,268,14082,2,0,P|264:320|244:372,1,100,4|12,0:0|0:0,0:0:0:0:
152,360,14991,6,0,L|36:328,1,100,0|8,0:0|0:0,0:0:0:0:
60,236,15901,2,0,L|65:172,1,50,0|2,0:0|0:0,0:0:0:0:
100,152,16358,2,0,L|94:92,1,50,8|2,0:0|0:0,0:0:0:0:
116,56,16812,2,0,P|162:69|219:50,1,100,0|8,0:0|0:0,0:0:0:0:
304,100,17724,2,0,L|353:104,1,50,0|2,0:0|0:0,0:0:0:0:
388,68,18179,2,0,L|437:63,1,50,8|2,0:0|0:0,0:0:0:0:
484,80,18634,6,0,L|452:195,1,100,0|8,0:0|0:0,0:0:0:0:
408,264,19545,2,0,L|413:331,2,50,2|8|8,0:0|0:0|0:0,0:0:0:0:
364,240,20230,2,0,P|312:248|260:232,1,100,4|0,0:0|0:0,0:0:0:0:
228,204,20923,1,8,0:0:0:0:
228,204,21153,2,0,L|124:216,1,100,4|8,0:0|0:0,0:0:0:0:
92,184,21846,2,0,L|36:168,1,50,2|6,0:0|0:0,0:0:0:0:
104,40,22732,6,0,P|154:28|211:54,1,100,8|0,0:0|0:0,0:0:0:0:
232,80,23416,1,0,0:0:0:0:
232,80,23645,2,0,L|331:49,1,100,8|0,0:0|0:0,0:0:0:0:
364,16,24330,2,0,L|420:36,1,50,0|8,0:0|0:0,0:0:0:0:
440,128,25012,2,0,P|428:178|454:235,1,100,0|8,0:0|0:0,0:0:0:0:
464,324,25921,6,0,L|392:332,1,50,0|0,0:0|0:0,0:0:0:0:
372,356,26361,2,0,L|265:337,1,100,8|0,0:0|0:0,0:0:0:0:
228,320,27042,2,0,L|172:336,1,50,0|8,0:0|0:0,0:0:0:0:
140,244,27724,2,0,P|155:197|143:149,1,100,0|8,0:0|0:0,0:0:0:0:
104,56,28633,1,0,0:0:0:0:
104,56,28861,2,0,L|164:56,1,50,0|8,0:0|0:0,0:0:0:0:
252,48,29542,6,0,P|304:41|362:71,1,100,0|8,0:0|0:0,0:0:0:0:
392,80,30223,1,0,0:0:0:0:
392,80,30451,2,0,L|461:61,2,50,0|0|8,0:0|0:0|0:0,0:0:0:0:
392,180,31360,2,0,P|404:227|388:274,1,100,2|8,0:0|0:0,0:0:0:0:
344,300,32042,2,0,P|297:283|249:295,1,100,2|2,0:0|0:0,0:0:0:0:
208,324,32723,1,8,0:0:0:0:
132,260,33178,6,0,L|142:144,1,100,4|8,0:0|0:0,0:0:0:0:
120,64,34087,2,0,L|187:69,1,50,0|2,0:0|0:0,0:0:0:0:
212,96,34542,2,0,P|259:106|316:88,1,100,8|0,0:0|0:0,0:0:0:0:
352,76,35223,1,0,0:0:0:0:
352,76,35451,2,0,L|342:179,1,100,8|0,0:0|0:0,0:0:0:0:
332,224,36132,2,0,L|388:212,1,50,2|8,0:0|0:0,0:0:0:0:
476,232,36814,6,0,L|465:347,1,100,4|8,0:0|0:0,0:0:0:0:
372,360,37723,2,0,L|304:354,1,50,0|2,0:0|0:0,0:0:0:0:
280,328,38178,2,0,P|232:317|175:335,1,100,8|0,0:0|0:0,0:0:0:0:
140,356,38860,1,0,0:0:0:0:
140,356,39087,2,0,L|149:244,1,100,8|0,0:0|0:0,0:0:0:0:
168,210,39769,2,0,L|112:222,1,50,2|8,0:0|0:0,0:0:0:0:
24,196,40451,6,0,L|34:80,1,100,6|8,0:0|0:0,0:0:0:0:
112,36,41360,2,0,L|171:41,2,50,0|0|10,0:0|0:0|0:0,0:0:0:0:
124,136,42269,2,0,L|243:125,1,100,2|8,0:0|0:0,0:0:0:0:
272,120,42953,2,0,P|270:174|302:211,1,100,2|2,0:0|0:0,0:0:0:0:
336,240,43646,1,8,0:0:0:0:
416,180,44107,6,0,P|417:125|385:88,1,100,4|8,0:0|0:0,0:0:0:0:
352,60,44788,1,2,0:0:0:0:
352,60,45016,2,0,L|236:60,1,100,2|8,0:0|0:0,0:0:0:0:
168,116,45925,2,0,P|152:168|172:212,1,100,0|8,0:0|0:0,0:0:0:0:
192,252,46607,1,2,0:0:0:0:
192,252,46834,2,0,L|182:351,1,100,2|8,0:0|0:0,0:0:0:0:
283,351,47743,6,0,L|274:252,1,100,2|8,0:0|0:0,0:0:0:0:
276,200,48414,1,2,0:0:0:0:
276,200,48636,2,0,P|292:153|275:107,1,100,2|8,0:0|0:0,0:0:0:0:
204,32,49548,2,0,L|152:36,1,50,2|0,0:0|0:0,0:0:0:0:
116,64,49989,2,0,L|44:60,1,50,10|0,0:0|0:0,0:0:0:0:
28,96,50454,2,0,P|8:144|36:204,1,100,0|8,0:0|0:0,0:0:0:0:
44,232,51130,1,2,0:0:0:0:
44,232,51356,6,0,L|160:220,1,100,4|8,0:0|0:0,0:0:0:0:
192,216,52040,1,2,0:0:0:0:
192,216,52268,2,0,P|209:264|178:323,1,100,2|8,0:0|0:0,0:0:0:0:
276,364,53181,6,0,P|297:320|342:299,1,100,2|8,0:0|0:0,0:0:0:0:
388,276,53865,1,2,0:0:0:0:
388,276,54093,2,0,L|448:284,2,50,2|8|8,0:0|0:0|0:0,0:0:0:0:
296,236,55006,2,0,L|236:228,2,50,2|2|8,0:0|0:0|0:0,0:0:0:0:
384,192,55918,2,0,L|448:184,2,50,2|0|8,0:0|0:0|0:0,0:0:0:0:
296,236,56831,6,0,L|290:164,1,50,2|0,0:0|0:0,0:0:0:0:
248,164,57287,2,0,L|252:92,1,50,10|0,0:0|0:0,0:0:0:0:
256,64,57743,1,10,0:0:0:0:
256,64,57971,1,10,0:0:0:0:
356,60,58428,6,0,P|420:76|496:32,1,150,4|8,0:0|0:0,0:0:0:0:
504,136,59564,2,0,P|457:148|423:190,1,100,2|8,0:0|0:0,0:0:0:0:
396,228,60246,2,0,L|284:199,1,100,4|0,0:0|0:0,0:0:0:0:
252,188,60928,1,8,0:0:0:0:
168,240,61382,2,2,L|112:240,2,50,2|2|8,0:0|0:0|0:0,0:0:0:0:
196,280,62065,6,0,P|244:283|283:315,1,100,4|0,0:0|0:0,0:0:0:0:
320,352,62751,1,8,0:0:0:0:
408,304,63207,2,0,L|464:308,2,50,2|2|8,0:0|0:0|0:0,0:0:0:0:
368,272,63891,2,0,P|354:224|368:176,1,100,4|0,0:2|0:0,0:0:0:0:
392,132,64570,1,8,0:0:0:0:
328,56,65021,2,0,L|256:68,1,50,2|2,0:0|0:0,0:0:0:0:
228,76,65472,1,8,0:0:0:0:
192,168,65924,6,0,P|176:224|188:264,1,100,2|8,0:0|0:0,0:0:0:0:
280,220,66833,1,2,0:0:0:0:
280,220,67060,2,0,L|332:208,1,50,2|8,0:0|0:0,0:0:0:0:
328,312,67742,2,0,L|440:328,1,100,2|8,0:0|0:0,0:0:0:0:
468,236,68640,1,2,0:0:0:0:
468,236,68869,2,0,L|468:176,1,50,2|8,0:0|0:0,0:0:0:0:
380,140,69556,6,0,P|366:87|397:28,1,100,2|8,0:0|0:0,0:0:0:0:
288,12,70465,2,0,L|232:12,1,50,2|8,0:0|0:0,0:0:0:0:
188,12,70919,1,8,0:0:0:0:
188,12,71146,2,0,B|148:88|212:88|172:172,1,150,4|8,0:0|0:0,0:0:0:0:
224,248,72273,2,0,P|273:238|330:263,1,100,2|2,0:0|0:0,0:0:0:0:
364,276,72949,6,0,L|364:120,1,150,4|8,0:0|0:0,0:0:0:0:
328,32,74100,2,0,P|280:32|236:64,1,100,2|8,0:0|0:0,0:0:0:0:
200,92,74782,2,0,L|100:36,1,100,4|2,0:0|0:0,0:0:0:0:
68,20,75463,1,8,0:0:0:0:
40,116,75918,2,0,L|16:220,1,100,2|8,0:0|0:0,0:0:0:0:
0,260,76599,6,0,P|44:239|93:247,1,100,4|2,0:0|0:0,0:0:0:0:
140,264,77281,1,8,0:0:0:0:
236,292,77736,2,0,L|226:184,1,100,2|8,0:0|0:0,0:0:0:0:
216,144,78418,2,0,P|273:155|323:130,1,100,4|2,0:0|0:0,0:0:0:0:
356,120,79099,1,8,0:0:0:0:
348,20,79554,2,0,L|276:32,1,50,2|2,0:0|0:0,0:0:0:0:
252,44,80009,1,8,0:0:0:0:
164,88,80463,5,2,0:0:0:0:
116,176,80917,2,0,P|124:228|104:284,1,100,8|2,0:0|0:0,0:0:0:0:
148,308,81599,2,0,L|212:328,1,50,2|8,0:0|0:0,0:0:0:0:
296,328,82281,1,2,0:0:0:0:
364,256,82735,2,0,L|392:147,1,100,8|2,0:0|0:0,0:0:0:0:
404,112,83417,1,10,0:0:0:0:
404,112,83644,1,8,0:0:0:0:
312,72,84099,6,0,P|255:82|212:63,1,100,4|8,0:0|0:0,0:0:0:0:
172,44,84781,2,0,L|188:164,1,100,4|2,0:0|0:0,0:0:0:0:
192,192,85463,1,8,0:0:0:0:
192,192,85690,2,0,P|276:202|325:248,1,150,4|8,0:0|0:0,0:0:0:0:
376,328,86826,1,4,0:0:0:0:
432,244,87281,1,4,0:0:0:0:
