osu file format v14

[General]
AudioFilename: audio.mp3
AudioLeadIn: 0
PreviewTime: 58428
Countdown: 0
SampleSet: Soft
StackLeniency: 0.7
Mode: 0
LetterboxInBreaks: 0
WidescreenStoryboard: 0

[Editor]
DistanceSpacing: 1
BeatDivisor: 4
GridSize: 4
TimelineZoom: 1.5

[Metadata]
Title:Aikotoba (TV Size)
TitleUnicode:アイコトバ (TV Size)
Artist:Sakura Merry-Men
ArtistUnicode:サクラメリーメン
Creator:[Kurose Riku]
Version:Easy
Source:世界一初恋 2
Tags:Prophecy kanor Sekai Ichi Hatsukoi Season 2 boys love yaoi ending bl Ryota Morinishi 森西亮太 Tohta Konishi 小西透太 Ippei イッペイ
BeatmapID:1579876
BeatmapSetID:747683

[Difficulty]
HPDrainRate:2
CircleSize:3
OverallDifficulty:2
ApproachRate:3
SliderMultiplier:0.8
SliderTickRate:1

[Events]
//Background and Video events
0,0,"CG2.jpg",0,0
Video,0,"ed.mp4"
//Break Periods
2,18378,21292
//Storyboard Layer 0 (Background)
//Storyboard Layer 1 (Fail)
//Storyboard Layer 2 (Pass)
//Storyboard Layer 3 (Foreground)
//Storyboard Sound Samples

[TimingPoints]
506,451.807228915663,4,2,1,50,1,0
7057,445.103857566766,4,2,1,50,1,0
7502,448.430493273543,4,2,1,50,1,0
7950,453.001132502831,4,2,1,50,1,0
8176,453.001132502831,4,2,1,50,1,0
11348,447.761194029851,4,2,1,50,1,0
11795,521.739130434783,4,2,1,50,1,0
12055,442.80442804428,4,2,1,50,1,0
12719,454.545454545455,4,2,1,50,1,0
14991,455.407969639469,4,2,1,50,1,0
20000,461.538461538462,4,2,1,50,1,0
22076,428.571428571429,4,2,1,50,1,0
22504,456.62100456621,4,2,1,50,1,0
22732,456.62100456621,4,2,1,50,1,0
24558,454.545454545455,4,2,1,50,1,0
25921,440.852314474651,4,2,1,50,1,0
26361,454.545454545455,4,2,1,50,1,0
29542,454.545454545455,4,2,1,50,1,0
42723,461.538461538462,4,2,1,50,1,0
44107,454.545454545455,4,2,1,50,1,0
47743,446.927374301676,4,2,1,50,1,0
48189,451.127819548872,4,2,1,50,1,0
48414,445.269016697588,4,2,1,50,1,0
48636,456.273764258555,4,2,1,50,1,0
49548,441.176470588235,4,2,1,50,1,0
49989,465.116279069767,4,2,1,50,1,0
50454,451.127819548872,4,2,1,50,1,0
51356,456.273764258555,4,2,1,50,1,0
58428,455.407969639469,4,2,1,70,1,1
58883,454.545454545455,4,2,1,70,1,1
59110,454.545454545455,4,2,1,70,1,1
61837,457.491422035837,4,2,1,70,1,1
62523,456.273764258555,4,2,1,70,1,1
62751,456.273764258555,4,2,1,70,1,1
63891,454.545454545455,4,2,1,70,1,1
64345,451.127819548872,4,2,1,70,1,1
64570,451.127819548872,4,2,1,70,1,1
65924,454.545454545455,4,2,1,70,1,1
67742,444.444444444444,4,2,1,70,1,1
68186,454.545454545455,4,2,1,70,1,1
68640,458.015267175573,4,2,1,70,1,1
69556,454.545454545455,4,2,1,70,1,1
71146,451.127819548872,4,2,1,70,1,1
71822,451.127819548872,4,2,1,70,1,1
72949,465.116279069767,4,2,1,70,1,1
73646,454.545454545455,4,2,1,70,1,1
75009,454.545454545455,4,2,1,70,1,1
80463,454.545454545455,4,2,1,70,1,1
87281,-100,4,2,1,70,0,0

[Colours]
Combo1 : 185,255,185
Combo2 : 255,170,170
Combo3 : 149,197,255
Combo4 : 227,200,255

[HitObjects]
48,296,506,6,0,P|128:272|200:312,1,160,4|0,0:0|0:0,0:0:0:0:
344,252,2313,2,0,P|368:172|328:100,1,160,4|0,0:0|0:0,0:0:0:0:
188,44,4120,6,0,P|163:118|196:189,1,160,4|0,0:0|0:0,0:0:0:0:
344,252,5927,2,0,P|293:311|216:320,1,160,4|8,0:0|0:0,0:0:0:0:
104,276,7502,6,0,P|84:220|116:156,1,120.357142857143,2|8,0:0|0:0,0:0:0:0:
168,116,8629,1,2,0:0:0:0:
236,76,9082,2,0,P|280:68|324:84,2,80,8|2|8,0:0|0:0|0:0,0:0:0:0:
168,116,10441,2,0,L|168:200,1,80,2|8,0:0|0:0,0:0:0:0:
200,272,11348,6,0,P|256:256|324:284,1,126.438152011922,4|4,0:0|0:0,0:0:0:0:
396,260,12497,1,8,0:0:0:0:
444,196,12946,2,0,L|463:76,1,120,4|8,0:0|0:0,0:0:0:0:
387,53,14082,2,0,L|372:136,1,80,4|12,0:0|0:0,0:0:0:0:
256,192,14991,12,0,18178,0:0:0:0:
384,260,22732,5,8,0:0:0:0:
428,192,23188,2,0,P|430:134|416:100,2,80,2|8|2,0:0|0:0|0:0,0:0:0:0:
384,260,24558,1,8,0:0:0:0:
320,308,25012,2,0,L|228:308,1,80,2|8,0:0|0:0,0:0:0:0:
164,276,25921,2,0,P|156:232|172:188,1,80,2|8,0:0|0:0,0:0:0:0:
204,128,26815,5,2,0:0:0:0:
140,80,27270,2,0,P|89:53|52:52,2,80,8|2|8,0:0|0:0|0:0,0:0:0:0:
204,128,28633,2,0,L|332:127,1,120,2|2,0:0|0:0,0:0:0:0:
356,152,29542,2,0,P|364:196|348:240,1,80,2|8,0:0|0:0,0:0:0:0:
384,304,30451,6,0,P|422:296|461:306,1,80,2|8,0:0|0:0,0:0:0:0:
492,232,31360,2,0,P|484:193|494:154,1,80,2|8,0:0|0:0,0:0:0:0:
488,116,32042,2,0,L|404:68,1,80,2|2,0:0|0:0,0:0:0:0:
384,60,32723,1,8,0:0:0:0:
304,76,33178,6,0,L|216:108,1,80,12|8,0:0|0:0,0:0:0:0:
156,140,34087,2,0,L|100:140,2,40,2|0|8,0:0|0:0|0:0,0:0:0:0:
216,192,34996,2,0,P|224:236|208:280,1,80,2|8,0:0|0:0,0:0:0:0:
144,228,35905,2,0,L|88:228,2,40,2|0|8,0:0|0:0|0:0,0:0:0:0:
214,269,36814,6,0,L|304:268,1,80,2|8,0:0|0:0,0:0:0:0:
360,316,37723,2,0,L|416:316,2,40,2|0|8,0:0|0:0|0:0,0:0:0:0:
293,268,38632,2,0,P|284:224|299:179,1,80,2|8,0:0|0:0,0:0:0:0:
364,228,39542,2,0,L|420:228,2,40,2|0|8,0:0|0:0|0:0,0:0:0:0:
293,190,40451,6,0,L|292:110,1,80,2|8,0:0|0:0,0:0:0:0:
352,56,41360,2,0,L|352:0,2,40,2|0|8,0:0|0:0|0:0,0:0:0:0:
292,110,42269,2,0,P|253:118|213:109,1,80,2|8,0:0|0:0,0:0:0:0:
176,96,42953,2,0,P|164:133|168:173,1,80,2|2,0:0|0:0,0:0:0:0:
180,212,43646,1,8,0:0:0:0:
256,240,44107,6,0,P|272:304|248:360,2,120,4|2|8,0:0|0:0|0:0,0:0:0:0:
296,168,45925,2,0,L|207:144,1,80,2|8,0:0|0:0,0:0:0:0:
152,100,46834,2,0,L|63:123,1,80,2|8,0:0|0:0,0:0:0:0:
0,152,47743,5,6,0:0:0:0:
24,228,48189,2,0,B|61:250|99:233|99:233|151:213|184:248,1,160,8|8,0:0|0:0,0:0:0:0:
236,296,49548,6,0,L|321:273,1,80,2|8,0:0|0:0,0:0:0:0:
384,316,50454,2,0,L|469:338,1,80,2|8,0:0|0:0,0:0:0:0:
488,260,51356,6,0,P|475:195|502:140,2,120,4|2|8,0:0|0:0|0:0,0:0:0:0:
461,336,53181,2,0,L|371:311,1,80,2|8,0:0|0:0,0:0:0:0:
336,252,54093,2,0,L|243:276,1,80,2|8,0:0|0:0,0:0:0:0:
184,304,55006,5,4,0:0:0:0:
176,224,55462,2,0,B|139:202|101:219|101:219|49:239|13:202,1,160,8|8,0:0|0:0,0:0:0:0:
68,144,56831,1,4,0:0:0:0:
120,84,57287,2,0,L|248:84,1,120,12|10,0:0|0:0,0:0:0:0:
292,144,58428,6,0,P|268:204|292:260,1,120,4|8,0:0|0:0,0:0:0:0:
348,204,59564,2,0,L|440:204,1,80,2|8,0:0|0:0,0:0:0:0:
456,176,60246,2,0,P|474:119|446:50,1,120,4|8,0:0|0:0,0:0:0:0:
376,60,61382,6,0,L|287:36,1,80,2|8,0:0|0:0,0:0:0:0:
260,48,62065,2,0,P|203:65|147:47,1,120,4|8,0:0|0:0,0:0:0:0:
80,92,63207,2,0,L|96:188,1,80,2|8,0:0|0:0,0:0:0:0:
108,208,63891,2,0,P|165:226|234:198,1,119.647577092511,4|8,0:0|0:0,0:0:0:0:
280,156,65021,2,0,L|336:156,2,40,2|2|8,0:0|0:0|0:0,0:0:0:0:
220,208,65924,6,0,P|228:252|220:292,1,80,2|8,0:0|0:0,0:0:0:0:
148,320,66833,2,0,L|96:320,2,40,2|2|8,0:0|0:0|0:0,0:0:0:0:
222,286,67742,2,0,P|266:280|305:290,1,80,2|8,0:0|0:0,0:0:0:0:
368,328,68640,2,0,L|416:320,1,40,2|2,0:0|0:0,0:0:0:0:
448,316,69098,1,8,0:0:0:0:
456,236,69556,6,0,P|462:196|456:156,1,80,2|8,0:0|0:0,0:0:0:0:
384,124,70465,2,0,L|332:124,1,40,2|8,0:0|0:0,0:0:0:0:
304,124,70919,1,8,0:0:0:0:
280,156,71146,2,0,P|228:136|164:156,1,120,4|8,0:0|0:0,0:0:0:0:
116,92,72273,2,0,L|152:16,1,80,2|0,0:0|0:0,0:0:0:0:
188,12,72949,6,0,P|240:32|308:4,1,120,4|8,0:0|0:0,0:0:0:0:
352,72,74100,2,0,L|352:156,1,80,2|8,0:0|0:0,0:0:0:0:
364,192,74782,2,0,P|421:210|490:182,1,120,4|8,0:0|0:0,0:0:0:0:
508,268,75918,2,0,L|508:348,1,80,2|8,0:0|0:0,0:0:0:0:
472,364,76599,2,0,P|415:346|346:374,1,120,4|8,0:0|0:0,0:0:0:0:
280,340,77736,6,0,L|188:316,1,80,2|8,0:0|0:0,0:0:0:0:
188,284,78418,2,0,P|206:227|178:158,1,120,4|8,0:0|0:0,0:0:0:0:
120,132,79554,2,0,P|111:189|128:223,1,80,2|8,0:0|0:0,0:0:0:0:
72,272,80463,6,0,P|32:192|40:120,1,160,2|2,0:0|0:0,0:0:0:0:
88,64,81826,1,8,0:0:0:0:
164,36,82281,2,0,P|200:46|255:27,1,80,2|8,0:0|0:0,0:0:0:0:
320,28,83190,2,0,L|368:28,2,40,2|8|8,0:0|0:0|0:0,0:0:0:0:
240,37,84099,6,0,P|197:85|201:145,1,120,4|4,0:0|0:0,0:0:0:0:
208,216,85235,1,8,0:0:0:0:
152,272,85690,2,0,P|216:296|272:264,1,120,4|8,0:0|0:0,0:0:0:0:
328,232,86826,1,4,0:0:0:0:
392,280,87281,1,4,0:0:0:0:
