osu file format v14

[General]
AudioFilename: audio.mp3
AudioLeadIn: 0
PreviewTime: 59240
Countdown: 0
SampleSet: Soft
StackLeniency: 0.7
Mode: 0
LetterboxInBreaks: 0
WidescreenStoryboard: 1

[Editor]
DistanceSpacing: 1.6
BeatDivisor: 4
GridSize: 16
TimelineZoom: 1.8

[Metadata]
Title:Onegai Muscle (TV Size)
TitleUnicode:お願いマッスル (TV Size)
Artist:Sakura Hibiki (CV: Fairouz Ai), Machio Naruzou (CV: Ishikawa Kaito)
ArtistUnicode:紗倉ひびき(CV:ファイルーズあい)&街雄鳴造(CV:石川界人)
Creator:stack92
Version:Light Insane
Source:ダンベル何キロ持てる?
Tags:dumbbell nan kilo moteru? how heavy are the dumbbells you lift? anime opening op japanese j-pop sakura hibiki machio naruzou pop jpop
BeatmapID:2144924
BeatmapSetID:1020533

[Difficulty]
HPDrainRate:5
CircleSize:3.8
OverallDifficulty:6.5
ApproachRate:8
SliderMultiplier:1.4
SliderTickRate:1

[Events]
//Background and Video events
0,0,"bg.png",0,0
//Break Periods
//Storyboard Layer 0 (Background)
//Storyboard Layer 1 (Fail)
//Storyboard Layer 2 (Pass)
//Storyboard Layer 3 (Foreground)
//Storyboard Layer 4 (Overlay)
//Storyboard Sound Samples

[TimingPoints]
1059,454.545454545455,4,2,1,65,1,0
1059,-100,4,2,1,65,0,0
11968,-66.6666666666667,4,2,1,65,0,0
15604,-100,4,2,1,65,0,0
24468,-66.6666666666667,4,2,1,65,0,0
44695,-100,4,2,1,65,0,0
54695,-133.333333333333,4,2,1,65,0,0
55263,-100,4,2,1,65,0,0
56513,-50,4,2,1,65,0,0
59240,-66.6666666666667,4,2,1,65,0,1
73786,-100,4,2,1,65,0,0
82650,-66.6666666666667,4,2,1,65,0,0

[Colours]
Combo1 : 255,255,0
Combo2 : 0,100,255
Combo3 : 0,193,89
Combo4 : 0,255,255

[HitObjects]
69,14,1059,6,0,P|58:58|71:109,1,70,6|0,0:0|0:0,0:0:0:0:
143,146,1513,2,0,L|185:151,2,35,8|0|0,0:0|0:0|0:0,0:0:0:0:
50,183,1968,2,0,P|64:216|108:249,1,70,2|0,0:0|0:0,0:0:0:0:
129,257,2309,1,0,0:0:0:0:
129,257,2422,1,8,0:0:0:0:
108,358,2649,5,0,0:0:0:0:
108,358,2877,2,0,P|151:359|193:343,1,70,2|0,0:0|0:0,0:0:0:0:
279,358,3331,2,0,P|316:335|340:294,1,70,8|0,0:0|0:0,0:0:0:0:
436,325,3786,2,0,P|456:289|455:240,1,70,2|0,0:0|0:0,0:0:0:0:
456,223,4127,1,0,0:0:0:0:
456,223,4240,1,8,0:0:0:0:
488,122,4468,1,0,0:0:0:0:
384,137,4695,2,0,P|381:94|395:61,1,70,2|0,0:0|0:0,0:0:0:0:
309,18,5150,5,8,0:0:0:0:
309,18,5263,1,0,0:0:0:0:
309,18,5377,1,0,0:0:0:0:
204,13,5604,2,0,P|214:63|240:89,1,70,2|0,0:0|0:0,0:0:0:0:
257,112,5945,1,0,0:0:0:0:
257,112,6059,1,8,0:0:0:0:
172,173,6286,6,0,P|137:176|102:171,1,70,0|2,0:0|0:0,0:0:0:0:
58,76,6740,2,0,P|19:106|3:150,1,70,0|8,0:0|0:0,0:0:0:0:
19,228,7195,1,0,0:0:0:0:
143,334,7422,1,2,0:0:0:0:
172,173,7650,1,0,0:0:0:0:
295,275,7877,2,0,P|324:305|366:320,1,70,8|8,0:0|0:0,0:0:0:0:
394,298,8218,1,8,0:0:0:0:
394,298,8331,1,6,0:0:0:0:
466,126,8559,1,0,0:0:0:0:
466,126,8786,6,0,L|509:129,2,35,8|0|0,0:0|0:0|0:0,0:0:0:0:
415,34,9240,2,0,P|374:31|339:36,1,70,2|0,0:0|0:0,0:0:0:0:
309,52,9581,1,0,0:0:0:0:
309,52,9695,1,8,0:0:0:0:
78,117,9922,6,0,P|112:108|147:111,1,70,0|2,0:0|0:0,0:0:0:0:
259,125,10377,2,0,P|249:158|230:188,1,70,0|8,0:0|0:0,0:0:0:0:
167,273,10831,2,0,P|143:248|128:217,1,70,0|2,0:0|0:0,0:0:0:0:
35,207,11286,1,0,0:0:0:0:
114,34,11513,1,8,0:0:0:0:
114,34,11740,1,0,0:0:0:0:
230,187,11968,6,0,P|263:232|271:295,1,105.000004005432,2|0,0:0|0:0,0:0:0:0:
263,368,12309,1,0,0:0:0:0:
263,368,12422,1,8,0:0:0:0:
263,368,12536,2,0,L|315:372,1,52.5000020027161
483,195,12877,6,0,P|492:141|470:65,1,105.000004005432,2|0,0:0|0:0,0:0:0:0:
442,5,13218,1,0,0:0:0:0:
442,5,13331,1,8,0:0:0:0:
442,5,13445,2,0,L|365:11,1,52.5000020027161
230,187,13786,5,2,0:0:0:0:
93,110,14013,2,0,L|89:48,2,52.5000020027161,0|0|8,0:0|0:0|0:0,0:0:0:0:
88,271,14468,1,0,0:0:0:0:
88,271,14695,2,0,P|109:317|168:347,1,105.000004005432,2|0,0:0|0:0,0:0:0:0:
272,279,15150,1,8,0:0:0:0:
384,334,15377,1,8,0:0:0:0:
441,229,15604,6,0,L|438:138,1,70,6|0,0:0|0:0,0:0:0:0:
419,117,15945,1,0,0:0:0:0:
419,117,16059,1,8,0:0:0:0:
330,8,16286,1,0,0:0:0:0:
260,129,16513,2,0,P|224:134|174:116,1,70,2|0,0:0|0:0,0:0:0:0:
187,78,16854,1,0,0:0:0:0:
187,78,16968,2,0,P|154:64|120:63,1,70,8|0,0:0|0:0,0:0:0:0:
28,12,17422,5,2,0:0:0:0:
17,45,17535,1,0,0:0:0:0:
18,80,17649,1,0,0:0:0:0:
29,113,17762,1,0,0:0:0:0:
50,141,17877,2,0,L|46:196,3,35,8|0|0|0,0:0|0:0|0:0|0:0,0:0:0:0:
120,186,18331,2,0,L|123:233,3,35,2|0|0|0,0:0|0:0|0:0|0:0,0:0:0:0:
54,251,18786,2,0,L|49:305,3,35,8|0|0|8,0:0|0:0|0:0|0:0,0:0:0:0:
59,341,19240,6,0,P|90:358|138:345,1,70,2|0,0:0|0:0,0:0:0:0:
158,338,19581,1,0,0:0:0:0:
193,323,19695,2,0,P|227:319|257:336,1,70,8|0,0:0|0:0,0:0:0:0:
322,206,20150,1,2,0:0:0:0:
453,321,20377,1,0,0:0:0:0:
488,149,20604,2,0,P|469:104|448:86,2,70,8|0|2,0:0|0:0|0:0,0:0:0:0:
484,183,21172,5,0,0:0:0:0:
461,210,21286,1,0,0:0:0:0:
426,215,21400,1,0,0:0:0:0:
393,203,21513,1,8,0:0:0:0:
328,95,21740,1,0,0:0:0:0:
192,57,21968,2,0,L|189:17,2,35,2|0|0,0:0|0:0|0:0,0:0:0:0:
225,192,22422,2,0,P|174:201|132:175,1,70,8|8,0:0|0:0,0:0:0:0:
126,179,22763,1,8,0:0:0:0:
126,179,22877,5,6,0:0:0:0:
75,48,23104,1,0,0:0:0:0:
9,171,23331,2,0,P|11:213|31:251,1,70,8|0,0:0|0:0,0:0:0:0:
156,277,23786,2,0,P|154:319|134:357,1,70,2|0,0:0|0:0,0:0:0:0:
43,363,24127,2,0,L|-13:360,1,35,0|8,0:0|0:0,0:0:0:0:
293,301,24468,1,0,0:0:0:0:
293,301,24581,1,0,0:0:0:0:
293,301,24695,6,0,L|368:296,1,52.5000020027161,2|0,0:0|0:0,0:0:0:0:
412,216,24922,2,0,L|407:141,1,52.5000020027161,0|0,0:3|0:3,0:3:0:0:
331,90,25150,2,0,L|256:95,1,52.5000020027161,8|0,0:0|0:0,0:0:0:0:
207,171,25377,2,0,L|212:246,1,52.5000020027161,0|0,0:3|0:3,0:3:0:0:
205,265,25604,1,2,0:0:0:0:
173,292,25718,1,0,0:0:0:0:
131,284,25831,1,0,0:0:0:0:
106,249,25945,1,0,0:0:0:0:
115,208,26059,2,0,P|101:148|36:125,1,105.000004005432,8|0,0:0|0:0,0:0:0:0:
25,19,26513,6,0,L|92:28,1,52.5000020027161,2|0,0:0|0:0,0:0:0:0:
184,45,26740,1,0,0:0:0:0:
184,45,26968,2,0,L|186:124,2,52.5000020027161,8|0|0,0:0|0:0|0:0,0:0:0:0:
338,67,27422,6,0,L|415:81,1,52.5000020027161,2|0,0:0|0:0,0:0:0:0:
497,95,27649,1,0,0:0:0:0:
497,95,27877,2,0,L|503:25,2,52.5000020027161,8|0|0,0:0|0:0|0:0,0:0:0:0:
387,208,28331,5,2,0:0:0:0:
495,322,28559,1,0,0:0:0:0:
495,322,28672,1,0,0:0:0:0:
495,322,28786,1,8,0:0:0:0:
341,354,29013,1,0,0:0:0:0:
387,208,29240,2,8,L|322:211,3,52.5000020027161
311,252,29695,2,2,L|246:255,3,52.5000020027161
198,304,30150,5,6,0:0:0:0:
198,304,30263,1,0,0:0:0:0:
198,304,30377,2,0,L|115:297,1,52.5000020027161
95,238,30604,2,0,L|41:243,3,52.5000020027161,8|0|0|0,0:0|0:0|0:0|0:0,0:0:0:0:
210,194,31059,5,2,0:0:0:0:
210,194,31172,1,0,0:0:0:0:
210,194,31286,2,0,L|127:187,1,52.5000020027161
107,128,31513,2,0,L|53:133,3,52.5000020027161,8|0|0|0,0:0|0:0|0:0|0:0,0:0:0:0:
12,133,31968,5,2,0:0:0:0:
8,91,32081,1,0,0:0:0:0:
26,54,32195,1,0,0:0:0:0:
62,33,32308,1,0,0:0:0:0:
104,36,32422,2,0,L|172:41,1,52.5000020027161,8|0,0:0|0:0,0:0:0:0:
178,76,32649,2,0,L|246:71,1,52.5000020027161
302,112,32877,5,2,0:0:0:0:
302,112,32990,1,8,0:0:0:0:
302,112,33104,1,0,0:0:0:0:
462,34,33331,1,8,0:0:0:0:
460,213,33559,1,8,0:0:0:0:
461,228,33672,1,8,0:0:0:0:
461,243,33786,6,0,L|457:318,3,52.5000020027161,2|0|0|0,0:0|0:0|0:0|0:0,0:0:0:0:
381,329,34240,2,0,L|378:276,3,52.5000020027161,8|0|0|0,0:0|0:0|0:0|0:0,0:0:0:0:
374,234,34695,5,2,0:0:0:0:
357,196,34808,1,0,0:0:0:0:
318,186,34922,1,0,0:0:0:0:
285,209,35035,1,0,0:0:0:0:
286,251,35150,2,0,L|215:258,1,52.5000020027161,8|0,0:0|0:0,0:0:0:0:
215,288,35377,2,0,L|144:281,1,52.5000020027161
80,265,35604,5,2,0:0:0:0:
56,230,35717,1,0,0:0:0:0:
48,189,35831,1,0,0:0:0:0:
55,148,35944,1,0,0:0:0:0:
77,111,36059,2,0,L|76:53,3,52.5000020027161,8|0|0|0,0:0|0:0|0:0|0:0,0:0:0:0:
83,17,36513,5,2,0:0:0:0:
144,184,36740,1,8,0:0:0:0:
268,55,36968,1,8,0:0:0:0:
324,224,37195,1,8,0:0:0:0:
324,224,37422,6,0,L|400:221,1,52.5000020027161,6|0,0:0|0:0,0:0:0:0:
474,232,37650,1,0,0:0:0:0:
474,232,37763,1,0,0:0:0:0:
474,232,37877,2,0,P|473:191|465:167,1,52.5000020027161,8|0,0:0|0:0,0:0:0:0:
389,130,38104,1,0,0:0:0:0:
389,130,38218,1,0,0:0:0:0:
389,130,38331,2,0,P|380:92|388:65,3,52.5000020027161,2|0|0|0,0:0|0:0|0:0|0:0,0:0:0:0:
392,27,38786,1,8,0:0:0:0:
304,79,39013,1,0,0:0:0:0:
304,79,39127,1,0,0:0:0:0:
304,79,39240,6,0,L|242:83,1,52.5000020027161,2|0,0:0|0:0,0:0:0:0:
198,134,39468,2,0,L|260:138,1,52.5000020027161
302,189,39695,2,0,L|240:193,1,52.5000020027161,8|0,0:0|0:0,0:0:0:0:
196,244,39923,2,0,L|258:248,1,52.5000020027161
292,263,40150,5,2,0:0:0:0:
116,292,40377,1,8,0:0:0:0:
198,134,40604,1,8,0:0:0:0:
22,166,40831,1,2,0:0:0:0:
10,40,41059,6,0,P|73:51|119:93,1,105.000004005432,2|0,0:0|0:0,0:0:0:0:
198,134,41513,2,0,P|135:145|89:187,1,105.000004005432,8|0,0:0|0:0,0:0:0:0:
28,323,41968,2,0,P|6:288|5:256,1,52.5000020027161,2|0,0:0|0:0,0:0:0:0:
88,266,42195,2,0,P|112:275|131:292,1,52.5000020027161,2|0,0:0|0:0,0:0:0:0:
106,373,42422,2,0,L|221:376,1,105.000004005432,8|0,0:0|0:0,0:0:0:0:
271,218,42877,5,8,0:0:0:0:
380,345,43104,1,2,0:0:0:0:
466,131,43331,5,8,0:0:0:0:
357,258,43558,1,2,0:0:0:0:
357,258,43672,1,2,0:0:0:0:
357,258,43786,2,0,P|314:294|263:308,1,105.000004005432,8|8,0:0|0:0,0:0:0:0:
220,305,44127,1,8,0:0:0:0:
175,288,44240,1,2,0:0:0:0:
141,254,44354,1,2,0:0:0:0:
127,208,44468,2,0,L|64:214,1,52.5000020027161,2|2,0:0|0:0,0:0:0:0:
43,215,44695,5,6,0:0:0:0:
7,79,44922,1,0,0:0:0:0:
142,115,45150,2,0,P|151:63|141:30,1,70,8|0,0:0|0:0,0:0:0:0:
239,152,45604,2,0,P|235:186|244:220,1,70,2|0,0:0|0:0,0:0:0:0:
378,169,46059,1,8,0:0:0:0:
378,169,46286,1,0,0:0:0:0:
422,294,46513,6,0,P|348:301|302:277,2,105,2|8|2,0:0|0:0|0:0,0:0:0:0:
479,165,47422,2,0,P|405:158|359:182,2,105,2|8|2,0:0|0:0|0:0,0:0:0:0:
432,38,48331,5,2,0:0:0:0:
306,101,48559,1,0,0:0:0:0:
432,38,48786,1,8,0:0:0:0:
306,101,49013,1,0,0:0:0:0:
197,13,49240,2,0,P|158:19|114:44,1,70,2|0,0:0|0:0,0:0:0:0:
32,22,49695,2,0,P|17:58|17:109,1,70,8|0,0:0|0:0,0:0:0:0:
133,151,50150,5,2,0:0:0:0:
31,350,50604,1,8,0:0:0:0:
30,151,51059,1,2,0:0:0:0:
132,350,51513,1,8,0:0:0:0:
132,350,51968,6,0,P|185:357|211:351,2,70,6|0|8,0:0|0:0|0:0,0:0:0:0:
82,249,52650,1,0,0:0:0:0:
133,151,52877,2,0,P|186:144|212:150,1,70,2|0,0:0|0:0,0:0:0:0:
233,224,53331,2,0,P|267:227|301:219,1,70,8|0,0:0|0:0,0:0:0:0:
349,150,53786,6,0,P|377:184|383:245,1,105,2|8,0:0|0:0,0:0:0:0:
383,243,54468,1,2,0:0:0:0:
383,342,54695,2,0,P|432:332|461:307,1,78.7500030040742,2|8,0:0|0:0,0:0:0:0:
485,214,55263,5,0,0:0:0:0:
484,171,55377,1,2,0:0:0:0:
483,129,55490,1,0,0:0:0:0:
480,86,55604,2,0,P|461:56|422:33,1,70,8|2,0:0|0:0,0:0:0:0:
294,232,56059,1,8,0:0:0:0:
255,97,56286,1,2,0:0:0:0:
178,284,56513,6,0,P|112:299|32:278,1,140,8|2,0:0|0:0,0:0:0:0:
113,85,56968,1,8,0:0:0:0:
294,232,57195,1,2,0:0:0:0:
113,85,57422,1,8,0:0:0:0:
378,68,58559,5,2,0:0:0:0:
457,162,58786,1,8,0:0:0:0:
473,200,58899,1,8,0:0:0:0:
477,242,59013,1,2,0:0:0:0:
470,283,59126,1,2,0:0:0:0:
445,316,59240,2,2,P|385:308|331:323,1,105.000004005432,6|0,0:0|0:0,0:0:0:0:
226,245,59695,6,0,L|232:174,2,52.5000020027161,8|0|0,0:0|0:0|0:0,0:0:0:0:
117,328,60150,2,0,P|79:287|80:231,1,105.000004005432,2|0,0:0|0:0,0:0:0:0:
97,191,60490,1,0,0:0:0:0:
97,191,60604,1,8,0:0:0:0:
146,71,60831,5,0,0:0:0:0:
10,85,61059,1,2,0:0:0:0:
146,71,61286,1,0,0:0:0:0:
10,85,61514,1,8,0:0:0:0:
97,191,61740,1,0,0:0:0:0:
97,191,61968,2,0,P|156:203|224:172,1,105.000004005432,2|0,0:0|0:0,0:0:0:0:
231,150,62309,2,0,L|284:146,1,52.5000020027161,0|8,0:0|0:0,0:0:0:0:
324,32,62650,1,0,0:0:0:0:
324,32,62763,1,0,0:0:0:0:
324,32,62877,2,0,P|384:54|409:93,1,105.000004005432,2|0,0:0|0:0,0:0:0:0:
509,218,63331,5,8,0:0:0:0:
509,218,63445,1,0,0:0:0:0:
509,218,63559,1,0,0:0:0:0:
414,344,63786,2,0,P|364:296|355:244,1,105.000004005432,2|0,0:0|0:0,0:0:0:0:
355,224,64127,1,0,0:0:0:0:
355,224,64240,1,8,0:0:0:0:
204,168,64468,5,0,0:0:0:0:
204,168,64695,1,2,0:0:0:0:
233,323,64922,1,0,0:0:0:0:
355,224,65150,1,8,0:0:0:0:
332,74,65377,1,0,0:0:0:0:
332,74,65490,1,0,0:0:0:0:
332,74,65604,2,0,P|291:31|234:12,1,105.000004005432,2|0,0:0|0:0,0:0:0:0:
91,15,66059,2,0,P|111:67|99:127,1,105.000004005432,8|8,0:0|0:0,0:0:0:0:
6,145,66400,1,8,0:0:0:0:
6,145,66513,2,0,P|31:192|81:216,1,105.000004005432,6|0,0:0|0:0,0:0:0:0:
59,357,66968,5,8,0:0:0:0:
59,357,67081,1,0,0:0:0:0:
59,357,67195,1,0,0:0:0:0:
171,279,67422,2,0,P|187:238|183:177,1,105.000004005432,2|0,0:0|0:0,0:0:0:0:
230,154,67763,2,0,L|285:162,1,52.5000020027161,0|8,0:0|0:0,0:0:0:0:
421,189,68104,5,0,0:0:0:0:
421,189,68331,1,2,0:0:0:0:
492,85,68559,1,0,0:0:0:0:
366,72,68786,2,0,L|243:63,1,105.000004005432,8|0,0:0|0:0,0:0:0:0:
119,52,69240,1,2,0:0:0:0:
119,52,69468,1,0,0:0:0:0:
6,145,69695,1,8,0:0:0:0:
6,145,69922,1,0,0:0:0:0:
10,291,70149,6,0,P|73:306|125:293,1,105.000004005432,2|0,0:0|0:0,0:0:0:0:
199,203,70490,1,0,0:0:0:0:
199,203,70604,1,8,0:0:0:0:
199,203,70718,2,0,L|266:200,1,52.5000020027161
502,291,71059,6,0,P|439:306|387:293,1,105.000004005432,2|0,0:0|0:0,0:0:0:0:
303,203,71400,1,0,0:0:0:0:
303,203,71514,1,8,0:0:0:0:
303,203,71628,2,0,L|236:200,1,52.5000020027161
430,74,71968,5,2,0:0:0:0:
430,74,72195,2,0,L|499:82,2,52.5000020027161,0|0|8,0:0|0:0|0:0,0:0:0:0:
223,48,72650,1,0,0:0:0:0:
222,47,72877,2,0,P|163:41|113:41,1,105.000004005432,2|0,0:0|0:0,0:0:0:0:
0,51,73331,1,8,0:0:0:0:
0,51,73559,1,0,0:0:0:0:
54,152,73786,6,0,L|57:243,1,70,6|0,0:0|0:0,0:0:0:0:
61,261,74127,1,0,0:0:0:0:
61,261,74241,1,8,0:0:0:0:
152,376,74468,1,0,0:0:0:0:
219,245,74695,2,0,P|260:248|302:273,1,70,2|0,0:0|0:0,0:0:0:0:
308,303,75036,1,0,0:0:0:0:
308,303,75150,2,0,P|341:317|375:318,1,70,8|0,0:0|0:0,0:0:0:0:
467,369,75604,5,2,0:0:0:0:
478,336,75717,1,0,0:0:0:0:
477,301,75831,1,0,0:0:0:0:
466,268,75944,1,0,0:0:0:0:
445,240,76059,2,0,L|449:185,3,35,8|0|0|0,0:0|0:0|0:0|0:0,0:0:0:0:
375,195,76513,2,0,L|372:148,3,35,2|0|0|0,0:0|0:0|0:0|0:0,0:0:0:0:
441,130,76968,2,0,L|446:76,3,35,8|0|0|8,0:0|0:0|0:0|0:0,0:0:0:0:
430,55,77422,6,0,P|399:38|351:51,1,70,2|0,0:0|0:0,0:0:0:0:
332,61,77763,1,0,0:0:0:0:
297,77,77877,2,0,P|263:81|233:64,1,70,8|0,0:0|0:0,0:0:0:0:
173,175,78332,1,2,0:0:0:0:
42,60,78559,1,0,0:0:0:0:
4,272,78786,1,8,0:0:0:0:
4,272,78899,6,0,L|5:320,2,35
12,178,79240,1,2,0:0:0:0:
96,332,79468,1,0,0:0:0:0:
12,178,79695,1,8,0:0:0:0:
137,56,79922,1,0,0:0:0:0:
137,56,80036,1,0,0:0:0:0:
137,56,80150,2,0,L|141:97,1,35,2|0,0:0|0:0,0:0:0:0:
270,189,80490,1,0,0:0:0:0:
270,189,80604,2,0,P|321:180|363:206,1,70,8|8,0:0|0:0,0:0:0:0:
369,202,80945,1,8,0:0:0:0:
369,202,81059,5,6,0:0:0:0:
420,333,81286,1,0,0:0:0:0:
486,210,81513,2,0,P|484:168|464:130,1,70,8|0,0:0|0:0,0:0:0:0:
339,104,81968,2,0,P|341:62|361:24,1,70,2|0,0:0|0:0,0:0:0:0:
424,9,82309,2,0,L|480:12,1,35,0|8,0:0|0:0,0:0:0:0:
218,94,82650,1,0,0:0:0:0:
218,94,82763,1,0,0:0:0:0:
218,94,82877,6,0,L|143:99,1,52.5000020027161,2|0,0:0|0:0,0:0:0:0:
99,179,83104,2,0,L|104:254,1,52.5000020027161,0|0,0:3|0:3,0:3:0:0:
180,305,83332,2,0,L|255:300,1,52.5000020027161,8|0,0:0|0:0,0:0:0:0:
304,224,83559,2,0,L|299:149,1,52.5000020027161,0|0,0:3|0:3,0:3:0:0:
305,129,83786,1,2,0:0:0:0:
339,104,83900,1,0,0:0:0:0:
379,112,84013,1,0,0:0:0:0:
402,147,84127,1,0,0:0:0:0:
391,187,84241,2,0,P|413:246|458:264,1,105.000004005432,8|0,0:0|0:0,0:0:0:0:
487,365,84695,6,0,L|420:356,1,52.5000020027161,2|0,0:0|0:0,0:0:0:0:
328,339,84922,1,0,0:0:0:0:
328,339,85150,2,0,L|326:260,2,52.5000020027161,8|0|0,0:0|0:0|0:0,0:0:0:0:
174,317,85604,6,0,L|97:303,1,52.5000020027161,2|0,0:0|0:0,0:0:0:0:
15,289,85831,1,0,0:0:0:0:
15,289,86059,2,0,L|9:359,2,52.5000020027161,8|0|0,0:0|0:0|0:0,0:0:0:0:
157,144,86513,5,2,0:0:0:0:
157,144,86740,2,0,L|152:72,1,52.5000020027161
257,150,86968,1,8,0:0:0:0:
257,150,87081,1,8,0:0:0:0:
257,150,87195,2,0,L|253:218,1,52.5000020027161,8|8,0:0|0:0,0:0:0:0:
249,272,87422,1,0,0:0:0:0:
