osu file format v14

[General]
AudioFilename: audio.mp3
AudioLeadIn: 0
PreviewTime: 59240
Countdown: 0
SampleSet: Soft
StackLeniency: 0.8
Mode: 0
LetterboxInBreaks: 0
WidescreenStoryboard: 1

[Editor]
Bookmarks: 7422,8104,8331,11513,13104,13559,15604,16513,16968,20149,20831,23786,24240,24468,26513,27422,28331,29240,30149,32877,33786,36513,37422,40149,41059,41968,42877,43786,44695,55604,56513,57422,65604,66286,66513,69695,71286,71740,73786
DistanceSpacing: 1.5
BeatDivisor: 4
GridSize: 16
TimelineZoom: 1.8

[Metadata]
Title:Onegai Muscle (TV Size)
TitleUnicode:お願いマッスル (TV Size)
Artist:Sakura Hibiki (CV: Fairouz Ai), Machio Naruzou (CV: Ishikawa Kaito)
ArtistUnicode:紗倉ひびき(CV:ファイルーズあい)&街雄鳴造(CV:石川界人)
Creator:stack92
Version:Hard
Source:ダンベル何キロ持てる?
Tags:dumbbell nan kilo moteru? how heavy are the dumbbells you lift? anime opening op japanese j-pop sakura hibiki machio naruzou pop jpop
BeatmapID:3405787
BeatmapSetID:1020533

[Difficulty]
HPDrainRate:5
CircleSize:3.5
OverallDifficulty:6
ApproachRate:7
SliderMultiplier:1.5
SliderTickRate:1

[Events]
//Background and Video events
0,0,"bg.png",0,0
//Break Periods
//Storyboard Layer 0 (Background)
//Storyboard Layer 1 (Fail)
//Storyboard Layer 2 (Pass)
//Storyboard Layer 3 (Foreground)
//Storyboard Layer 4 (Overlay)
//Storyboard Sound Samples

[TimingPoints]
1059,454.545454545455,4,2,1,70,1,0
13104,-80,4,2,1,70,0,0
13559,-100,4,2,1,70,0,0
14922,-80,4,2,1,70,0,0
15149,-66.6666666666667,4,2,1,70,0,0
15377,-57.1428571428571,4,2,1,70,0,0
15604,-100,4,2,1,70,0,0
27422,-80,4,2,1,70,0,0
28331,-100,4,2,1,70,0,0
59240,-100,4,2,1,70,0,1
71286,-80,4,2,1,70,0,1
71740,-100,4,2,1,70,0,1
73104,-66.6666666666667,4,2,1,70,0,1
73331,-57.1428571428571,4,2,1,70,0,1
73559,-50,4,2,1,70,0,1
73786,-100,4,2,1,70,0,0
85604,-80,4,2,1,70,0,0

[Colours]
Combo1 : 200,92,203
Combo2 : 0,100,255
Combo3 : 0,193,89
Combo4 : 255,255,0

[HitObjects]
274,50,1059,6,0,L|360:56,1,75,6|0,0:0|0:0,0:0:0:0:
460,68,1513,2,0,L|466:8,2,37.5,8|0|0,0:0|0:0|0:0,0:0:0:0:
395,161,1968,1,2,0:0:0:0:
486,225,2195,1,0,0:0:0:0:
395,161,2422,1,8,0:0:0:0:
382,272,2649,6,0,P|369:314|339:345,1,75,0|2,0:0|0:0,0:0:0:0:
267,254,3104,2,0,P|221:265|181:296,1,75,0|8,0:0|0:0,0:0:0:0:
114,356,3559,1,0,0:0:0:0:
26,285,3786,2,0,P|4:331|2:368,2,75,2|0|8,0:0|0:0|0:0,0:0:0:0:
111,211,4468,1,0,0:0:0:0:
27,135,4695,6,0,P|66:108|109:97,1,75,2|0,0:0|0:0,0:0:0:0:
202,80,5149,2,0,L|197:146,2,37.5,8|0|0,0:0|0:0|0:0,0:0:0:0:
287,6,5604,1,2,0:0:0:0:
314,114,5831,1,0,0:0:0:0:
396,36,6059,1,8,0:0:0:0:
427,143,6286,6,0,P|460:174|479:220,1,75,0|2,0:0|0:0,0:0:0:0:
442,308,6740,2,0,P|405:302|368:310,1,75,0|8,0:0|0:0,0:0:0:0:
267,360,7195,1,0,0:0:0:0:
327,227,7422,1,2,0:0:0:0:
178,239,7649,1,0,0:0:0:0:
327,227,7877,1,8,0:0:0:0:
244,112,8104,1,8,0:0:0:0:
244,112,8218,1,8,0:0:0:0:
244,112,8331,6,0,P|201:94|155:95,1,75,6|0,0:0|0:0,0:0:0:0:
60,84,8786,2,0,L|56:34,2,37.5,8|0|0,0:0|0:0|0:0,0:0:0:0:
71,195,9240,1,2,0:0:0:0:
133,342,9468,1,0,0:0:0:0:
30,300,9695,1,8,0:0:0:0:
178,239,9922,6,0,P|207:216|226:184,1,75,0|2,0:0|0:0,0:0:0:0:
330,153,10377,2,0,P|336:190|327:227,2,75,0|8|0,0:0|0:0|0:0,0:0:0:0:
295,29,11059,1,2,0:0:0:0:
330,153,11286,1,0,0:0:0:0:
210,43,11513,1,8,0:0:0:0:
417,135,11740,1,0,0:0:0:0:
215,230,11968,5,2,0:0:0:0:
215,230,12195,2,0,L|161:235,1,37.5
100,249,12422,2,0,L|131:293,1,37.5,8|0,0:0|0:0,0:0:0:0:
175,331,12649,1,0,0:0:0:0:
316,256,12877,5,2,0:0:0:0:
316,256,13104,2,0,L|389:258,1,46.875
451,265,13331,2,0,L|412:328,1,46.875,8|0,0:0|0:0,0:0:0:0:
382,371,13559,1,0,0:0:0:0:
493,194,13786,6,0,P|502:154|491:116,1,75,2|0,0:0|0:0,0:0:0:0:
395,67,14240,1,8,0:0:0:0:
337,163,14468,1,0,0:0:0:0:
256,93,14695,1,2,0:0:0:0:
256,93,14922,2,0,L|254:40,1,46.875,8|8,0:0|0:0,0:0:0:0:
173,68,15149,2,0,L|143:10,1,56.2500021457673,8|8,0:0|0:0,0:0:0:0:
85,78,15377,2,0,L|29:34,1,65.6250006258488,2|2,0:0|0:0,0:0:0:0:
8,124,15604,6,0,L|16:202,1,75,6|0,0:0|0:0,0:0:0:0:
36,309,16059,2,0,P|73:300|121:315,1,75,8|0,0:0|0:0,0:0:0:0:
209,356,16513,1,2,0:0:0:0:
315,309,16740,1,0,0:0:0:0:
315,309,16854,1,0,0:0:0:0:
315,309,16968,2,0,L|413:318,1,75,8|0,0:0|0:0,0:0:0:0:
501,328,17422,5,2,0:0:0:0:
458,224,17649,1,0,0:0:0:0:
411,121,17877,2,0,L|416:73,2,37.5,8|0|0,0:0|0:0|0:0,0:0:0:0:
342,209,18331,1,2,0:0:0:0:
289,109,18559,1,2,0:0:0:0:
234,10,18786,2,0,P|198:42|181:74,1,75,8|0,0:0|0:0,0:0:0:0:
160,174,19240,5,2,0:0:0:0:
62,223,19468,1,0,0:0:0:0:
62,223,19581,1,0,0:0:0:0:
62,223,19695,2,0,P|36:257|25:295,1,75,8|0,0:0|0:0,0:0:0:0:
171,323,20149,1,2,0:0:0:0:
25,360,20377,1,0,0:0:0:0:
175,248,20604,2,0,P|214:262|246:308,1,75,8|0,0:0|0:0,0:0:0:0:
327,353,21059,6,0,L|334:302,1,37.5,2|0,0:0|0:0,0:0:0:0:
380,287,21286,2,0,L|373:236,1,37.5
342,209,21513,2,0,P|298:209|252:193,1,75,8|0,0:0|0:0,0:0:0:0:
170,101,21968,2,0,L|179:49,2,37.5,2|0|2,0:0|0:0|0:0,0:0:0:0:
175,248,22422,1,8,0:0:0:0:
44,196,22649,1,8,0:0:0:0:
44,196,22763,1,8,0:0:0:0:
44,196,22877,6,0,P|18:158|18:113,1,75,6|0,0:0|0:0,0:0:0:0:
5,24,23331,2,0,P|51:26|91:47,1,75,8|0,0:0|0:0,0:0:0:0:
170,101,23786,1,2,0:0:0:0:
297,182,24013,2,0,L|302:240,2,37.5,0|0|8,0:0|0:0|0:0,0:0:0:0:
343,39,24468,2,0,L|406:45,1,37.5
435,55,24695,6,0,L|429:121,1,37.5,2|0,0:0|0:0,0:0:0:0:
397,137,24922,2,0,L|405:205,1,37.5
438,216,25149,1,8,0:0:0:0:
399,321,25377,1,0,0:0:0:0:
399,321,25490,1,0,0:0:0:0:
399,321,25604,2,0,L|360:326,3,37.5,2|0|0|0,0:0|0:0|0:0|0:0,0:0:0:0:
306,338,26059,2,0,P|261:349|219:342,1,75,8|0,0:0|0:0,0:0:0:0:
133,267,26513,5,2,0:0:0:0:
133,267,26627,1,0,0:0:0:0:
133,267,26740,2,0,P|109:295|107:332,2,75,0|8|0,0:0|0:0|0:0,0:0:0:0:
198,174,27422,5,2,0:0:0:0:
198,174,27536,1,0,0:0:0:0:
198,174,27649,2,0,P|181:129|129:114,2,93.75,0|8|0,0:0|0:0|0:0,0:0:0:0:
372,245,28331,5,2,0:0:0:0:
372,245,28559,2,0,L|376:292,1,37.5
385,368,28786,2,0,P|335:365|310:340,1,75,8|0,0:0|0:0,0:0:0:0:
192,211,29240,2,0,L|201:162,3,37.5,8|8|8|8,0:0|0:0|0:0|0:0,0:0:0:0:
251,152,29695,2,0,L|242:103,2,37.5,2|2|2,0:0|0:0|0:0,0:0:0:0:
294,255,30149,5,6,0:0:0:0:
365,167,30377,1,0,0:0:0:0:
436,80,30604,2,0,L|486:86,2,37.5,8|0|0,0:0|0:0|0:0,0:0:0:0:
328,67,31059,1,2,0:0:0:0:
328,67,31286,2,0,L|273:59,1,37.5
235,53,31513,2,0,L|126:39,1,75,8|0,0:0|0:0,0:0:0:0:
12,60,31968,6,0,L|18:112,1,37.5,2|0,0:0|0:0,0:0:0:0:
62,129,32195,2,0,L|53:186,1,37.5
21,210,32422,2,0,L|29:265,1,37.5,8|0,0:0|0:0,0:0:0:0:
76,272,32649,2,0,L|66:329,1,37.5
53,363,32877,2,0,L|0:368,2,37.5,2|8|0,0:0|0:0|0:0,0:0:0:0:
164,346,33331,1,8,0:0:0:0:
247,270,33559,1,8,0:0:0:0:
247,270,33672,1,8,0:0:0:0:
247,270,33786,6,0,L|241:214,2,37.5,2|0|0,0:0|0:0|0:0,0:0:0:0:
327,347,34240,1,8,0:0:0:0:
438,362,34468,2,0,L|443:306,1,37.5
445,268,34695,1,2,0:0:0:0:
355,199,34922,2,0,L|361:144,1,37.5
409,136,35149,2,0,L|401:90,3,37.5,8|0|0|0,0:0|0:0|0:0|0:0,0:0:0:0:
361,59,35604,5,2,0:0:0:0:
249,46,35831,2,0,L|209:42,1,37.5
155,35,36059,2,0,L|167:117,1,75,8|0,0:0|0:0,0:0:0:0:
175,164,36399,1,0,0:0:0:0:
180,220,36513,2,0,P|160:264|126:288,1,75,2|8,0:0|0:0,0:0:0:0:
37,328,36968,2,0,L|42:373,2,37.5,8|0|0,0:0|0:0|0:0,0:0:0:0:
20,225,37422,5,6,0:0:0:0:
20,225,37536,1,0,0:0:0:0:
20,225,37649,2,0,L|25:174,1,37.5
29,131,37877,2,0,P|56:90|92:76,1,75,8|0,0:0|0:0,0:0:0:0:
188,53,38331,2,0,L|179:-8,2,37.5,2|0|0,0:0|0:0|0:0,0:0:0:0:
298,30,38786,1,8,0:0:0:0:
266,142,39013,1,0,0:0:0:0:
266,142,39127,1,0,0:0:0:0:
266,142,39240,6,0,L|272:196,3,37.5,2|0|0|0,0:0|0:0|0:0|0:0,0:0:0:0:
321,203,39695,2,0,L|315:263,3,37.5,8|0|0|0,0:0|0:0|0:0|0:0,0:0:0:0:
274,276,40149,2,0,L|279:327,1,37.5,2|0,0:0|0:0,0:0:0:0:
317,353,40377,1,8,0:0:0:0:
411,292,40604,1,8,0:0:0:0:
505,231,40831,1,0,0:0:0:0:
402,182,41059,6,0,L|411:91,1,75,2|0,0:0|0:0,0:0:0:0:
476,17,41513,1,8,0:0:0:0:
363,8,41740,1,0,0:0:0:0:
296,99,41968,2,0,L|251:92,1,37.5,2|0,0:0|0:0,0:0:0:0:
203,82,42195,2,0,L|158:75,1,37.5,2|0,0:0|0:0,0:0:0:0:
110,65,42422,2,0,P|59:74|33:113,1,75,8|0,0:0|0:0,0:0:0:0:
7,219,42877,5,8,0:0:0:0:
136,181,43104,1,0,0:0:0:0:
7,219,43331,1,8,0:0:0:0:
167,260,43559,1,0,0:0:0:0:
7,219,43786,1,8,0:0:0:0:
156,344,44013,2,0,L|221:349,1,37.5,8|8,0:0|0:0,0:0:0:0:
246,366,44240,2,0,L|297:355,3,37.5,8|8|2|2,0:0|0:0|0:0|0:0,0:0:0:0:
338,370,44695,5,6,0:0:0:0:
447,342,44922,1,0,0:0:0:0:
366,263,45149,1,8,0:0:0:0:
476,238,45377,1,0,0:0:0:0:
393,161,45604,2,0,P|348:159|304:177,1,75,2|0,0:0|0:0,0:0:0:0:
241,254,46059,2,0,L|156:260,1,75,8|0,0:0|0:0,0:0:0:0:
53,264,46513,2,0,P|68:317|112:359,2,112.5,2|8|2,0:0|0:0|0:0,0:0:0:0:
114,169,47422,2,0,P|59:151|4:162,2,112.5,2|8|2,0:0|0:0|0:0,0:0:0:0:
214,221,48331,5,2,0:0:0:0:
210,108,48559,1,0,0:0:0:0:
214,221,48786,1,8,0:0:0:0:
210,108,49013,1,0,0:0:0:0:
309,160,49240,2,0,L|397:160,1,75,2|0,0:0|0:0,0:0:0:0:
466,83,49695,2,0,P|490:120|497:162,1,75,8|0,0:0|0:0,0:0:0:0:
453,253,50149,1,2,0:0:0:0:
256,362,50604,1,8,0:0:0:0:
59,252,51059,1,2,0:0:0:0:
256,362,51513,1,8,0:0:0:0:
256,136,51968,6,0,P|269:102|305:82,1,75,6|0,0:0|0:0,0:0:0:0:
413,60,52422,1,8,0:0:0:0:
413,60,52649,1,0,0:0:0:0:
496,135,52877,2,0,L|488:239,1,75,2|0,0:0|0:0,0:0:0:0:
391,259,53331,1,8,0:0:0:0:
391,259,53559,1,0,0:0:0:0:
374,370,53786,2,0,P|441:360|485:320,2,112.5,2|8|2,0:0|0:0|0:0,0:0:0:0:
261,360,54695,1,2,0:0:0:0:
38,325,55149,2,0,L|32:271,3,37.5,8|0|0|0,0:0|0:0|0:0|0:0,0:0:0:0:
29,231,55604,5,8,0:0:0:0:
141,271,55831,1,2,0:0:0:0:
58,163,56059,5,8,0:0:0:0:
188,198,56286,1,2,0:0:0:0:
65,90,56513,5,8,0:0:0:0:
212,113,56740,1,2,0:0:0:0:
43,20,56968,5,8,0:0:0:0:
207,34,57195,1,2,0:0:0:0:
58,163,57422,2,0,L|17:157,1,37.5,8|0,0:0|0:0,0:0:0:0:
442,291,58559,5,2,0:0:0:0:
442,291,58786,2,0,L|484:296,2,37.5,8|8|2,0:0|0:0|0:0,0:0:0:0:
238,334,59240,6,0,L|152:328,1,75,6|0,0:0|0:0,0:0:0:0:
51,312,59695,2,0,L|46:357,2,37.5,8|0|0,0:0|0:0|0:0,0:0:0:0:
117,223,60149,1,2,0:0:0:0:
26,159,60376,1,0,0:0:0:0:
117,223,60603,1,8,0:0:0:0:
124,110,60831,6,0,P|144:60|174:31,1,75,0|2,0:0|0:0,0:0:0:0:
245,130,61285,2,0,P|291:119|331:88,1,75,0|8,0:0|0:0,0:0:0:0:
398,28,61740,1,0,0:0:0:0:
486,99,61967,2,0,P|508:53|510:16,2,75,2|0|8,0:0|0:0|0:0,0:0:0:0:
401,173,62649,1,0,0:0:0:0:
485,249,62876,6,0,P|446:276|403:287,1,75,2|0,0:0|0:0,0:0:0:0:
308,302,63331,2,0,L|310:249,2,37.5,8|0|0,0:0|0:0|0:0,0:0:0:0:
225,378,63785,1,2,0:0:0:0:
198,270,64012,1,0,0:0:0:0:
116,348,64240,1,8,0:0:0:0:
85,241,64467,6,0,P|52:210|33:164,1,75,0|2,0:0|0:0,0:0:0:0:
70,76,64921,2,0,P|107:82|144:74,1,75,0|8,0:0|0:0,0:0:0:0:
245,24,65376,1,0,0:0:0:0:
185,157,65603,1,2,0:0:0:0:
334,145,65830,1,0,0:0:0:0:
185,157,66058,1,8,0:0:0:0:
268,272,66285,1,8,0:0:0:0:
268,272,66399,1,8,0:0:0:0:
268,272,66512,6,0,P|311:290|357:289,1,75,6|0,0:0|0:0,0:0:0:0:
452,300,66967,2,0,L|456:350,2,37.5,8|0|0,0:0|0:0|0:0,0:0:0:0:
441,189,67421,1,2,0:0:0:0:
379,42,67649,1,0,0:0:0:0:
482,84,67877,1,8,0:0:0:0:
334,145,68103,6,0,P|305:168|286:200,1,75,0|2,0:0|0:0,0:0:0:0:
182,231,68558,2,0,P|176:194|185:157,2,75,0|8|0,0:0|0:0|0:0,0:0:0:0:
217,355,69240,1,2,0:0:0:0:
182,231,69467,1,0,0:0:0:0:
302,341,69694,5,8,0:0:0:0:
95,249,69921,1,0,0:0:0:0:
297,154,70149,1,2,0:0:0:0:
297,154,70376,6,0,L|351:149,1,37.5
412,133,70604,2,0,L|381:94,1,37.5,8|0,0:0|0:0,0:0:0:0:
337,53,70830,1,0,0:0:0:0:
196,128,71058,1,2,0:0:0:0:
196,128,71286,6,0,L|123:123,1,46.875
60,117,71513,2,0,L|89:70,1,46.875,8|0,0:0|0:0,0:0:0:0:
130,13,71740,1,0,0:0:0:0:
19,190,71967,6,0,P|10:230|21:268,1,75,2|0,0:0|0:0,0:0:0:0:
96,343,72421,1,8,0:0:0:0:
99,227,72649,1,0,0:0:0:0:
194,287,72877,1,2,0:0:0:0:
205,175,73104,2,0,P|232:180|257:193,1,56.2500021457673,8|8,0:0|0:0,0:0:0:0:
311,128,73331,2,0,P|331:153|341:184,1,65.6250006258488,8|8,0:0|0:0,0:0:0:0:
423,166,73559,2,0,P|421:203|405:236,1,75,8|8,0:0|0:0,0:0:0:0:
311,278,73786,6,0,P|341:320|389:334,1,75,6|0,0:0|0:0,0:0:0:0:
472,316,74240,2,0,P|496:288|507:252,1,75,8|0,0:0|0:0,0:0:0:0:
505,140,74694,1,2,0:0:0:0:
440,61,74921,1,0,0:0:0:0:
440,61,75035,1,0,0:0:0:0:
440,61,75149,2,0,L|342:52,1,75,8|0,0:0|0:0,0:0:0:0:
253,47,75603,5,2,0:0:0:0:
169,122,75830,1,0,0:0:0:0:
62,161,76058,2,0,L|-7:153,2,37.5,8|0|0,0:0|0:0|0:0,0:0:0:0:
160,210,76512,1,2,0:0:0:0:
230,298,76740,1,2,0:0:0:0:
118,314,76967,2,0,P|77:286|56:252,1,75,8|0,0:0|0:0,0:0:0:0:
160,210,77421,5,2,0:0:0:0:
62,161,77649,1,0,0:0:0:0:
62,161,77762,1,0,0:0:0:0:
62,161,77876,2,0,P|36:127|25:89,1,75,8|0,0:0|0:0,0:0:0:0:
171,61,78330,1,2,0:0:0:0:
25,24,78558,1,0,0:0:0:0:
175,136,78785,2,0,P|214:122|246:76,1,75,8|0,0:0|0:0,0:0:0:0:
327,31,79240,6,0,L|334:82,1,37.5,2|0,0:0|0:0,0:0:0:0:
380,97,79467,2,0,L|373:148,1,37.5
342,175,79694,2,0,P|298:175|252:191,1,75,8|0,0:0|0:0,0:0:0:0:
170,283,80149,2,0,L|168:332,2,37.5,2|0|0,0:0|0:0|0:0,0:0:0:0:
175,136,80603,1,8,0:0:0:0:
44,188,80830,1,8,0:0:0:0:
44,188,80944,1,8,0:0:0:0:
44,188,81058,6,0,P|18:226|18:271,1,75,6|0,0:0|0:0,0:0:0:0:
5,360,81512,2,0,P|51:358|91:337,1,75,8|0,0:0|0:0,0:0:0:0:
170,283,81967,1,2,0:0:0:0:
297,202,82195,2,0,L|299:156,2,37.5,0|0|8,0:0|0:0|0:0,0:0:0:0:
343,345,82649,2,0,L|406:339,1,37.5
435,329,82876,6,0,L|429:263,1,37.5,2|0,0:0|0:0,0:0:0:0:
396,247,83104,2,0,L|402:192,1,37.5
438,168,83330,1,8,0:0:0:0:
399,63,83558,1,0,0:0:0:0:
399,63,83671,1,0,0:0:0:0:
399,63,83786,2,0,L|347:57,3,37.5,2|0|0|0,0:0|0:0|0:0|0:0,0:0:0:0:
306,46,84240,2,0,P|261:35|219:42,1,75,8|0,0:0|0:0,0:0:0:0:
132,127,84695,5,2,0:0:0:0:
132,127,84809,1,0,0:0:0:0:
132,127,84922,2,0,P|98:86|94:48,2,75,0|8|0,0:0|0:0|0:0,0:0:0:0:
170,263,85604,5,2,0:0:0:0:
170,263,85718,1,0,0:0:0:0:
170,263,85831,2,0,P|125:274|70:257,2,93.75,0|8|0,0:0|0:0|0:0,0:0:0:0:
267,160,86512,5,2,0:0:0:0:
304,295,86740,2,0,L|370:290,3,46.875,8|8|8|8,0:0|0:0|0:0|0:0,0:0:0:0:
380,242,87195,2,0,L|449:249,1,46.875,2|2,0:0|0:0,0:0:0:0:
464,289,87422,1,0,0:0:0:0:
