osu file format v14

[General]
AudioFilename: audio.mp3
AudioLeadIn: 0
PreviewTime: 59240
Countdown: 0
SampleSet: Soft
StackLeniency: 0.7
Mode: 0
LetterboxInBreaks: 0
WidescreenStoryboard: 1

[Editor]
DistanceSpacing: 1
BeatDivisor: 2
GridSize: 16
TimelineZoom: 1.4

[Metadata]
Title:Onegai Muscle (TV Size)
TitleUnicode:お願いマッスル (TV Size)
Artist:Sakura Hibiki (CV: Fairouz Ai), Machio Naruzou (CV: Ishikawa Kaito)
ArtistUnicode:紗倉ひびき(CV:ファイルーズあい)&街雄鳴造(CV:石川界人)
Creator:stack92
Version:Easy
Source:ダンベル何キロ持てる?
Tags:dumbbell nan kilo moteru? how heavy are the dumbbells you lift? anime opening op japanese j-pop sakura hibiki machio naruzou pop jpop
BeatmapID:2144925
BeatmapSetID:1020533

[Difficulty]
HPDrainRate:3
CircleSize:3
OverallDifficulty:3
ApproachRate:4.5
SliderMultiplier:1.2
SliderTickRate:1

[Events]
//Background and Video events
0,0,"bg.png",0,0
//Break Periods
//Storyboard Layer 0 (Background)
//Storyboard Layer 1 (Fail)
//Storyboard Layer 2 (Pass)
//Storyboard Layer 3 (Foreground)
//Storyboard Layer 4 (Overlay)
//Storyboard Sound Samples

[TimingPoints]
1059,454.545454545455,4,2,1,70,1,0
59240,-100,4,2,1,70,0,1
73786,-100,4,2,1,70,0,0

[Colours]
Combo1 : 200,92,203
Combo2 : 0,100,255
Combo3 : 0,193,89
Combo4 : 255,255,0

[HitObjects]
20,67,1059,5,6,0:0:0:0:
133,27,1513,1,8,0:0:0:0:
247,64,1968,2,0,L|372:70,1,120,2|8,0:0|0:0,0:0:0:0:
426,76,2650,2,0,P|460:131|451:201,1,120,2|8,0:0|0:0,0:0:0:0:
431,238,3331,1,2,0:0:0:0:
481,347,3786,1,8,0:0:0:0:
361,339,4240,2,0,P|298:347|243:372,1,120,8|2,0:0|0:0,0:0:0:0:
176,271,5150,5,8,0:0:0:0:
75,336,5604,2,0,P|59:280|70:218,1,120,2|8,0:0|0:0,0:0:0:0:
111,176,6286,2,0,P|121:117|105:59,1,120,2|8,0:0|0:0,0:0:0:0:
100,0,6968,1,2,0:0:0:0:
218,29,7422,2,0,P|279:20|343:42,2,120,10|8|6,0:0|0:0|0:0,0:0:0:0:
269,141,8786,5,8,0:0:0:0:
388,151,9240,1,2,0:0:0:0:
503,289,9923,2,0,P|453:324|389:333,1,120,8|8,0:0|0:0,0:0:0:0:
338,316,10604,1,2,0:0:0:0:
257,226,11059,1,8,0:0:0:0:
211,336,11513,1,8,0:0:0:0:
91,347,11968,6,0,L|4:352,2,60,2|2|10,0:0|0:0|0:0,0:0:0:0:
134,234,12877,2,0,P|149:171|199:121,1,120,2|8,0:0|0:0,0:0:0:0:
257,226,13786,5,2,0:0:0:0:
367,180,14240,1,8,0:0:0:0:
292,85,14695,1,2,0:0:0:0:
184,130,15149,1,8,0:0:0:0:
120,28,15604,6,0,P|180:15|253:27,1,120,6|8,0:0|0:0,0:0:0:0:
355,42,16513,2,0,L|438:39,2,60,2|2|10,0:0|0:0|0:0,0:0:0:0:
288,142,17422,1,2,0:0:0:0:
397,192,17877,1,8,0:0:0:0:
403,311,18331,2,0,P|339:302|296:262,1,120,2|8,0:0|0:0,0:0:0:0:
203,193,19240,6,0,P|179:252|198:335,1,120,2|8,0:0|0:0,0:0:0:0:
81,369,20150,2,0,L|11:373,2,60,2|2|8,0:0|0:0|0:0,0:0:0:0:
184,306,21059,1,2,0:0:0:0:
79,247,21513,1,8,0:0:0:0:
79,126,21968,2,0,P|110:48|171:18,1,120,2|8,0:0|0:0,0:0:0:0:
202,129,22877,6,0,P|270:131|351:79,1,120,6|8,0:0|0:0,0:0:0:0:
430,70,23786,2,0,L|438:-9,2,60,2|2|10,0:0|0:0|0:0,0:0:0:0:
408,188,24695,1,2,0:0:0:0:
382,305,25149,1,8,0:0:0:0:
285,233,25604,2,0,P|214:254|196:305,1,120,2|8,0:0|0:0,0:0:0:0:
105,213,26513,5,2,0:0:0:0:
23,300,26968,1,8,0:0:0:0:
115,378,27422,1,2,0:0:0:0:
196,291,27877,1,8,0:0:0:0:
105,213,28331,1,2,0:0:0:0:
23,125,28786,1,8,0:0:0:0:
141,104,29240,2,0,P|199:113|255:84,1,120,8|8,0:0|0:0,0:0:0:0:
342,7,30150,5,6,0:0:0:0:
434,83,30604,1,2,0:0:0:0:
343,161,31059,1,8,0:0:0:0:
435,237,31513,1,2,0:0:0:0:
252,86,32422,1,2,0:0:0:0:
225,203,32877,2,0,L|221:272,2,60,8|0|2,0:0|0:0|0:0,0:0:0:0:
132,126,33786,5,2,0:0:0:0:
36,51,34240,1,2,0:0:0:0:
13,168,34695,1,8,0:0:0:0:
102,246,35149,1,2,0:0:0:0:
298,107,36059,1,2,0:0:0:0:
418,108,36513,2,0,L|420:33,2,60,8|0|10,0:0|0:0|0:0,0:0:0:0:
410,227,37422,6,0,P|351:250|292:236,1,120,2|8,0:0|0:0,0:0:0:0:
186,193,38331,1,2,0:0:0:0:
209,75,38786,1,8,0:0:0:0:
104,16,39240,1,2,0:0:0:0:
15,98,39695,1,8,0:0:0:0:
66,207,40149,1,2,0:0:0:0:
186,193,40604,1,8,0:0:0:0:
139,303,41059,6,0,P|207:314|262:288,1,120,2|8,0:0|0:0,0:0:0:0:
355,232,41968,1,2,0:0:0:0:
450,158,42422,1,8,0:0:0:0:
403,47,42877,5,8,0:0:0:0:
310,122,43331,2,0,P|278:115|247:96,1,60,8|2,0:0|0:0,0:0:0:0:
203,69,43786,1,8,0:0:0:0:
294,290,44695,5,6,0:0:0:0:
189,351,45150,1,8,0:0:0:0:
85,291,45604,1,2,0:0:0:0:
84,170,46059,1,8,0:0:0:0:
187,110,46513,2,2,P|143:66|85:49,2,120,2|8|2,0:0|0:0|0:0,0:0:0:0:
189,351,48331,5,2,0:0:0:0:
310,351,48786,1,8,0:0:0:0:
310,231,49240,1,2,0:0:0:0:
430,231,49695,1,8,0:0:0:0:
430,110,50150,2,0,P|368:69|199:93,2,240,2|2|6,0:0|0:0|0:0,0:0:0:0:
507,201,52422,5,8,0:0:0:0:
388,219,52877,1,2,0:0:0:0:
310,127,53331,1,8,0:0:0:0:
231,36,53786,2,0,P|175:19|108:37,2,120,2|8|2,0:0|0:0|0:0,0:0:0:0:
170,139,55150,2,0,L|168:215,1,60,8|2,0:0|0:0,0:0:0:0:
170,258,55604,5,8,0:0:0:0:
264,332,56059,1,8,0:0:0:0:
297,216,56513,1,8,0:0:0:0:
387,294,56968,1,8,0:0:0:0:
428,181,57422,1,8,0:0:0:0:
87,17,59240,5,6,0:0:0:0:
156,115,59695,2,0,L|145:202,1,60,8|0,0:0|0:0,0:0:0:0:
92,195,60150,2,0,L|103:282,1,60,2|0,0:0|0:0,0:0:0:0:
137,368,60831,2,0,P|192:372|259:352,1,120,8|2,0:0|0:0,0:0:0:0:
302,319,61513,1,8,0:0:0:0:
412,366,61968,1,2,0:0:0:0:
408,246,62422,1,8,0:0:0:0:
443,8,63331,6,0,P|406:6|374:13,1,60,8|0,0:0|0:0,0:0:0:0:
346,56,63786,2,0,P|311:61|277:56,1,60,2|0,0:0|0:0,0:0:0:0:
173,16,64468,2,0,L|168:142,1,120,8|2,0:0|0:0,0:0:0:0:
164,196,65150,1,8,0:0:0:0:
117,306,65604,2,0,P|72:317|-8:306,2,120,2|8|6,0:0|0:0|0:0,0:0:0:0:
236,293,66968,6,0,L|310:300,1,60,8|0,0:0|0:0,0:0:0:0:
314,355,67422,2,0,L|388:348,1,60,2|0,0:0|0:0,0:0:0:0:
468,275,68104,2,0,P|470:207|439:138,1,120,8|2,0:0|0:0,0:0:0:0:
421,107,68786,1,8,0:0:0:0:
323,37,69240,1,2,0:0:0:0:
202,36,69695,1,8,0:0:0:0:
115,119,70150,6,0,L|31:111,2,60,2|2|8,0:0|0:0|0:0,0:0:0:0:
230,151,71059,2,0,L|314:143,2,60,2|2|8,0:0|0:0|0:0,0:0:0:0:
189,264,71968,1,2,0:0:0:0:
300,307,72422,1,8,0:0:0:0:
413,267,72877,1,2,0:0:0:0:
392,28,73786,6,0,P|332:15|259:27,1,120,6|8,0:0|0:0,0:0:0:0:
157,42,74695,2,0,L|74:39,2,60,2|2|10,0:0|0:0|0:0,0:0:0:0:
224,142,75604,1,2,0:0:0:0:
115,192,76059,1,8,0:0:0:0:
109,311,76513,2,0,P|173:302|216:262,1,120,2|8,0:0|0:0,0:0:0:0:
309,193,77422,6,0,P|333:252|314:335,1,120,2|8,0:0|0:0,0:0:0:0:
431,369,78332,2,0,L|501:373,2,60,2|2|8,0:0|0:0|0:0,0:0:0:0:
328,306,79241,1,2,0:0:0:0:
433,247,79695,1,8,0:0:0:0:
433,126,80150,2,0,P|402:48|341:18,1,120,2|8,0:0|0:0,0:0:0:0:
310,129,81059,6,0,P|242:131|161:79,1,120,6|8,0:0|0:0,0:0:0:0:
82,70,81968,2,0,L|74:-9,2,60,2|2|10,0:0|0:0|0:0,0:0:0:0:
104,188,82877,1,2,0:0:0:0:
130,305,83331,1,8,0:0:0:0:
227,233,83786,2,0,P|298:254|316:305,1,120,2|8,0:0|0:0,0:0:0:0:
407,213,84695,5,2,0:0:0:0:
489,300,85150,1,8,0:0:0:0:
397,378,85604,1,2,0:0:0:0:
316,291,86059,1,8,0:0:0:0:
407,213,86513,1,2,0:0:0:0:
489,125,86968,1,8,0:0:0:0:
371,101,87422,2,0,P|298:145|281:192,1,120
