osu file format v14

[General]
AudioFilename: audio.mp3
AudioLeadIn: 0
PreviewTime: 80150
Countdown: 0
SampleSet: Soft
StackLeniency: 0.3
Mode: 0
LetterboxInBreaks: 0
WidescreenStoryboard: 0

[Editor]
DistanceSpacing: 1
BeatDivisor: 4
GridSize: 8
TimelineZoom: 2.800004

[Metadata]
Title:Guruguru
TitleUnicode:グルグル
Artist:Sakura Fujiwara
ArtistUnicode:藤原さくら
Creator:Beren
Version:Mawaru
Source:
Tags:Atlust cqmasai Reincarnation Necho green Speedstar 樱 fujihara folk pop japanese
BeatmapID:4126418
BeatmapSetID:1986488

[Difficulty]
HPDrainRate:5
CircleSize:4
OverallDifficulty:8
ApproachRate:9.4
SliderMultiplier:1.6
SliderTickRate:1

[Events]
//Background and Video events
0,0,"IMG_0441.JPG",0,0
//Break Periods
2,99174,106669
2,165056,181963
//Storyboard Layer 0 (Background)
//Storyboard Layer 1 (Fail)
//Storyboard Layer 2 (Pass)
//Storyboard Layer 3 (Foreground)
//Storyboard Layer 4 (Overlay)
//Storyboard Sound Samples

[TimingPoints]
1582,800,4,2,1,50,1,0
1582,-133.333333333333,4,2,1,50,0,0
2382,759.493670886076,4,2,1,50,1,0
2382,-133.333333333333,4,2,1,50,0,0
4660,759.493670886076,4,2,1,50,1,0
4660,-133.333333333333,4,2,1,50,0,0
6178,-66.6666666666667,4,2,1,50,0,0
7697,752.351097178683,4,2,1,50,1,0
7697,-133.333333333333,4,2,1,50,0,0
12211,-66.6666666666667,4,2,1,50,0,0
13715,-133.333333333333,4,2,1,50,0,0
18229,-66.6666666666667,4,2,1,50,0,0
18977,710.059171597633,4,2,1,50,1,0
19687,731.707317073171,4,2,1,50,1,0
19687,-133.333333333333,4,2,1,50,0,0
20418,-200,4,2,1,50,0,0
23680,294.117647058824,4,2,1,50,1,0
23680,-66.6666666666667,4,2,1,50,0,0
23876,-66.6666666666667,4,2,1,5,0,0
23974,-200,4,2,1,50,0,0
24170,-200,4,2,1,5,0,0
24268,-66.6666666666667,4,2,1,50,0,0
24464,-66.6666666666667,4,2,1,5,0,0
24562,-200,4,2,1,50,0,0
24758,-200,4,2,1,5,0,0
24856,-66.6666666666667,4,2,1,50,0,0
25052,-66.6666666666667,4,2,1,5,0,0
25150,-200,4,2,1,50,0,0
25346,-66.6666666666667,4,2,1,5,0,0
25444,-66.6666666666667,4,2,1,50,0,0
25640,-66.6666666666667,4,2,1,5,0,0
25738,-200,4,2,1,50,0,0
25934,-66.6666666666667,4,2,1,5,0,0
26032,-66.6666666666667,4,2,1,50,0,0
26229,-66.6666666666667,4,2,1,5,0,0
26327,-200,4,2,1,50,0,0
26523,-66.6666666666667,4,2,1,5,0,0
26621,-66.6666666666667,4,2,1,50,0,0
26817,-66.6666666666667,4,2,1,5,0,0
26915,-200,4,2,1,50,0,0
27111,-66.6666666666667,4,2,1,5,0,0
27209,-66.6666666666667,4,2,1,50,0,0
27405,-66.6666666666667,4,2,1,5,0,0
27503,-200,4,2,1,50,0,0
27699,-66.6666666666667,4,2,1,5,0,0
27797,-66.6666666666667,4,2,1,50,0,0
27993,-66.6666666666667,4,2,1,5,0,0
28091,-200,4,2,1,50,0,0
28287,-66.6666666666667,4,2,1,5,0,0
28385,-66.6666666666667,4,2,1,50,0,0
28581,-66.6666666666667,4,2,1,5,0,0
28680,-200,4,2,1,50,0,0
28778,-66.6666666666667,4,2,1,5,0,0
28974,-66.6666666666667,4,2,1,50,0,0
29170,-66.6666666666667,4,2,1,5,0,0
29268,-200,4,2,1,50,0,0
29366,-66.6666666666667,4,2,1,5,0,0
29562,-66.6666666666667,4,2,1,50,0,0
29758,-66.6666666666667,4,2,1,5,0,0
29856,-200,4,2,1,50,0,0
29954,-66.6666666666667,4,2,1,5,0,0
30150,-66.6666666666667,4,2,1,50,0,0
30346,-66.6666666666667,4,2,1,5,0,0
30444,-200,4,2,1,50,0,0
30542,-66.6666666666667,4,2,1,5,0,0
30738,-66.6666666666667,4,2,1,50,0,0
30934,-66.6666666666667,4,2,1,5,0,0
31032,-66.6666666666667,4,2,1,50,0,0
31523,-66.6666666666667,4,2,1,5,0,0
31621,-66.6666666666667,4,2,1,50,0,0
31915,-111.111111111111,4,2,1,50,0,0
31964,-66.6666666666667,4,2,1,5,0,0
32209,-83.3333333333333,4,2,1,50,0,0
32258,-66.6666666666667,4,2,1,5,0,0
32503,-66.6666666666667,4,2,1,50,0,0
32552,-66.6666666666667,4,2,1,5,0,0
32797,-55.5555555555556,4,2,1,50,0,0
32846,-66.6666666666667,4,2,1,5,0,0
33091,-66.6666666666667,4,2,1,70,0,0
33287,-66.6666666666667,4,2,1,5,0,0
33385,-200,4,2,1,70,0,0
33581,-66.6666666666667,4,2,1,5,0,0
33680,-66.6666666666667,4,2,1,70,0,0
33778,-66.6666666666667,4,2,1,5,0,0
33876,-200,4,2,1,70,0,0
34072,-200,4,2,1,5,0,0
34170,-66.6666666666667,4,2,1,70,0,0
34464,-66.6666666666667,4,2,1,5,0,0
34562,-200,4,2,1,70,0,0
34758,-66.6666666666667,4,2,1,5,0,0
34856,-66.6666666666667,4,2,1,70,0,0
34954,-66.6666666666667,4,2,1,5,0,0
35052,-200,4,2,1,70,0,0
35346,-200,4,2,1,5,0,0
35444,-66.6666666666667,4,2,1,70,0,0
35640,-66.6666666666667,4,2,1,5,0,0
35738,-200,4,2,1,70,0,0
35934,-66.6666666666667,4,2,1,5,0,0
36032,-66.6666666666667,4,2,1,70,0,0
36229,-200,4,2,1,70,0,0
36425,-200,4,2,1,5,0,0
36523,-50,4,2,1,70,0,0
36817,-50,4,2,1,5,0,0
36915,-200,4,2,1,70,0,0
37111,-66.6666666666667,4,2,1,5,0,0
37209,-50,4,2,1,70,0,0
37405,-200,4,2,1,5,0,0
37503,-200,4,2,1,70,0,0
37699,-200,4,2,1,5,0,0
37797,-66.6666666666667,4,2,1,70,0,0
38091,-200,4,2,1,70,0,0
38287,-200,4,2,1,5,0,0
38385,-66.6666666666667,4,2,1,70,0,0
38483,-200,4,2,1,5,0,0
38581,-200,4,2,1,70,0,0
38778,-200,4,2,1,5,0,0
38876,-66.6666666666667,4,2,1,70,0,0
39170,-200,4,2,1,5,0,0
39268,-200,4,2,1,70,0,0
39464,-200,4,2,1,5,0,0
39562,-66.6666666666667,4,2,1,70,0,0
39660,-200,4,2,1,5,0,0
39758,-200,4,2,1,70,0,0
40052,-200,4,2,1,5,0,0
40150,-66.6666666666667,4,2,1,70,0,0
40346,-200,4,2,1,5,0,0
40444,-200,4,2,1,70,0,0
40640,-200,4,2,1,5,0,0
40738,-66.6666666666667,4,2,1,70,0,0
41032,-200,4,2,1,70,0,0
41327,-66.6666666666667,4,2,1,70,0,0
41523,-200,4,2,1,5,0,0
41621,-62.5,4,2,1,70,0,0
41817,-200,4,2,1,5,0,0
41915,-52.6315789473684,4,2,1,70,0,0
42013,-200,4,2,1,5,0,0
42111,-50,4,2,1,70,0,0
42405,-200,4,2,1,5,0,0
42503,-100,4,2,1,70,0,0
42699,-200,4,2,1,5,0,0
42797,-100,4,2,1,70,0,0
42993,-200,4,2,1,5,0,0
43091,-100,4,2,1,70,0,0
43876,-200,4,2,1,5,0,0
43974,-100,4,2,1,70,0,0
44170,-200,4,2,1,5,0,0
44268,-100,4,2,1,70,0,0
44758,-200,4,2,1,5,0,0
44856,-100,4,2,1,70,0,0
45346,-200,4,2,1,5,0,0
45444,-100,4,2,1,70,0,0
46032,-66.6666666666667,4,2,1,70,0,0
46229,-200,4,2,1,5,0,0
46327,-100,4,2,1,70,0,0
46817,-200,4,2,1,5,0,0
46915,-100,4,2,1,70,0,0
47405,-200,4,2,1,5,0,0
47503,-100,4,2,1,70,0,0
47699,-200,4,2,1,5,0,0
47797,-100,4,2,1,70,0,0
48581,-200,4,2,1,5,0,0
48680,-100,4,2,1,70,0,0
48876,-200,4,2,1,5,0,0
48974,-100,4,2,1,70,0,0
49464,-200,4,2,1,5,0,0
49562,-100,4,2,1,70,0,0
50052,-200,4,2,1,5,0,0
50150,-100,4,2,1,70,0,0
50346,-200,4,2,1,5,0,0
50444,-100,4,2,1,70,0,0
50542,-200,4,2,1,5,0,0
50640,-66.6666666666667,4,2,1,70,0,0
50934,-200,4,2,1,5,0,0
51032,-100,4,2,1,70,0,0
51229,-200,4,2,1,5,0,0
51327,-100,4,2,1,70,0,0
52111,-200,4,2,1,5,0,0
52209,-100,4,2,1,70,0,0
52405,-200,4,2,1,5,0,0
52503,-100,4,2,1,70,0,0
53287,-200,4,2,1,5,0,0
53385,-100,4,2,1,70,0,0
54170,-200,4,2,1,5,0,0
54268,-100,4,2,1,70,0,0
54758,-100,4,2,1,5,0,0
54856,-100,4,2,1,70,0,0
55444,-66.6666666666667,4,2,1,70,0,0
55640,-200,4,2,1,5,0,0
55738,-100,4,2,1,70,0,0
55934,-200,4,2,1,5,0,0
56032,-100,4,2,1,70,0,0
56229,-200,4,2,1,5,0,0
56327,-100,4,2,1,70,0,0
56523,-200,4,2,1,5,0,0
56621,-100,4,2,1,70,0,0
57405,-200,4,2,1,5,0,0
57503,-100,4,2,1,70,0,0
57993,-200,4,2,1,5,0,0
58091,-100,4,2,1,70,0,0
58581,-200,4,2,1,5,0,0
58680,-100,4,2,1,70,0,0
59170,-200,4,2,1,5,0,0
59268,-100,4,2,1,70,0,0
59464,-200,4,2,1,5,0,0
59562,-100,4,2,1,70,0,0
59954,-200,4,2,1,5,0,0
60052,-100,4,2,1,70,0,0
60346,-200,4,2,1,5,0,0
60444,-100,4,2,1,70,0,0
61327,-66.6666666666667,4,2,1,70,0,0
61915,-100,4,2,1,70,0,0
62111,-200,4,2,1,5,0,0
62209,-100,4,2,1,70,0,0
62307,-200,4,2,1,5,0,0
62405,-133.333333333333,4,2,1,70,0,0
63091,-100,4,2,1,70,0,0
63287,-200,4,2,1,5,0,0
63385,-100,4,2,1,70,0,0
63483,-200,4,2,1,5,0,0
63581,-133.333333333333,4,2,1,70,0,0
64856,-200,4,2,1,70,0,0
65052,-200,4,2,1,5,0,0
65150,-200,4,2,1,70,0,0
65346,-200,4,2,1,5,0,0
65444,-100,4,2,1,70,0,0
66817,-200,4,2,1,5,0,0
66915,-100,4,2,1,70,0,0
67405,-200,4,2,1,5,0,0
67503,-100,4,2,1,70,0,0
67699,-200,4,2,1,5,0,0
67797,-100,4,2,1,70,0,0
68287,-200,4,2,1,5,0,0
68385,-100,4,2,1,70,0,0
68581,-200,4,2,1,5,0,0
68680,-100,4,2,1,70,0,0
68876,-200,4,2,1,5,0,0
68974,-100,4,2,1,70,0,0
69170,-200,4,2,1,5,0,0
69268,-100,4,2,1,70,0,0
69562,-400,4,2,1,70,0,0
69758,-200,4,2,1,5,0,0
69856,-400,4,2,1,70,0,0
70052,-200,4,2,1,5,0,0
70150,-400,4,2,1,70,0,0
70248,-200,4,2,1,5,0,0
70346,-400,4,2,1,70,0,0
70542,-200,4,2,1,5,0,0
70738,-100,4,2,1,70,0,0
71523,-200,4,2,1,5,0,0
71621,-100,4,2,1,70,0,0
71719,-200,4,2,1,5,0,0
71817,-133.333333333333,4,2,1,70,0,0
72503,-100,4,2,1,70,0,0
72699,-200,4,2,1,5,0,0
72797,-100,4,2,1,70,0,0
72895,-200,4,2,1,5,0,0
72993,-133.333333333333,4,2,1,70,0,0
74268,-200,4,2,1,70,0,0
74464,-200,4,2,1,5,0,0
74562,-200,4,2,1,70,0,0
74758,-200,4,2,1,5,0,0
74856,-100,4,2,1,70,0,0
76817,-200,4,2,1,5,0,0
76915,-100,4,2,1,70,0,0
77013,-200,4,2,1,5,0,0
77111,-100,4,2,1,70,0,0
77307,-200,4,2,1,5,0,0
77405,-100,4,2,1,70,0,0
77699,-200,4,2,1,5,0,0
77797,-100,4,2,1,70,0,0
79562,-90.9090909090909,4,2,1,50,0,0
79599,-200,4,2,1,5,0,0
79635,-83.3333333333333,4,2,1,50,0,0
79672,-200,4,2,1,5,0,0
79709,-76.9230769230769,4,2,1,50,0,0
79746,-200,4,2,1,5,0,0
79782,-71.4285714285714,4,2,1,50,0,0
79819,-200,4,2,1,5,0,0
79856,-66.6666666666667,4,2,1,50,0,0
79893,-200,4,2,1,5,0,0
79930,-62.5,4,2,1,50,0,0
79966,-200,4,2,1,5,0,0
80003,-58.8235294117647,4,2,1,50,0,0
80040,-200,4,2,1,5,0,0
80077,-55.5555555555556,4,2,1,50,0,0
80113,-200,4,2,1,5,0,0
80150,-66.6666666666667,4,2,2,70,0,0
81130,-200,4,2,2,5,0,0
81229,-66.6666666666667,4,2,2,70,0,0
81523,-200,4,2,2,5,0,0
81621,-66.6666666666667,4,2,2,70,0,0
81817,-200,4,2,2,5,0,0
81915,-66.6666666666667,4,2,2,70,0,0
82601,-200,4,2,2,5,0,0
82699,-66.6666666666667,4,2,2,70,0,0
82993,-200,4,2,2,5,0,0
83091,-66.6666666666667,4,2,2,70,0,0
83287,-200,4,2,2,5,0,0
83385,-66.6666666666667,4,2,2,70,0,0
83483,-200,4,2,2,5,0,0
83581,-66.6666666666667,4,2,2,70,0,0
83876,-200,4,2,2,5,0,0
83974,-200,4,2,2,70,0,0
84170,-200,4,2,2,5,0,0
84268,-66.6666666666667,4,2,2,70,0,0
84856,-66.6666666666667,4,2,2,70,0,0
85836,-200,4,2,2,5,0,0
85934,-66.6666666666667,4,2,2,70,0,0
86229,-200,4,2,2,5,0,0
86327,-66.6666666666667,4,2,2,70,0,0
86988,-66.6666666666667,4,3,0,70,0,0
87209,-66.6666666666667,4,2,2,70,0,0
87699,-200,4,2,2,5,0,0
87797,-66.6666666666667,4,2,2,70,0,0
87993,-200,4,2,2,5,0,0
88091,-58.8235294117647,4,2,2,70,0,0
88581,-200,4,2,2,5,0,0
88680,-52.6315789473684,4,2,1,70,0,0
88876,-200,4,2,2,5,0,0
88974,-47.6190476190476,4,2,1,70,0,0
89072,-200,4,2,2,5,0,0
89170,-43.4782608695652,4,2,1,70,0,0
89366,-200,4,2,2,5,0,0
89464,-66.6666666666667,4,2,2,70,0,0
90542,-200,4,2,2,5,0,0
90640,-66.6666666666667,4,2,2,70,0,0
90934,-200,4,2,2,5,0,0
91032,-66.6666666666667,4,2,2,70,0,0
91229,-200,4,2,2,5,0,0
91327,-66.6666666666667,4,2,2,70,0,0
92013,-200,4,2,2,5,0,0
92111,-66.6666666666667,4,2,2,70,0,0
92405,-200,4,2,2,5,0,0
92503,-66.6666666666667,4,2,2,70,0,0
92699,-200,4,2,2,5,0,0
92797,-66.6666666666667,4,2,2,70,0,0
92895,-200,4,2,2,5,0,0
92993,-66.6666666666667,4,2,2,70,0,0
93287,-200,4,2,2,5,0,0
93385,-66.6666666666667,4,2,2,70,0,0
93483,-200,4,2,2,5,0,0
93581,-66.6666666666667,4,2,2,70,0,0
94268,-66.6666666666667,4,2,2,70,0,0
94464,-200,4,2,2,5,0,0
94562,-66.6666666666667,4,2,2,70,0,0
95248,-200,4,2,2,5,0,0
95346,-66.6666666666667,4,2,2,70,0,0
96817,-200,4,2,2,5,0,0
96915,-66.6666666666667,4,2,2,70,0,0
97111,-200,4,2,2,5,0,0
97209,-66.6666666666667,4,2,1,70,0,0
107209,-133.333333333333,4,2,1,70,0,0
107405,-200,4,2,1,5,0,0
107503,-100,4,2,1,70,0,0
107699,-200,4,2,1,5,0,0
107797,-66.6666666666667,4,2,1,70,0,0
107895,-200,4,2,1,5,0,0
107993,-50,4,2,1,70,0,0
108287,-200,4,2,1,5,0,0
108385,-100,4,2,1,60,0,0
108581,-200,4,2,1,5,0,0
108680,-100,4,2,1,60,0,0
108876,-200,4,2,1,5,0,0
108974,-100,4,2,1,60,0,0
109758,-200,4,2,1,5,0,0
109856,-100,4,2,1,60,0,0
110052,-200,4,2,1,5,0,0
110150,-100,4,2,1,60,0,0
110640,-200,4,2,1,5,0,0
110738,-100,4,2,1,60,0,0
111229,-200,4,2,1,5,0,0
111327,-100,4,2,1,60,0,0
111915,-66.6666666666667,4,2,1,60,0,0
112111,-200,4,2,1,5,0,0
112209,-100,4,2,1,60,0,0
112699,-200,4,2,1,5,0,0
112797,-100,4,2,1,60,0,0
113287,-200,4,2,1,5,0,0
113385,-100,4,2,1,60,0,0
113581,-200,4,2,1,5,0,0
113680,-100,4,2,1,60,0,0
114464,-200,4,2,1,5,0,0
114562,-100,4,2,1,60,0,0
114758,-200,4,2,1,5,0,0
114856,-100,4,2,1,60,0,0
115346,-200,4,2,1,5,0,0
115444,-100,4,2,1,60,0,0
115934,-200,4,2,1,5,0,0
116032,-100,4,2,1,60,0,0
116229,-200,4,2,1,5,0,0
116327,-100,4,2,1,60,0,0
116425,-200,4,2,1,5,0,0
116523,-66.6666666666667,4,2,1,60,0,0
116817,-200,4,2,1,5,0,0
116915,-100,4,2,1,60,0,0
117111,-200,4,2,1,5,0,0
117209,-100,4,2,1,60,0,0
117993,-200,4,2,1,5,0,0
118091,-100,4,2,1,60,0,0
118287,-200,4,2,1,5,0,0
118385,-100,4,2,1,60,0,0
119170,-200,4,2,1,5,0,0
119268,-100,4,2,1,70,0,0
120052,-200,4,2,1,5,0,0
120150,-100,4,2,1,70,0,0
120640,-200,4,2,1,5,0,0
120738,-100,4,2,1,60,0,0
121327,-66.6666666666667,4,2,1,60,0,0
121523,-200,4,2,1,5,0,0
121621,-100,4,2,1,60,0,0
122111,-200,4,2,1,5,0,0
122209,-100,4,2,1,60,0,0
122405,-200,4,2,1,5,0,0
122503,-100,4,2,1,60,0,0
122699,-200,4,2,1,5,0,0
122797,-100,4,2,1,60,0,0
123287,-200,4,2,1,5,0,0
123385,-100,4,2,1,60,0,0
123876,-200,4,2,1,5,0,0
123974,-100,4,2,1,60,0,0
124464,-200,4,2,1,5,0,0
124562,-100,4,2,1,60,0,0
125052,-200,4,2,1,5,0,0
125150,-100,4,2,1,60,0,0
125346,-200,4,2,1,5,0,0
125444,-100,4,2,1,60,0,0
125836,-200,4,2,1,5,0,0
125934,-100,4,2,1,60,0,0
126229,-200,4,2,1,5,0,0
126327,-100,4,2,1,60,0,0
127209,-66.6666666666667,4,2,1,60,0,0
127797,-100,4,2,1,60,0,0
127993,-200,4,2,1,5,0,0
128091,-100,4,2,1,60,0,0
128189,-200,4,2,1,5,0,0
128287,-100,4,2,1,60,0,0
128581,-200,4,2,1,5,0,0
128680,-100,4,2,1,60,0,0
129170,-200,4,2,1,5,0,0
129268,-100,4,2,1,60,0,0
129366,-200,4,2,1,5,0,0
129464,-100,4,2,1,60,0,0
129758,-200,4,2,1,5,0,0
129856,-200,4,2,1,60,0,0
130346,-200,4,2,1,5,0,0
130444,-200,4,2,1,60,0,0
130934,-200,4,2,1,5,0,0
131032,-200,4,2,1,60,0,0
131229,-200,4,2,1,5,0,0
131327,-100,4,2,1,60,0,0
132699,-200,4,2,1,5,0,0
132797,-100,4,2,1,60,0,0
133287,-200,4,2,1,5,0,0
133385,-100,4,2,1,60,0,0
133581,-200,4,2,1,5,0,0
133680,-100,4,2,1,60,0,0
134170,-200,4,2,1,5,0,0
134268,-100,4,2,1,60,0,0
134464,-200,4,2,1,5,0,0
134562,-100,4,2,1,60,0,0
134758,-200,4,2,1,5,0,0
134856,-100,4,2,1,60,0,0
135052,-200,4,2,1,5,0,0
135150,-100,4,2,1,60,0,0
137405,-200,4,2,1,5,0,0
137503,-100,4,2,1,60,0,0
137601,-200,4,2,1,5,0,0
137699,-100,4,2,1,60,0,0
137993,-200,4,2,1,5,0,0
138091,-100,4,2,1,60,0,0
138581,-200,4,2,1,5,0,0
138680,-100,4,2,1,60,0,0
138778,-200,4,2,1,5,0,0
138876,-100,4,2,1,60,0,0
139170,-200,4,2,1,5,0,0
139268,-200,4,2,1,60,0,0
139758,-200,4,2,1,5,0,0
139856,-200,4,2,1,60,0,0
140346,-200,4,2,1,5,0,0
140444,-200,4,2,1,60,0,0
140640,-200,4,2,1,5,0,0
140738,-100,4,2,1,60,0,0
142699,-200,4,2,1,5,0,0
142797,-100,4,2,1,60,0,0
142895,-200,4,2,1,5,0,0
142993,-100,4,2,1,60,0,0
143189,-200,4,2,1,5,0,0
143287,-100,4,2,1,60,0,0
143581,-200,4,2,1,5,0,0
143680,-100,4,2,1,60,0,0
145444,-50,4,2,1,60,0,0
145934,-200,4,2,1,5,0,0
146032,-66.6666666666667,4,2,2,70,0,0
147013,-200,4,2,2,5,0,0
147111,-66.6666666666667,4,2,2,70,0,0
147405,-200,4,2,2,5,0,0
147503,-66.6666666666667,4,2,2,70,0,0
147699,-200,4,2,2,5,0,0
147797,-66.6666666666667,4,2,2,70,0,0
148483,-200,4,2,2,5,0,0
148581,-66.6666666666667,4,2,2,70,0,0
148876,-200,4,2,2,5,0,0
148974,-66.6666666666667,4,2,2,70,0,0
149170,-200,4,2,2,5,0,0
149268,-66.6666666666667,4,2,2,70,0,0
149366,-200,4,2,2,5,0,0
149464,-66.6666666666667,4,2,2,70,0,0
149758,-200,4,2,2,5,0,0
149856,-200,4,2,2,70,0,0
150052,-200,4,2,2,5,0,0
150150,-66.6666666666667,4,2,2,70,0,0
151719,-200,4,2,2,5,0,0
151817,-66.6666666666667,4,2,2,70,0,0
152111,-200,4,2,2,5,0,0
152209,-66.6666666666667,4,2,2,70,0,0
152871,-66.6666666666667,4,3,0,70,0,0
153091,-66.6666666666667,4,2,2,70,0,0
153581,-200,4,2,2,5,0,0
153680,-66.6666666666667,4,2,2,70,0,0
153876,-200,4,2,2,5,0,0
153974,-66.6666666666667,4,2,2,70,0,0
154268,-58.8235294117647,4,2,1,70,0,0
154464,-200,4,2,1,5,0,0
154562,-52.6315789473684,4,2,1,70,0,0
154758,-200,4,2,1,5,0,0
154856,-47.6190476190476,4,2,1,70,0,0
154954,-200,4,2,1,5,0,0
155052,-43.4782608695652,4,2,1,70,0,0
155248,-200,4,2,1,5,0,0
155346,-66.6666666666667,4,2,2,70,0,0
156425,-200,4,2,2,5,0,0
156523,-66.6666666666667,4,2,2,70,0,0
156817,-200,4,2,2,5,0,0
156915,-66.6666666666667,4,2,2,70,0,0
157111,-200,4,2,2,5,0,0
157209,-66.6666666666667,4,2,2,70,0,0
157895,-200,4,2,2,5,0,0
157993,-66.6666666666667,4,2,2,70,0,0
158287,-200,4,2,2,5,0,0
158385,-66.6666666666667,4,2,2,70,0,0
158581,-200,4,2,2,5,0,0
158680,-66.6666666666667,4,2,2,70,0,0
158778,-200,4,2,2,5,0,0
158876,-66.6666666666667,4,2,2,70,0,0
159170,-200,4,2,2,5,0,0
159268,-66.6666666666667,4,2,2,70,0,0
159366,-200,4,2,2,5,0,0
159464,-66.6666666666667,4,2,2,70,0,0
160346,-200,4,2,2,5,0,0
160444,-66.6666666666667,4,2,2,70,0,0
161130,-200,4,2,2,5,0,0
161229,-66.6666666666667,4,2,2,70,0,0
162699,-200,4,2,2,5,0,0
162797,-66.6666666666667,4,2,2,70,0,0
162993,-200,4,2,2,5,0,0
163091,-66.6666666666667,4,2,2,70,0,0
164562,-66.6666666666667,4,2,2,70,0,0
182503,-133.333333333333,4,2,1,70,0,0
182699,-200,4,2,1,5,0,0
182797,-100,4,2,1,70,0,0
182993,-200,4,2,1,5,0,0
183091,-66.6666666666667,4,2,1,70,0,0
183189,-200,4,2,1,5,0,0
183287,-50,4,2,1,70,0,0
183581,-200,4,2,1,5,0,0
183680,-100,4,2,1,60,0,0
183876,-200,4,2,1,5,0,0
183974,-200,4,2,1,60,0,0
184562,-100,4,2,1,60,0,0
184660,-200,4,2,1,5,0,0
184758,-100,4,2,1,60,0,0
185052,-200,4,2,1,5,0,0
185150,-100,4,2,1,60,0,0
185346,-200,4,2,1,5,0,0
185444,-100,4,2,1,60,0,0
185640,-200,4,2,1,5,0,0
185738,-100,4,2,1,60,0,0
185836,-200,4,2,1,5,0,0
185934,-100,4,2,1,60,0,0
186229,-200,4,2,1,5,0,0
186327,-100,4,2,1,60,0,0
186523,-200,4,2,1,5,0,0
186621,-100,4,2,1,60,0,0
187013,-200,4,2,1,5,0,0
187111,-200,4,2,1,60,0,0
187307,-200,4,2,1,5,0,0
187503,-200,4,2,1,60,0,0
187601,-200,4,2,1,5,0,0
187797,-200,4,2,1,60,0,0
187895,-200,4,2,1,5,0,0
187993,-200,4,2,1,60,0,0
188189,-200,4,2,1,5,0,0
188287,-100,4,2,1,60,0,0
188581,-200,4,2,1,5,0,0
188680,-200,4,2,1,60,0,0
189268,-100,4,2,1,60,0,0
189366,-200,4,2,1,5,0,0
189464,-100,4,2,1,60,0,0
189758,-200,4,2,1,5,0,0
189856,-100,4,2,1,60,0,0
190052,-200,4,2,1,5,0,0
190150,-100,4,2,1,60,0,0
190248,-200,4,2,1,5,0,0
190346,-100,4,2,1,60,0,0
190542,-200,4,2,1,5,0,0
190640,-100,4,2,1,60,0,0
191425,-200,4,2,1,5,0,0
191523,-100,4,2,1,60,0,0
191719,-200,4,2,1,5,0,0
191817,-100,4,2,1,60,0,0
192111,-200,4,2,1,5,0,0
192209,-100,4,2,1,60,0,0
192405,-200,4,2,1,5,0,0
192503,-100,4,2,1,60,0,0
192993,-200,4,2,1,5,0,0
193091,-200,4,2,1,60,0,0
193974,-100,4,2,1,60,0,0
194464,-200,4,2,1,5,0,0
194562,-100,4,2,1,60,0,0
194758,-200,4,2,1,5,0,0
194856,-100,4,2,1,60,0,0
195248,-200,4,2,1,5,0,0
195346,-100,4,2,1,60,0,0
195640,-200,4,2,1,5,0,0
195738,-100,4,2,1,60,0,0
195934,-200,4,2,1,5,0,0
196032,-100,4,2,1,60,0,0
196130,-200,4,2,1,5,0,0
196229,-100,4,2,1,60,0,0
196425,-200,4,2,1,5,0,0
196523,-100,4,2,1,60,0,0
197405,-200,4,2,1,5,0,0
197503,-100,4,2,1,60,0,0
197699,-200,4,2,1,5,0,0
197797,-100,4,2,1,60,0,0
198581,-200,4,2,1,5,0,0
198680,-200,4,2,1,60,0,0
199170,-200,4,2,1,5,0,0
199268,-200,4,2,1,60,0,0
199464,-200,4,2,1,5,0,0
199562,-200,4,2,1,60,0,0
199758,-200,4,2,1,5,0,0
199856,-50,4,2,1,60,0,0
200493,-200,4,2,1,5,0,0
200738,-50,4,2,1,60,0,0
200787,-200,4,2,1,5,0,0
201032,-50,4,2,1,60,0,0
201081,-200,4,2,1,5,0,0
201327,-50,4,2,1,60,0,0
201376,-200,4,2,1,5,0,0
201817,-100,4,2,1,60,0,0
202503,-200,4,2,1,50,0,0
205934,-200,4,2,1,5,0,0
206032,-200,4,2,1,50,0,0
206229,-200,4,2,1,5,0,0
206327,-200,4,2,1,50,0,0
206817,-200,4,2,1,5,0,0
206915,-66.6666666666667,4,2,1,50,0,0
207797,-200,4,2,1,50,0,0
211032,-100,4,2,1,50,0,0
211229,-200,4,2,1,5,0,0
211327,-80,4,2,1,50,0,0
211523,-200,4,2,1,5,0,0
211621,-66.6666666666667,4,2,1,50,0,0
211817,-200,4,2,1,5,0,0
211915,-66.6666666666667,4,2,2,70,0,0
212895,-200,4,2,2,5,0,0
212993,-66.6666666666667,4,2,2,70,0,0
213287,-200,4,2,2,5,0,0
213385,-66.6666666666667,4,2,2,70,0,0
213581,-200,4,2,2,5,0,0
213680,-66.6666666666667,4,2,2,70,0,0
214366,-200,4,2,2,5,0,0
214464,-66.6666666666667,4,2,2,70,0,0
214758,-200,4,2,2,5,0,0
214856,-66.6666666666667,4,2,2,70,0,0
215052,-200,4,2,2,5,0,0
215150,-66.6666666666667,4,2,2,70,0,0
215248,-200,4,2,2,5,0,0
215346,-66.6666666666667,4,2,2,70,0,0
215640,-200,4,2,2,5,0,0
215738,-66.6666666666667,4,2,2,70,0,0
215836,-200,4,2,2,5,0,0
215934,-66.6666666666667,4,2,2,70,0,0
216817,-200,4,2,2,5,0,0
216915,-66.6666666666667,4,2,2,70,0,0
217601,-200,4,2,2,5,0,0
217699,-66.6666666666667,4,2,2,70,0,0
219170,-200,4,2,2,5,0,0
219268,-66.6666666666667,4,2,2,70,0,0
219464,-200,4,2,2,5,0,0
219562,-66.6666666666667,4,2,2,70,0,0
221032,-66.6666666666667,4,2,2,70,0,0

[Colours]
Combo1 : 188,218,188
Combo2 : 211,171,205
Combo3 : 208,209,156
Combo4 : 163,171,205

[HitObjects]
368,104,1582,6,0,P|394:91|424:91,1,60.0000022888184
344,208,2382,2,0,P|299:207|258:189,1,90.0000034332277
258,189,3141,2,0,L|263:129,2,60.0000022888184,2|0|0,0:0|0:0|0:0,0:0:0:0:
248,296,4280,1,0,0:0:0:0:
248,296,4660,6,0,L|189:304,1,60.0000022888184
8,360,5419,2,0,L|67:368,1,60.0000022888184
67,368,5989,1,0,0:0:0:0:
67,368,6178,2,0,P|42:313|41:254,1,120.000004577637,2|0,0:0|0:0,0:0:0:0:
190,47,6938,2,0,P|166:101|165:160,1,120.000004577637
166,162,7697,6,0,L|293:173,1,120.000004577637,0|0,2:0|2:0,2:0:0:0:
376,64,9013,1,0,0:0:0:0:
376,64,9201,2,0,L|435:58,1,60.0000022888184,2|0,0:0|0:0,0:0:0:0:
512,192,9954,1,0,0:0:0:0:
512,192,10330,1,0,0:0:0:0:
379,263,10706,6,0,P|392:289|392:319,1,60.0000022888184
260,352,11458,2,0,P|247:326|247:296,1,60.0000022888184
247,295,12023,1,0,0:0:0:0:
247,295,12211,2,0,L|127:284,1,120.000004577637,2|0,0:0|0:0,0:0:0:0:
390,151,12963,2,0,L|533:138,1,120.000004577637
509,140,13715,6,0,L|502:219,1,60.0000022888184
390,151,14468,2,0,P|372:109|371:65,1,90.0000034332277
370,65,15220,2,0,L|429:59,2,60.0000022888184,2|0|0,0:0|0:0|0:0,0:0:0:0:
208,40,16349,1,0,0:0:0:0:
208,40,16725,6,0,P|194:66|195:96,1,60.0000022888184
64,168,17477,2,0,L|4:162,1,60.0000022888184
4,162,18041,1,0,0:0:0:0:
4,162,18229,2,0,L|15:297,1,120.000004577637,2|0,0:0|0:0,0:0:0:0:
120,368,18977,1,0,0:0:0:0:
120,368,19332,1,0,0:0:0:0:
189,155,19687,6,0,L|195:83,1,60.0000022888184
311,239,20418,2,0,L|315:290,1,40
391,319,21150,1,2,0:0:0:0:
71,62,23680,6,0,P|22:124|20:202,1,160.000006103516,2|0,1:2|2:0,0:0:0:0:
26,222,23974,2,0,P|54:206|79:205,1,53.3333333333333,2|0,3:2|2:0,0:0:0:0:
231,341,24268,6,0,P|182:278|180:200,1,160.000006103516,8|0,3:2|2:0,0:0:0:0:
196,184,24562,2,0,P|215:181|198:190,1,53.3333333333333,0|0,3:0|2:0,0:0:0:0:
229,41,24856,6,0,L|71:62,1,160.000006103516,8|0,3:2|2:0,0:0:0:0:
60,78,25150,2,0,L|70:15,1,53.3333333333333,2|0,3:2|2:0,0:0:0:0:
196,184,25444,6,0,L|372:207,1,160.000006103516,8|0,3:2|2:0,0:0:0:0:
349,188,25738,2,0,B|363:152|363:152|359:175,1,53.3333333333333,0|0,3:0|2:0,0:0:0:0:
393,329,26032,6,0,B|387:355|387:355|473:366|487:293,1,160.000006103516,8|0,3:2|2:0,0:0:0:0:
512,176,26327,2,0,L|437:185,1,53.3333333333333,2|0,3:2|2:0,0:0:0:0:
290,39,26621,6,0,B|284:13|284:13|370:2|384:75,1,160.000006103516,8|0,3:2|2:0,0:0:0:0:
349,188,26916,2,0,L|297:181,1,53.3333333333333,0|0,3:0|2:0,0:0:0:0:
74,204,27209,6,0,B|42:276|42:276|57:356,1,160.000006103516,8|0,3:2|2:0,0:0:0:0:
74,204,27503,2,0,L|61:133,1,53.3333333333333,2|0,3:2|2:0,0:0:0:0:
280,91,27797,6,0,P|215:162|189:123,1,160.000006103516,8|0,3:2|2:0,0:0:0:0:
125,61,28091,2,0,L|137:-10,1,53.3333333333333,0|0,3:0|2:0,0:0:0:0:
280,91,28385,6,0,B|335:86|335:86|377:106|377:106|441:100,1,160.000006103516,2|0,1:2|2:0,0:0:0:0:
508,237,28680,2,0,L|503:263,1,26.6666666666667,2|0,3:2|2:0,0:0:0:0:
503,263,28974,6,0,P|434:282|418:213,1,160.000006103516,8|0,3:0|2:0,0:0:0:0:
284,117,29268,2,0,L|279:90,1,26.6666666666667,2|0,3:0|2:0,0:0:0:0:
279,91,29562,6,0,P|210:72|194:141,1,160.000006103516,8|0,3:0|2:0,0:0:0:0:
96,320,29856,2,0,L|91:346,1,26.6666666666667,2|0,3:2|2:0,0:0:0:0:
91,346,30150,6,0,P|22:365|6:296,1,160.000006103516,8|0,3:0|2:0,0:0:0:0:
40,188,30444,2,0,L|35:161,1,26.6666666666667,2|0,3:0|2:0,0:0:0:0:
36,162,30738,6,0,L|194:141,1,160.000006103516,8|0,3:0|2:0,0:0:0:0:
156,277,31032,1,2,3:2:0:0:
156,277,31327,6,0,L|314:298,1,160.000006103516,8|0,3:0|2:0,0:0:0:0:
464,336,31621,1,2,3:0:0:0:
464,336,31915,6,0,L|471:296,1,23.9999992675781,2|0,1:2|2:0,0:0:0:0:
464,336,32209,6,0,L|471:296,1,31.9999990234375,8|0,3:0|2:0,0:0:0:0:
464,336,32503,6,0,L|471:292,1,40.000001525879,2|0,1:2|2:0,0:0:0:0:
464,336,32797,6,0,L|472:288,1,47.9999985351563,8|0,3:0|2:0,0:0:0:0:
435,100,33091,6,0,B|520:141|474:242|436:186|444:157,1,160.000006103516,4|0,1:2|2:0,0:0:0:0:
443,161,33385,2,0,P|412:163|393:177,1,53.3333333333333,2|0,0:0|2:0,0:0:0:0:
314,297,33680,2,0,L|301:398,1,80.0000030517579,0|0,1:0|2:0,0:0:0:0:
304,377,33876,2,0,L|347:384,2,26.6666666666667,2|8|0,0:0|0:3|0:0,0:0:0:0:
240,176,34170,5,8,0:3:0:0:
258,167,34268,2,0,B|226:139|226:139|241:22,1,160.000006103516,0|0,1:3|2:0,0:0:0:0:
241,22,34562,2,0,L|293:30,1,53.3333333333333,2|0,0:0|2:0,0:0:0:0:
144,112,34856,2,0,L|63:124,1,80.0000030517579,0|0,1:0|2:0,0:0:0:0:
18,55,35052,1,2,0:0:0:0:
18,55,35150,2,0,P|8:32|9:3,1,53.3333333333333,8|0,0:3|2:0,0:0:0:0:
34,207,35444,6,0,L|59:376,1,160.000006103516,0|0,1:0|2:0,0:0:0:0:
58,366,35738,2,0,P|89:353|117:356,1,53.3333333333333,2|0,0:0|2:0,0:0:0:0:
289,290,36032,1,0,1:0:0:0:
289,290,36229,2,0,P|302:290|314:297,2,26.6666666666667,2|8|0,0:0|0:3|2:0,0:0:0:0:
144,112,36523,5,8,0:3:0:0:
144,112,36621,2,0,P|236:137|257:45,1,213.333333333333,6|0,1:0|2:0,0:0:0:0:
273,40,36915,2,0,P|283:64|282:91,1,53.3333333333333,2|0,0:0|2:0,0:0:0:0:
289,290,37209,6,0,P|381:265|402:357,1,213.333333333333,6|0,1:0|2:0,0:0:0:0:
418,362,37503,2,0,P|428:338|427:311,1,53.3333333333333,2|0,0:0|2:0,0:0:0:0:
435,100,37797,5,6,1:0:0:0:
435,100,38091,2,0,L|443:31,1,53.3333333333333,2|0,0:0|2:0,0:0:0:0:
464,200,38385,2,0,B|422:206|422:206|384:188,1,80.0000030517579,0|0,1:0|2:0,0:0:0:0:
388,191,38581,2,0,L|389:217,2,26.6666666666667,2|8|0,0:0|0:3|2:0,0:0:0:0:
303,16,38876,5,8,0:3:0:0:
293,30,38974,2,0,P|217:14|149:53,1,160.000006103516,0|0,1:3|2:0,0:0:0:0:
148,53,39268,2,0,L|160:120,1,53.3333333333333,2|0,0:0|2:0,0:0:0:0:
315,179,39562,2,0,P|353:171|387:190,1,80.0000030517579,0|0,1:0|2:0,0:0:0:0:
431,279,39758,1,8,0:3:0:0:
431,279,39856,2,0,L|419:345,1,53.3333333333333,2|0,0:2|2:0,0:0:0:0:
208,360,40150,6,0,L|181:202,1,160.000006103516,0|0,1:0|2:0,0:0:0:0:
181,202,40444,2,0,P|155:206|139:226,1,53.3333333333333,2|0,0:0|2:0,0:0:0:0:
8,312,40738,1,0,1:0:0:0:
8,312,40934,1,8,0:3:0:0:
8,312,41032,2,0,P|-4:334|0:359,1,53.3333333333333,2|0,0:0|1:0,0:0:0:0:
22,159,41327,6,0,P|13:81|56:17,1,160.000006103516,4|0,1:2|2:0,0:0:0:0:
83,19,41621,6,0,P|36:88|46:171,1,170.666666666667,8|0,1:0|2:0,0:0:0:0:
212,287,41915,6,0,L|326:297,1,101.333330627441,10|0,1:2|2:0,0:0:0:0:
456,315,42111,1,0,3:0:0:0:
372,285,42209,6,0,B|316:263|277:310|277:310|238:357|181:336,1,213.333333333333,8|0,1:0|2:0,0:0:0:0:
329,79,42503,6,0,P|374:52|426:62,1,106.666666666667,4|0,0:0|2:0,0:0:0:0:
435,66,42797,2,0,P|465:108|460:161,1,106.666666666667,2|0,0:0|2:0,0:0:0:0:
456,315,43091,1,0,1:0:0:0:
456,315,43385,1,0,3:0:0:0:
198,253,43581,5,8,0:3:0:0:
198,253,43680,2,0,P|153:226|101:236,1,106.666666666667,0|0,1:0|2:0,0:0:0:0:
92,240,43974,2,0,P|62:282|67:335,1,106.666666666667,2|0,0:0|2:0,0:0:0:0:
340,351,44268,1,0,1:0:0:0:
340,351,44562,2,0,L|335:220,1,106.666666666667,0|0,3:0|2:0,0:0:0:0:
224,40,44856,5,0,1:0:0:0:
224,40,45150,2,0,L|219:171,1,106.666666666667,2|0,0:0|2:0,0:0:0:0:
48,216,45444,2,0,P|52:149|108:186,1,160,0|0,1:0|3:0,0:0:0:0:
67,335,45934,5,8,0:3:0:0:
67,335,46032,2,0,P|138:368|214:349,1,160,4|0,1:3|2:0,0:0:0:0:
365,255,46327,1,2,1:2:0:0:
197,335,46621,2,0,P|223:289|271:270,1,106.666666666667,8|0,1:0|2:0,0:0:0:0:
365,255,46915,1,0,3:0:0:0:
470,54,47209,6,0,L|458:184,1,106.666666666667,0|0,1:0|2:0,0:0:0:0:
480,165,47503,2,0,L|489:58,1,106.666666666667,2|0,0:0|2:0,0:0:0:0:
346,12,47797,1,0,1:0:0:0:
346,12,48091,1,0,3:0:0:0:
365,255,48287,5,8,0:3:0:0:
365,255,48385,2,0,L|376:385,1,106.666666666667,0|0,1:0|2:0,0:0:0:0:
354,366,48680,2,0,L|343:259,1,106.666666666667,2|0,0:0|2:0,0:0:0:0:
480,165,48973,1,0,1:0:0:0:
480,165,49268,2,0,P|433:140|382:148,1,106.666666666667,0|0,3:0|2:0,0:0:0:0:
257,349,49562,5,0,1:0:0:0:
257,349,49856,2,0,P|303:374|355:366,1,106.666666666667,2|0,0:0|2:0,0:0:0:0:
262,215,50150,2,0,P|215:190|164:198,1,106.666666666667,0|0,1:0|2:0,0:0:0:0:
163,198,50444,2,0,L|168:252,1,53.3333333333333,0|0,3:0|2:0,0:0:0:0:
12,378,50640,5,0,1:0:0:0:
12,378,50738,2,0,L|26:207,1,160.000006103516,4|0,1:3|2:0,0:0:0:0:
164,198,51032,2,0,L|154:91,1,106.666666666667,2|0,1:2|2:0,0:0:0:0:
217,0,51327,1,8,1:0:0:0:
28,93,51523,1,8,0:3:0:0:
28,93,51621,2,0,P|24:113|33:95,2,53.3333333333333,2|2|0,1:2|2:0|0:0,0:0:0:0:
154,91,51915,6,0,P|200:115|252:107,1,106.666666666667,4|0,1:2|2:0,0:0:0:0:
260,101,52209,2,0,P|306:76|358:84,1,106.666666666667,2|0,0:0|2:0,0:0:0:0:
512,302,52503,2,0,P|442:298|482:247,1,160,0|0,1:0|3:0,0:0:0:0:
358,84,52993,5,8,0:3:0:0:
358,84,53091,2,0,P|382:130|374:182,1,106.666666666667,0|0,1:0|2:0,0:0:0:0:
374,182,53385,2,0,P|419:111|516:111,1,160,2|0,0:0|1:0,0:0:0:0:
512,302,53974,2,0,P|460:309|413:285,1,106.666666666667,0|0,3:0|2:0,0:0:0:0:
226,367,54268,5,0,1:0:0:0:
226,367,54562,2,0,P|179:342|127:350,1,106.666666666667,2|0,0:0|2:0,0:0:0:0:
127,349,54856,2,0,P|198:304|198:207,1,160,0|0,1:0|3:0,0:0:0:0:
58,93,55346,5,8,0:3:0:0:
58,93,55444,2,0,P|124:96|93:37,1,160,4|0,1:3|2:0,0:0:0:0:
8,211,55738,2,0,P|0:263|24:310,1,106.666666666667,2|0,1:2|2:0,0:0:0:0:
207,233,56032,2,0,P|210:180|242:139,1,106.666666666667,8|0,1:0|2:0,0:0:0:0:
413,285,56327,2,0,P|364:304|335:348,1,106.666666666667,0|0,3:0|2:0,0:0:0:0:
392,136,56621,6,0,B|383:47|465:7|495:67|442:118|411:103,1,160,0|2,1:0|0:0,0:0:0:0:
450,90,57209,2,0,P|399:82|364:42,1,106.666666666667,0|0,1:0|2:0,0:0:0:0:
253,29,57503,1,0,3:0:0:0:
335,348,57699,5,8,0:3:0:0:
335,348,57797,2,0,L|325:241,1,106.666666666667,0|0,1:0|2:0,0:0:0:0:
253,29,58091,1,2,0:0:0:0:
253,29,58385,2,0,B|228:54|199:52|199:52|223:66|251:49,1,106.666666666667,0|0,1:0|2:0,0:0:0:0:
362,41,58680,1,0,3:0:0:0:
105,75,58974,6,0,P|56:93|27:136,1,106.666666666667,0|0,1:0|2:0,0:0:0:0:
40,154,59268,2,0,P|68:109|117:91,1,106.666666666667,2|0,0:0|2:0,0:0:0:0:
176,240,59562,1,0,1:0:0:0:
176,240,59856,2,0,P|161:261|162:288,1,53.3333333333333,0|0,3:0|2:0,0:0:0:0:
208,368,60052,5,8,0:3:0:0:
43,362,60150,2,0,P|18:315|26:263,1,106.666666666667,4|0,1:3|2:0,0:0:0:0:
40,154,60444,5,2,1:2:0:0:
40,154,60591,1,0,0:0:0:0:
148,69,60738,1,2,1:2:0:0:
159,179,60885,1,0,0:0:0:0:
281,67,61032,1,2,1:2:0:0:
260,257,61180,1,0,0:0:0:0:
400,248,61327,6,0,B|462:256|508:217|508:217|500:291|403:286,1,240.000009155274,4|2,1:2|0:0,0:0:0:0:
238,357,61915,6,0,P|236:304|261:257,1,106.666666666667,8|0,1:0|2:0,0:0:0:0:
260,257,62209,2,0,P|262:283|275:308,1,53.3333333333333,0|0,3:0|2:0,0:0:0:0:
296,160,62405,5,8,0:3:0:0:
272,152,62503,2,0,P|312:109|369:92,1,120.000004577637,0|2,1:0|0:0,0:0:0:0:
102,23,63092,6,0,P|74:68|72:120,1,106.666666666667,8|0,1:0|2:0,0:0:0:0:
72,121,63386,2,0,P|87:99|111:84,1,53.3333333333333,0|0,3:0|2:0,0:0:0:0:
52,224,63582,5,8,0:3:0:0:
28,217,63680,2,0,P|42:274|82:317,1,120.000004577637,0|2,1:0|0:0,0:0:0:0:
369,91,64268,5,10,1:2:0:0:
369,91,64562,1,0,1:2:0:0:
200,48,64758,5,8,0:3:0:0:
200,48,64856,2,0,L|147:36,1,53.3333333333333,4|0,1:3|2:0,0:0:0:0:
72,121,65150,6,0,L|10:129,1,53.3333333333333,2|0,1:2|2:0,0:0:0:0:
35,296,65444,6,0,P|35:359|83:317,1,160,8|0,1:0|1:0,0:0:0:0:
144,272,65836,5,0,3:0:0:0:
173,291,65934,1,0,3:0:0:0:
208,296,66032,2,0,P|272:280|344:344,1,160,0|2,1:0|0:0,0:0:0:0:
352,332,66620,2,0,P|387:367|443:367,1,106.666666666667,8|0,1:0|2:0,0:0:0:0:
512,308,66915,1,0,3:0:0:0:
432,160,67111,5,8,0:3:0:0:
425,182,67209,2,0,L|318:192,1,106.666666666667,0|0,1:0|2:0,0:0:0:0:
326,43,67503,2,0,P|361:8|417:8,1,106.666666666667,2|0,0:0|2:0,0:0:0:0:
318,191,67797,1,8,1:0:0:0:
318,191,68091,2,0,L|211:201,1,106.666666666667,0|0,3:0|2:0,0:0:0:0:
32,57,68385,6,0,L|139:67,1,106.666666666667,0|0,1:0|2:0,0:0:0:0:
135,88,68680,2,0,L|28:78,1,106.666666666667,2|0,0:0|2:0,0:0:0:0:
19,286,68974,2,0,L|126:296,1,106.666666666667,8|0,1:0|2:0,0:0:0:0:
122,317,69269,2,0,L|15:307,1,106.666666666667,0|8,3:0|3:0,0:0:0:0:
259,343,69562,6,0,P|272:339|285:343,1,26.6666666666667,4|0,1:2|2:0,0:0:0:0:
210,200,69856,6,0,P|220:190|232:186,1,26.6666666666667,8|0,1:0|2:0,0:0:0:0:
368,168,70150,6,0,P|374:165|380:167,1,13.3333333333333,10|0,1:2|2:0,0:0:0:0:
417,62,70346,5,8,0:3:0:0:
417,62,70444,2,0,P|423:64|428:69,1,13.3333333333333,8|0,1:0|2:0,0:0:0:0:
131,89,70738,6,0,B|96:102|85:139|85:139|47:98|85:60,1,160,4|2,1:2|0:0,0:0:0:0:
282,243,71327,6,0,P|284:295|260:342,1,106.666666666667,8|0,1:0|2:0,0:0:0:0:
263,361,71621,2,0,P|236:346|211:350,1,53.3333333333333,0|0,3:0|2:0,0:0:0:0:
44,272,71817,5,8,0:3:0:0:
20,268,71915,2,0,P|72:239|131:245,1,120.000004577637,0|2,1:0|0:0,0:0:0:0:
230,141,72503,6,0,P|228:89|252:42,1,106.666666666667,8|0,1:0|2:0,0:0:0:0:
249,23,72797,2,0,P|276:38|301:34,1,53.3333333333333,0|0,3:0|2:0,0:0:0:0:
468,112,72993,5,8,0:3:0:0:
492,116,73091,2,0,P|440:145|381:139,1,120.000004577637,2|0,1:2|0:0,0:0:0:0:
84,60,73680,5,8,1:2:0:0:
84,60,73974,1,0,1:2:0:0:
230,141,74170,5,8,0:3:0:0:
230,141,74268,2,0,L|217:193,1,53.3333333333333,4|0,1:3|2:0,0:0:0:0:
130,244,74562,6,0,L|144:296,1,53.3333333333333,2|0,1:2|2:0,0:0:0:0:
56,376,74856,6,0,P|7:315|1:237,1,160,8|0,1:0|1:0,0:0:0:0:
78,135,75247,5,0,3:0:0:0:
89,101,75345,1,0,3:0:0:0:
82,67,75444,2,0,P|36:24|35:88,1,160,0|2,1:0|0:0,0:0:0:0:
89,101,76032,2,0,B|166:88|157:152|239:141,1,160,8|0,1:0|1:0,0:0:0:0:
344,80,76425,5,0,3:0:0:0:
368,56,76522,1,0,3:0:0:0:
390,32,76621,2,0,L|381:139,1,106.666666666667,0|0,1:2|2:0,0:0:0:0:
488,216,76916,2,0,L|492:269,1,53.3333333333333,8|0,1:0|2:0,0:0:0:0:
344,292,77112,1,8,0:3:0:0:
368,312,77209,2,0,L|363:365,1,53.3333333333333,10|0,1:2|2:0,0:0:0:0:
381,139,77405,1,8,0:3:0:0:
381,139,77503,2,0,L|390:32,1,106.666666666667,8|0,1:0|2:0,0:0:0:0:
472,0,77797,5,0,3:0:0:0:
488,216,78091,1,2,1:2:0:0:
400,224,78385,1,2,1:2:0:0:
312,232,78680,1,2,1:2:0:0:
38,351,78974,5,2,1:2:0:0:
38,351,79464,1,0,1:0:0:0:
38,351,79562,6,0,P|48:348|58:344,1,22.0000006713867,2|0,1:2|0:0,0:0:0:0:
58,343,79635,6,0,P|68:337|76:329,1,23.9999992675781,0|0,1:0|0:0,0:0:0:0:
76,328,79709,6,0,P|85:318|91:307,1,25.9999988098145,0|0,1:0|0:0,0:0:0:0:
91,307,79782,6,0,P|98:295|101:282,1,27.9999991455078,0|0,1:0|0:0,0:0:0:0:
101,281,79856,6,0,P|105:266|104:251,1,30.0000011444092,2|0,1:2|3:0,0:0:0:0:
104,251,79930,6,0,P|104:234|99:219,1,32,0|0,1:0|3:0,0:0:0:0:
99,219,80003,6,0,P|93:202|85:189,1,34.0000006484985,2|0,1:2|2:0,0:0:0:0:
85,188,80077,6,0,P|75:172|63:160,1,35.9999989013672,0|0,1:0|2:0,0:0:0:0:
55,125,80150,6,0,P|114:209|234:176,1,240.000009155274,4|2,1:2|0:0,0:0:0:0:
500,95,80738,2,0,P|442:42|364:49,1,160.000006103516,8|8,1:0|0:3,0:0:0:0:
344,40,81032,2,0,L|351:127,1,80.0000030517579,0|0,3:0|2:0,0:0:0:0:
336,328,81229,5,8,0:3:0:0:
336,328,81327,2,0,B|328:384|264:328|280:280|322:240,1,160.000006103516,0|0,1:0|2:0,0:0:0:0:
336,227,81621,2,0,B|391:222|391:222|433:242|433:242|497:236,1,160.000006103516,2|0,0:0|2:0,0:0:0:0:
233,178,81915,2,0,B|175:182|175:182|133:162|133:162|78:167,1,160.000006103516,8|8,1:0|0:3,0:0:0:0:
56,184,82209,6,2,L|62:112,1,60.0000022888184,8|0,1:0|1:0,0:0:0:0:
166,61,82356,1,0,1:0:0:0:
196,80,82430,1,0,1:0:0:0:
226,98,82503,6,0,L|233:179,1,80.0000030517579,0|0,1:2|2:0,0:0:0:0:
128,344,82699,1,8,0:3:0:0:
128,344,82797,2,0,B|93:373|93:373|105:229,1,160.000006103516,2|0,0:0|2:0,0:0:0:0:
166,61,83091,2,0,P|89:39|15:81,1,160.000006103516,8|0,1:0|2:0,0:0:0:0:
9,96,83385,2,0,P|-2:129|20:191,1,80.0000030517579,8|0,1:0|2:0,0:0:0:0:
233,178,83581,5,8,0:3:0:0:
233,178,83680,2,0,L|393:165,1,160.000006103516,2|0,1:0|2:0,0:0:0:0:
402,146,83974,2,0,L|456:142,1,53.3333333333333,2|0,0:0|2:0,0:0:0:0:
336,328,84268,2,0,B|323:371|323:371|249:380|239:304,1,160.000006103516,2|8,1:0|0:3,0:0:0:0:
233,178,84562,6,0,L|173:182,1,60.0000022888184,8|0,1:0|0:0,0:0:0:0:
240,158,84709,2,0,L|180:162,1,60.0000022888184,0|0,1:0|0:0,0:0:0:0:
84,128,84856,6,0,B|32:170|56:235|56:235|80:299|27:343,1,240.000009155274,2|2,1:0|0:0,0:0:0:0:
23,35,85444,2,0,P|99:19|168:56,1,160.000006103516,8|8,1:0|0:3,0:0:0:0:
191,66,85738,2,0,P|229:73|263:55,1,80.0000030517579,0|0,3:0|2:0,0:0:0:0:
500,95,85934,5,8,0:3:0:0:
500,95,86032,2,0,P|423:79|354:116,1,160.000006103516,0|0,1:0|2:0,0:0:0:0:
351,315,86327,1,2,0:0:0:0:
351,315,86621,2,0,P|419:352|496:336,1,160.000006103516,8|8,1:0|0:3,0:0:0:0:
415,157,86915,5,0,1:0:0:0:
386,134,86988,1,0,3:0:0:0:
354,115,87062,1,0,3:0:0:0:
323,95,87135,1,0,3:0:0:0:
291,77,87209,6,0,B|296:135|296:135|276:177|276:177|281:232,1,160.000006103516,0|8,1:0|0:3,0:0:0:0:
145,56,87503,2,0,P|221:39|290:76,1,160.000006103516,2|0,0:0|0:0,0:0:0:0:
205,303,87797,2,0,P|130:279|89:212,1,160.000006103516,8|0,1:0|0:0,0:0:0:0:
44,74,88091,5,8,1:0:0:0:
28,98,88189,1,0,1:0:0:0:
12,122,88287,1,8,1:0:0:0:
87,253,88385,6,0,P|153:235|90:210,1,181.333336791992,4|0,1:2|0:0,0:0:0:0:
371,353,88680,6,0,P|424:297|348:308,1,202.666661254883,8|0,1:0|0:0,0:0:0:0:
290,76,88974,6,0,L|280:187,1,111.999996582031,10|0,1:2|2:0,0:0:0:0:
258,204,89170,1,0,1:0:0:0:
97,375,89268,6,0,L|85:250,1,122.666669006348,8|0,1:0|2:0,0:0:0:0:
64,236,89464,1,0,1:0:0:0:
290,76,89562,6,0,P|182:41|112:129,1,240.000009155274,4|2,1:2|0:0,0:0:0:0:
279,187,90150,2,0,B|334:182|334:182|376:202|376:202|440:196,1,160.000006103516,8|8,1:0|0:3,0:0:0:0:
447,179,90444,2,0,L|453:100,1,80.0000030517579,0|0,3:0|2:0,0:0:0:0:
279,187,90641,5,8,0:3:0:0:
279,187,90738,2,0,L|304:385,1,160.000006103516,0|0,1:0|2:0,0:0:0:0:
405,319,91032,2,0,B|452:327|471:355|471:355|472:306|409:295,1,160.000006103516,2|0,0:0|2:0,0:0:0:0:
173,288,91327,2,0,P|103:328|27:308,1,160.000006103516,8|8,1:0|0:3,0:0:0:0:
8,296,91621,6,0,L|1:224,1,60.0000022888184,8|0,1:0|1:0,0:0:0:0:
67,85,91768,1,0,1:0:0:0:
102,89,91841,1,0,1:0:0:0:
134,105,91915,6,0,L|128:184,1,80.0000030517579,0|0,1:0|2:0,0:0:0:0:
325,230,92111,1,8,0:3:0:0:
325,230,92209,2,0,P|382:255|352:198,1,160.000006103516,2|0,0:0|0:0,0:0:0:0:
134,105,92503,2,0,B|189:100|189:100|231:120|231:120|295:114,1,160.000006103516,8|0,1:0|2:0,0:0:0:0:
304,98,92797,2,0,P|309:58|293:23,1,80.0000030517579,0|0,3:0|2:0,0:0:0:0:
198,12,92993,1,8,0:3:0:0:
325,230,93091,6,0,L|500:245,1,160.000006103516,2|0,1:0|0:0,0:0:0:0:
313,305,93385,2,0,P|308:265|324:230,1,80.0000030517579,2|0,0:0|2:0,0:0:0:0:
392,150,93581,1,8,0:3:0:0:
475,0,93680,2,0,P|508:71|499:149,1,160.000006103516,2|8,1:0|0:3,0:0:0:0:
392,150,93974,6,0,L|332:154,1,60.0000022888184,0|0,1:0|0:0,0:0:0:0:
243,188,94121,2,0,L|183:192,1,60.0000022888184,0|0,1:0|0:0,0:0:0:0:
184,192,94268,6,0,L|170:351,1,160.000006103516,2|0,1:0|0:0,0:0:0:0:
0,325,94562,1,2,0:0:0:0:
0,325,94856,2,0,P|42:261|118:264,1,160.000006103516,8|8,1:0|2:3,0:0:0:0:
138,277,95150,2,0,L|217:270,1,80.0000030517579,0|0,3:0|2:0,0:0:0:0:
498,150,95346,5,8,0:3:0:0:
498,150,95444,2,0,P|455:86|379:89,1,160.000006103516,0|8,1:0|0:3,0:0:0:0:
198,12,95738,1,2,0:0:0:0:
198,12,96032,2,0,B|193:67|193:67|213:109|213:109|207:173,1,160.000006103516,8|8,1:0|0:3,0:0:0:0:
217,269,96327,5,8,1:0:0:0:
217,269,96400,1,0,1:0:0:0:
217,269,96474,2,0,L|213:308,1,40.000001525879,0|0,1:0|1:0,0:0:0:0:
3,206,96621,6,0,P|48:142|124:127,1,160.000006103516,4|0,1:2|0:0,0:0:0:0:
139,359,96915,2,0,P|61:351|10:292,1,160.000006103516,8|0,1:0|0:0,0:0:0:0:
207,167,97209,2,0,P|240:238|214:312,1,160.000006103516,10|8,1:2|0:3,0:0:0:0:
320,325,97503,6,0,L|380:329,1,60.0000022888184,8|0,1:0|0:0,0:0:0:0:
313,305,97650,2,0,L|373:309,1,60.0000022888184,0|0,1:0|0:0,0:0:0:0:
416,201,97797,6,0,B|490:41|304:-62|250:41|246:158|391:136,1,400.00001525879,4|0,1:2|0:3,0:0:0:0:
348,137,98385,2,0,P|438:117|510:180,1,160.000006103516,4|0,1:2|2:0,0:0:0:0:
482,307,98680,5,8,1:0:0:0:
399,317,98778,1,0,1:0:0:0:
320,325,98876,1,0,1:0:0:0:
241,333,98974,1,4,1:2:0:0:
326,124,107209,6,0,L|317:219,1,80.0000030517579,4|0,1:2|2:0,0:0:0:0:
311,109,107503,6,0,L|302:216,1,106.666666666667,8|0,1:0|2:0,0:0:0:0:
485,196,107797,6,0,P|448:181|409:188,1,80.0000030517579,10|0,1:2|2:0,0:0:0:0:
302,215,107993,1,0,1:0:0:0:
152,320,108091,6,0,P|249:356|353:336,1,213.333333333333,8|0,1:0|2:0,0:0:0:0:
161,214,108385,6,0,L|152:321,1,106.666666666667,4|0,0:0|2:0,0:0:0:0:
152,320,108680,2,0,P|103:301|51:310,1,106.666666666667,2|0,0:0|2:0,0:0:0:0:
8,160,108973,1,0,1:0:0:0:
8,160,109267,1,0,3:0:0:0:
208,64,109464,5,8,0:3:0:0:
208,64,109562,2,0,L|315:73,1,106.666666666667,0|0,1:0|2:0,0:0:0:0:
314,73,109857,2,0,P|295:121|304:173,1,106.666666666667,2|0,0:0|2:0,0:0:0:0:
435,321,110150,1,0,1:0:0:0:
435,321,110444,2,0,P|454:272|445:220,1,106.666666666667,0|0,3:0|2:0,0:0:0:0:
328,329,110738,5,0,1:0:0:0:
328,329,111032,2,0,L|435:320,1,106.666666666667,2|0,0:0|2:0,0:0:0:0:
304,173,111327,2,0,B|269:160|258:123|258:123|220:164|258:202,1,160,0|0,1:0|3:0,0:0:0:0:
96,352,111817,5,8,0:3:0:0:
96,352,111915,2,0,B|68:301|68:301|80:165,1,160.000006103516,4|0,1:3|2:0,0:0:0:0:
32,32,112209,1,2,1:2:0:0:
96,208,112503,2,0,L|106:88,1,106.666666666667,8|0,1:0|2:0,0:0:0:0:
32,32,112797,1,0,3:0:0:0:
217,90,113091,6,0,P|262:63|314:73,1,106.666666666667,0|0,1:0|2:0,0:0:0:0:
232,184,113385,2,0,P|283:193|328:166,1,106.666666666667,2|0,0:0|2:0,0:0:0:0:
488,88,113679,1,0,1:0:0:0:
488,88,113973,1,0,3:0:0:0:
512,272,114169,5,8,0:3:0:0:
512,272,114268,2,0,L|392:261,1,106.666666666667,0|0,1:0|2:0,0:0:0:0:
503,378,114562,2,0,L|383:367,1,106.666666666667,2|0,0:0|2:0,0:0:0:0:
240,304,114856,1,0,1:0:0:0:
240,304,115150,2,0,P|188:295|143:322,1,106.666666666667,0|0,3:0|2:0,0:0:0:0:
21,212,115444,5,0,1:0:0:0:
21,212,115738,2,0,P|12:160|39:115,1,106.666666666667,2|0,0:0|2:0,0:0:0:0:
257,207,116032,2,0,P|266:258|240:304,1,106.666666666667,0|0,1:0|2:0,0:0:0:0:
239,303,116327,2,0,L|292:307,1,53.3333333333333,0|0,3:0|2:0,0:0:0:0:
280,79,116522,5,0,1:0:0:0:
280,79,116621,2,0,P|185:84|161:144,1,160.000006103516,6|0,1:3|2:0,0:0:0:0:
365,161,116915,2,0,L|471:151,1,106.666666666667,2|0,1:2|2:0,0:0:0:0:
510,240,117209,1,8,1:0:0:0:
420,62,117405,1,8,0:3:0:0:
420,62,117503,2,0,B|404:39|404:39|397:78,2,53.3333333333333,2|2|0,1:2|2:0|0:0,0:0:0:0:
365,161,117797,6,0,P|338:206|347:257,1,106.666666666667,4|0,1:2|2:0,0:0:0:0:
510,240,118091,2,0,P|507:187|470:150,1,106.666666666667,2|0,0:0|2:0,0:0:0:0:
360,355,118385,2,0,P|430:322|507:340,1,160,0|0,1:0|3:0,0:0:0:0:
216,383,118875,5,8,0:3:0:0:
216,383,118974,2,0,P|252:347|256:295,1,106.666666666667,0|0,1:0|2:0,0:0:0:0:
253,193,119268,2,0,P|177:212|106:179,1,160,2|0,0:0|1:0,0:0:0:0:
105,178,119856,2,0,P|74:135|80:83,1,106.666666666667,0|0,3:0|2:0,0:0:0:0:
296,40,120150,5,0,1:0:0:0:
296,40,120444,2,0,P|326:82|320:134,1,106.666666666667,2|0,0:0|2:0,0:0:0:0:
253,193,120738,2,0,P|323:160|400:178,1,160,0|0,1:0|3:0,0:0:0:0:
480,264,121229,5,8,0:3:0:0:
498,282,121327,2,0,L|511:122,1,160.000006103516,4|0,1:3|2:0,0:0:0:0:
319,134,121621,1,2,1:2:0:0:
319,134,121915,2,0,P|289:176|295:228,1,106.666666666667,0|0,1:0|2:0,0:0:0:0:
319,310,122209,2,0,P|351:349|403:357,1,106.666666666667,0|0,3:0|2:0,0:0:0:0:
231,294,122503,6,0,P|179:297|141:333,1,106.666666666667,0|0,1:0|0:0,0:0:0:0:
21,212,122797,1,2,0:0:0:0:
21,212,123091,2,0,P|33:160|72:126,1,106.666666666667,0|0,1:0|2:0,0:0:0:0:
80,19,123385,1,0,3:0:0:0:
221,187,123581,5,8,0:3:0:0:
221,187,123680,2,0,L|232:307,1,106.666666666667,0|0,1:0|2:0,0:0:0:0:
95,354,123973,1,2,0:0:0:0:
95,354,124268,2,0,P|59:355|92:327,1,106.666666666667,0|0,1:0|2:0,0:0:0:0:
230,293,124562,1,0,3:0:0:0:
511,234,124856,6,0,P|457:239|419:274,1,106.666666666667,0|0,1:0|2:0,0:0:0:0:
416,288,125150,2,0,P|362:293|324:328,1,106.666666666667,2|0,0:0|2:0,0:0:0:0:
226,346,125444,1,0,1:0:0:0:
226,346,125738,2,0,L|230:290,1,53.3333333333333,0|0,3:0|2:0,0:0:0:0:
221,187,125934,5,8,0:3:0:0:
113,250,126032,2,0,P|60:245|20:211,1,106.666666666667,4|0,1:3|2:0,0:0:0:0:
16,72,126327,5,2,1:2:0:0:
48,16,126474,1,0,1:0:0:0:
184,110,126621,1,2,1:2:0:0:
96,160,126768,1,8,0:0:0:0:
96,335,126915,1,2,1:2:0:0:
229,292,127062,1,8,0:0:0:0:
394,300,127209,6,0,B|426:252|498:244|458:404|355:366|314:316,1,240.000009155274,4|2,1:2|0:0,0:0:0:0:
328,27,127797,6,0,L|317:147,1,106.666666666667,8|0,1:0|2:0,0:0:0:0:
336,144,128091,2,0,L|391:139,1,53.3333333333333,0|0,3:0|2:0,0:0:0:0:
224,72,128287,5,8,0:3:0:0:
224,72,128385,2,0,P|172:63|127:88,1,106.666666666667,0|0,1:0|0:0,0:0:0:0:
86,229,128679,1,2,0:0:0:0:
86,229,128974,6,0,L|97:349,1,106.666666666667,8|0,1:0|2:0,0:0:0:0:
78,346,129268,2,0,L|22:341,1,53.3333333333333,0|0,3:0|2:0,0:0:0:0:
190,274,129464,5,8,0:3:0:0:
190,274,129562,2,0,P|241:265|286:290,1,106.666666666667,0|0,1:0|0:0,0:0:0:0:
448,320,129856,1,2,0:0:0:0:
448,320,130150,6,0,L|455:232,1,53.3333333333333,8|0,1:0|0:0,0:0:0:0:
432,264,130444,2,0,L|427:317,1,53.3333333333333,0|8,1:2|0:3,0:0:0:0:
373,185,130738,6,0,L|368:131,1,53.3333333333333,4|0,1:3|2:0,0:0:0:0:
504,8,131032,2,0,L|508:61,1,53.3333333333333,2|0,1:2|2:0,0:0:0:0:
510,209,131327,6,0,P|446:164|371:186,1,160,8|0,1:0|1:0,0:0:0:0:
223,105,131718,5,0,3:0:0:0:
250,120,131816,1,0,3:0:0:0:
277,136,131915,2,0,B|271:194|271:194|291:236|291:236|286:291,1,160.000006103516,0|2,1:0|0:0,0:0:0:0:
271,304,132503,2,0,P|225:329|174:321,1,106.666666666667,8|0,1:0|2:0,0:0:0:0:
86,229,132797,1,0,3:0:0:0:
264,152,132993,5,8,0:3:0:0:
277,136,133091,2,0,L|383:145,1,106.666666666667,0|0,1:0|2:0,0:0:0:0:
512,328,133385,2,0,P|461:337|415:312,1,106.666666666667,2|0,0:0|2:0,0:0:0:0:
383,145,133679,1,8,1:0:0:0:
383,145,133974,2,0,L|392:39,1,106.666666666667,0|0,3:0|2:0,0:0:0:0:
183,211,134268,6,0,P|136:237|85:228,1,106.666666666667,0|0,1:0|2:0,0:0:0:0:
151,49,134562,2,0,P|196:77|215:126,1,106.666666666667,2|0,0:0|2:0,0:0:0:0:
28,160,134856,2,0,P|28:107|61:66,1,106.666666666667,8|0,1:0|2:0,0:0:0:0:
151,49,135150,1,0,3:0:0:0:
392,38,135346,5,8,3:0:0:0:
383,145,135444,1,4,1:2:0:0:
383,145,135738,5,8,1:0:0:0:
383,145,136032,1,10,1:2:0:0:
502,198,136229,5,8,0:3:0:0:
512,328,136327,1,8,1:0:0:0:
173,320,136621,6,0,P|146:267|182:304,1,160,4|2,1:2|0:0,0:0:0:0:
285,128,137209,6,0,P|330:153|382:144,1,106.666666666667,8|0,1:0|2:0,0:0:0:0:
400,136,137503,2,0,L|394:72,1,53.3333333333333,0|0,3:0|2:0,0:0:0:0:
503,221,137699,5,8,0:3:0:0:
503,221,137797,2,0,L|494:327,1,106.666666666667,0|0,1:0|0:0,0:0:0:0:
368,280,138090,1,2,0:0:0:0:
368,280,138385,6,0,P|322:254|270:263,1,106.666666666667,8|0,1:0|2:0,0:0:0:0:
253,272,138680,2,0,L|258:335,1,53.3333333333333,0|0,3:0|2:0,0:0:0:0:
150,187,138875,5,8,0:3:0:0:
150,187,138973,2,0,L|159:81,1,106.666666666667,0|0,1:0|0:0,0:0:0:0:
285,128,139268,1,0,0:0:0:0:
284,127,139562,6,0,L|338:132,1,53.3333333333333,8|0,1:0|0:0,0:0:0:0:
335,153,139856,2,0,L|282:148,1,53.3333333333333,0|8,1:2|0:3,0:0:0:0:
96,191,140150,6,0,L|150:186,1,53.3333333333333,4|0,1:3|2:0,0:0:0:0:
56,32,140444,2,0,L|3:36,1,53.3333333333333,2|0,1:2|2:0,0:0:0:0:
149,186,140738,6,0,P|194:122|172:47,1,160,8|0,1:0|1:0,0:0:0:0:
40,120,141129,5,0,3:0:0:0:
72,112,141229,1,0,3:0:0:0:
102,107,141327,2,0,L|261:120,1,160,0|2,1:0|0:0,0:0:0:0:
272,136,141915,2,0,B|383:145|383:145|304:200,1,160,8|0,1:0|1:0,0:0:0:0:
304,368,142307,5,0,3:0:0:0:
280,344,142404,1,0,3:0:0:0:
257,325,142502,2,0,L|243:173,1,106.666666666667,4|0,1:2|2:0,0:0:0:0:
247,218,142797,2,0,L|175:224,1,53.3333333333333,8|0,1:0|2:0,0:0:0:0:
128,296,142993,1,8,0:3:0:0:
104,304,143091,2,0,L|98:367,1,53.3333333333333,10|0,1:2|2:0,0:0:0:0:
8,160,143287,1,8,0:3:0:0:
8,160,143385,2,0,P|53:134|105:142,1,106.666666666667,8|0,1:0|2:0,0:0:0:0:
193,222,143679,5,0,3:0:0:0:
480,352,143974,1,2,1:2:0:0:
392,360,144268,1,2,1:2:0:0:
304,368,144563,1,2,1:2:0:0:
392,38,144856,5,2,1:2:0:0:
392,38,145346,5,0,1:0:0:0:
392,38,145444,2,0,B|478:117|468:251|468:251|520:192|565:59|439:37|344:14,1,533.333333333333,2|0,1:2|0:0,0:0:0:0:
247,218,146032,6,0,B|184:194|140:247|140:247|96:300|32:276,2,240.000009155274,4|2|8,1:2|0:0|1:0,0:0:0:0:
392,26,146817,1,8,0:3:0:0:
411,46,146915,2,0,L|522:55,1,80.0000030517579,0|0,3:0|2:0,0:0:0:0:
424,264,147111,5,8,0:3:0:0:
424,264,147209,2,0,P|379:200|399:126,1,160,0|0,1:0|2:0,0:0:0:0:
416,136,147503,2,0,P|341:155|277:111,1,160,2|0,0:0|2:0,0:0:0:0:
18,39,147797,2,0,B|76:34|76:34|118:54|118:54|173:49,1,160.000006103516,8|8,1:0|0:3,0:0:0:0:
200,48,148091,6,2,L|193:119,1,60.0000022888184,8|0,1:0|1:0,0:0:0:0:
93,175,148238,1,0,1:0:0:0:
59,184,148312,1,0,1:0:0:0:
25,196,148385,6,0,L|31:275,1,80.0000030517579,0|0,1:2|2:0,0:0:0:0:
208,360,148581,1,8,0:3:0:0:
208,360,148680,2,0,P|183:303|240:333,1,160.000006103516,2|0,0:0|2:0,0:0:0:0:
503,221,148974,2,0,L|343:207,1,160.000006103516,8|0,1:0|2:0,0:0:0:0:
328,192,149268,2,0,P|342:155|339:115,1,80.0000030517579,8|0,1:0|2:0,0:0:0:0:
40,61,149463,5,8,0:3:0:0:
40,61,149562,2,0,L|200:47,1,160.000006103516,2|0,1:0|2:0,0:0:0:0:
216,32,149856,2,0,L|279:26,1,53.3333333333333,2|0,0:0|2:0,0:0:0:0:
440,88,150150,2,0,B|464:72|472:40|472:40|504:96|432:128,1,160.000006103516,2|8,1:0|0:3,0:0:0:0:
308,185,150444,6,0,L|304:125,1,60.0000022888184,8|0,1:0|0:0,0:0:0:0:
328,192,150591,2,0,L|324:132,1,60.0000022888184,0|0,1:0|0:0,0:0:0:0:
352,56,150738,6,0,B|300:98|324:163|324:163|348:227|295:271,1,240.000009155274,2|2,1:0|0:0,0:0:0:0:
31,275,151327,2,0,P|94:230|169:250,1,160,8|8,1:0|0:3,0:0:0:0:
183,267,151621,2,0,L|191:362,1,80.0000030517579,0|0,3:0|2:0,0:0:0:0:
480,240,151816,5,8,0:3:0:0:
480,240,151915,2,0,P|416:195|341:215,1,160,0|0,1:0|2:0,0:0:0:0:
189,346,152209,1,2,0:0:0:0:
189,346,152503,2,0,L|175:186,1,160.000006103516,8|8,1:0|0:3,0:0:0:0:
106,16,152797,5,8,1:0:0:0:
82,43,152871,1,0,3:0:0:0:
72,77,152944,1,0,3:0:0:0:
75,113,153018,1,0,3:0:0:0:
95,142,153091,6,0,P|159:97|234:117,1,160,0|8,1:0|2:3,0:0:0:0:
108,274,153385,2,0,P|33:294|0:365,1,160,2|0,0:0|0:0,0:0:0:0:
261,250,153680,2,0,P|338:243|393:297,1,160,8|0,1:0|0:0,0:0:0:0:
480,379,153974,5,8,1:0:0:0:
496,355,154072,1,0,1:0:0:0:
512,331,154170,1,8,1:0:0:0:
493,103,154268,6,0,B|485:42|414:103|432:156|478:200,1,181.333336791992,4|0,1:2|0:0,0:0:0:0:
245,360,154562,6,0,B|254:428|333:360|313:300|262:251,1,202.666661254883,8|0,1:0|0:0,0:0:0:0:
168,88,154856,6,0,L|56:78,1,111.999996582031,10|0,1:2|2:0,0:0:0:0:
32,96,155052,1,0,1:0:0:0:
260,249,155150,6,0,L|382:237,1,122.666669006348,8|0,1:0|2:0,0:0:0:0:
410,257,155346,1,0,1:0:0:0:
512,24,155444,6,0,P|404:-11|334:77,2,240.000009155274,4|2|8,1:2|0:0|1:0,0:0:0:0:
410,257,156229,1,8,0:3:0:0:
434,265,156326,2,0,L|441:344,1,80.0000030517579,0|0,3:0|2:0,0:0:0:0:
288,200,156523,5,8,0:3:0:0:
288,200,156621,2,0,B|230:195|230:195|188:215|188:215|133:210,1,160.000006103516,0|0,1:0|2:0,0:0:0:0:
21,74,156915,2,0,P|78:49|48:106,1,160.000006103516,2|0,0:0|2:0,0:0:0:0:
147,328,157209,2,0,P|84:373|8:354,1,160,8|8,1:0|0:3,0:0:0:0:
5,330,157503,6,0,L|-1:270,1,60.0000022888184,8|0,1:0|1:0,0:0:0:0:
132,209,157650,1,0,1:0:0:0:
154,180,157724,1,0,1:0:0:0:
177,153,157797,6,0,L|265:161,1,80.0000030517579,0|0,1:0|2:0,0:0:0:0:
471,50,157993,1,8,0:3:0:0:
471,50,158091,2,0,P|396:31|333:77,1,160.000006103516,2|0,0:0|0:0,0:0:0:0:
416,332,158385,2,0,B|421:277|421:277|401:235|401:235|406:177,1,160.000006103516,8|0,1:0|2:0,0:0:0:0:
424,160,158680,2,0,L|413:287,1,80.0000030517579,0|0,3:0|2:0,0:0:0:0:
328,296,158875,1,8,0:3:0:0:
256,160,158974,6,0,L|242:0,1,160.000006103516,2|0,1:0|0:0,0:0:0:0:
180,151,159268,2,0,P|216:165|255:159,1,80.0000030517579,8|0,0:0|2:0,0:0:0:0:
333,76,159464,1,8,0:3:0:0:
112,64,159562,2,0,P|66:126|85:201,1,160.000006103516,2|8,1:0|0:3,0:0:0:0:
176,356,159856,6,0,L|180:296,1,60.0000022888184,0|0,1:0|0:0,0:0:0:0:
176,210,160003,2,0,L|180:150,1,60.0000022888184,0|0,1:0|0:0,0:0:0:0:
180,151,160150,6,0,L|339:165,1,160.000006103516,2|0,1:0|0:0,0:0:0:0:
466,79,160444,1,2,0:0:0:0:
466,79,160738,2,0,P|389:75|347:139,1,160.000006103516,8|8,1:0|2:3,0:0:0:0:
339,165,161032,2,0,L|418:158,1,80.0000030517579,0|0,3:0|2:0,0:0:0:0:
299,357,161228,5,8,0:3:0:0:
299,357,161326,2,0,P|222:359|179:296,1,160.000006103516,0|8,1:0|0:3,0:0:0:0:
24,160,161620,1,2,0:0:0:0:
24,160,161914,2,0,B|79:165|79:165|121:145|121:145|185:151,1,160.000006103516,8|8,1:0|0:3,0:0:0:0:
256,224,162209,5,8,1:0:0:0:
256,224,162282,1,0,1:0:0:0:
256,224,162356,2,0,L|295:220,1,40.000001525879,0|0,1:0|1:0,0:0:0:0:
512,167,162503,6,0,P|463:229|470:307,1,160.000006103516,4|0,1:2|0:0,0:0:0:0:
169,339,162797,2,0,P|189:263|256:223,1,160.000006103516,8|0,1:0|0:0,0:0:0:0:
215,0,163091,2,0,P|139:14|94:78,1,160.000006103516,10|8,1:2|0:3,0:0:0:0:
31,219,163385,6,0,L|91:223,1,60.0000022888184,8|0,1:0|0:0,0:0:0:0:
24,199,163532,2,0,L|84:203,1,60.0000022888184,0|0,1:0|0:0,0:0:0:0:
169,339,163680,6,0,B|170:382|224:428|338:378|285:326|228:260|326:198|398:213|469:278|408:392,1,400.00001525879,4|0,1:2|0:3,0:0:0:0:
427,324,164268,2,0,P|372:385|302:363,1,160.000006103516,4|0,1:2|2:0,0:0:0:0:
245,220,164562,5,8,1:0:0:0:
162,210,164660,1,0,1:0:0:0:
83,202,164758,1,0,1:0:0:0:
4,194,164856,1,4,1:2:0:0:
72,96,182503,6,0,P|109:81|147:88,1,80.0000030517579,4|0,1:2|0:0,0:0:0:0:
61,83,182797,6,0,P|110:63|161:73,1,106.666666666667,8|0,1:0|0:0,0:0:0:0:
236,159,183091,6,0,P|250:196|243:234,1,80.0000030517579,10|0,1:2|2:0,0:0:0:0:
189,307,183287,1,0,1:0:0:0:
24,351,183385,6,0,P|46:249|135:195,1,213.333333333333,8|0,1:0|0:0,0:0:0:0:
325,333,183680,6,0,L|436:342,1,106.666666666667,4|0,1:2|2:0,2:0:0:0:
461,357,183974,6,0,P|447:320|454:282,1,80.0000030517579,2|8,0:0|1:0,0:0:0:0:
440,112,184464,5,8,0:3:0:0:
456,130,184562,2,0,L|535:123,1,53.3333333333333,0|0,3:0|2:0,0:0:0:0:
328,34,184758,5,8,0:3:0:0:
328,34,184856,2,0,P|302:80|311:132,1,106.666666666667,0|0,1:0|2:0,0:0:0:0:
455,282,185150,2,0,P|428:236|378:218,1,106.666666666667,2|0,0:0|2:0,0:0:0:0:
175,266,185444,2,0,P|227:265|268:231,1,106.666666666667,8|0,1:0|2:0,0:0:0:0:
310,131,185738,2,0,P|305:101|288:72,1,53.3333333333333,8|0,0:0|2:0,0:0:0:0:
40,96,185934,5,8,0:3:0:0:
40,96,186032,2,0,B|22:111|22:111|105:117,1,106.666666666667,0|0,1:0|2:0,0:0:0:0:
175,266,186327,2,0,L|318:254,1,106.666666666667,2|0,0:0|2:0,0:0:0:0:
455,282,186621,1,8,1:0:0:0:
455,282,186817,1,8,0:3:0:0:
455,282,186915,2,0,B|480:292|480:292|463:258,1,53.3333333333333,0|0,3:0|2:0,0:0:0:0:
430,129,187111,5,8,0:3:0:0:
430,129,187209,2,0,P|419:136|416:149,1,26.6666666666667,4|0,1:3|2:0,0:0:0:0:
430,129,187503,2,0,P|428:116|419:107,1,26.6666666666667,2|0,1:2|2:0,0:0:0:0:
430,129,187797,2,0,P|441:133|454:130,1,26.6666666666667,8|0,0:0|2:0,0:0:0:0:
470,241,187993,1,8,0:3:0:0:
470,241,188091,2,0,L|467:267,1,26.6666666666667,0|0,1:0|2:0,0:0:0:0:
264,355,188287,5,8,0:3:0:0:
264,355,188385,2,0,P|256:303|281:257,1,106.666666666667,4|0,1:2|2:0,0:0:0:0:
272,232,188680,6,0,P|294:200|332:189,1,80,2|8,0:0|1:0,0:0:0:0:
466,267,189170,5,8,0:3:0:0:
448,280,189268,2,0,L|384:274,1,53.3333333333333,0|0,3:0|2:0,0:0:0:0:
408,104,189464,5,8,0:3:0:0:
408,104,189562,2,0,P|457:83|507:95,1,106.666666666667,0|0,1:0|2:0,0:0:0:0:
332,188,189856,2,0,L|188:175,1,106.666666666667,2|0,0:0|2:0,0:0:0:0:
137,128,190150,2,0,P|128:101|129:75,1,53.3333333333333,8|0,1:0|2:0,0:0:0:0:
248,24,190346,1,8,0:3:0:0:
269,35,190444,2,0,P|276:60|275:86,1,53.3333333333333,0|0,3:0|2:0,0:0:0:0:
401,277,190640,5,8,0:3:0:0:
401,277,190738,2,0,P|409:345|471:316,1,160,0|2,1:0|0:0,0:0:0:0:
512,184,191327,2,0,L|448:178,1,53.3333333333333,8|0,1:0|2:0,0:0:0:0:
401,277,191523,1,8,0:3:0:0:
401,277,191621,2,0,L|337:283,1,53.3333333333333,0|0,3:0|2:0,0:0:0:0:
176,352,191817,5,8,0:3:0:0:
160,368,191915,2,0,P|107:376|61:351,1,106.666666666667,4|0,1:3|2:0,0:0:0:0:
48,336,192209,2,0,P|17:291|20:238,1,106.666666666667,2|0,1:2|0:0,2:0:0:0:
104,116,192503,5,8,1:0:0:0:
124,100,192601,1,0,3:0:0:0:
156,88,192699,1,0,3:0:0:0:
192,88,192797,2,0,L|181:207,1,106.666666666667,0|0,1:0|2:0,0:0:0:0:
347,281,193091,5,4,1:2:0:0:
347,281,193385,2,0,P|308:273|271:287,1,80.0000030517579,2|8,0:0|1:0,0:0:0:0:
177,335,193876,5,8,0:3:0:0:
177,335,193974,2,0,L|181:395,1,40,2|0,0:0|0:0,0:0:0:0:
157,328,194121,2,0,L|161:388,1,40,2|0,0:0|0:0,0:0:0:0:
182,194,194268,6,0,L|192:88,1,106.666666666667,0|0,1:0|2:0,0:0:0:0:
168,80,194562,2,0,L|158:186,1,106.666666666667,2|0,0:0|2:0,0:0:0:0:
19,240,194856,1,8,1:0:0:0:
19,240,195052,1,8,0:3:0:0:
19,240,195150,2,0,L|83:234,1,53.3333333333333,0|0,3:0|2:0,0:0:0:0:
271,286,195346,5,8,0:3:0:0:
271,286,195444,2,0,P|320:265|370:277,1,106.666666666667,0|0,1:0|2:0,0:0:0:0:
372,300,195738,2,0,P|320:287|272:308,1,106.666666666667,2|0,0:0|2:0,0:0:0:0:
159,367,196032,2,0,L|165:287,1,53.3333333333333,8|0,1:0|2:0,0:0:0:0:
72,235,196229,1,8,0:3:0:0:
72,235,196327,2,0,L|65:155,1,53.3333333333333,0|0,3:0|2:0,0:0:0:0:
168,80,196523,5,8,0:3:0:0:
164,104,196621,1,4,1:2:0:0:
8,56,196817,1,8,0:3:0:0:
1,20,196915,1,8,1:0:0:0:
67,181,197111,1,8,0:3:0:0:
67,181,197209,2,0,P|83:225|55:185,1,106.666666666667,10|0,1:2|2:0,0:0:0:0:
88,224,197503,2,0,L|205:214,1,106.666666666667,8|0,1:0|2:0,0:0:0:0:
401,277,197797,6,0,B|396:284|396:284|404:285|404:285|395:292|395:292|403:293|403:293|394:300|394:300|402:301|402:301|394:308|394:308|402:309|402:309|393:316|393:316|401:317|401:317|392:324|392:324|400:325|400:325|392:332|392:332|400:333|400:333|391:340|391:340|399:341|399:341|390:356|390:356,1,160,4|2,1:2|0:0,0:0:0:0:
394,348,198385,2,0,P|342:360|294:339,1,106.666666666667,8|0,1:0|2:0,0:0:0:0:
194,214,198680,1,0,3:0:0:0:
194,214,198876,5,8,0:3:0:0:
194,214,198974,2,0,L|189:269,1,53.3333333333333,2|0,1:2|2:0,0:0:0:0:
100,256,199268,2,0,L|95:311,1,53.3333333333333,0|0,1:2|2:0,0:0:0:0:
7,303,199562,2,0,L|2:358,1,53.3333333333333,2|0,1:2|2:0,0:0:0:0:
3,357,199856,1,0,1:0:0:0:
492,229,200444,6,0,L|488:176,1,53.3333333333333,8|0,1:0|1:0,1:0:0:0:
399,190,200738,6,0,L|395:137,1,53.3333333333333,10|0,1:0|1:0,1:0:0:0:
306,143,201032,6,0,L|302:90,1,53.3333333333333,8|0,1:0|1:0,1:0:0:0:
212,101,201327,6,0,L|208:48,1,53.3333333333333,10|0,1:0|1:0,1:0:0:0:
115,233,201817,5,8,0:3:0:0:
115,233,201915,2,0,B|67:245|34:223|34:223|53:256|98:255,1,160,4|0,1:3|0:0,0:0:0:0:
220,346,202503,6,0,P|258:354|293:339,1,80,4|2,0:0|0:0,0:0:0:0:
344,256,203091,2,0,L|339:200,1,53.3333333333333,4|0,0:3|0:0,0:0:0:0:
351,173,203385,1,2,0:0:0:0:
512,184,203680,6,0,P|473:192|438:177,1,80,0|2,0:0|0:0,0:0:0:0:
388,94,204268,2,0,L|392:38,1,53.3333333333333,4|0,0:3|0:0,0:0:0:0:
381,11,204562,1,2,0:0:0:0:
248,144,204856,5,0,0:0:0:0:
339,202,205150,1,2,0:0:0:0:
437,176,205444,1,4,0:3:0:0:
248,144,205640,1,0,0:0:0:0:
248,144,205738,2,0,L|194:139,1,53.3333333333333,2|0,0:0|0:0,0:0:0:0:
167,151,206032,6,0,P|160:126|162:100,1,53.3333333333333,2|0,1:1|2:0,0:0:0:0:
0,0,206327,1,2,0:0:0:0:
0,0,206621,2,0,P|7:25|5:51,1,53.3333333333333,2|0,1:1|2:0,0:0:0:0:
16,256,206915,1,2,0:0:0:0:
16,256,207209,6,0,B|0:200|24:152|24:152|72:216|144:200,1,240.000009155274,2|2,1:1|0:0,0:0:0:0:
160,184,207797,6,0,P|184:176|212:173,1,53.3333333333333,4|0,0:3|0:0,0:0:0:0:
328,192,208091,1,2,0:0:0:0:
256,360,208385,6,0,L|250:281,1,80,0|2,0:0|0:0,0:0:0:0:
328,192,208974,6,0,P|352:200|380:203,1,53.3333333333333,4|0,0:3|0:0,0:0:0:0:
496,184,209268,1,2,0:0:0:0:
381,11,209562,5,0,0:0:0:0:
266,78,209856,1,2,0:0:0:0:
328,192,210150,1,4,0:3:0:0:
448,320,210444,2,0,L|485:300,2,26.6666666666667,2|0|0,0:0|0:0|0:0,0:0:0:0:
416,319,210738,1,2,3:0:0:0:
328,192,211032,6,0,L|177:178,1,106.666666666667,4|0,1:2|2:0,0:0:0:0:
340,212,211327,6,0,L|190:198,1,133.333333333333,8|0,1:0|2:0,0:0:0:0:
352,232,211621,6,0,L|128:212,1,160.000006103516,10|0,1:2|2:0,0:0:0:0:
0,248,211915,6,0,P|111:271|127:382,1,240.000009155274,4|2,1:2|0:0,0:0:0:0:
88,160,212503,2,0,B|83:105|83:105|103:63|103:63|97:-1,1,160.000006103516,8|8,1:0|0:3,0:0:0:0:
73,0,212797,2,0,L|81:95,1,80.0000030517579,0|0,3:0|2:0,0:0:0:0:
192,217,212993,5,8,0:3:0:0:
192,217,213091,2,0,P|198:278|233:224,1,160.000006103516,0|0,1:0|2:0,0:0:0:0:
404,104,213385,2,0,P|341:59|265:78,1,160,2|0,0:0|2:0,0:0:0:0:
390,263,213680,2,0,L|404:103,1,160.000006103516,8|8,1:0|0:3,0:0:0:0:
424,88,213974,6,0,L|430:28,1,60.0000022888184,8|0,1:0|1:0,0:0:0:0:
265,77,214121,1,0,1:0:0:0:
234,58,214195,1,0,1:0:0:0:
202,41,214268,6,0,L|209:120,1,80.0000030517579,0|0,1:0|2:0,0:0:0:0:
97,253,214464,1,8,0:3:0:0:
97,253,214562,2,0,P|159:208|235:227,1,160.000006103516,2|0,0:0|0:0,0:0:0:0:
488,352,214856,2,0,B|429:346|429:346|387:366|387:366|332:361,1,160.000006103516,8|0,1:0|2:0,0:0:0:0:
312,376,215151,2,0,L|305:296,1,80.0000030517579,0|0,3:0|2:0,0:0:0:0:
234,226,215346,1,8,0:3:0:0:
354,56,215445,6,0,L|368:216,1,160.000006103516,2|0,1:0|0:0,0:0:0:0:
433,62,215738,2,0,L|353:55,1,80.0000030517579,2|0,0:0|2:0,0:0:0:0:
265,77,215935,1,8,0:3:0:0:
367,215,216033,2,0,P|442:234|505:188,1,160.000006103516,2|8,1:0|0:3,0:0:0:0:
370,155,216327,6,0,L|366:215,1,60.0000022888184,0|0,1:0|0:0,0:0:0:0:
315,316,216474,2,0,L|311:376,1,60.0000022888184,0|0,1:0|0:0,0:0:0:0:
312,376,216621,6,0,B|253:382|253:382|211:362|211:362|157:366,1,160.000006103516,2|0,1:0|0:0,0:0:0:0:
0,248,216915,1,2,0:0:0:0:
0,248,217209,2,0,P|-18:172|26:110,1,160.000006103516,8|8,1:0|2:3,0:0:0:0:
48,96,217503,2,0,L|127:103,1,80.0000030517579,0|0,3:0|2:0,0:0:0:0:
291,214,217699,5,8,0:3:0:0:
291,214,217797,2,0,P|309:138|264:76,1,160.000006103516,0|8,1:0|0:3,0:0:0:0:
147,211,218091,1,2,0:0:0:0:
147,211,218385,2,0,B|142:266|142:266|162:308|162:308|156:372,1,160.000006103516,8|8,1:0|0:3,0:0:0:0:
64,328,218680,5,8,1:0:0:0:
64,328,218753,1,0,1:0:0:0:
64,328,218827,2,0,L|25:332,1,40.000001525879,0|0,1:0|1:0,0:0:0:0:
48,96,218974,6,0,P|42:35|82:80,1,160.000006103516,4|0,1:2|0:0,0:0:0:0:
280,208,219268,2,0,P|259:265|310:230,1,160.000006103516,8|0,1:0|0:0,0:0:0:0:
438,25,219562,2,0,P|492:49|433:61,1,160.000006103516,10|8,1:2|0:3,0:0:0:0:
316,59,219856,6,0,L|256:55,1,60.0000022888184,8|0,1:0|0:0,0:0:0:0:
323,79,220003,2,0,L|263:75,1,60.0000022888184,0|0,1:0|0:0,0:0:0:0:
82,79,220150,6,0,P|3:183|100:85,1,400.00001525879,4|0,1:2|0:3,0:0:0:0:
67,151,220738,2,0,B|144:138|135:202|217:191,1,160,4|0,1:2|2:0,0:0:0:0:
274,332,221033,5,8,1:0:0:0:
355,322,221131,1,0,1:0:0:0:
433,313,221229,1,0,1:0:0:0:
512,306,221327,1,4,1:2:0:0:
