osu file format v14

[General]
AudioFilename: audio.mp3
AudioLeadIn: 0
PreviewTime: 80150
Countdown: 0
SampleSet: Soft
StackLeniency: 0.8
Mode: 0
LetterboxInBreaks: 0
WidescreenStoryboard: 0

[Editor]
DistanceSpacing: 1.2
BeatDivisor: 4
GridSize: 8
TimelineZoom: 2.700004

[Metadata]
Title:Guruguru
TitleUnicode:グルグル
Artist:Sakura Fujiwara
ArtistUnicode:藤原さくら
Creator:Beren
Version:Hard
Source:
Tags:Atlust cqmasai Reincarnation Necho green Speedstar 樱 fujihara folk pop japanese
BeatmapID:4126419
BeatmapSetID:1986488

[Difficulty]
HPDrainRate:4
CircleSize:3.5
OverallDifficulty:6
ApproachRate:7.5
SliderMultiplier:1.4
SliderTickRate:1

[Events]
//Background and Video events
0,0,"IMG_0441.JPG",0,0
//Break Periods
2,99174,107560
2,165056,182855
//Storyboard Layer 0 (Background)
//Storyboard Layer 1 (Fail)
//Storyboard Layer 2 (Pass)
//Storyboard Layer 3 (Foreground)
//Storyboard Layer 4 (Overlay)
//Storyboard Sound Samples

[TimingPoints]
1582,800,4,2,1,50,1,0
2382,759.493670886076,4,2,1,50,1,0
4660,759.493670886076,4,2,1,50,1,0
7697,752.351097178683,4,2,1,50,1,0
18977,710.059171597633,4,2,1,50,1,0
19687,731.707317073171,4,2,1,50,1,0
23680,294.117647058824,4,2,1,50,1,0
23680,-133.333333333333,4,2,1,50,0,0
80150,-100,4,2,2,70,0,0
88680,-100,4,2,1,70,0,0
89366,-100,4,2,2,70,0,0
97209,-100,4,2,1,70,0,0
108385,-133.333333333333,4,2,1,60,0,0
146032,-100,4,2,2,70,0,0
154268,-100,4,2,1,70,0,0
155346,-100,4,2,2,70,0,0
163091,-100,4,2,1,70,0,0
183581,-133.333333333333,4,2,1,60,0,0
202503,-200,4,2,1,50,0,0
211915,-100,4,2,2,70,0,0
219562,-100,4,2,1,70,0,0

[Colours]
Combo1 : 188,218,188
Combo2 : 211,171,205
Combo3 : 208,209,156
Combo4 : 163,171,205

[HitObjects]
99,293,1582,6,0,L|189:313,1,70
245,317,2382,1,0,0:0:0:0:
410,343,3141,2,0,L|440:264,1,70,2|0,0:0|0:0,0:0:0:0:
391,205,3900,1,0,0:0:0:0:
279,79,4660,2,0,P|206:93|155:164,1,140
84,158,5799,1,0,0:0:0:0:
84,158,6178,2,0,L|-1:142,2,70,2|0|0,0:0|0:0|0:0,0:0:0:0:
131,320,7697,6,0,P|146:288|147:251,1,70,0|0,2:0|0:0,0:0:0:0:
226,225,8449,1,0,2:0:0:0:
290,70,9201,2,0,P|323:59|366:67,1,70,2|0,0:0|0:0,0:0:0:0:
435,93,9954,1,0,0:0:0:0:
489,251,10706,2,0,L|340:272,1,140
270,280,11834,1,0,0:0:0:0:
270,280,12211,2,0,P|275:325|273:353,2,70,2|0|0,0:0|0:0|0:0,0:0:0:0:
186,270,13339,1,0,0:0:0:0:
120,217,13715,6,0,P|70:200|39:202,2,70
259,123,15220,2,0,P|300:93|330:84,2,70,2|0|0,0:0|0:0|0:0,0:0:0:0:
247,290,16725,2,0,P|305:279|390:305,1,140
469,297,17853,1,0,0:0:0:0:
469,297,18229,2,0,P|456:264|454:229,1,70,2|0,0:0|0:0,0:0:0:0:
498,157,18977,1,0,0:0:0:0:
498,157,19332,1,0,0:0:0:0:
498,157,19687,6,0,L|471:81,1,70
348,92,20418,2,0,L|330:184,1,70
255,189,21150,1,2,0:0:0:0:
82,109,23680,6,0,L|181:83,1,70.0000026702882
182,116,23974,1,2,3:2:0:0:
294,58,24268,2,0,P|302:140|282:168,1,105.000004005432,8|0,3:2|3:0,0:0:0:0:
378,247,24856,2,0,L|466:246,1,70.0000026702882,8|0,3:2|2:0,0:0:0:0:
482,269,25150,1,2,3:2:0:0:
383,347,25444,2,0,P|290:360|265:342,1,105.000004005432,8|0,3:2|3:0,0:0:0:0:
159,365,26032,5,8,3:2:0:0:
143,273,26327,1,2,3:2:0:0:
20,133,26621,1,8,3:2:0:0:
1,221,26915,1,0,3:0:0:0:
120,181,27209,2,0,L|205:187,1,70.0000026702882,8|0,3:2|2:0,0:0:0:0:
224,209,27503,1,2,3:2:0:0:
239,83,27797,2,0,L|334:83,1,70.0000026702882,8|0,3:2|2:0,0:0:0:0:
346,63,28091,1,0,3:0:0:0:
469,88,28385,5,2,1:2:0:0:
452,170,28680,1,2,3:2:0:0:
351,265,28974,1,8,3:0:0:0:
328,185,29268,1,2,3:0:0:0:
214,257,29562,1,8,3:0:0:0:
216,341,29856,1,2,3:2:0:0:
85,384,30150,1,8,3:0:0:0:
61,304,30444,1,2,3:0:0:0:
31,181,30738,6,0,L|43:96,1,70.0000026702882,8|0,3:0|2:0,0:0:0:0:
69,80,31032,1,2,3:2:0:0:
189,41,31327,2,0,L|199:121,1,70.0000026702882,8|0,3:0|2:0,0:0:0:0:
238,121,31621,1,2,3:0:0:0:
200,241,31915,1,2,1:2:0:0:
264,349,32209,1,8,3:0:0:0:
369,280,32503,1,2,1:2:0:0:
486,325,32797,1,8,3:0:0:0:
470,199,33091,6,0,P|470:135|488:91,1,105.000004005432,4|2,1:2|0:0,0:0:0:0:
367,48,33680,2,0,L|290:57,1,70.0000026702882,0|2,1:0|0:0,0:0:0:0:
273,90,33974,1,8,0:3:0:0:
248,170,34170,1,8,0:3:0:0:
248,170,34268,2,0,L|236:282,1,105.000004005432,0|2,1:3|0:0,0:0:0:0:
111,281,34856,2,0,P|43:275|11:262,1,70.0000026702882,0|2,1:0|0:0,0:0:0:0:
16,240,35150,1,8,0:3:0:0:
55,120,35444,6,0,P|108:109|161:131,1,105.000004005432,0|2,1:0|0:0,0:0:0:0:
262,60,36032,2,0,P|316:77|364:60,1,105.000004005432,0|8,1:0|0:3,0:0:0:0:
442,81,36523,1,8,0:3:0:0:
442,81,36621,2,0,L|434:193,1,105.000004005432,6|2,1:0|0:0,0:0:0:0:
311,213,37209,2,0,L|338:326,1,105.000004005432,6|2,1:0|0:0,0:0:0:0:
219,364,37797,5,6,1:0:0:0:
93,349,38091,1,2,0:0:0:0:
51,229,38385,2,0,P|40:185|46:146,1,70.0000026702882,0|2,1:0|0:0,0:0:0:0:
68,127,38680,1,8,0:3:0:0:
144,172,38876,1,8,0:3:0:0:
144,172,38974,2,0,L|261:194,1,105.000004005432,0|2,1:3|0:0,0:0:0:0:
370,167,39562,2,0,P|367:107|372:84,1,70.0000026702882,0|8,1:0|0:3,0:0:0:0:
386,59,39856,1,2,0:2:0:0:
265,22,40150,6,0,L|156:33,1,105.000004005432,0|2,1:0|0:0,0:0:0:0:
81,130,40738,2,0,P|91:164|142:194,1,70.0000026702882,0|8,1:0|0:3,0:0:0:0:
145,216,41032,2,0,P|189:209|221:216,1,70.0000026702882,2|0,0:0|1:0,0:0:0:0:
253,228,41327,1,4,1:2:0:0:
292,348,41621,1,8,1:0:0:0:
406,295,41915,2,0,L|482:303,1,70.0000026702882,10|0,1:2|3:0,0:0:0:0:
505,273,42209,1,8,1:0:0:0:
472,151,42503,6,0,P|465:88|440:46,2,105.000004005432,4|2|0,0:0|0:0|1:0,0:0:0:0:
346,160,43385,2,0,P|312:166|247:159,1,70.0000026702882,0|8,3:0|0:3,0:0:0:0:
234,159,43680,2,0,P|223:111|184:57,1,105.000004005432,0|2,1:0|0:0,0:0:0:0:
67,77,44268,1,0,1:0:0:0:
12,190,44562,1,0,3:0:0:0:
85,292,44856,6,0,P|134:264|195:266,1,105.000004005432,0|2,1:0|0:0,0:0:0:0:
307,257,45444,2,0,L|297:361,1,105.000004005432,0|0,1:0|3:0,0:0:0:0:
381,361,45934,1,8,0:3:0:0:
381,361,46032,2,0,P|441:351|499:358,1,105.000004005432,4|2,1:3|1:2,0:0:0:0:
510,230,46621,1,8,1:0:0:0:
393,182,46915,1,0,3:0:0:0:
273,143,47209,6,0,P|278:84|304:46,2,105.000004005432,0|2|0,1:0|0:0|1:0,0:0:0:0:
147,148,48091,2,0,P|95:170|65:177,1,70.0000026702882,0|8,3:0|0:3,0:0:0:0:
41,161,48385,2,0,P|19:113|27:32,1,105.000004005432,0|2,1:0|0:0,0:0:0:0:
141,36,48974,1,0,1:0:0:0:
244,107,49268,1,0,3:0:0:0:
366,76,49562,6,0,P|420:71|472:96,1,105.000004005432,0|2,1:0|0:0,0:0:0:0:
469,216,50150,2,0,P|425:235|350:229,1,105.000004005432,0|0,1:0|3:0,0:0:0:0:
293,197,50640,1,0,1:0:0:0:
262,226,50738,1,4,1:3:0:0:
294,347,51032,1,2,1:2:0:0:
168,329,51327,2,0,L|80:351,1,70.0000026702882,8|8,1:0|0:3,0:0:0:0:
62,326,51621,1,2,1:2:0:0:
19,207,51915,6,0,P|12:148|36:106,2,105.000004005432,4|2|0,1:2|0:0|1:0,0:0:0:0:
141,179,52797,2,0,L|220:178,1,70.0000026702882,0|8,3:0|0:3,0:0:0:0:
245,154,53091,2,0,P|258:207|254:276,1,105.000004005432,0|2,1:0|0:0,0:0:0:0:
210,374,53680,1,0,1:0:0:0:
335,363,53974,1,0,3:0:0:0:
428,278,54268,6,0,P|456:242|461:173,1,105.000004005432,0|2,1:0|0:0,0:0:0:0:
381,88,54856,2,0,L|270:97,1,105.000004005432,0|0,1:0|3:0,0:0:0:0:
206,50,55346,1,8,0:3:0:0:
206,50,55444,2,0,P|177:93|175:157,1,105.000004005432,4|2,1:3|1:2,0:0:0:0:
271,223,56032,1,8,1:0:0:0:
236,344,56327,1,0,3:0:0:0:
113,313,56621,6,0,P|49:319|8:349,2,105.000004005432,0|2|0,1:0|0:0|1:0,0:0:0:0:
149,192,57503,2,0,P|150:148|125:116,1,70.0000026702882,0|8,3:0|0:3,0:0:0:0:
128,85,57797,2,0,P|183:89|243:61,1,105.000004005432,0|2,1:0|0:0,0:0:0:0:
344,20,58385,1,0,1:0:0:0:
447,91,58680,1,0,3:0:0:0:
429,215,58974,6,0,P|369:225|325:206,1,105.000004005432,0|2,1:0|0:0,0:0:0:0:
203,211,59562,2,0,P|232:265|232:315,1,105.000004005432,0|0,1:0|3:0,0:0:0:0:
151,328,60052,1,8,0:3:0:0:
112,345,60150,1,4,1:3:0:0:
32,247,60444,2,0,L|32:150,1,70.0000026702882,2|0,1:2|0:0,0:0:0:0:
56,142,60738,1,2,1:2:0:0:
153,61,61032,1,2,1:2:0:0:
267,115,61327,6,0,P|321:126|392:97,1,105.000004005432,4|2,1:2|0:0,0:0:0:0:
477,50,61915,2,0,P|497:99|479:169,1,105.000004005432,8|0,1:0|3:0,0:0:0:0:
417,191,62405,1,8,0:3:0:0:
417,191,62503,2,0,L|439:298,1,105.000004005432,0|2,1:0|0:0,0:0:0:0:
338,370,63091,2,0,P|316:303|326:270,1,105.000004005432,8|0,1:0|3:0,0:0:0:0:
201,299,63680,6,0,L|70:314,1,105.000004005432,0|2,1:0|0:0,0:0:0:0:
38,199,64268,1,10,1:2:0:0:
90,84,64562,1,0,1:2:0:0:
168,114,64758,1,8,0:3:0:0:
168,114,64856,2,0,P|213:104|238:67,1,70.0000026702882,4|0,1:3|2:0,0:0:0:0:
251,52,65150,1,2,1:2:0:0:
373,82,65444,2,0,L|487:87,1,105.000004005432,8|0,1:0|1:0,0:0:0:0:
455,210,66032,6,0,P|460:290|337:345,1,210.000008010865,0|8,1:0|1:0,0:0:0:0:
232,345,66915,2,0,L|226:257,1,70.0000026702882,0|8,3:0|0:3,0:0:0:0:
186,285,67209,2,0,P|135:298|80:268,1,105.000004005432,0|2,1:0|0:0,0:0:0:0:
83,151,67797,2,0,L|96:69,1,70.0000026702882,8|0,1:0|0:0,0:0:0:0:
75,44,68091,1,0,3:0:0:0:
198,68,68385,5,0,1:0:0:0:
213,193,68680,1,2,0:0:0:0:
322,130,68974,1,8,1:0:0:0:
424,203,69268,2,0,P|420:237|425:272,1,70.0000026702882,0|8,3:0|3:0,0:0:0:0:
465,284,69562,1,4,1:2:0:0:
369,365,69856,1,8,1:0:0:0:
251,320,70150,2,0,P|193:330|158:328,1,70.0000026702882,10|8,1:2|0:3,0:0:0:0:
145,308,70444,1,8,1:0:0:0:
71,205,70738,6,0,P|46:131|63:95,1,105.000004005432,4|2,1:2|0:0,0:0:0:0:
157,37,71327,2,0,P|195:75|249:69,1,105.000004005432,8|0,1:0|3:0,0:0:0:0:
318,109,71817,1,8,0:3:0:0:
318,109,71915,2,0,L|450:89,1,105.000004005432,0|2,1:0|0:0,0:0:0:0:
481,204,72503,2,0,P|497:269|481:319,1,105.000004005432,8|0,1:0|3:0,0:0:0:0:
367,340,73091,6,0,L|236:355,1,105.000004005432,2|0,1:2|0:0,0:0:0:0:
138,332,73680,1,8,1:2:0:0:
215,233,73974,1,0,1:2:0:0:
144,186,74170,1,8,0:3:0:0:
144,186,74268,2,0,L|61:204,1,70.0000026702882,4|0,1:3|2:0,0:0:0:0:
48,169,74562,1,2,1:2:0:0:
70,44,74856,2,0,P|110:38|173:64,1,105.000004005432,8|0,1:0|1:0,0:0:0:0:
294,49,75444,6,0,P|248:85|354:124,1,210.000008010865,0|8,1:0|1:0,0:0:0:0:
447,87,76327,2,0,L|457:184,1,70.0000026702882,0|0,1:0|3:0,0:0:0:0:
483,186,76621,1,0,1:2:0:0:
494,311,76915,1,8,1:0:0:0:
416,279,77111,1,8,0:3:0:0:
416,279,77209,1,10,1:2:0:0:
316,356,77503,1,8,1:0:0:0:
71,294,78091,5,2,1:2:0:0:
71,168,78385,1,2,1:2:0:0:
197,159,78680,1,2,1:2:0:0:
132,50,78974,1,2,1:2:0:0:
383,41,79562,2,0,B|395:66|395:66|415:48|415:48|404:97|404:97|432:78|432:78|428:132|428:132,1,175.00000667572,2|0,1:2|0:0,0:0:0:0:
470,151,80150,6,0,P|406:165|368:234,1,140,4|2,1:2|0:0,0:0:0:0:
291,374,80738,2,0,P|261:323|261:280,1,93.3333333333333,8|8,1:0|0:3,0:0:0:0:
262,234,81032,1,0,3:0:0:0:
180,156,81229,1,8,0:3:0:0:
180,156,81327,2,0,L|24:190,1,140,0|2,1:0|0:0,0:0:0:0:
34,18,81915,2,0,P|89:15|128:37,1,93.3333333333333,8|8,1:0|0:3,0:0:0:0:
177,25,82209,1,8,1:0:0:0:
309,128,82503,6,0,L|339:29,1,93.3333333333333,0|8,1:2|0:3,0:0:0:0:
391,34,82797,1,2,0:0:0:0:
478,177,83091,2,0,P|405:188|383:255,1,140,8|8,1:0|1:0,0:0:0:0:
269,249,83581,1,8,0:3:0:0:
269,249,83680,2,0,B|227:318|275:307|229:393,1,140,2|2,1:0|0:0,0:0:0:0:
75,329,84268,2,0,P|46:278|47:232,1,93.3333333333333,2|8,1:0|0:3,0:0:0:0:
50,188,84562,2,0,L|155:212,1,93.3333333333333,8|0,1:0|0:0,0:0:0:0:
180,168,84856,6,0,P|189:114|149:13,1,140,2|2,1:0|0:0,0:0:0:0:
328,69,85444,2,0,L|450:72,1,93.3333333333333,8|8,1:0|0:3,0:0:0:0:
461,31,85738,1,0,3:0:0:0:
493,138,85934,1,8,0:3:0:0:
493,138,86032,2,0,P|488:193|385:215,1,140,0|2,1:0|0:0,0:0:0:0:
274,316,86621,2,0,L|370:323,1,93.3333333333333,8|8,1:0|0:3,0:0:0:0:
411,357,86915,1,0,1:0:0:0:
310,222,87209,5,0,1:0:0:0:
167,311,87503,1,2,0:0:0:0:
42,197,87797,1,8,1:0:0:0:
158,75,88091,2,0,L|270:88,1,93.3333333333333,8|8,1:0|1:0,0:0:0:0:
289,45,88385,1,4,1:2:0:0:
447,102,88680,1,8,1:0:0:0:
349,238,88974,1,10,1:2:0:0:
416,327,89170,1,0,1:0:0:0:
416,327,89268,1,8,1:0:0:0:
248,309,89562,6,0,P|175:342|113:311,1,140,4|2,1:2|0:0,0:0:0:0:
34,178,90150,2,0,P|74:162|103:93,1,93.3333333333333,8|8,1:0|0:3,0:0:0:0:
134,76,90444,1,0,3:0:0:0:
238,34,90640,1,8,0:3:0:0:
238,34,90738,2,0,P|286:86|286:175,1,140,0|2,1:0|0:0,0:0:0:0:
420,262,91327,2,0,L|316:257,1,93.3333333333333,8|8,1:0|0:3,0:0:0:0:
309,310,91621,1,8,1:0:0:0:
149,363,91915,6,0,L|33:353,1,93.3333333333333,0|8,1:0|0:3,0:0:0:0:
30,305,92209,1,2,0:0:0:0:
73,142,92503,2,0,P|137:155|165:234,1,140,8|0,1:0|3:0,0:0:0:0:
235,306,92993,1,8,0:3:0:0:
235,306,93091,1,2,1:0:0:0:
393,360,93385,1,2,0:0:0:0:
488,221,93680,2,0,P|425:208|370:217,1,93.3333333333333,2|8,1:0|0:3,0:0:0:0:
353,246,93974,1,0,1:0:0:0:
338,78,94268,5,2,1:0:0:0:
338,78,94562,1,2,0:0:0:0:
172,49,94856,2,0,P|97:58|70:79,1,93.3333333333333,8|8,1:0|2:3,0:0:0:0:
48,110,95150,1,0,3:0:0:0:
105,206,95346,1,8,0:3:0:0:
105,206,95444,2,0,P|164:198|245:242,1,140,0|2,1:0|0:0,0:0:0:0:
379,317,96032,2,0,P|335:344|286:335,1,93.3333333333333,8|8,1:0|0:3,0:0:0:0:
239,345,96327,1,8,1:0:0:0:
340,210,96621,5,4,1:2:0:0:
235,78,96915,1,8,1:0:0:0:
400,48,97209,2,0,P|450:71|483:98,1,93.3333333333333,10|8,1:2|0:3,0:0:0:0:
500,146,97503,1,8,1:0:0:0:
438,302,97797,2,0,B|316:238|353:350|201:275,1,233.333333333333,4|0,1:2|0:3,0:0:0:0:
192,230,98385,2,0,P|165:294|71:299,1,140,4|8,1:2|1:0,0:0:0:0:
17,165,98974,1,4,1:2:0:0:
68,249,108385,6,0,P|49:308|56:364,2,105.000004005432,4|2|0,0:0|0:0|1:0,0:0:0:0:
191,220,109268,2,0,P|233:234|264:233,1,70.0000026702882,0|8,3:0|0:3,0:0:0:0:
300,235,109562,2,0,P|376:245|420:280,1,105.000004005432,0|2,1:0|0:0,0:0:0:0:
498,336,110150,1,0,1:0:0:0:
500,210,110444,1,0,3:0:0:0:
436,101,110738,6,0,P|401:56|351:44,1,105.000004005432,0|2,1:0|0:0,0:0:0:0:
256,121,111327,2,0,L|247:240,1,105.000004005432,0|0,1:0|3:0,0:0:0:0:
198,293,111817,1,8,0:3:0:0:
198,293,111915,2,0,P|148:300|70:270,1,105.000004005432,4|2,1:3|1:2,0:0:0:0:
10,194,112503,1,8,1:0:0:0:
54,76,112797,1,0,3:0:0:0:
176,45,113091,6,0,P|186:104|173:166,2,105.000004005432,0|2|0,1:0|0:0|1:0,0:0:0:0:
295,85,113974,2,0,P|350:86|372:114,1,70.0000026702882,0|8,3:0|0:3,0:0:0:0:
399,80,114268,2,0,P|392:154|407:188,1,105.000004005432,0|2,1:0|0:0,0:0:0:0:
494,267,114856,1,0,1:0:0:0:
394,343,115150,1,0,3:0:0:0:
309,249,115444,6,0,P|261:272|238:331,1,105.000004005432,0|2,1:0|0:0,0:0:0:0:
113,333,116032,2,0,L|-1:320,1,105.000004005432,0|0,1:0|3:0,0:0:0:0:
25,238,116523,1,0,1:0:0:0:
61,217,116621,1,6,1:3:0:0:
78,92,116915,1,2,1:2:0:0:
184,159,117209,2,0,L|272:151,1,70.0000026702882,8|8,1:0|0:3,0:0:0:0:
262,111,117503,1,2,1:2:0:0:
372,50,117797,6,0,P|426:52|478:102,2,105.000004005432,4|2|0,1:2|0:0|1:0,0:0:0:0:
404,172,118680,2,0,P|403:208|413:253,1,70.0000026702882,0|8,3:0|0:3,0:0:0:0:
439,270,118974,2,0,P|405:311|330:309,1,105.000004005432,0|2,1:0|0:0,0:0:0:0:
235,353,119562,1,0,1:0:0:0:
262,230,119856,1,0,3:0:0:0:
143,273,120150,6,0,P|94:260|27:284,1,105.000004005432,0|2,1:0|0:0,0:0:0:0:
57,148,120738,2,0,P|48:92|67:28,1,105.000004005432,0|0,1:0|3:0,0:0:0:0:
139,69,121229,1,8,0:3:0:0:
139,69,121327,2,0,L|245:82,1,105.000004005432,4|2,1:3|1:2,0:0:0:0:
239,207,121915,1,0,1:0:0:0:
364,211,122209,1,0,3:0:0:0:
485,243,122503,6,0,P|488:300|457:346,2,105.000004005432,0|2|0,1:0|0:0|1:0,0:0:0:0:
436,126,123385,2,0,L|452:45,1,70.0000026702882,0|8,3:0|0:3,0:0:0:0:
475,23,123680,2,0,L|359:17,1,105.000004005432,0|2,1:0|0:0,0:0:0:0:
244,20,124268,1,0,1:0:0:0:
329,112,124562,1,0,3:0:0:0:
318,237,124856,6,0,P|258:247|214:228,1,105.000004005432,0|2,1:0|0:0,0:0:0:0:
92,224,125444,2,0,P|58:261|41:325,1,105.000004005432,0|0,1:0|3:0,0:0:0:0:
118,345,125934,1,8,0:3:0:0:
159,343,126032,1,4,1:3:0:0:
218,231,126327,2,0,L|213:138,1,70.0000026702882,2|0,1:2|0:0,0:0:0:0:
189,127,126621,1,2,1:2:0:0:
290,52,126915,1,2,1:2:0:0:
397,117,127209,6,0,P|451:128|522:99,1,105.000004005432,4|2,1:2|0:0,0:0:0:0:
460,235,127797,2,0,P|447:291|458:348,1,105.000004005432,8|0,1:0|3:0,0:0:0:0:
370,328,128287,1,8,0:3:0:0:
370,328,128385,2,0,L|248:348,1,105.000004005432,0|2,1:0|0:0,0:0:0:0:
282,219,128974,2,0,P|274:158|239:108,1,105.000004005432,8|0,1:0|3:0,0:0:0:0:
139,64,129562,6,0,L|14:78,1,105.000004005432,0|2,1:0|0:0,0:0:0:0:
52,200,130150,1,8,1:0:0:0:
176,216,130444,1,0,1:2:0:0:
253,260,130640,1,8,0:3:0:0:
253,260,130738,2,0,L|234:350,1,70.0000026702882,4|0,1:3|2:0,0:0:0:0:
198,341,131032,1,2,1:2:0:0:
323,349,131327,2,0,L|437:354,1,105.000004005432,8|0,1:0|1:0,0:0:0:0:
491,245,131915,6,0,P|474:186|327:152,1,210.000008010865,0|8,1:0|1:0,0:0:0:0:
242,69,132797,2,0,L|231:143,1,70.0000026702882,0|8,3:0|0:3,0:0:0:0:
189,136,133091,2,0,P|117:135|81:117,1,105.000004005432,0|2,1:0|0:0,0:0:0:0:
82,247,133680,2,0,P|85:304|89:325,1,70.0000026702882,8|0,1:0|0:0,0:0:0:0:
125,333,133974,1,0,3:0:0:0:
230,263,134268,5,0,1:0:0:0:
304,364,134562,1,2,0:0:0:0:
347,245,134856,1,8,1:0:0:0:
456,307,135150,2,0,L|464:229,1,70.0000026702882,0|8,3:0|3:0,0:0:0:0:
496,212,135444,1,4,1:2:0:0:
405,124,135738,1,8,1:0:0:0:
375,0,136032,2,0,P|317:10|282:8,1,70.0000026702882,10|8,1:2|0:3,0:0:0:0:
271,35,136327,1,8,1:0:0:0:
233,155,136621,6,0,P|235:204|205:270,1,105.000004005432,4|2,1:2|0:0,0:0:0:0:
113,329,137209,2,0,L|6:311,1,105.000004005432,8|0,1:0|3:0,0:0:0:0:
10,227,137699,1,8,0:3:0:0:
10,227,137797,2,0,P|12:175|35:126,1,105.000004005432,0|2,1:0|0:0,0:0:0:0:
138,57,138385,2,0,L|149:183,1,105.000004005432,8|0,1:0|3:0,0:0:0:0:
229,257,138974,6,0,P|270:229|336:241,1,105.000004005432,0|0,1:0|0:0,0:0:0:0:
413,321,139562,1,8,1:0:0:0:
487,219,139856,1,0,1:2:0:0:
476,135,140052,1,8,0:3:0:0:
476,135,140150,2,0,L|393:153,1,70.0000026702882,4|0,1:3|2:0,0:0:0:0:
380,118,140444,1,2,1:2:0:0:
271,54,140738,2,0,L|251:168,1,105.000004005432,8|0,1:0|1:0,0:0:0:0:
238,283,141327,6,0,B|177:271|152:233|152:233|152:295|97:319,1,210.000008010865,0|8,1:0|1:0,0:0:0:0:
45,204,142209,2,0,L|59:129,1,70.0000026702882,0|0,1:0|3:0,0:0:0:0:
48,94,142503,1,4,1:2:0:0:
168,56,142797,1,8,1:0:0:0:
230,112,142993,1,8,0:3:0:0:
230,112,143091,1,10,1:2:0:0:
353,87,143385,1,8,1:0:0:0:
461,314,143974,5,2,1:2:0:0:
340,349,144268,1,2,1:2:0:0:
283,236,144562,1,2,1:2:0:0:
176,303,144856,1,2,1:2:0:0:
80,69,145444,2,0,B|94:127|94:127|52:120|52:120|54:204,1,175.00000667572,2|0,1:2|0:0,0:0:0:0:
75,244,146032,6,0,P|144:212|215:214,1,140,4|2,1:2|0:0,0:0:0:0:
374,229,146621,2,0,L|392:121,1,93.3333333333333,8|8,1:0|0:3,0:0:0:0:
438,110,146915,1,0,3:0:0:0:
342,51,147111,1,8,0:3:0:0:
342,51,147209,2,0,P|268:33|199:62,1,140,0|2,1:0|0:0,0:0:0:0:
259,214,147797,2,0,L|239:317,1,93.3333333333333,8|8,1:0|0:3,0:0:0:0:
199,343,148091,1,8,1:0:0:0:
361,300,148385,6,0,P|431:277|463:282,1,93.3333333333333,0|8,1:2|0:3,0:0:0:0:
499,303,148680,1,2,0:0:0:0:
493,135,148974,2,0,P|438:84|370:85,1,140,8|8,1:0|1:0,0:0:0:0:
279,29,149464,1,8,0:3:0:0:
279,29,149562,2,0,B|273:98|273:98|285:100|285:100|272:198,1,140,2|2,1:0|0:0,0:0:0:0:
109,148,150150,2,0,P|57:164|30:203,1,93.3333333333333,2|8,1:0|0:3,0:0:0:0:
32,249,150444,2,0,L|63:348,1,93.3333333333333,8|0,1:0|0:0,0:0:0:0:
115,341,150738,6,0,P|211:333|270:363,1,140,2|2,1:0|0:0,0:0:0:0:
356,218,151327,2,0,L|247:234,1,93.3333333333333,8|8,1:0|0:3,0:0:0:0:
232,184,151621,1,0,3:0:0:0:
225,72,151817,1,8,0:3:0:0:
225,72,151915,2,0,P|290:33|360:49,1,140,0|2,1:0|0:0,0:0:0:0:
504,109,152503,2,0,L|488:224,1,93.3333333333333,8|8,1:0|0:3,0:0:0:0:
449,238,152797,1,8,1:0:0:0:
342,367,153091,5,0,1:0:0:0:
244,230,153385,1,2,0:0:0:0:
118,342,153680,1,8,1:0:0:0:
81,178,153974,2,0,L|97:84,1,93.3333333333333,8|8,1:0|1:0,0:0:0:0:
64,39,154268,1,4,1:2:0:0:
231,44,154562,1,8,1:0:0:0:
285,202,154856,1,10,1:2:0:0:
372,131,155052,1,0,1:0:0:0:
372,131,155150,1,8,1:0:0:0:
477,261,155444,6,0,P|483:325|423:380,1,140,4|2,1:2|0:0,0:0:0:0:
287,293,156032,2,0,P|332:275|394:284,1,93.3333333333333,8|8,1:0|0:3,0:0:0:0:
390,222,156327,1,0,3:0:0:0:
455,131,156523,1,8,0:3:0:0:
455,131,156621,2,0,B|443:77|443:77|455:53|455:53|437:-4,1,140,0|2,1:0|0:0,0:0:0:0:
282,62,157209,2,0,L|178:57,1,93.3333333333333,8|8,1:0|0:3,0:0:0:0:
147,95,157503,1,8,1:0:0:0:
107,258,157797,6,0,L|223:248,1,93.3333333333333,0|8,1:0|0:3,0:0:0:0:
226,200,158091,1,2,0:0:0:0:
321,338,158385,2,0,P|313:256|358:208,1,140,8|0,1:0|3:0,0:0:0:0:
446,267,158876,1,8,0:3:0:0:
446,267,158974,1,2,1:0:0:0:
497,107,159268,1,8,0:0:0:0:
334,63,159562,2,0,P|271:50|216:59,1,93.3333333333333,2|8,1:0|0:3,0:0:0:0:
192,77,159856,1,0,1:0:0:0:
35,138,160150,5,2,1:0:0:0:
35,138,160444,1,2,0:0:0:0:
145,264,160738,2,0,L|122:361,1,93.3333333333333,8|8,1:0|2:3,0:0:0:0:
176,371,161032,1,0,3:0:0:0:
279,326,161229,1,8,0:3:0:0:
279,326,161327,2,0,P|267:245|301:189,1,140,0|2,1:0|0:0,0:0:0:0:
449,132,161915,2,0,L|349:124,1,93.3333333333333,8|8,1:0|0:3,0:0:0:0:
326,76,162209,1,8,1:0:0:0:
166,22,162503,5,4,1:2:0:0:
31,122,162797,1,8,1:0:0:0:
187,182,163091,2,0,P|174:228|126:272,1,93.3333333333333,10|8,1:2|0:3,0:0:0:0:
88,254,163385,1,8,1:0:0:0:
249,300,163680,2,0,B|306:281|344:306|344:306|403:338|493:278,1,233.333333333333,4|0,1:2|0:3,0:0:0:0:
471,235,164268,2,0,L|489:72,1,140,4|8,1:2|1:0,0:0:0:0:
335,22,164856,1,4,1:2:0:0:
379,199,183680,6,0,L|368:322,2,105.000004005432,4|2|8,1:2|0:0|1:0,0:0:0:0:
315,144,184464,1,8,0:3:0:0:
315,144,184562,2,0,P|309:88|328:62,1,70.0000026702882,0|8,3:0|0:3,0:0:0:0:
325,37,184856,2,0,L|203:44,1,105.000004005432,0|2,1:0|0:0,0:0:0:0:
94,30,185444,1,8,1:0:0:0:
30,138,185738,1,8,0:0:0:0:
82,252,186032,6,0,P|144:262|187:235,1,105.000004005432,0|2,1:0|0:0,0:0:0:0:
279,319,186621,2,0,L|284:231,1,70.0000026702882,8|8,1:0|0:3,0:0:0:0:
310,217,186915,2,0,P|360:213|402:234,1,70.0000026702882,0|8,3:0|0:3,0:0:0:0:
420,215,187209,1,4,1:3:0:0:
473,100,187503,1,2,1:2:0:0:
369,27,187797,2,0,P|357:71|361:110,1,70.0000026702882,8|8,0:0|0:3,0:0:0:0:
318,108,188091,2,0,L|225:106,1,70.0000026702882,0|8,1:0|0:3,0:0:0:0:
223,72,188385,5,4,1:2:0:0:
96,64,188680,2,0,P|71:126|87:185,1,105.000004005432,2|8,0:0|1:0,0:0:0:0:
128,227,189170,1,8,0:3:0:0:
128,227,189268,2,0,L|224:230,1,70.0000026702882,0|8,3:0|0:3,0:0:0:0:
209,269,189562,1,0,1:0:0:0:
121,359,189856,1,2,0:0:0:0:
7,304,190150,2,0,P|13:248|29:228,1,70.0000026702882,8|8,1:0|0:3,0:0:0:0:
6,197,190444,1,0,3:0:0:0:
109,124,190738,6,0,L|228:121,1,105.000004005432,0|2,1:0|0:0,0:0:0:0:
329,70,191327,2,0,P|371:60|412:60,1,70.0000026702882,8|8,1:0|0:3,0:0:0:0:
438,69,191621,1,0,3:0:0:0:
461,149,191817,1,8,0:3:0:0:
461,149,191915,2,0,P|483:208|477:264,1,105.000004005432,4|2,1:3|1:2,0:0:0:0:
399,345,192503,2,0,P|380:301|381:265,1,70.0000026702882,8|0,1:0|3:0,0:0:0:0:
361,241,192797,1,0,1:0:0:0:
240,206,193091,6,0,L|110:221,2,105.000004005432,4|2|8,1:2|0:0|1:0,0:0:0:0:
299,147,193876,1,8,0:3:0:0:
299,147,193974,2,0,P|305:91|286:65,1,70.0000026702882,2|0,0:0|0:0,0:0:0:0:
299,38,194268,2,0,P|350:22|410:38,1,105.000004005432,0|2,1:0|0:0,0:0:0:0:
475,132,194856,1,8,1:0:0:0:
384,219,195150,1,0,3:0:0:0:
261,191,195444,6,0,P|253:246|265:298,1,105.000004005432,0|2,1:0|0:0,0:0:0:0:
147,343,196032,2,0,L|55:346,1,70.0000026702882,8|8,1:0|0:3,0:0:0:0:
47,315,196327,1,0,3:0:0:0:
39,189,196621,1,4,1:2:0:0:
162,174,196915,1,8,1:0:0:0:
253,87,197209,2,0,P|253:52|264:18,1,70.0000026702882,10|0,1:2|2:0,0:0:0:0:
305,24,197503,2,0,L|374:25,1,70.0000026702882,8|0,1:0|2:0,0:0:0:0:
410,47,197797,5,4,1:2:0:0:
474,154,198091,2,0,P|449:216|465:275,1,105.000004005432,2|8,0:0|1:0,0:0:0:0:
387,302,198581,1,0,2:0:0:0:
387,302,198680,2,0,L|291:305,1,70.0000026702882,0|8,3:0|0:3,0:0:0:0:
290,336,198974,1,2,1:2:0:0:
166,360,199268,1,0,1:2:0:0:
43,329,199562,2,0,P|49:273|65:253,1,70.0000026702882,2|0,1:2|2:0,0:0:0:0:
42,222,199856,1,0,1:0:0:0:
193,29,200444,5,8,1:0:0:0:
194,154,200738,1,10,1:0:0:0:
319,161,201032,1,8,1:0:0:0:
340,285,201327,1,10,1:0:0:0:
458,333,202503,6,0,L|440:248,1,70,4|2,0:0|0:0,0:0:0:0:
418,169,203091,2,0,L|358:181,1,46.6666666666667,4|0,0:3|0:0,0:0:0:0:
345,170,203385,1,2,0:0:0:0:
292,252,203680,2,0,L|211:274,1,70,0|2,0:0|0:0,0:0:0:0:
196,176,204268,2,0,P|186:151|187:125,1,46.6666666666667,4|0,0:3|0:0,0:0:0:0:
204,104,204562,1,2,0:0:0:0:
128,41,204856,5,0,0:0:0:0:
31,56,205150,1,2,0:0:0:0:
7,150,205444,1,4,0:3:0:0:
84,209,205738,1,2,0:0:0:0:
172,250,206032,2,0,L|168:305,1,46.6666666666667,2|0,1:1|2:0,0:0:0:0:
192,319,206327,1,2,0:0:0:0:
283,352,206621,2,0,L|292:288,1,46.6666666666667,2|0,1:1|2:0,0:0:0:0:
320,294,206915,1,2,0:0:0:0:
354,202,207209,6,0,P|388:200|432:215,1,70,2|2,1:1|0:0,0:0:0:0:
459,119,207797,2,0,L|454:71,1,46.6666666666667,4|0,0:3|0:0,0:0:0:0:
471,44,208091,1,2,0:0:0:0:
373,36,208385,2,0,P|334:33|288:54,1,70,0|2,0:0|0:0,0:0:0:0:
284,138,208974,2,0,L|222:144,1,46.6666666666667,4|0,0:3|0:0,0:0:0:0:
221,113,209268,1,2,0:0:0:0:
130,76,209562,5,0,0:0:0:0:
48,130,209856,1,2,0:0:0:0:
48,227,210150,1,4,0:3:0:0:
133,274,210444,2,0,L|199:269,1,46.6666666666667,2|0,0:0|0:0,0:0:0:0:
191,240,210738,1,2,3:0:0:0:
254,314,211032,1,4,1:2:0:0:
336,261,211327,1,8,1:0:0:0:
404,331,211621,1,10,1:2:0:0:
504,162,211915,6,0,P|452:127|379:138,1,140,4|2,1:2|0:0,0:0:0:0:
255,24,212503,2,0,L|251:119,1,93.3333333333333,8|8,1:0|0:3,0:0:0:0:
278,165,212797,1,0,3:0:0:0:
166,162,212993,1,8,0:3:0:0:
166,162,213091,2,0,P|107:121|34:123,1,140,0|2,1:0|0:0,0:0:0:0:
33,289,213680,2,0,L|126:277,1,93.3333333333333,8|8,1:0|0:3,0:0:0:0:
175,250,213974,1,8,1:0:0:0:
342,249,214268,6,0,P|325:295|332:349,1,93.3333333333333,0|8,1:0|0:3,0:0:0:0:
380,358,214562,1,2,0:0:0:0:
458,209,214856,2,0,L|443:56,1,140,8|0,1:0|3:0,0:0:0:0:
339,30,215346,1,8,0:3:0:0:
339,30,215444,1,2,1:0:0:0:
300,193,215738,1,2,0:0:0:0:
203,55,216032,2,0,P|140:42|85:51,1,93.3333333333333,2|8,1:0|0:3,0:0:0:0:
68,80,216327,1,0,1:0:0:0:
35,244,216621,5,2,1:0:0:0:
146,369,216915,1,2,0:0:0:0:
222,219,217209,2,0,L|242:321,1,93.3333333333333,8|8,1:0|2:3,0:0:0:0:
290,334,217503,1,0,3:0:0:0:
382,271,217699,1,8,0:3:0:0:
382,271,217797,2,0,P|441:279|522:235,1,140,0|2,1:0|0:0,0:0:0:0:
485,79,218385,2,0,L|391:98,1,93.3333333333333,8|8,1:0|0:3,0:0:0:0:
342,72,218680,1,8,1:0:0:0:
186,8,218974,5,4,1:2:0:0:
244,165,219268,1,8,1:0:0:0:
87,103,219562,2,0,L|-5:134,1,93.3333333333333,10|8,1:2|0:3,0:0:0:0:
2,188,219856,1,8,1:0:0:0:
97,326,220150,2,0,B|137:262|137:262|173:347|285:338,1,233.333333333333,4|0,1:2|0:3,0:0:0:0:
296,293,220738,2,0,P|326:233|405:195,1,140,4|8,1:2|1:0,0:0:0:0:
476,54,221327,1,4,1:2:0:0:
