osu file format v14

[General]
AudioFilename: audio.mp3
AudioLeadIn: 0
PreviewTime: 59626
Countdown: 0
SampleSet: Soft
StackLeniency: 0.2
Mode: 0
LetterboxInBreaks: 0
WidescreenStoryboard: 1

[Editor]
DistanceSpacing: 1.3
BeatDivisor: 4
GridSize: 4
TimelineZoom: 1.8

[Metadata]
Title:Uraomote Fortune (Asterisk DnB Remix)
TitleUnicode:ウラオモテ・フォーチュン (Asterisk DnB Remix)
Artist:Sakura Chiyo (CV. Ozawa Ari)
ArtistUnicode:Sakura Chiyo (CV. Ozawa Ari)
Creator:lucciachan
Version:Ura
Source:Gekkan Shoujo Nozaki-kun
Tags:Gekkan Shoujo Nozaki-kun ED 月刊少女野崎くん
BeatmapID:1535340
BeatmapSetID:641948

[Difficulty]
HPDrainRate:6
CircleSize:4.2
OverallDifficulty:6
ApproachRate:9.2
SliderMultiplier:1.7
SliderTickRate:1

[Events]
//Background and Video events
0,0,"sakurachiyo33333.png",0,0
//Break Periods
//Storyboard Layer 0 (Background)
//Storyboard Layer 1 (Fail)
//Storyboard Layer 2 (Pass)
//Storyboard Layer 3 (Foreground)
//Storyboard Layer 4 (Overlay)
//Storyboard Sound Samples

[TimingPoints]
312,342.857142857143,4,2,1,70,1,0
312,-200,4,2,1,70,0,0
3054,-133.333333333333,4,2,1,70,0,0
4254,-200,4,2,1,70,0,0
5283,-133.333333333333,4,2,1,70,0,0
6312,-200,4,2,1,70,0,0
8540,-133.333333333333,4,2,1,70,0,0
10426,-200,4,2,1,70,0,0
11283,-100,4,2,1,70,0,0
20712,-200,4,2,1,70,0,0
22254,-100,4,2,1,70,0,0
55169,-200,4,2,1,70,0,0
59454,-100,4,2,1,70,0,0
115512,-200,4,2,1,70,0,0
119797,-100,4,2,1,70,0,0
155283,-200,4,2,1,70,0,0
158026,-200,4,2,1,70,0,0
177397,-100,4,2,1,70,0,0

[Colours]
Combo1 : 255,192,0
Combo2 : 255,128,128
Combo3 : 255,255,43
Combo4 : 0,255,128

[HitObjects]
20,80,312,6,0,B|72:108|128:76|128:76|112:144|180:128|156:224,1,255
152,220,1512,1,0,0:0:0:0:
352,28,3054,6,0,P|420:48|456:144,1,159.375006079674
444,136,3569,2,0,B|404:152|400:192|400:192|423:235|423:235|360:240|336:288,1,223.125008511544
328,276,4254,2,0,B|320:324|284:356|284:356|252:332|252:332|217:348|168:344|168:344|176:324,1,233.75
184,312,5283,2,0,B|168:248|168:248|72:324,1,159.375006079674
84,320,5797,2,0,L|36:152,1,159.375006079674
44,156,6312,2,0,B|56:72|56:72|100:84|96:124,1,148.75
104,124,6997,2,0,B|176:112|176:112|204:28,1,148.75
188,40,7683,2,0,P|245:90|355:54,1,191.25
344,44,8540,2,0,B|392:132|304:176|304:176|280:240|280:240|320:312|320:312|340:288|340:288|412:300|408:216,1,446.250017023087
344,72,10426,6,0,B|378:58|418:66|418:66|454:95|454:95|442:150,1,170
444,160,11283,1,0,0:0:0:0:
408,284,11454,1,0,0:0:0:0:
300,308,11626,1,0,0:0:0:0:
196,276,11797,1,0,0:0:0:0:
300,308,11969,1,0,0:0:0:0:
408,284,12140,1,0,0:0:0:0:
444,160,12312,1,0,0:0:0:0:
356,68,12483,1,0,0:0:0:0:
356,68,12654,2,0,B|319:80|304:115|304:115|259:128|259:128|200:104,1,170
92,168,13169,5,0,0:0:0:0:
184,256,13340,1,0,0:0:0:0:
68,304,13512,1,0,0:0:0:0:
184,256,13683,1,0,0:0:0:0:
92,168,13854,1,0,0:0:0:0:
184,256,14026,1,0,0:0:0:0:
276,344,14197,1,0,0:0:0:0:
184,256,14369,1,0,0:0:0:0:
56,256,14540,2,0,B|35:226|35:226|15:212|15:212|20:144|80:96,1,170
184,152,15054,1,0,0:0:0:0:
188,168,15226,6,0,B|201:195|196:220|196:220|317:171|288:246,1,170
404,140,15740,1,0,0:0:0:0:
408,152,15912,2,0,B|392:210|440:273|440:273|391:258,1,170
276,280,16426,1,0,0:0:0:0:
72,150,16769,1,0,0:0:0:0:
242,150,16940,1,0,0:0:0:0:
115,76,17111,1,0,0:0:0:0:
200,224,17283,1,0,0:0:0:0:
200,76,17455,1,0,0:0:0:0:
115,224,17626,1,0,0:0:0:0:
242,150,17797,5,0,0:0:0:0:
72,150,17968,1,0,0:0:0:0:
200,76,18140,1,0,0:0:0:0:
115,224,18311,1,0,0:0:0:0:
242,150,18483,1,0,0:0:0:0:
72,150,18654,1,0,0:0:0:0:
200,76,18826,1,0,0:0:0:0:
242,150,18997,1,0,0:0:0:0:
248,156,19169,2,0,B|298:128|298:128|285:164|352:144|334:231,1,170
203,258,19683,5,0,0:0:0:0:
250,112,19854,1,0,0:0:0:0:
194,287,20026,1,0,0:0:0:0:
241,141,20198,1,0,0:0:0:0:
185,317,20368,1,0,0:0:0:0:
231,171,20540,1,0,0:0:0:0:
176,344,20712,6,0,L|252:356,1,63.75
280,336,21054,1,0,0:0:0:0:
352,288,21226,1,0,0:0:0:0:
424,240,21397,1,0,0:0:0:0:
424,156,21569,1,0,0:0:0:0:
424,156,21740,1,0,0:0:0:0:
424,72,21912,1,0,0:0:0:0:
424,72,22083,1,0,0:0:0:0:
256,40,22254,6,0,P|208:96|280:104,1,170
184,256,22769,1,0,0:0:0:0:
80,120,22940,1,0,0:0:0:0:
232,196,23112,1,0,0:0:0:0:
328,336,23283,2,0,P|364:304|288:292,1,170
124,240,23797,1,0,0:0:0:0:
64,80,23969,1,0,0:0:0:0:
184,40,24140,5,0,0:0:0:0:
56,52,24312,1,0,0:0:0:0:
152,136,24483,1,0,0:0:0:0:
296,48,24654,2,0,B|336:80|336:80|348:40|348:40|440:40,1,170
364,244,25169,1,0,0:0:0:0:
300,156,25340,1,0,0:0:0:0:
208,348,25512,1,0,0:0:0:0:
208,236,25683,1,0,0:0:0:0:
48,96,25854,1,0,0:0:0:0:
132,172,26026,1,0,0:0:0:0:
304,48,26197,5,0,0:0:0:0:
400,104,26369,2,0,L|312:156,2,85
464,192,26883,1,0,0:0:0:0:
376,284,27054,2,0,P|418:289|460:320,2,85
288,136,27569,1,0,0:0:0:0:
280,132,27740,2,0,B|236:92|172:124|188:184|136:176,1,170
9,164,28254,1,0,0:0:0:0:
92,264,28426,1,0,0:0:0:0:
165,180,28597,1,0,0:0:0:0:
224,116,28769,2,0,P|252:176|184:264,1,170
165,180,29283,5,0,0:0:0:0:
83,157,29454,2,0,P|143:101|231:121,1,170
165,180,29969,1,0,0:0:0:0:
204,256,30140,2,0,B|245:220|245:220|253:156|253:156|213:100,1,170
332,48,30654,1,0,0:0:0:0:
408,248,30826,1,0,0:0:0:0:
180,216,30997,1,0,0:0:0:0:
280,172,31169,2,0,L|312:268,1,85
332,332,31512,1,0,0:0:0:0:
408,248,31683,2,0,L|352:84,1,170
280,172,32197,5,0,0:0:0:0:
280,172,32369,1,0,0:0:0:0:
298,254,32540,2,0,B|290:290|290:290|266:258|266:258|206:250|190:178,1,170
344,88,33226,1,0,0:0:0:0:
348,300,33397,1,0,0:0:0:0:
419,117,33569,1,0,0:0:0:0:
272,270,33740,1,0,0:0:0:0:
452,192,33912,1,0,0:0:0:0:
240,195,34083,1,0,0:0:0:0:
422,267,34254,1,0,0:0:0:0:
269,120,34425,5,0,0:0:0:0:
347,299,34597,1,0,0:0:0:0:
344,87,34768,1,0,0:0:0:0:
422,267,34940,1,0,0:0:0:0:
269,120,35111,1,0,0:0:0:0:
452,192,35283,1,0,0:0:0:0:
240,195,35454,1,0,0:0:0:0:
452,192,35626,1,0,0:0:0:0:
328,216,35797,2,0,L|380:124,1,85
396,92,36140,1,0,0:0:0:0:
312,20,36312,5,0,0:0:0:0:
396,92,36483,1,0,0:0:0:0:
300,148,36654,1,0,0:0:0:0:
396,92,36826,1,0,0:0:0:0:
288,84,36997,1,0,0:0:0:0:
200,232,37169,2,0,L|100:188,1,85
172,80,37512,1,0,0:0:0:0:
256,176,37683,1,0,0:0:0:0:
356,132,37854,1,0,0:0:0:0:
256,176,38026,1,0,0:0:0:0:
412,108,38197,5,0,0:0:0:0:
300,288,38369,1,0,0:0:0:0:
232,64,38712,1,0,0:0:0:0:
180,224,38883,1,0,0:0:0:0:
76,184,39054,1,0,0:0:0:0:
184,232,39226,1,0,0:0:0:0:
256,60,39397,1,0,0:0:0:0:
188,244,39569,1,0,0:0:0:0:
56,184,39740,1,0,0:0:0:0:
184,232,39912,1,0,0:0:0:0:
280,56,40083,5,0,0:0:0:0:
184,232,40254,1,0,0:0:0:0:
36,184,40426,1,0,0:0:0:0:
96,112,40597,1,0,0:0:0:0:
4,96,40769,1,0,0:0:0:0:
36,184,40940,1,0,0:0:0:0:
96,112,41112,1,0,0:0:0:0:
12,260,41283,2,0,B|52:274|52:274|89:312,1,85
243,317,41626,1,0,0:0:0:0:
228,105,41797,1,0,0:0:0:0:
304,320,41969,1,0,0:0:0:0:
288,108,42140,5,0,0:0:0:0:
364,324,42312,1,0,0:0:0:0:
348,112,42483,1,0,0:0:0:0:
434,203,42654,1,0,0:0:0:0:
152,156,42997,2,0,L|200:244,1,85
232,304,43340,1,0,0:0:0:0:
316,208,43512,1,0,0:0:0:0:
333,173,43597,1,0,0:0:0:0:
365,178,43683,1,0,0:0:0:0:
417,275,43854,1,0,0:0:0:0:
492,176,44026,1,0,0:0:0:0:
504,196,44112,1,0,0:0:0:0:
504,216,44197,6,0,P|484:156|520:52,1,170
408,128,44712,1,0,0:0:0:0:
504,216,44883,2,0,B|480:228|480:228|440:208|400:224,1,85
332,204,45226,1,0,0:0:0:0:
408,128,45397,2,0,P|354:85|422:96,1,170
436,208,45912,1,0,0:0:0:0:
296,36,46083,1,0,0:0:0:0:
188,104,46254,1,0,0:0:0:0:
268,204,46426,1,0,0:0:0:0:
140,192,46597,6,0,B|168:200|168:200|160:224|160:224|224:264|192:332,1,170
72,292,47112,1,0,0:0:0:0:
8,136,47283,1,0,0:0:0:0:
57,66,47454,2,0,L|233:134,1,170
276,224,47969,1,0,0:0:0:0:
216,128,48140,2,0,L|52:232,1,170
8,332,48654,1,0,0:0:0:0:
72,220,48826,2,0,B|95:211|140:276|140:276|176:256|176:256|224:256,1,170
216,256,49340,1,0,0:0:0:0:
312,172,49512,1,0,0:0:0:0:
216,256,49683,5,0,0:0:0:0:
216,88,49854,1,0,0:0:0:0:
376,228,50026,1,0,0:0:0:0:
312,172,50197,1,0,0:0:0:0:
216,256,50369,2,0,B|192:238|196:216|196:216|143:212|143:212|87:171|149:139,1,170
161,32,50883,1,0,0:0:0:0:
284,68,51054,2,0,B|329:149|385:72|433:168,1,170
500,252,51569,1,0,0:0:0:0:
508,124,51740,2,0,L|516:40,2,85
500,336,52254,1,0,0:0:0:0:
500,336,52426,6,0,B|400:284|400:284|484:256,1,170
504,104,52940,1,0,0:0:0:0:
504,104,53112,2,0,B|472:168|420:164|420:164|384:136|344:140,1,170
168,64,53626,2,0,B|192:100|232:104|232:104|256:152|256:152|208:208|208:208|164:172|164:172|168:228|144:280|144:280|204:268,1,425
504,44,55169,2,0,B|464:44|464:44|480:80|436:84|436:84|424:112|424:112|392:140,1,170
63,252,56540,2,0,B|63:332|63:332|23:300|23:300|75:300,1,170
300,208,57912,2,0,B|320:224|320:224|312:176|312:176|344:176|364:156,1,127.5
240,304,58940,1,0,0:0:0:0:
464,356,59454,1,0,0:0:0:0:
436,304,59626,1,0,0:0:0:0:
380,284,59797,1,0,0:0:0:0:
324,201,59969,1,0,0:0:0:0:
298,139,60054,1,0,0:0:0:0:
308,69,60140,1,0,0:0:0:0:
359,16,60225,1,0,0:0:0:0:
412,66,60312,1,0,0:0:0:0:
324,201,60654,6,0,B|260:224|260:224|212:204,1,85
172,176,60997,1,0,0:0:0:0:
184,304,61169,2,0,B|122:275|122:275|102:226,1,85
94,178,61512,1,0,0:0:0:0:
82,52,61683,2,0,B|143:80|143:80|163:129,1,85
172,176,62026,1,0,0:0:0:0:
256,80,62197,2,0,B|279:144|279:144|259:192,1,85
231,231,62540,1,0,0:0:0:0:
231,231,62883,1,0,0:0:0:0:
315,230,63054,2,0,L|209:231,1,85
168,289,63397,6,0,L|232:229,2,85
88,188,63912,1,0,0:0:0:0:
88,188,64083,2,0,B|100:164|100:164|155:163|186:123|186:123|116:104,1,170
4,52,64597,2,0,L|96:60,1,85
332,144,64940,1,0,0:0:0:0:
248,160,65112,1,0,0:0:0:0:
412,208,65283,1,0,0:0:0:0:
328,224,65455,1,0,0:0:0:0:
492,272,65626,1,0,0:0:0:0:
408,288,65798,1,0,0:0:0:0:
324,304,65969,5,0,0:0:0:0:
324,304,66140,2,0,P|280:328|216:324,1,85
264,248,66483,1,0,0:0:0:0:
264,248,66654,2,0,P|216:256|164:292,1,85
8,240,66997,1,0,0:0:0:0:
8,155,67169,1,0,0:0:0:0:
81,197,67340,1,0,0:0:0:0:
84,192,67512,2,0,P|104:128|212:104,1,170
252,192,68026,1,0,0:0:0:0:
162,247,68197,2,0,P|146:171|218:87,1,170
356,40,68712,6,0,L|316:120,1,85
317,116,69054,1,0,0:0:0:0:
376,276,69226,1,0,0:0:0:0:
317,116,69397,1,0,0:0:0:0:
392,100,69569,2,0,B|416:104|436:84|436:84|472:136|456:184|456:184|428:160,1,170
376,276,70083,1,0,0:0:0:0:
240,176,70254,1,0,0:0:0:0:
436,260,70426,1,0,0:0:0:0:
348,352,70597,1,0,0:0:0:0:
244,276,70769,1,0,0:0:0:0:
244,276,70940,6,0,P|172:240|148:148,1,170
229,188,71454,1,0,0:0:0:0:
304,148,71626,2,0,L|224:192,1,85
304,148,71969,1,0,0:0:0:0:
325,230,72140,2,0,L|301:138,1,85
325,230,72483,1,0,0:0:0:0:
281,302,72654,2,0,L|329:219,1,85
281,302,72997,1,0,0:0:0:0:
365,300,73168,2,0,L|269:302,1,85
164,244,73512,2,0,L|192:148,1,85
300,104,73854,6,0,P|348:140|368:184,1,85
372,188,74112,1,0,0:0:0:0:
380,216,74197,1,0,0:0:0:0:
322,330,74369,1,0,0:0:0:0:
264,216,74540,1,0,0:0:0:0:
144,260,74712,1,0,0:0:0:0:
56,168,74883,1,0,0:0:0:0:
4,284,75054,1,0,0:0:0:0:
56,168,75226,1,0,0:0:0:0:
4,52,75397,2,0,B|44:58|44:58|100:84,1,85
120,288,75740,5,0,0:0:0:0:
284,152,75912,1,0,0:0:0:0:
168,208,76083,1,0,0:0:0:0:
236,240,76254,2,0,L|344:252,1,85
388,200,76597,1,0,0:0:0:0:
388,116,76769,1,0,0:0:0:0:
388,284,76940,1,0,0:0:0:0:
168,208,77112,1,0,0:0:0:0:
276,76,77283,1,0,0:0:0:0:
68,124,77454,1,0,0:0:0:0:
212,336,77626,5,0,0:0:0:0:
168,208,77797,1,0,0:0:0:0:
8,68,77969,1,0,0:0:0:0:
112,144,78140,1,0,0:0:0:0:
308,64,78312,1,0,0:0:0:0:
364,128,78483,1,0,0:0:0:0:
364,340,78654,1,0,0:0:0:0:
500,236,78826,5,0,0:0:0:0:
376,216,78997,1,0,0:0:0:0:
176,296,79169,1,0,0:0:0:0:
248,192,79340,1,0,0:0:0:0:
320,84,79512,1,0,0:0:0:0:
248,192,79683,1,0,0:0:0:0:
176,296,79854,1,0,0:0:0:0:
92,200,80026,2,0,P|132:184|188:196,1,85
188,60,80369,2,0,P|227:76|258:125,1,85
380,84,80712,2,0,P|396:123|383:180,1,85
391,164,81054,5,0,0:0:0:0:
271,285,81397,1,0,0:0:0:0:
181,195,81569,1,0,0:0:0:0:
271,105,81740,1,0,0:0:0:0:
361,195,81912,1,0,0:0:0:0:
181,195,82083,1,0,0:0:0:0:
8,200,82254,1,0,0:0:0:0:
168,340,82426,5,0,0:0:0:0:
164,344,82512,1,0,0:0:0:0:
160,348,82597,2,0,B|160:288|192:256|192:256|208:304|264:288,1,170
368,172,83112,1,0,0:0:0:0:
236,64,83283,1,0,0:0:0:0:
372,176,83454,1,0,0:0:0:0:
288,172,83626,2,0,B|204:188|204:188|176:144|232:128|232:176,1,170
376,296,84140,2,0,L|484:308,1,85
288,228,84483,1,0,0:0:0:0:
500,196,84655,1,0,0:0:0:0:
292,148,84826,1,0,0:0:0:0:
504,116,84998,5,0,0:0:0:0:
500,196,85169,1,0,0:0:0:0:
288,228,85341,1,0,0:0:0:0:
288,228,85683,1,0,0:0:0:0:
416,308,85854,1,0,0:0:0:0:
340,108,86026,1,0,0:0:0:0:
340,108,86197,1,0,0:0:0:0:
264,120,86369,2,0,B|144:156|144:156|204:172,1,170
72,228,86883,1,0,0:0:0:0:
36,296,87054,2,0,B|9:334|9:334|134:298,1,170
292,352,87569,1,0,0:0:0:0:
216,348,87740,2,0,B|224:292|224:292|212:248|216:200|216:200|232:224,1,170
332,272,88254,5,0,0:0:0:0:
460,272,88426,1,0,0:0:0:0:
352,244,88597,1,0,0:0:0:0:
480,244,88769,1,0,0:0:0:0:
372,216,88940,1,0,0:0:0:0:
500,216,89112,1,0,0:0:0:0:
336,176,89283,1,0,0:0:0:0:
464,176,89455,1,0,0:0:0:0:
395,94,89626,1,0,0:0:0:0:
508,48,89797,2,0,P|452:88|368:88,1,127.5
356,76,90140,6,0,L|300:104,1,42.5
176,44,90312,2,0,L|196:96,1,42.5
92,192,90483,2,0,L|116:148,1,42.5
248,216,90654,2,0,L|204:188,1,42.5
276,192,90826,2,0,L|232:164,1,42.5
232,128,90997,1,0,0:0:0:0:
328,44,91169,2,0,P|376:80|312:68,1,170
408,156,91683,1,0,0:0:0:0:
492,172,91854,2,0,P|472:208|416:248,2,85
332,232,92369,1,0,0:0:0:0:
368,308,92540,5,0,0:0:0:0:
265,179,92712,1,0,0:0:0:0:
241,243,92883,1,0,0:0:0:0:
316,92,93054,1,0,0:0:0:0:
338,141,93225,1,0,0:0:0:0:
248,52,93397,1,0,0:0:0:0:
232,48,93569,2,0,B|160:96|160:96|116:172,1,170
20,248,94083,1,0,0:0:0:0:
20,264,94254,2,0,L|92:328,1,85
196,312,94597,1,0,0:0:0:0:
300,272,94769,5,0,0:0:0:0:
392,332,94940,1,0,0:0:0:0:
392,332,95112,1,0,0:0:0:0:
388,248,95283,2,0,B|388:184|388:184|424:156,1,85
308,88,95626,2,0,L|332:136,1,42.5
256,172,95797,2,0,L|312:184,1,42.5
268,264,95969,2,0,L|316:232,1,42.5
52,196,96312,2,0,L|160:196,1,85
212,196,96654,1,0,0:0:0:0:
300,104,96826,1,0,0:0:0:0:
300,232,96997,5,0,0:0:0:0:
300,60,97169,1,0,0:0:0:0:
300,272,97340,1,0,0:0:0:0:
300,128,97512,1,0,0:0:0:0:
300,204,97683,1,0,0:0:0:0:
468,332,97854,1,0,0:0:0:0:
392,336,98026,2,0,L|276:336,1,85
264,336,98369,1,0,0:0:0:0:
220,336,98540,1,0,0:0:0:0:
176,336,98712,1,0,0:0:0:0:
100,300,98883,6,0,P|80:264|84:208,1,85
108,140,99226,1,0,0:0:0:0:
228,108,99397,1,0,0:0:0:0:
220,268,99569,2,0,P|200:232|204:176,1,85
108,140,99912,1,0,0:0:0:0:
100,300,100083,2,0,P|80:264|84:208,1,85
228,108,100426,1,0,0:0:0:0:
272,108,100597,2,0,L|360:108,2,85
272,152,101112,1,0,0:0:0:0:
272,196,101283,1,0,0:0:0:0:
272,240,101454,1,0,0:0:0:0:
272,284,101626,1,0,0:0:0:0:
272,111,101797,6,0,L|272:215,1,85
144,193,102140,1,0,0:0:0:0:
272,108,102312,1,0,0:0:0:0:
396,196,102483,1,0,0:0:0:0:
272,108,102654,1,0,0:0:0:0:
144,193,102826,1,0,0:0:0:0:
40,32,102997,1,0,0:0:0:0:
40,32,103340,5,0,0:0:0:0:
259,134,103512,2,0,B|226:217,1,85
132,124,103854,1,0,0:0:0:0:
76,284,104026,1,0,0:0:0:0:
132,124,104197,1,0,0:0:0:0:
204,308,104369,1,0,0:0:0:0:
284,280,104454,1,0,0:0:0:0:
368,268,104540,2,0,P|352:224|304:200,1,85
212,188,104883,1,0,0:0:0:0:
204,308,105054,1,0,0:0:0:0:
112,248,105226,6,0,P|104:208|116:160,1,85
204,308,105569,1,0,0:0:0:0:
112,248,105740,2,0,P|156:240|204:208,1,85
112,248,106083,1,0,0:0:0:0:
204,308,106254,1,0,0:0:0:0:
212,200,106426,2,0,B|248:172|260:112|260:112|296:120|328:160,1,170
384,236,106940,1,0,0:0:0:0:
492,212,107112,1,0,0:0:0:0:
384,236,107283,2,0,B|324:256|324:256|328:240|328:240|276:256|236:248|236:248|208:248,1,170
188,152,107797,1,0,0:0:0:0:
288,108,107969,5,0,0:0:0:0:
240,8,108140,1,0,0:0:0:0:
188,152,108312,1,0,0:0:0:0:
240,248,108483,2,0,B|292:232|292:184|292:184|316:196|316:196|324:232|344:260,1,170
356,320,108997,1,0,0:0:0:0:
452,260,109169,2,0,P|488:224|440:256,1,170
356,320,109683,1,0,0:0:0:0:
320,200,109854,1,0,0:0:0:0:
240,300,110026,2,0,L|200:200,1,85
184,148,110369,1,0,0:0:0:0:
140,28,110540,6,0,B|168:36|168:36|224:24,1,85
316,112,110883,1,0,0:0:0:0:
432,60,111054,1,0,0:0:0:0:
224,24,111226,2,0,B|184:48|136:28,1,85
24,76,111569,1,0,0:0:0:0:
64,196,111740,1,0,0:0:0:0:
24,76,111912,1,0,0:0:0:0:
144,32,112083,2,0,L|168:136,1,85
184,196,112426,1,0,0:0:0:0:
208,276,112597,1,0,0:0:0:0:
268,216,112769,6,0,P|292:184|348:168,1,85
344,252,113112,1,0,0:0:0:0:
208,276,113283,2,0,P|252:212|360:164,1,170
344,252,113797,1,0,0:0:0:0:
392,324,113969,2,0,B|412:276|456:276|456:276|416:208|416:208|476:208|504:76|400:40|400:40|368:88,1,425
128,44,115512,1,0,0:0:0:0:
348,356,116197,1,0,0:0:0:0:
460,44,116883,1,0,0:0:0:0:
116,348,117569,2,0,P|80:288|140:312,1,170
376,304,118769,1,0,0:0:0:0:
224,100,119283,5,0,0:0:0:0:
417,165,119797,1,0,0:0:0:0:
409,275,119969,1,0,0:0:0:0:
312,327,120140,1,0,0:0:0:0:
201,326,120312,1,0,0:0:0:0:
296,224,120483,1,0,0:0:0:0:
296,224,120569,1,0,0:0:0:0:
296,224,120654,2,0,L|244:172,1,42.5,4|0,0:0|0:0,0:0:0:0:
56,340,120997,1,0,0:0:0:0:
96,264,121169,2,0,P|112:224|100:176,1,85
208,256,121511,5,0,0:0:0:0:
182,173,121683,2,0,P|165:133|122:107,1,85
256,88,122026,1,0,0:0:0:0:
178,47,122198,2,0,P|138:31|90:43,1,85
256,88,122540,1,0,0:0:0:0:
214,166,122712,2,0,P|198:206|209:254,2,85
340,172,123226,1,0,0:0:0:0:
419,70,123397,1,0,0:0:0:0:
340,172,123569,1,0,0:0:0:0:
419,70,123740,1,0,0:0:0:0:
480,128,123912,6,0,B|500:164|500:164|488:192|488:192|432:200|424:256,1,170
416,340,124426,1,0,0:0:0:0:
424,255,124597,2,0,B|416:199|360:191|360:191|348:163|348:163|368:127,1,170
256,60,125112,2,0,P|272:108|260:148,1,85
176,232,125454,1,0,0:0:0:0:
260,232,125626,1,0,0:0:0:0:
360,312,125797,1,0,0:0:0:0:
276,312,125969,1,0,0:0:0:0:
352,208,126140,1,0,0:0:0:0:
352,124,126312,2,0,L|352:212,1,85
244,56,126654,6,0,L|152:40,1,85
76,136,126997,1,0,0:0:0:0:
192,80,127168,2,0,L|80:64,1,85
176,176,127511,1,0,0:0:0:0:
64,112,127683,2,0,L|152:108,1,85
260,44,128026,1,0,0:0:0:0:
383,76,128198,1,0,0:0:0:0:
350,199,128368,1,0,0:0:0:0:
383,76,128540,1,0,0:0:0:0:
260,44,128712,1,0,0:0:0:0:
226,166,128883,5,0,0:0:0:0:
421,83,129054,2,0,B|430:115|528:258|435:-43|441:151|452:189,1,170
286,339,129569,1,0,0:0:0:0:
411,213,129740,1,0,0:0:0:0:
326,297,129912,1,0,0:0:0:0:
411,213,130083,1,0,0:0:0:0:
286,339,130254,2,0,B|254:342|254:342|234:334|234:334|179:343,1,85
151,222,130597,1,0,0:0:0:0:
49,300,130769,2,0,B|28:255|28:255|52:249|44:274,1,85
89,75,131112,2,0,L|58:157,1,85
137,54,131454,6,0,L|106:136,1,85
340,323,131969,1,0,0:0:0:0:
365,198,132140,1,0,0:0:0:0:
380,281,132312,1,0,0:0:0:0:
405,156,132483,1,0,0:0:0:0:
340,323,132654,1,0,0:0:0:0:
365,198,132825,1,0,0:0:0:0:
380,281,132997,1,0,0:0:0:0:
405,156,133168,1,0,0:0:0:0:
340,211,133340,1,0,0:0:0:0:
365,86,133512,6,0,P|308:90|270:104,2,85
322,206,134026,1,0,0:0:0:0:
196,185,134197,1,0,0:0:0:0:
129,91,134369,2,0,L|215:48,1,85
208,229,134712,1,0,0:0:0:0:
94,210,134884,2,0,L|125:119,1,85
189,343,135226,1,0,0:0:0:0:
208,229,135398,2,0,L|299:259,1,85
78,218,135740,1,0,0:0:0:0:
170,153,135912,2,0,L|213:239,1,85
413,212,136254,5,0,0:0:0:0:
172,153,136426,1,0,0:0:0:0:
356,289,136597,1,0,0:0:0:0:
228,76,136769,1,0,0:0:0:0:
263,315,136940,1,0,0:0:0:0:
328,49,137112,1,0,0:0:0:0:
201,234,137283,1,0,0:0:0:0:
393,121,137454,2,0,P|423:157|439:200,1,85
239,110,137797,1,0,0:0:0:0:
330,260,137968,2,0,P|299:287|251:306,1,85
295,209,138312,5,0,0:0:0:0:
210,188,138483,2,0,P|219:143|241:106,1,85
145,251,138826,1,0,0:0:0:0:
5,140,138997,1,0,0:0:0:0:
4,342,139169,1,0,0:0:0:0:
57,226,139340,1,0,0:0:0:0:
271,365,139512,1,0,0:0:0:0:
314,201,139683,1,0,0:0:0:0:
166,285,139854,1,0,0:0:0:0:
308,115,140197,1,0,0:0:0:0:
197,116,140369,1,0,0:0:0:0:
380,114,140540,5,0,0:0:0:0:
124,116,140712,1,0,0:0:0:0:
308,115,140883,1,0,0:0:0:0:
124,116,141055,1,0,0:0:0:0:
380,114,141226,1,0,0:0:0:0:
196,115,141398,1,0,0:0:0:0:
454,335,142254,2,0,L|501:364,2,42.5
400,218,142597,2,0,L|368:309,1,85
364,320,142854,1,0,0:0:0:0:
357,341,142940,1,0,0:0:0:0:
8,140,144312,5,0,0:0:0:0:
52,259,144483,1,0,0:0:0:0:
9,94,144654,1,0,0:0:0:0:
52,259,144826,1,0,0:0:0:0:
27,48,144997,1,0,0:0:0:0:
97,249,145169,2,0,P|129:208|179:186,1,85
359,259,145512,1,0,0:0:0:0:
498,99,145683,1,0,0:0:0:0:
402,44,145854,1,0,0:0:0:0:
291,44,146026,1,0,0:0:0:0:
359,259,146197,5,0,0:0:0:0:
464,124,146369,1,0,0:0:0:0:
368,69,146540,1,0,0:0:0:0:
257,69,146712,2,0,L|154:104,1,85
182,223,147054,1,0,0:0:0:0:
68,165,147226,1,0,0:0:0:0:
10,279,147397,1,0,0:0:0:0:
124,338,147569,1,0,0:0:0:0:
182,223,147740,1,0,0:0:0:0:
124,338,147912,1,0,0:0:0:0:
10,279,148083,5,0,0:0:0:0:
124,338,148254,1,0,0:0:0:0:
10,279,148426,1,0,0:0:0:0:
68,165,148597,1,0,0:0:0:0:
102,252,148769,2,0,P|145:244|210:260,1,85
199,167,149112,1,0,0:0:0:0:
264,220,149283,1,0,0:0:0:0:
247,303,149454,2,0,P|290:295|355:311,1,85
445,357,149797,1,0,0:0:0:0:
499,241,149969,1,0,0:0:0:0:
445,357,150140,6,0,B|494:332|494:332|430:329|391:276,1,170
408,153,150654,1,0,0:0:0:0:
499,241,150826,1,0,0:0:0:0:
496,71,150997,2,0,B|469:66|469:66|503:115|462:183|376:142,1,170
321,153,151512,1,0,0:0:0:0:
324,25,151683,2,0,B|225:60|225:60|287:79|278:47,1,170
227,139,152197,1,0,0:0:0:0:
35,29,152540,1,0,0:0:0:0:
170,359,153054,1,0,0:0:0:0:
204,3,153569,1,0,0:0:0:0:
336,124,155283,6,0,B|327:144|327:144|315:145|315:145|305:161|288:167,5,63.75
501,341,158026,5,0,0:0:0:0:
436,300,158197,1,0,0:0:0:0:
504,266,158369,1,0,0:0:0:0:
439,225,158540,1,0,0:0:0:0:
501,341,158712,1,0,0:0:0:0:
436,300,158883,1,0,0:0:0:0:
504,266,159055,1,0,0:0:0:0:
439,225,159226,1,0,0:0:0:0:
504,266,159397,1,0,0:0:0:0:
436,300,159569,1,0,0:0:0:0:
501,341,159740,1,0,0:0:0:0:
439,225,159912,1,0,0:0:0:0:
342,54,160254,5,0,0:0:0:0:
342,54,160426,2,0,P|323:43|293:44,1,42.5
246,231,160769,1,0,0:0:0:0:
266,62,160940,2,0,P|244:60|217:74,2,42.5
103,242,161626,2,0,L|60:217,2,42.5
417,214,162312,1,0,0:0:0:0:
100,171,162483,1,0,0:0:0:0:
358,177,162654,1,0,0:0:0:0:
156,206,162825,1,0,0:0:0:0:
369,217,162997,1,0,0:0:0:0:
123,138,163168,1,0,0:0:0:0:
324,148,163340,1,0,0:0:0:0:
163,231,163511,1,0,0:0:0:0:
143,188,163854,5,0,0:0:0:0:
143,188,164025,2,0,L|194:194,1,42.5
71,252,164540,1,0,0:0:0:0:
71,252,164711,2,0,L|122:258,1,42.5
100,129,165226,1,0,0:0:0:0:
100,129,165397,2,0,L|151:135,1,42.5
464,21,165912,2,0,L|435:43,1,21.25
391,75,166083,1,0,0:0:0:0:
407,251,166426,1,0,0:0:0:0:
487,152,166597,1,0,0:0:0:0:
503,300,166769,5,0,0:0:0:0:
346,364,166940,1,0,0:0:0:0:
385,176,167112,1,0,0:0:0:0:
242,19,167283,1,0,0:0:0:0:
256,251,167454,2,0,L|282:274,1,21.25
78,153,168140,2,0,L|73:131,8,21.25
17,212,168997,1,0,0:0:0:0:
166,212,169169,1,0,0:0:0:0:
135,291,169340,1,0,0:0:0:0:
278,250,169512,1,0,0:0:0:0:
246,171,169683,5,0,0:0:0:0:
389,212,169855,1,0,0:0:0:0:
278,250,170026,1,0,0:0:0:0:
421,291,170198,1,0,0:0:0:0:
278,250,170369,1,0,0:0:0:0:
135,291,170541,1,0,0:0:0:0:
166,212,170712,1,0,0:0:0:0:
20,210,170884,1,0,0:0:0:0:
102,315,171912,2,0,B|110:291|110:291|92:280|104:249|104:249|129:241,1,85
289,57,172597,2,0,B|255:62|241:50|241:50|232:73|232:73|243:93,1,85
324,175,173454,5,0,0:0:0:0:
324,175,173797,1,0,0:0:0:0:
324,175,174140,1,0,0:0:0:0:
223,312,174483,1,0,0:0:0:0:
342,356,174654,1,0,0:0:0:0:
417,252,174826,1,0,0:0:0:0:
487,357,174997,1,0,0:0:0:0:
414,241,175169,1,0,0:0:0:0:
339,345,175340,1,0,0:0:0:0:
220,301,175512,1,0,0:0:0:0:
343,330,175683,5,0,0:0:0:0:
418,227,175854,1,0,0:0:0:0:
478,339,176026,1,0,0:0:0:0:
414,214,176197,1,0,0:0:0:0:
338,317,176369,1,0,0:0:0:0:
214,286,176540,1,0,0:0:0:0:
341,301,176712,1,0,0:0:0:0:
413,196,176883,1,0,0:0:0:0:
482,317,177054,1,0,0:0:0:0:
499,233,177226,1,0,0:0:0:0:
361,134,177397,5,0,0:0:0:0:
162,233,177569,1,0,0:0:0:0:
445,262,177740,1,0,0:0:0:0:
87,142,177912,1,0,0:0:0:0:
203,321,178083,1,0,0:0:0:0:
282,88,178255,1,0,0:0:0:0:
198,269,178426,1,0,0:0:0:0:
435,57,179969,2,0,B|379:61|379:61|418:86|418:86|431:130|431:130|453:58|453:58|490:55,1,255
434,221,180654,1,0,0:0:0:0:
304,331,180826,2,0,B|288:304|254:284|254:284|240:303,1,85
278,130,181169,6,0,B|253:151|253:151|261:184|261:184|292:196|292:196|325:181|325:181|312:118|312:118|348:109|348:109|340:141,1,255
188,56,181854,1,0,0:0:0:0:
354,21,182026,1,0,0:0:0:0:
188,56,182197,2,0,L|145:80,1,42.5
354,21,182369,2,0,L|292:15,1,42.5
146,212,182712,1,0,0:0:0:0:
44,348,183054,1,0,0:0:0:0:
166,312,183226,1,0,0:0:0:0:
166,312,183569,1,0,0:0:0:0:
44,348,183740,1,0,0:0:0:0:
166,312,183912,5,0,0:0:0:0:
38,314,184083,1,0,0:0:0:0:
161,345,184254,1,0,0:0:0:0:
38,314,184426,1,0,0:0:0:0:
166,312,184597,1,0,0:0:0:0:
204,255,184682,1,0,0:0:0:0:
242,199,184768,1,0,0:0:0:0:
343,121,184940,1,0,0:0:0:0:
438,296,185112,1,0,0:0:0:0:
479,174,185283,2,0,B|441:218|475:267|475:267|463:306|463:306|423:290,1,170
371,133,185797,5,0,0:0:0:0:
258,171,185969,2,0,B|300:155|301:189|301:189|314:151|335:124|335:124|363:137|392:132,1,170
219,55,186483,1,0,0:0:0:0:
95,84,186654,2,0,B|39:117|49:200|128:222|168:175|168:175|136:133,1,255
273,141,187340,1,0,0:0:0:0:
416,298,187512,2,0,L|425:257,1,42.5
216,302,187683,2,0,L|224:347,1,42.5
46,158,187854,2,0,L|5:133,1,42.5
95,137,188026,2,0,L|112:193,1,42.5
227,88,188197,2,0,L|331:46,1,85
385,24,188540,5,0,0:0:0:0:
287,213,188712,1,0,0:0:0:0:
308,157,188883,1,0,0:0:0:0:
401,298,189054,1,0,0:0:0:0:
372,199,189226,1,0,0:0:0:0:
230,356,189397,1,0,0:0:0:0:
287,213,189569,1,0,0:0:0:0:
136,137,189740,2,0,P|110:167|141:170,1,85
219,70,190083,1,0,0:0:0:0:
49,70,190254,1,0,0:0:0:0:
138,173,190426,5,0,0:0:0:0:
136,342,190597,2,0,L|137:247,1,85
138,173,190940,2,0,B|180:124|235:89|277:118|277:176|227:200|175:173|217:66|217:66|184:60|145:35,1,340
332,86,191797,1,0,0:0:0:0:
496,130,191969,1,0,0:0:0:0:
326,122,192140,2,0,B|328:150|328:150|359:160|359:206|332:216|332:216|319:196|319:196|293:215|293:255|316:280|316:280|348:262,1,255
237,129,192826,2,0,L|227:174,1,42.5
213,254,192997,2,0,L|222:302,1,42.5
287,350,193169,1,0,0:0:0:0:
150,188,193340,2,0,P|97:156|115:235,1,170
431,291,194026,5,0,0:0:0:0:
491,179,194197,2,0,L|506:282,1,85
503,263,194540,1,0,0:0:0:0:
400,127,194712,2,0,L|415:230,1,85
433,336,195054,1,0,0:0:0:0:
325,266,195226,1,0,0:0:0:0:
440,320,195397,1,0,0:0:0:0:
317,282,195569,2,0,B|305:307|305:307|303:338|303:338|283:313|283:313|263:328|234:331|234:331|217:325|207:310,1,170
278,204,196083,1,0,0:0:0:0:
155,171,196254,1,0,0:0:0:0:
282,184,196426,5,0,0:0:0:0:
155,196,196597,1,0,0:0:0:0:
282,192,196769,1,0,0:0:0:0:
155,182,196940,1,0,0:0:0:0:
282,192,197112,1,0,0:0:0:0:
155,196,197283,1,0,0:0:0:0:
281,210,197454,1,0,0:0:0:0:
153,208,197626,1,0,0:0:0:0:
237,203,197797,1,0,0:0:0:0:
237,203,197969,1,0,0:0:0:0:
224,119,198140,6,0,P|267:126|311:165,1,85
421,324,198483,2,0,L|390:277,1,42.5
421,184,198654,2,0,L|390:137,1,42.5
302,149,198826,2,0,L|334:200,1,42.5
300,288,198997,2,0,L|332:339,1,42.5
64,304,199169,2,0,B|92:290|92:290|106:291|106:291|115:284|115:284|146:269,1,85
322,324,199512,1,0,0:0:0:0:
148,268,199683,1,0,0:0:0:0:
148,85,199854,1,0,0:0:0:0:
322,30,200026,1,0,0:0:0:0:
429,177,200197,1,0,0:0:0:0:
322,324,200369,1,0,0:0:0:0:
322,238,200712,5,0,0:0:0:0:
315,196,200883,2,0,P|297:168|277:205,1,85
181,280,201226,1,0,0:0:0:0:
207,316,201312,1,0,0:0:0:0:
250,305,201397,1,0,0:0:0:0:
394,220,201569,1,0,0:0:0:0:
334,61,201740,1,0,0:0:0:0:
334,61,201826,1,0,0:0:0:0:
334,61,201912,5,0,0:0:0:0:
209,176,202083,2,0,P|217:149|180:167,1,85
232,319,202426,1,0,0:0:0:0:
346,205,202597,1,0,0:0:0:0:
388,361,202769,1,0,0:0:0:0:
164,273,202940,1,0,0:0:0:0:
295,273,203111,1,0,0:0:0:0:
229,387,203283,1,0,0:0:0:0:
135,193,203454,1,0,0:0:0:0:
217,275,203625,1,0,0:0:0:0:
105,305,203797,1,0,0:0:0:0:
159,125,203969,5,0,0:0:0:0:
159,206,204140,1,0,0:0:0:0:
89,165,204312,1,0,0:0:0:0:
277,65,204483,1,0,0:0:0:0:
166,176,204654,1,0,0:0:0:0:
125,24,204826,2,0,B|106:28|106:28|89:36|89:36|54:19|41:26,2,85
277,65,205340,1,0,0:0:0:0:
415,21,205512,2,0,B|423:41|448:57|448:57|410:118|457:164|492:122|469:96,1,170
475,109,206026,1,0,0:0:0:0:
187,290,206197,1,0,0:0:0:0:
330,310,206369,1,0,0:0:0:0:
121,274,206540,5,0,0:0:0:0:
249,342,206712,1,0,0:0:0:0:
64,206,206883,1,0,0:0:0:0:
130,336,207055,1,0,0:0:0:0:
54,93,207226,1,0,0:0:0:0:
21,235,207398,1,0,0:0:0:0:
52,313,207569,2,0,P|63:356|120:355,2,85
192,80,208254,1,0,0:0:0:0:
211,206,208426,1,0,0:0:0:0:
238,134,208597,1,0,0:0:0:0:
257,260,208769,5,0,0:0:0:0:
278,186,208940,1,0,0:0:0:0:
296,312,209112,1,0,0:0:0:0:
192,80,209283,1,0,0:0:0:0:
210,206,209455,1,0,0:0:0:0:
256,260,209626,1,0,0:0:0:0:
238,134,209798,1,0,0:0:0:0:
404,102,209969,2,0,B|384:125|384:125|377:143|377:143|361:149|349:172,1,85
190,112,210312,2,0,B|198:64|253:59|276:95|276:95|296:65|267:40,1,170
112,103,210826,1,0,0:0:0:0:
271,46,210997,1,0,0:0:0:0:
168,216,211169,6,0,B|234:205|234:205|234:181|275:214|275:214|304:204|310:165,1,170
36,356,211683,1,0,0:0:0:0:
154,234,211854,1,0,0:0:0:0:
338,309,212026,2,0,L|378:287,2,42.5
394,278,212283,1,0,0:0:0:0:
434,289,212368,1,0,0:0:0:0:
474,276,212454,1,0,0:0:0:0:
500,243,212540,1,0,0:0:0:0:
502,201,212625,1,0,0:0:0:0:
480,165,212711,1,0,0:0:0:0:
364,184,212883,1,0,0:0:0:0:
432,47,213054,6,0,B|459:75|485:84|485:84|503:49,2,85
260,51,213569,1,0,0:0:0:0:
342,32,213740,1,0,0:0:0:0:
188,106,213912,1,0,0:0:0:0:
260,51,214083,1,0,0:0:0:0:
155,184,214254,1,0,0:0:0:0:
188,106,214426,1,0,0:0:0:0:
158,273,214597,1,0,0:0:0:0:
155,184,214769,1,0,0:0:0:0:
260,51,214940,1,0,0:0:0:0:
188,106,215112,5,0,0:0:0:0:
342,35,215283,1,0,0:0:0:0:
260,51,215454,1,0,0:0:0:0:
430,39,215626,1,0,0:0:0:0:
319,167,215797,2,0,B|352:198|352:198|352:253|352:253|332:271|332:271|349:289|349:289|367:270,1,170
232,360,216312,1,0,0:0:0:0:
197,194,216483,2,0,B|175:199|175:199|153:240|153:240|175:235,1,85
64,321,216826,1,0,0:0:0:0:
71,167,216997,1,0,0:0:0:0:
195,194,217169,1,0,0:0:0:0:
64,321,217340,6,0,B|88:292|88:292|92:278|92:278|117:266|131:241,2,85
433,108,218026,1,0,0:0:0:0:
312,68,218197,1,0,0:0:0:0:
335,190,218369,1,0,0:0:0:0:
215,151,218540,1,0,0:0:0:0:
238,273,218712,1,0,0:0:0:0:
118,234,218883,1,0,0:0:0:0:
107,361,219054,1,0,0:0:0:0:
221,303,219225,1,0,0:0:0:0:
118,234,219397,1,0,0:0:0:0:
231,176,219568,5,0,0:0:0:0:
128,107,219740,1,0,0:0:0:0:
241,49,219911,1,0,0:0:0:0:
114,38,220083,1,0,0:0:0:0:
172,151,220254,1,0,0:0:0:0:
241,49,220426,1,0,0:0:0:0:
299,162,220597,1,0,0:0:0:0:
368,59,220769,1,0,0:0:0:0:
427,173,220940,1,0,0:0:0:0:
410,301,221112,1,0,0:0:0:0:
427,173,221283,5,0,0:0:0:0:
311,218,221455,1,0,0:0:0:0:
328,92,221626,1,0,0:0:0:0:
213,136,221798,1,0,0:0:0:0:
233,25,221969,1,0,0:0:0:0:
56,142,222140,1,0,0:0:0:0:
56,142,222312,1,0,0:0:0:0:
280,215,223169,1,0,0:0:0:0:
274,208,223254,1,0,0:0:0:0:
268,201,223340,1,0,0:0:0:0:
184,260,223512,1,0,0:0:0:0:
148,158,223683,5,0,0:0:0:0:
150,166,223769,1,0,0:0:0:0:
152,174,223854,1,0,0:0:0:0:
