osu file format v14

[General]
AudioFilename: audio.mp3
AudioLeadIn: 0
PreviewTime: 59626
Countdown: 0
SampleSet: Soft
StackLeniency: 0.2
Mode: 0
LetterboxInBreaks: 0
WidescreenStoryboard: 0

[Editor]
DistanceSpacing: 1.5
BeatDivisor: 4
GridSize: 4
TimelineZoom: 1.400001

[Metadata]
Title:Uraomote Fortune (Asterisk DnB Remix)
TitleUnicode:ウラオモテ・フォーチュン (Asterisk DnB Remix)
Artist:Sakura Chiyo (CV. Ozawa Ari)
ArtistUnicode:Sakura Chiyo (CV. Ozawa Ari)
Creator:lucciachan
Version:Sakura
Source:Gekkan Shoujo Nozaki-kun
Tags:Gekkan Shoujo Nozaki-kun ED 月刊少女野崎くん
BeatmapID:1361086
BeatmapSetID:641948

[Difficulty]
HPDrainRate:6
CircleSize:4
OverallDifficulty:5
ApproachRate:9.1
SliderMultiplier:1.4
SliderTickRate:1

[Events]
//Background and Video events
0,0,"sakurachiyo33333.png",0,0
//Break Periods
2,154284,157443
//Storyboard Layer 0 (Background)
//Storyboard Layer 1 (Fail)
//Storyboard Layer 2 (Pass)
//Storyboard Layer 3 (Foreground)
//Storyboard Layer 4 (Overlay)
//Storyboard Sound Samples

[TimingPoints]
312,342.857142857143,4,2,1,70,1,0
22240,-90.9090909090909,4,2,1,70,0,0
54983,-166.666666666667,4,2,1,70,0,0
57726,-125,4,2,1,70,0,0
59783,-166.666666666667,4,2,1,70,0,0
60483,-90.9090909090909,4,2,1,70,0,0
115497,-166.666666666667,4,2,1,70,0,0
116183,-142.857142857143,4,2,1,70,0,0
116869,-125,4,2,1,70,0,0
117555,-111.111111111111,4,2,1,70,0,0
120640,-90.9090909090908,4,2,1,70,0,0
143027,-90.9090909090908,4,2,1,5,0,0
144297,-100,4,2,1,70,0,0
158012,-133.333333333333,4,2,1,70,0,0
174469,-133.333333333333,4,2,1,70,0,0
175155,-117.647058823529,4,2,1,70,0,0
175840,-105.263157894737,4,2,1,70,0,0
179952,-90.9090909090908,4,2,1,70,0,0

[Colours]
Combo1 : 255,192,0
Combo2 : 255,128,128
Combo3 : 255,255,43
Combo4 : 0,255,128

[HitObjects]
256,192,11284,12,0,16427,0:0:0:0:
464,36,16769,5,0,0:0:0:0:
464,116,16941,2,0,P|476:160|504:192,1,70
381,84,17284,1,0,0:0:0:0:
386,163,17454,2,0,P|401:206|428:236,1,70
301,140,17798,1,0,0:0:0:0:
311,218,17970,2,0,P|329:260|361:288,1,70
224,200,18312,1,0,0:0:0:0:
239,277,18484,2,0,P|259:317|293:343,1,70
144,276,18827,5,0,0:0:0:0:
111,205,18997,2,0,P|100:171|102:136,1,70
202,104,19340,1,0,0:0:0:0:
294,155,19512,1,0,0:0:0:0:
202,104,19683,1,0,0:0:0:0:
294,155,19854,1,0,0:0:0:0:
111,49,20026,1,0,0:0:0:0:
202,104,20197,1,0,0:0:0:0:
294,155,20369,1,0,0:0:0:0:
102,70,20540,1,0,0:0:0:0:
180,184,20712,1,0,0:0:0:0:
416,184,21055,1,0,0:0:0:0:
416,88,21227,1,0,0:0:0:0:
332,124,21398,1,0,0:0:0:0:
300,248,21570,2,0,P|267:224|223:214,1,70
268,312,21912,6,0,P|234:321|192:317,1,70
112,220,22255,1,0,0:0:0:0:
132,148,22427,2,0,B|164:128|164:128|204:128,2,77.0000023498536
40,136,22941,1,0,0:0:0:0:
152,31,23112,1,0,0:0:0:0:
68,64,23283,2,0,B|36:48|36:48|-16:48,1,77.0000023498536
4,264,23627,2,0,B|4:220|4:220|28:196,1,77.0000023498536
149,101,23970,1,0,0:0:0:0:
126,27,24141,2,0,P|170:27|210:47,1,77.0000023498536
300,4,24484,1,0,0:0:0:0:
372,32,24655,6,0,B|359:71|359:71|314:104,1,77.0000023498536
282,196,24997,1,0,0:0:0:0:
397,211,25169,1,0,0:0:0:0:
395,326,25340,1,0,0:0:0:0:
279,319,25512,2,0,L|342:261,1,77.0000023498536
451,163,25854,1,0,0:0:0:0:
508,260,26027,1,0,0:0:0:0:
451,163,26198,2,0,P|337:152|306:205,1,154.000004699707
274,279,26712,1,0,0:0:0:0:
144,348,26884,2,0,P|156:296|112:200,1,154.000004699707
212,140,27398,1,0,0:0:0:0:
92,43,27741,1,0,0:0:0:0:
38,98,27912,2,0,P|22:146|30:202,2,77.0000023498536
70,248,28597,2,0,P|86:296|78:352,2,77.0000023498536
168,200,29112,6,0,P|192:284|248:332,1,154.000004699707
376,328,29627,1,0,0:0:0:0:
412,260,29798,2,0,P|420:216|412:184,2,77.0000023498536
280,148,30484,1,0,0:0:0:0:
200,232,30655,2,0,B|196:216|196:216|204:164|204:164|200:148,2,77.0000023498536
112,188,31170,2,0,P|112:240|192:312,1,154.000004699707
72,336,31684,1,0,0:0:0:0:
4,188,32027,1,0,0:0:0:0:
192,80,32370,1,0,0:0:0:0:
248,132,32541,6,0,B|272:172|272:172|300:184|300:184|320:224|360:236,1,154.000004699707
296,364,33227,1,0,0:0:0:0:
256,300,33398,2,0,B|248:260|248:260|260:216,1,77.0000023498536
156,264,33741,1,0,0:0:0:0:
176,188,33912,2,0,B|186:148|186:148|216:114,1,77.0000023498536
84,148,34255,1,0,0:0:0:0:
133,86,34426,2,0,B|158:54|158:54|199:35,1,77.0000023498536
80,36,34769,1,0,0:0:0:0:
20,84,34941,2,0,B|4:120|4:120|4:168,1,77.0000023498536
100,132,35283,5,0,0:0:0:0:
116,208,35455,2,0,B|120:247|120:247|145:288,1,77.0000023498536
256,320,35798,1,0,0:0:0:0:
376,320,35970,1,0,0:0:0:0:
448,220,36141,2,0,B|430:171|430:171|427:176|427:176|435:173|435:173|432:178|432:178|394:73,1,154.000004699707
292,236,36827,1,0,0:0:0:0:
232,40,37170,1,0,0:0:0:0:
157,59,37341,2,0,P|115:117|26:138,2,154.000004699707
240,88,38198,2,0,L|324:88,1,77.0000023498536
440,236,38712,5,0,0:0:0:0:
368,208,38884,2,0,P|328:188|304:156,1,77.0000023498536
307,288,39227,1,0,0:0:0:0:
256,230,39397,2,0,B|232:199|232:199|222:155,1,77.0000023498536
168,264,39741,1,0,0:0:0:0:
143,192,39913,2,0,P|136:153|147:109,1,77.0000023498536
236,204,40255,1,0,0:0:0:0:
304,240,40427,2,0,B|338:256|338:256|376:257,1,77.0000023498536
352,164,40770,1,0,0:0:0:0:
428,153,40940,2,0,P|465:145|497:124,1,77.0000023498536
428,40,41284,1,0,0:0:0:0:
324,88,41454,1,0,0:0:0:0:
213,52,41626,1,0,0:0:0:0:
242,164,41798,1,0,0:0:0:0:
216,275,41968,1,0,0:0:0:0:
128,198,42141,1,0,0:0:0:0:
74,300,42312,1,0,0:0:0:0:
188,290,42483,1,0,0:0:0:0:
108,206,42654,1,0,0:0:0:0:
208,324,42998,5,0,0:0:0:0:
314,280,43169,1,4,0:3:0:0:
344,180,43340,1,4,0:3:0:0:
224,136,43512,1,0,0:0:0:0:
228,140,43598,1,0,0:0:0:0:
232,144,43683,2,0,L|180:220,1,77.0000023498536,8|8,0:0|0:0,0:0:0:0:
125,345,44026,1,0,0:0:0:0:
125,292,44112,1,8,0:0:0:0:
170,319,44197,1,0,0:0:0:0:
316,348,44370,2,0,L|392:296,1,77.0000023498536
441,203,44712,1,0,0:0:0:0:
432,117,44883,1,0,0:0:0:0:
504,162,45054,6,0,P|454:200|406:207,1,77.0000023498536
296,140,45398,2,0,P|210:149|189:82,1,154.000004699707
80,88,45912,1,0,0:0:0:0:
12,32,46084,2,0,L|0:192,1,154.000004699707
72,256,46598,1,0,0:0:0:0:
8,332,46770,2,0,B|56:324|56:324|112:344|112:344|160:336,1,154.000004699707
235,274,47284,1,0,0:0:0:0:
129,230,47454,1,0,3:0:0:0:
235,274,47626,2,0,L|279:281,2,38.5000011749268,0|0|0,3:0|0:0|3:0,0:0:0:0:
248,160,47970,5,0,0:0:0:0:
352,164,48140,2,0,B|448:164|448:164|480:172|480:172|520:164,2,154.000004699707
360,64,48998,1,0,0:0:0:0:
256,48,49170,1,0,0:0:0:0:
208,108,49341,2,0,P|188:140|180:200,2,77.0000023498536
140,36,49855,1,0,0:0:0:0:
64,40,50027,2,0,B|28:56|28:56|-24:52,2,77.0000023498536
96,128,50541,1,0,0:0:0:0:
38,227,50712,1,0,0:0:0:0:
96,326,50883,2,0,B|137:316|137:316|181:315,1,77.0000023498536
284,256,51227,5,0,0:0:0:0:
380,296,51398,2,0,L|380:219,1,77.0000023498536
380,144,51741,1,0,0:0:0:0:
452,48,51912,1,0,0:0:0:0:
268,16,52084,2,0,L|124:136,1,154.000004699707
281,145,52770,1,0,0:0:0:0:
164,244,52941,2,0,L|288:140,1,154.000004699707
352,84,53455,1,0,0:0:0:0:
400,168,53627,2,0,L|435:193,7,38.5000011749268
392,276,54312,2,0,L|426:303,6,38.5000011749268
296,340,54997,6,0,L|264:300,1,41.9999987182618
233,255,55340,1,0,0:0:0:0:
194,204,55512,1,0,0:0:0:0:
64,240,55683,2,0,L|85:269,2,20.9999993591309
1,155,56026,1,0,0:0:0:0:
36,206,56197,1,0,0:0:0:0:
208,104,56369,2,0,L|176:64,1,41.9999987182618
249,151,56712,1,0,0:0:0:0:
292,196,56883,1,0,0:0:0:0:
224,308,57054,2,0,L|201:279,2,20.9999993591309
324,172,57740,1,0,0:0:0:0:
400,172,57911,2,0,L|512:172,1,112
512,68,58426,1,0,0:0:0:0:
344,68,58769,1,0,0:0:0:0:
268,72,58940,2,0,P|208:92|128:176,1,168
256,328,59797,5,0,0:0:0:0:
255,264,59970,1,0,0:0:0:0:
255,243,60055,1,0,0:0:0:0:
255,222,60141,1,0,0:0:0:0:
255,201,60227,1,0,0:0:0:0:
255,180,60312,1,4,3:0:0:0:
435,93,60654,2,0,P|418:135|428:193,1,77.0000023498536
344,288,60995,1,0,0:0:0:0:
432,328,61167,2,0,B|468:308|468:308|496:256,1,77.0000023498536
482,161,61509,1,0,0:0:0:0:
395,122,61681,2,0,L|309:156,1,77.0000023498536
238,228,62023,1,0,0:0:0:0:
281,315,62194,2,0,B|320:326|320:326|377:309,1,77.0000023498536
238,228,62537,1,0,0:0:0:0:
80,104,62884,5,0,0:0:0:0:
8,180,63055,1,0,0:0:0:0:
76,256,63227,2,0,P|132:284|228:284,1,154.000004699707
221,285,63741,1,0,0:0:0:0:
305,123,63912,2,0,P|293:191|317:275,1,154.000004699707
315,271,64427,1,0,0:0:0:0:
432,352,64598,2,0,L|432:256,2,77.0000023498536
512,189,65112,1,0,0:0:0:0:
400,56,65455,1,0,0:0:0:0:
228,132,65798,5,0,0:0:0:0:
160,168,65970,2,0,L|88:216,1,77.0000023498536
224,264,66312,1,0,0:0:0:0:
292,300,66484,2,0,L|376:344,1,77.0000023498536
432,224,66827,1,0,0:0:0:0:
480,164,66998,2,0,L|536:92,1,77.0000023498536
360,56,67341,2,0,B|336:100|336:100|336:156|336:156|304:216,1,154.000004699707
280,264,67855,1,0,0:0:0:0:
152,252,68027,2,0,L|28:160,1,154.000004699707
68,56,68541,5,0,0:0:0:0:
68,56,68712,2,0,L|168:64,1,77.0000023498536
208,140,69055,2,0,L|312:148,1,77.0000023498536
336,232,69398,2,0,L|440:240,2,77.0000023498536
260,220,69912,1,0,0:0:0:0:
224,304,70084,2,0,P|184:264|192:164,1,154.000004699707
64,72,70598,1,0,0:0:0:0:
36,176,70770,1,0,0:0:0:0:
36,176,70941,2,0,P|32:252|56:328,1,154.000004699707
180,368,71455,2,0,L|352:316,1,154.000004699707
440,288,71970,5,0,0:0:0:0:
420,132,72141,2,0,P|392:112|332:100,1,77.0000023498536
272,92,72484,1,0,0:0:0:0:
160,32,72655,2,0,P|130:49|96:104,1,77.0000023498536
64,152,72998,1,0,0:0:0:0:
0,272,73170,2,0,P|31:285|96:284,1,77.0000023498536
152,292,73512,1,0,0:0:0:0:
352,160,73855,1,0,0:0:0:0:
348,180,74027,2,0,B|336:220|336:220|308:264,2,77.0000023498536
280,72,74541,5,0,0:0:0:0:
132,136,74712,1,0,0:0:0:0:
248,320,74884,1,0,0:0:0:0:
228,140,75055,1,0,0:0:0:0:
384,192,75227,1,0,0:0:0:0:
208,240,75398,1,0,0:0:0:0:
192,232,75570,2,0,P|164:212|136:172,1,77.0000023498536
60,80,75912,1,0,0:0:0:0:
0,184,76084,1,0,0:0:0:0:
16,196,76255,2,0,B|48:224|48:224|60:264,1,77.0000023498536
211,254,76597,1,0,0:0:0:0:
158,139,76769,1,0,0:0:0:0:
195,131,76854,1,0,0:0:0:0:
233,124,76940,1,0,0:0:0:0:
271,117,77026,1,0,0:0:0:0:
309,109,77111,1,0,0:0:0:0:
394,30,77283,5,0,0:0:0:0:
466,119,77454,1,0,0:0:0:0:
445,151,77539,1,0,0:0:0:0:
424,183,77625,1,0,0:0:0:0:
403,215,77711,1,0,0:0:0:0:
382,248,77796,1,0,0:0:0:0:
268,223,77969,1,0,0:0:0:0:
220,327,78140,1,0,0:0:0:0:
197,295,78225,1,0,0:0:0:0:
168,270,78311,1,0,0:0:0:0:
133,254,78397,1,0,0:0:0:0:
96,246,78482,1,0,0:0:0:0:
180,167,78654,1,0,0:0:0:0:
277,230,78826,5,0,0:0:0:0:
314,223,78911,1,0,0:0:0:0:
347,203,78997,1,0,0:0:0:0:
372,174,79083,1,0,0:0:0:0:
385,138,79168,1,0,0:0:0:0:
271,119,79340,1,0,0:0:0:0:
159,150,79512,2,0,L|101:123,2,38.5000011749268
192,284,79855,2,0,B|264:220,1,77.0000023498536
400,108,80198,5,0,0:0:0:0:
336,304,80370,1,0,0:0:0:0:
184,208,80541,1,0,0:0:0:0:
96,336,80712,1,0,0:0:0:0:
224,280,80884,1,0,0:0:0:0:
140,116,81055,1,0,0:0:0:0:
345,221,81397,1,0,0:0:0:0:
400,166,81568,1,0,0:0:0:0:
345,112,81741,1,0,0:0:0:0:
291,166,81912,2,0,L|263:135,2,38.5000011749268
192,48,82255,5,0,0:0:0:0:
192,152,82427,1,0,0:0:0:0:
192,156,82512,1,0,0:0:0:0:
192,160,82598,2,0,P|224:232|304:264,1,154.000004699707
348,172,83112,1,0,0:0:0:0:
332,84,83284,2,0,P|396:96|440:180,2,154.000004699707
208,88,84141,1,0,0:0:0:0:
168,296,84312,1,0,0:0:0:0:
348,240,84484,2,0,L|256:212,1,77.0000023498536
128,176,84827,1,0,0:0:0:0:
68,40,84998,6,0,P|32:76|12:128,1,77.0000023498536
4,204,85341,1,0,0:0:0:0:
156,192,85512,1,0,0:0:0:0:
244,312,85684,1,0,0:0:0:0:
324,312,85855,2,0,L|480:312,1,154.000004699707
464,164,86370,1,0,0:0:0:0:
272,244,86541,1,0,0:0:0:0:
272,164,86712,2,0,B|248:140|240:108|240:108|212:104|212:104|204:72|172:60,1,154.000004699707
108,16,87227,2,0,P|36:36|-24:92,1,154.000004699707
0,176,87741,5,0,0:0:0:0:
72,300,87912,2,0,L|164:276,2,77.0000023498536
96,148,88427,1,0,0:0:0:0:
240,244,88598,2,0,L|300:296,2,77.0000023498536
364,112,89112,1,0,0:0:0:0:
412,200,89284,2,0,L|464:116,1,77.0000023498536
492,68,89627,1,0,0:0:0:0:
304,144,89798,2,0,L|256:64,1,77.0000023498536
196,168,90141,5,0,0:0:0:0:
102,139,90312,1,0,0:0:0:0:
72,233,90483,1,0,0:0:0:0:
168,263,90655,1,0,0:0:0:0:
196,168,90827,2,0,L|280:112,1,77.0000023498536
348,72,91170,1,0,0:0:0:0:
404,164,91341,1,0,0:0:0:0:
500,208,91512,1,0,0:0:0:0:
440,296,91684,1,0,0:0:0:0:
336,304,91855,6,0,L|248:304,2,77.0000023498536
232,212,92370,1,0,0:0:0:0:
144,304,92541,1,0,0:0:0:0:
36,240,92712,1,0,0:0:0:0:
148,184,92884,1,0,0:0:0:0:
32,140,93055,1,0,0:0:0:0:
152,108,93227,1,0,0:0:0:0:
260,88,93398,2,0,B|300:84|324:92|324:92|336:80|336:80|404:112|460:98|460:98|444:128,1,231.000007049561
404,224,94084,1,0,0:0:0:0:
308,288,94255,5,0,0:0:0:0:
208,232,94427,1,0,0:0:0:0:
116,312,94598,2,0,P|180:348|268:340,1,154.000004699707
340,260,95112,1,0,0:0:0:0:
236,208,95284,1,0,0:0:0:0:
136,264,95455,2,0,L|80:200,1,77.0000023498536
12,116,95798,1,0,0:0:0:0:
184,172,95970,2,0,L|128:108,1,77.0000023498536
60,24,96312,1,0,0:0:0:0:
316,88,96655,5,0,0:0:0:0:
316,168,96827,2,0,B|316:192|316:192|304:208|304:208|316:232|316:232|308:280|308:280|316:304|316:304|316:328,1,154.000004699707
316,313,97341,1,0,0:0:0:0:
432,316,97512,2,0,L|516:316,1,77.0000023498536
509,316,97855,2,0,L|508:216,1,77.0000023498536
508,124,98198,1,0,0:0:0:0:
380,124,98370,1,0,0:0:0:0:
380,280,98541,2,0,L|380:196,1,77.0000023498536
234,152,99054,1,0,0:0:0:0:
216,146,99140,1,0,0:0:0:0:
216,127,99226,1,0,0:0:0:0:
234,121,99312,1,0,0:0:0:0:
246,137,99397,1,0,0:0:0:0:
144,260,99569,1,0,0:0:0:0:
53,144,99740,1,0,0:0:0:0:
70,136,99826,1,0,0:0:0:0:
84,149,99912,1,0,0:0:0:0:
75,166,99997,1,0,0:0:0:0:
56,164,100083,1,0,0:0:0:0:
105,44,100254,1,0,0:0:0:0:
239,120,100426,1,0,0:0:0:0:
250,84,100512,1,0,0:0:0:0:
289,84,100597,1,0,0:0:0:0:
301,120,100683,1,0,0:0:0:0:
270,143,100769,1,0,0:0:0:0:
253,304,100940,1,0,0:0:0:0:
187,209,101112,1,0,0:0:0:0:
281,143,101284,1,0,0:0:0:0:
348,237,101454,1,0,0:0:0:0:
187,209,101626,1,0,0:0:0:0:
348,237,101797,2,0,L|386:136,1,77.0000023498536
208,132,102141,5,0,0:0:0:0:
120,208,102312,1,0,0:0:0:0:
192,300,102484,1,0,0:0:0:0:
287,236,102655,2,0,L|301:156,2,77.0000023498536
94,107,103512,1,0,0:0:0:0:
110,181,103683,1,0,0:0:0:0:
159,239,103854,1,0,0:0:0:0:
229,268,104026,1,0,0:0:0:0:
408,288,104198,5,0,0:0:0:0:
349,177,104370,1,0,0:0:0:0:
344,173,104455,1,0,0:0:0:0:
339,170,104541,2,0,P|288:188|188:128,1,154.000004699707
88,264,105055,1,0,0:0:0:0:
156,304,105227,2,0,L|240:348,1,77.0000023498536
400,264,105570,1,0,0:0:0:0:
320,264,105741,2,0,L|224:264,1,77.0000023498536
166,130,106084,1,0,0:0:0:0:
202,198,106255,6,0,L|246:270,1,77.0000023498536
372,172,106598,1,0,0:0:0:0:
436,132,106770,2,0,L|512:84,1,77.0000023498536
400,256,107112,2,0,P|320:224|280:136,1,154.000004699707
264,56,107627,1,0,0:0:0:0:
244,52,107798,2,0,L|156:36,1,77.0000023498536
4,108,108141,1,0,0:0:0:0:
0,128,108312,2,0,L|-8:208,1,77.0000023498536
204,256,108655,2,0,P|172:228|124:216,2,77.0000023498536
424,152,109170,2,0,B|372:152|372:152|376:156|376:156|380:152|380:152|380:152|380:152|376:148|376:148|380:152|380:152|272:152,1,154.000004699707
160,124,109684,6,0,P|232:96|272:32,2,154.000004699707
172,24,110541,1,0,0:0:0:0:
280,148,110712,1,0,0:0:0:0:
180,240,110884,1,0,0:0:0:0:
288,284,111055,1,0,0:0:0:0:
197,340,111227,2,0,B|313:304|313:304|269:268,1,154.000004699707
120,260,111741,1,0,0:0:0:0:
120,260,111912,2,0,P|184:220|264:208,1,154.000004699707
388,204,112427,1,0,0:0:0:0:
444,76,112598,1,0,0:0:0:0:
384,296,112770,6,0,L|408:208,1,77.0000023498536
256,84,113112,1,0,0:0:0:0:
336,296,113284,2,0,L|280:144,1,154.000004699707
196,280,113798,1,0,0:0:0:0:
168,216,113970,2,0,L|146:166,2,38.5000011749268
56,312,114312,2,0,L|88:272,2,38.5000011749268
152,328,114654,2,0,L|184:288,2,38.5000011749268
267,329,114997,2,0,L|286:236,1,77.0000023498536
336,136,115512,1,0,0:0:0:0:
354,145,115597,1,0,0:0:0:0:
370,158,115683,2,0,P|381:168|390:186,2,20.9999993591309
485,205,116026,1,0,0:0:0:0:
489,117,116198,5,0,0:0:0:0:
478,96,116283,1,0,0:0:0:0:
463,76,116369,2,0,P|449:61|430:54,2,24.4999992523194
309,52,116712,1,0,0:0:0:0:
302,166,116883,1,0,0:0:0:0:
327,177,116968,1,0,0:0:0:0:
343,193,117054,2,0,P|359:209|368:233,2,28
303,333,117397,1,0,0:0:0:0:
177,329,117569,1,0,0:0:0:0:
187,309,117654,1,0,0:0:0:0:
200,293,117740,2,0,P|213:273|229:259,2,31.4999990386963
368,336,118255,2,0,L|368:208,1,125.999996154785
368,116,118770,1,0,0:0:0:0:
184,72,119112,1,0,0:0:0:0:
184,72,119284,2,0,B|208:164|196:252|196:252|224:228|224:228|264:228,1,251.999992309571
340,248,120655,5,0,0:0:0:0:
340,94,120827,2,0,L|339:202,1,77.0000023498536
220,312,121170,1,0,0:0:0:0:
156,264,121341,2,0,P|128:244|68:232,1,77.0000023498536
208,201,121684,1,0,0:0:0:0:
168,131,121855,2,0,P|151:101|101:66,1,77.0000023498536
304,201,122198,1,0,0:0:0:0:
343,131,122369,2,0,P|363:98|393:73,1,77.0000023498536
292,312,122712,1,0,0:0:0:0:
355,264,122883,2,0,P|387:242|424:232,1,77.0000023498536
220,320,123227,2,0,L|132:320,1,77.0000023498536
116,240,123570,6,0,B|64:260|64:320|64:320|32:312|-4:332,1,154.000004699707
143,320,124084,1,0,0:0:0:0:
8,208,124255,2,0,P|71:162|159:166,1,154.000004699707
268,200,124770,1,0,0:0:0:0:
384,356,124941,2,0,L|476:328,1,77.0000023498536
512,200,125284,2,0,L|438:222,1,77.0000023498536
324,260,125627,2,0,L|352:348,1,77.0000023498536
504,288,125970,1,0,0:0:0:0:
480,214,126141,1,0,0:0:0:0:
508,104,126312,2,0,L|476:204,1,77.0000023498536
372,212,126655,1,0,0:0:0:0:
372,212,126827,6,0,L|480:192,1,77.0000023498536
348,140,127170,1,0,0:0:0:0:
348,140,127341,2,0,L|264:192,1,77.0000023498536
368,256,127684,1,0,0:0:0:0:
368,256,127855,2,0,L|384:160,1,77.0000023498536
304,92,128198,1,0,0:0:0:0:
192,128,128370,2,0,P|176:176|200:280,1,154.000004699707
192,128,128884,1,0,0:0:0:0:
92,212,129055,2,0,P|98:135|133:61,1,154.000004699707
92,212,129570,5,0,0:0:0:0:
48,320,129741,2,0,B|16:292|16:292|12:248|12:248|-8:212|0:168,1,154.000004699707
4,68,130255,1,0,0:0:0:0:
80,180,130427,2,0,B|60:148|60:148|112:148|112:148|160:172|160:172|180:132|228:112,1,231.000007049561
328,64,131112,1,0,0:0:0:0:
432,120,131284,1,0,0:0:0:0:
356,208,131455,2,0,L|276:196,1,77.0000023498536
252,316,131798,1,0,0:0:0:0:
384,344,131970,1,0,0:0:0:0:
428,280,132141,2,0,L|476:208,1,77.0000023498536
324,284,132484,1,0,0:0:0:0:
298,209,132655,6,0,L|267:127,1,77.0000023498536
424,76,132998,1,0,0:0:0:0:
401,152,133169,2,0,L|379:235,1,77.0000023498536
237,154,133512,1,0,0:0:0:0:
280,220,133683,2,0,L|328:291,1,77.0000023498536
376,360,134027,1,0,0:0:0:0:
196,344,134198,1,0,0:0:0:0:
121,362,134370,2,0,L|195:343,1,77.0000023498536
328,228,134713,1,0,0:0:0:0:
401,352,134884,2,0,L|328:328,2,77.0000023498536
240,212,135398,5,0,0:0:0:0:
364,144,135570,1,0,0:0:0:0:
412,252,135741,2,0,B|395:253|395:253|345:236|345:236|329:237,2,77.0000023498536
500,176,136255,1,0,0:0:0:0:
500,22,136427,2,0,L|500:183,1,154.000004699707
388,232,136941,2,0,L|300:232,1,77.0000023498536
212,316,137284,2,0,L|124:316,1,77.0000023498536
28,240,137627,2,0,L|28:148,1,77.0000023498536
152,132,137970,2,0,L|152:48,1,77.0000023498536
336,124,138312,6,0,L|268:172,1,77.0000023498536
276,300,138655,2,0,L|208:348,1,77.0000023498536
100,232,138998,2,0,L|184:232,1,77.0000023498536
248,116,139341,2,0,L|344:156,1,77.0000023498536
320,264,139684,2,0,L|320:156,1,77.0000023498536
420,256,140027,1,0,0:0:0:0:
468,116,140198,1,0,0:0:0:0:
276,40,140369,1,0,0:0:0:0:
352,232,140541,5,0,0:0:0:0:
388,88,140712,1,0,0:0:0:0:
216,172,140884,1,0,0:0:0:0:
156,292,141055,1,0,0:0:0:0:
116,92,141227,1,0,0:0:0:0:
120,328,141398,1,0,0:0:0:0:
356,284,141741,6,0,P|316:300|264:304,1,77.0000023498536
248,176,142084,1,0,0:0:0:0:
148,232,142255,2,0,P|128:272|124:304,1,77.0000023498536
16,176,142598,1,0,0:0:0:0:
196,108,142770,1,0,0:0:0:0:
196,108,142855,1,0,0:0:0:0:
196,108,142941,2,0,L|144:56,1,38.5000011749268
48,40,144312,5,0,0:0:0:0:
8,108,144484,2,0,P|0:144|8:180,1,70
132,264,144827,2,0,L|48:308,2,70
236,212,145341,1,0,0:0:0:0:
228,120,145512,2,0,P|298:154|336:236,1,140,0|0,2:0|2:0,2:0:0:0:
344,84,146027,5,0,0:0:0:0:
444,130,146198,2,0,B|409:163|409:163|365:173|365:173|318:215,1,140
464,224,146712,1,0,0:0:0:0:
414,311,146884,2,0,B|393:238|347:268|324:187,1,140
328,332,147398,1,0,0:0:0:0:
329,203,147570,2,0,L|184:276,1,140
84,284,148084,1,0,0:0:0:0:
8,344,148255,2,0,B|0:320|8:292|8:292|-8:268|-8:268|-4:236|-4:236|-4:184,1,140
80,116,148770,5,0,0:0:0:0:
148,152,148941,2,0,L|216:184,1,70
376,140,149284,2,0,L|284:140,1,70
208,68,149627,1,0,0:0:0:0:
124,176,149798,1,0,0:0:0:0:
184,296,149970,1,0,0:0:0:0:
240,188,150141,2,0,L|112:72,2,140
296,236,150998,1,0,0:0:0:0:
296,306,151170,2,0,L|296:225,1,70
296,120,151512,5,0,0:0:0:0:
376,36,151684,2,0,B|388:88|420:120|420:120|416:124|420:188,1,140
312,280,152198,2,0,L|240:288,1,70
179,107,152541,2,0,L|31:211,1,175
36,208,153055,2,0,P|124:208|199:275,1,175
190,259,153570,2,0,B|301:133|301:133|275:143|247:143,1,210
320,48,158027,5,0,0:0:0:0:
372,113,158198,2,0,L|416:160,1,52.5000020027161
263,143,158541,1,0,0:0:0:0:
288,222,158712,2,0,L|312:288,1,52.5000020027161
180,230,159055,1,0,0:0:0:0:
167,311,159226,2,0,L|156:376,1,52.5000020027161
64,272,159570,1,0,0:0:0:0:
39,200,159741,2,0,L|16:144,1,52.5000020027161
248,152,160255,1,0,0:0:0:0:
336,220,160427,5,0,0:0:0:0:
356,212,160598,2,0,P|400:196|460:188,1,105.000004005432
304,116,161112,1,0,0:0:0:0:
324,108,161284,2,0,P|368:92|428:84,1,105.000004005432
500,204,161798,1,0,0:0:0:0:
476,204,161970,2,0,P|412:212|336:268,1,157.500006008148
192,332,162827,1,0,0:0:0:0:
72,176,163170,1,0,0:0:0:0:
96,160,163341,2,0,B|124:148|124:148|160:144,1,52.5000020027161
128,308,163855,1,0,0:0:0:0:
152,292,164026,6,0,B|180:280|180:280|212:272,1,52.5000020027161
252,168,164541,2,0,L|148:208,1,105.000004005432
0,160,165227,2,0,L|100:120,1,105.000004005432
276,177,165912,1,0,0:0:0:0:
276,72,166084,2,0,L|276:180,1,105.000004005432
276,272,166598,1,0,0:0:0:0:
276,177,166770,1,0,0:0:0:0:
356,192,166941,2,0,P|380:212|404:236,2,52.5000020027161
188,188,167455,2,0,P|164:144|196:40,1,157.500006008148
256,184,168141,5,0,0:0:0:0:
256,289,168313,2,0,L|256:181,1,105.000004005432
156,280,168827,1,0,0:0:0:0:
107,169,168998,2,0,P|124:144|152:124,1,52.5000020027161
200,88,169341,1,0,0:0:0:0:
176,212,169512,2,0,P|204:204|236:204,1,52.5000020027161
300,208,169855,1,0,0:0:0:0:
252,312,170027,2,0,P|278:313|316:332,1,52.5000020027161
368,356,170370,1,0,0:0:0:0:
424,256,170541,2,0,P|405:236|388:200,1,52.5000020027161
368,144,170884,1,0,0:0:0:0:
496,248,171227,1,0,0:0:0:0:
496,344,171398,5,0,0:0:0:0:
496,248,171570,2,0,L|496:140,1,105.000004005432
408,60,172084,1,0,0:0:0:0:
368,164,172255,2,0,L|264:204,1,105.000004005432
164,140,172770,1,0,0:0:0:0:
176,232,172941,2,0,L|272:284,1,105.000004005432
224,352,173455,2,0,L|180:380,2,52.5000020027161
436,188,174484,2,0,L|413:146,4,26.2500010013581
467,287,174997,1,0,0:0:0:0:
368,272,175170,2,0,L|345:230,4,29.7500005674362
254,236,175683,1,0,0:0:0:0:
292,352,175855,6,0,L|264:300,4,33.2499991121292
391,362,176369,1,0,0:0:0:0:
368,272,176541,2,0,L|343:229,6,33.2499991121292
436,188,177227,1,0,0:0:0:0:
376,48,177398,1,0,0:0:0:0:
344,232,177570,1,0,0:0:0:0:
268,52,177741,1,0,0:0:0:0:
248,268,177912,1,0,0:0:0:0:
268,52,178084,1,0,0:0:0:0:
344,232,178255,1,0,0:0:0:0:
376,48,178427,1,0,0:0:0:0:
320,24,179970,6,0,L|220:152,1,154.000004699707
120,148,180484,1,0,0:0:0:0:
32,204,180655,2,0,P|48:280|32:360,1,154.000004699707
160,360,181170,1,0,0:0:0:0:
164,264,181341,2,0,P|208:204|288:160,1,154.000004699707
356,188,181855,1,0,0:0:0:0:
432,344,182027,1,0,0:0:0:0:
456,232,182198,1,0,0:0:0:0:
261,184,182370,2,0,L|184:232,1,77.0000023498536
128,264,182712,1,0,0:0:0:0:
16,80,183055,5,0,0:0:0:0:
16,80,183227,2,0,P|88:88|160:140,1,154.000004699707
64,232,183741,1,0,0:0:0:0:
220,300,183912,2,0,L|132:260,1,77.0000023498536
136,164,184255,1,0,0:0:0:0:
212,108,184427,1,0,0:0:0:0:
224,200,184598,2,0,P|288:160|296:76,1,154.000004699707
224,200,185112,1,0,0:0:0:0:
312,344,185284,2,0,L|312:184,1,154.000004699707
404,184,185798,1,0,0:0:0:0:
404,30,185970,2,0,L|404:196,1,154.000004699707
312,218,186484,5,0,0:0:0:0:
176,124,186655,2,0,L|240:168,1,77.0000023498536
116,172,186998,2,0,L|136:256,1,77.0000023498536
8,140,187341,1,0,0:0:0:0:
32,28,187512,1,0,0:0:0:0:
100,176,187684,1,0,0:0:0:0:
128,76,187855,1,0,0:0:0:0:
216,156,188027,1,0,0:0:0:0:
292,76,188198,2,0,L|208:76,1,77.0000023498536
368,76,188541,1,0,0:0:0:0:
364,172,188712,2,0,P|332:212|232:228,1,154.000004699707
235,228,189227,5,0,0:0:0:0:
168,120,189398,2,0,P|136:168|140:272,1,154.000004699707
236,312,189912,1,0,0:0:0:0:
304,248,190084,1,0,0:0:0:0:
360,324,190255,1,0,0:0:0:0:
424,252,190427,1,0,0:0:0:0:
364,180,190598,1,0,0:0:0:0:
432,112,190770,1,0,0:0:0:0:
292,72,190941,2,0,P|252:120|244:208,2,154.000004699707
244,208,191798,1,0,0:0:0:0:
136,128,191970,6,0,L|136:288,2,154.000004699707
0,52,192827,1,0,0:0:0:0:
60,128,192998,1,0,0:0:0:0:
0,204,193170,1,0,0:0:0:0:
68,272,193341,2,0,L|136:328,1,77.0000023498536
236,276,193684,1,0,0:0:0:0:
296,56,194026,1,0,0:0:0:0:
296,56,194198,2,0,P|292:128|328:208,1,154.000004699707
415,300,194712,1,0,0:0:0:0:
323,202,194884,1,0,0:0:0:0:
328,344,195055,5,0,0:0:0:0:
277,206,195227,1,0,0:0:0:0:
277,206,195398,2,0,P|197:184|153:126,1,154.000004699707
40,168,195912,1,0,0:0:0:0:
72,284,196084,1,0,0:0:0:0:
176,228,196255,2,0,L|336:280,1,154.000004699707
280,168,196770,1,0,0:0:0:0:
426,215,196941,2,0,L|279:167,1,154.000004699707
212,72,197455,1,0,0:0:0:0:
320,32,197627,2,0,L|360:120,1,77.0000023498536
416,44,197970,6,0,L|456:132,1,77.0000023498536
412,224,198312,1,0,0:0:0:0:
504,292,198484,1,0,0:0:0:0:
412,224,198655,1,0,0:0:0:0:
320,296,198827,1,0,0:0:0:0:
276,188,198998,1,0,0:0:0:0:
376,128,199170,1,0,0:0:0:0:
320,296,199341,1,0,0:0:0:0:
205,286,199512,2,0,L|143:268,6,38.5000011749268
226,172,200197,1,0,0:0:0:0:
205,286,200369,1,0,0:0:0:0:
380,207,200883,1,0,0:0:0:0:
334,109,201055,1,0,0:0:0:0:
406,135,201226,1,0,0:0:0:0:
307,182,201397,1,0,0:0:0:0:
231,317,201570,5,0,0:0:0:0:
332,300,201741,1,0,0:0:0:0:
332,300,201827,1,0,0:0:0:0:
332,300,201912,2,0,P|380:324|488:328,1,154.000004699707
424,228,202427,1,0,0:0:0:0:
312,196,202598,2,0,P|264:240|172:268,1,154.000004699707
88,340,203112,1,0,0:0:0:0:
8,256,203284,2,0,P|24:204|0:96,1,154.000004699707
112,156,203798,1,0,0:0:0:0:
220,116,203970,6,0,P|160:68|64:60,1,154.000004699707
8,144,204484,1,0,0:0:0:0:
96,220,204655,1,0,0:0:0:0:
212,204,204827,2,0,P|236:256|224:360,2,154.000004699707
304,112,205684,1,0,0:0:0:0:
352,171,205855,2,0,P|296:207|200:199,1,154.000004699707
104,56,206370,1,0,0:0:0:0:
76,284,206712,1,0,0:0:0:0:
4,148,207055,1,0,0:0:0:0:
200,272,207398,5,0,0:0:0:0:
276,272,207570,2,0,B|328:272|328:272|372:236|372:236|428:236,1,154.000004699707
420,120,208084,1,0,0:0:0:0:
360,72,208255,2,0,P|328:52|272:44,1,77.0000023498536
156,80,208598,1,0,0:0:0:0:
216,128,208769,2,0,P|248:147|304:155,1,77.0000023498536
420,120,209112,1,0,0:0:0:0:
496,208,209284,2,0,L|516:112,1,77.0000023498536
444,36,209627,1,0,0:0:0:0:
332,68,209798,6,0,L|168:40,1,154.000004699707
84,108,210312,1,0,0:0:0:0:
68,184,210484,2,0,L|52:268,2,77.0000023498536
84,108,210998,1,0,0:0:0:0:
196,168,211170,2,0,L|180:252,2,77.0000023498536
304,124,211684,1,0,0:0:0:0:
484,212,212027,2,0,L|328:240,1,154.000004699707
300,240,212455,1,0,0:0:0:0:
265,237,212540,5,0,0:0:0:0:
232,228,212626,1,0,0:0:0:0:
202,211,212712,1,0,0:0:0:0:
176,188,212797,1,0,0:0:0:0:
156,159,212883,1,0,0:0:0:0:
60,64,213055,2,0,L|24:156,2,77.0000023498536
200,64,213570,1,0,0:0:0:0:
280,144,213741,1,0,0:0:0:0:
388,100,213912,1,0,0:0:0:0:
388,216,214084,1,0,0:0:0:0:
488,156,214255,5,0,0:0:0:0:
388,100,214427,1,0,0:0:0:0:
280,144,214598,1,0,0:0:0:0:
280,316,214770,2,0,L|224:240,1,77.0000023498536
168,160,215112,1,0,0:0:0:0:
280,316,215284,1,0,0:0:0:0:
332,212,215455,1,0,0:0:0:0:
260,136,215627,1,0,0:0:0:0:
356,120,215798,2,0,P|308:68|220:48,2,154.000004699707
396,220,216655,5,0,0:0:0:0:
448,320,216827,2,0,L|288:360,1,154.000004699707
248,180,217341,1,0,0:0:0:0:
248,257,217512,2,0,L|248:173,1,77.0000023498536
136,156,217855,1,0,0:0:0:0:
186,98,218027,2,0,L|130:162,1,77.0000023498536
48,36,218370,1,0,0:0:0:0:
52,112,218541,2,0,P|40:156|0:200,1,77.0000023498536
131,84,218883,1,0,0:0:0:0:
126,163,219055,2,0,P|111:206|68:248,1,77.0000023498536
211,140,219397,5,0,0:0:0:0:
201,218,219569,2,0,P|183:260|140:300,1,77.0000023498536
288,200,219912,1,0,0:0:0:0:
273,277,220083,2,0,P|253:317|216:352,1,77.0000023498536
368,276,220426,1,0,0:0:0:0:
401,205,220597,2,0,P|412:171|404:124,1,77.0000023498536
296,180,220940,1,0,0:0:0:0:
285,102,221113,2,0,P|275:67|248:32,1,77.0000023498536
216,204,221455,1,0,0:0:0:0:
227,282,221627,2,0,P|236:316|260:352,1,77.0000023498536
256,192,221884,12,0,223855,0:0:0:0:
