osu file format v14

[General]
AudioFilename: audio.mp3
AudioLeadIn: 0
PreviewTime: 59626
Countdown: 0
SampleSet: Soft
StackLeniency: 0.4
Mode: 0
LetterboxInBreaks: 0
WidescreenStoryboard: 1

[Editor]
Bookmarks: 155284,238770
DistanceSpacing: 2
BeatDivisor: 4
GridSize: 16
TimelineZoom: 2.7

[Metadata]
Title:Uraomote Fortune (Asterisk DnB Remix)
TitleUnicode:ウラオモテ・フォーチュン (Asterisk DnB Remix)
Artist:Sakura Chiyo (CV. Ozawa Ari)
ArtistUnicode:Sakura Chiyo (CV. Ozawa Ari)
Creator:lucciachan
Version:Fui's Extra
Source:Gekkan Shoujo Nozaki-kun
Tags:Gekkan Shoujo Nozaki-kun ED 月刊少女野崎くん
BeatmapID:1382802
BeatmapSetID:641948

[Difficulty]
HPDrainRate:6
CircleSize:4.2
OverallDifficulty:8.5
ApproachRate:9.3
SliderMultiplier:1.4
SliderTickRate:1

[Events]
//Background and Video events
0,0,"sakurachiyo33333.png",0,0
//Break Periods
2,158227,168444
//Storyboard Layer 0 (Background)
//Storyboard Layer 1 (Fail)
//Storyboard Layer 2 (Pass)
//Storyboard Layer 3 (Foreground)
//Storyboard Layer 4 (Overlay)
//Storyboard Sound Samples

[TimingPoints]
312,342.857142857143,4,2,1,70,1,0
16770,-100,4,2,1,70,0,0
22255,-90.9090909090909,4,2,1,70,0,0
33227,-83.3333333333333,4,2,1,70,0,0
52427,-66.6666666666667,4,2,1,70,0,0
53455,-100,4,2,1,70,0,0
53627,-100,4,2,1,70,0,0
55170,-117.647058823529,4,2,1,70,0,0
58941,-100,4,2,1,70,0,0
60312,-200,4,2,1,70,0,0
60570,-83.3333333333333,4,2,1,5,0,0
60655,-83.3333333333333,4,2,1,70,0,0
77112,-100,4,2,1,70,0,0
78484,-80,4,2,1,70,0,0
79855,-66.6666666666667,4,2,1,70,0,0
81055,-200,4,2,1,70,0,0
81398,-100,4,2,1,70,0,0
82598,-105.263157894737,4,2,1,70,0,0
101798,-83.3333333333333,4,2,1,70,0,0
115512,-166.666666666667,4,2,1,70,0,0
116198,-142.857142857143,4,2,1,70,0,0
116884,-125,4,2,1,70,0,0
117570,-111.111111111111,4,2,1,70,0,0
118255,-66.6666666666667,4,2,1,70,0,0
120655,-90.9090909090908,4,2,1,70,0,0
144312,-100,4,2,1,70,0,0
152541,-200,4,2,1,70,0,0
153055,-133.333333333333,4,2,1,70,0,0
153570,-125,4,2,1,70,0,0
158027,-133.333333333333,4,2,1,70,0,0
172941,-200,4,2,1,70,0,0
174484,-133.333333333333,4,2,1,70,0,0
175170,-117.647058823529,4,2,1,70,0,0
175855,-105.263157894737,4,2,1,70,0,0
179970,-50,4,2,1,70,0,0
201912,-40,4,2,1,70,0,0
212884,-38.4615384615385,4,2,1,70,0,0
218370,-43.4782608695652,4,2,1,70,0,0
222312,-500,4,2,1,70,0,0
222655,-55.5555555555556,4,2,1,70,0,0
223855,-83.3333333333333,4,2,1,70,0,0
225227,-90.9090909090909,4,2,1,70,0,0
226598,-100,4,2,1,70,0,0
227970,-111.111111111111,4,2,1,70,0,0
229341,-125,4,2,1,70,0,0
230712,-142.857142857143,4,2,1,70,0,0
232084,-166.666666666667,4,2,1,70,0,0
233455,-200,4,2,1,70,0,0
234827,-250,4,2,1,70,0,0
236027,-333.333333333333,4,2,1,70,0,0
237570,-500,4,2,1,70,0,0
238084,-1000,4,2,1,70,0,0

[Colours]
Combo1 : 255,192,0
Combo2 : 255,128,128
Combo3 : 255,255,43
Combo4 : 0,255,128

[HitObjects]
181,112,16769,6,0,L|104:127,2,70
231,231,17284,2,0,L|308:246,2,70
181,102,17798,2,0,L|104:117,2,70
231,241,18312,2,0,L|308:256,2,70
181,92,18827,2,0,L|104:107,2,70
231,251,19341,6,0,L|308:266,1,70
422,159,19684,1,0,0:0:0:0:
269,104,19855,1,0,0:0:0:0:
299,264,20027,1,0,0:0:0:0:
423,131,20198,1,0,0:0:0:0:
244,116,20369,1,0,0:0:0:0:
322,278,20541,1,0,0:0:0:0:
424,95,20712,1,0,0:0:0:0:
424,71,21055,6,0,L|385:68,1,35
276,116,21227,2,0,L|315:113,1,35
434,61,21398,2,0,L|395:58,1,35
266,126,21570,2,0,L|305:123,1,35
459,176,21741,1,0,0:0:0:0:
280,241,21912,1,0,0:0:0:0:
460,315,22084,1,0,0:0:0:0:
274,350,22255,6,0,P|219:348|177:319,1,77.0000023498536
126,184,22598,1,0,0:0:0:0:
257,161,22770,1,0,0:0:0:0:
257,161,22855,1,0,0:0:0:0:
257,161,22941,1,0,0:0:0:0:
257,161,23027,1,0,0:0:0:0:
257,161,23112,2,0,P|255:215|241:248,1,77.0000023498536
105,318,23455,1,0,0:0:0:0:
32,177,23627,6,0,L|61:91,1,77.0000023498536
219,36,23970,1,0,0:0:0:0:
171,165,24141,1,0,0:0:0:0:
171,165,24227,1,0,0:0:0:0:
171,165,24312,2,0,L|171:108,1,38.5000011749268
253,170,24484,2,0,L|245:275,1,77.0000023498536
106,333,24827,1,0,0:0:0:0:
262,316,24998,6,0,L|347:321,1,77.0000023498536
441,197,25341,1,0,0:0:0:0:
346,107,25512,1,0,0:0:0:0:
326,139,25597,1,0,0:0:0:0:
320,177,25683,1,0,0:0:0:0:
328,214,25769,1,0,0:0:0:0:
350,245,25855,2,0,P|405:283|406:321,1,77.0000023498536
262,316,26198,1,0,0:0:0:0:
144,222,26370,6,0,L|136:130,1,77.0000023498536
256,36,26712,1,0,0:0:0:0:
256,170,26884,2,0,L|244:131,1,38.5000011749268
350,183,27055,2,0,L|338:219,1,38.5000011749268
262,316,27227,2,0,L|191:286,1,77.0000023498536
137,145,27570,1,0,0:0:0:0:
256,36,27741,6,0,P|236:73|184:83,1,77.0000023498536
61,33,28084,1,0,0:0:0:0:
137,145,28255,1,0,0:0:0:0:
137,145,28341,1,0,0:0:0:0:
137,145,28427,1,0,0:0:0:0:
137,145,28512,1,0,0:0:0:0:
137,145,28598,2,0,L|134:227,1,77.0000023498536
51,359,28941,1,0,0:0:0:0:
59,202,29112,6,0,L|161:228,1,77.0000023498536
242,342,29455,1,0,0:0:0:0:
126,329,29627,1,0,0:0:0:0:
126,329,29712,1,0,0:0:0:0:
126,329,29798,2,0,L|124:276,1,38.5000011749268
226,180,29970,2,0,L|222:264,1,77.0000023498536
229,105,30312,1,0,0:0:0:0:
333,184,30484,6,0,L|321:267,1,77.0000023498536
174,337,30827,1,0,0:0:0:0:
144,218,30998,1,0,0:0:0:0:
181,222,31083,1,0,0:0:0:0:
215,241,31169,1,0,0:0:0:0:
237,272,31255,1,0,0:0:0:0:
245,309,31341,2,0,P|292:341|345:332,1,77.0000023498536
444,243,31684,1,0,0:0:0:0:
305,167,31855,6,0,L|321:257,1,77.0000023498536
410,362,32198,1,0,0:0:0:0:
444,243,32370,2,0,L|442:193,1,38.5000011749268
373,95,32541,2,0,L|375:145,1,38.5000011749268
456,64,32712,2,0,P|435:32|379:20,1,77.0000023498536
280,54,33055,1,0,0:0:0:0:
280,54,33141,1,0,0:0:0:0:
280,54,33227,6,0,P|218:68|186:58,1,83.9999974365235
113,30,33570,1,0,0:0:0:0:
39,159,33741,2,0,P|101:145|133:155,1,83.9999974365235
206,183,34084,1,0,0:0:0:0:
142,331,34255,2,0,P|105:291|105:241,1,83.9999974365235
100,263,34512,1,0,0:0:0:0:
100,263,34598,5,0,0:0:0:0:
229,311,34770,2,0,L|322:326,1,83.9999974365235
393,248,35112,1,0,0:0:0:0:
393,248,35284,2,0,L|299:232,1,83.9999974365235
228,162,35627,1,0,0:0:0:0:
228,162,35798,6,0,P|267:129|379:157,1,167.999994873047
310,234,36312,1,0,0:0:0:0:
211,244,36484,2,0,P|157:238|135:204,1,83.9999974365235
201,261,36827,2,0,P|150:241|137:202,1,83.9999974365235
187,275,37170,6,0,P|143:242|141:202,1,83.9999974365235
193,66,37512,1,0,0:0:0:0:
346,38,37684,1,0,0:0:0:0:
298,190,37855,1,0,0:0:0:0:
298,190,37941,1,0,0:0:0:0:
298,190,38026,1,0,0:0:0:0:
139,137,38198,2,0,L|95:52,1,83.9999974365235
266,49,38541,1,0,0:0:0:0:
389,121,38712,6,0,L|476:130,1,83.9999974365235
314,116,39055,1,0,0:0:0:0:
286,230,39227,2,0,L|199:239,1,83.9999974365235
361,225,39570,1,0,0:0:0:0:
380,338,39741,2,0,L|467:347,1,83.9999974365235
305,333,40084,5,0,0:0:0:0:
225,360,40255,2,0,L|138:369,1,83.9999974365235
83,295,40598,1,0,0:0:0:0:
143,210,40770,2,0,L|158:295,1,83.9999974365235
217,212,41112,1,0,0:0:0:0:
157,127,41284,6,0,L|142:212,1,83.9999974365235
142,209,41627,1,0,0:0:0:0:
292,141,41798,1,0,0:0:0:0:
211,285,41970,1,0,0:0:0:0:
193,122,42141,1,0,0:0:0:0:
303,242,42312,1,0,0:0:0:0:
124,192,42484,1,0,0:0:0:0:
315,143,42655,5,0,0:0:0:0:
421,323,42998,2,0,L|428:233,1,83.9999974365235
398,73,43341,1,0,0:0:0:0:
277,116,43512,1,0,0:0:0:0:
240,143,43597,1,0,0:0:0:0:
254,187,43683,1,0,0:0:0:0:
301,187,43769,1,0,0:0:0:0:
315,143,43855,1,8,0:0:0:0:
183,56,44027,1,8,0:0:0:0:
183,56,44112,1,8,0:0:0:0:
183,56,44198,6,0,P|127:60|90:108,1,83.9999974365235
52,198,44541,1,0,0:0:0:0:
144,278,44712,2,0,L|148:180,1,83.9999974365235
50,277,45055,2,0,L|54:375,1,83.9999974365235
180,358,45398,1,0,0:0:0:0:
215,233,45570,6,0,L|142:278,1,83.9999974365235
264,324,45912,1,0,0:0:0:0:
298,203,46084,2,0,P|269:159|219:155,1,83.9999974365235
119,195,46427,2,0,P|147:161|156:96,1,83.9999974365235
61,35,46770,1,0,0:0:0:0:
157,123,46941,6,0,L|216:59,1,83.9999974365235
339,28,47284,1,0,0:0:0:0:
316,161,47455,2,0,P|288:125|286:76,1,83.9999974365235
408,122,47798,2,0,L|402:210,1,83.9999974365235
292,265,48141,1,0,0:0:0:0:
232,151,48312,6,0,L|319:161,1,83.9999974365235
217,247,48655,1,0,0:0:0:0:
156,130,48827,2,0,P|182:83|247:75,1,83.9999974365235
315,160,49170,2,0,L|352:245,1,83.9999974365235
297,358,49512,1,0,0:0:0:0:
217,247,49684,6,0,P|250:248|277:292,1,83.9999974365235
163,357,50027,1,0,0:0:0:0:
132,235,50198,1,0,0:0:0:0:
132,235,50284,1,0,0:0:0:0:
132,235,50370,2,0,L|150:146,1,83.9999974365235
254,57,50712,1,0,0:0:0:0:
263,197,50884,1,0,0:0:0:0:
185,83,51055,6,0,P|140:72|97:96,1,83.9999974365235
31,187,51398,1,0,0:0:0:0:
160,235,51570,2,0,L|147:146,1,83.9999974365235
74,263,51912,2,0,P|115:312|167:310,1,83.9999974365235
251,276,52255,1,0,0:0:0:0:
319,181,52427,6,0,B|384:201|365:238|381:301|381:301|331:275|326:216,1,210.000008010865
246,196,52941,2,0,B|207:163|141:198|141:198|167:174|196:140|182:53|182:53,1,210.000008010865
240,66,53455,2,0,B|273:52|304:66,1,35
334,130,53627,2,0,L|360:135,19,17.5
348,213,54484,2,0,L|366:232,15,17.5
348,320,55170,5,0,0:0:0:0:
318,321,55255,1,0,0:0:0:0:
288,323,55341,1,0,0:0:0:0:
258,325,55427,1,0,0:0:0:0:
229,327,55512,1,0,0:0:0:0:
199,329,55598,1,0,0:0:0:0:
169,331,55684,2,0,L|143:293,1,29.7500005674362
78,225,55855,5,0,0:0:0:0:
101,206,55940,1,0,0:0:0:0:
128,193,56026,1,0,0:0:0:0:
157,187,56112,1,0,0:0:0:0:
186,187,56197,1,0,0:0:0:0:
215,193,56283,1,0,0:0:0:0:
242,206,56370,2,0,L|243:161,1,29.7500005674362
295,82,56541,5,0,0:0:0:0:
315,103,56626,1,0,0:0:0:0:
331,128,56712,1,0,0:0:0:0:
341,156,56798,1,0,0:0:0:0:
345,185,56883,1,0,0:0:0:0:
343,215,56969,1,0,0:0:0:0:
334,243,57055,2,0,L|335:289,1,29.7500005674362
376,356,57227,5,0,0:0:0:0:
347,365,57312,1,0,0:0:0:0:
318,364,57398,1,0,0:0:0:0:
290,354,57484,1,0,0:0:0:0:
267,336,57569,1,0,0:0:0:0:
250,311,57655,1,0,0:0:0:0:
243,283,57741,2,0,L|244:233,1,29.7500005674362
219,169,57912,6,0,L|165:160,3,29.7500005674362
103,76,58255,2,0,L|157:67,1,29.7500005674362
229,36,58427,2,0,L|283:45,3,29.7500005674362
347,49,58770,2,0,L|401:40,1,29.7500005674362
342,143,58941,6,0,L|334:172,1,17.5
317,141,59027,2,0,L|316:171,1,17.5
292,149,59112,2,0,L|299:178,1,17.5
269,167,59198,2,0,L|283:193,1,17.5
251,188,59284,2,0,L|272:209,1,17.5
242,217,59370,2,0,L|267:232,1,17.5
244,248,59455,2,0,L|272:256,1,17.5
320,304,59627,1,0,0:0:0:0:
420,281,59798,1,0,0:0:0:0:
395,177,59970,5,0,0:0:0:0:
348,127,60055,1,0,0:0:0:0:
280,129,60141,1,0,0:0:0:0:
236,180,60227,1,0,0:0:0:0:
244,248,60312,2,0,P|216:263|184:260,1,52.5
176,280,60655,6,0,P|212:288|240:352,1,83.9999974365235
84,352,60998,1,0,0:0:0:0:
5,218,61170,1,0,0:0:0:0:
24,181,61255,1,0,0:0:0:0:
57,155,61341,1,0,0:0:0:0:
98,146,61427,1,0,0:0:0:0:
139,153,61512,2,0,L|112:239,1,83.9999974365235
29,92,61855,1,0,0:0:0:0:
187,54,62027,6,0,P|231:69|290:52,1,83.9999974365235
113,31,62370,1,0,0:0:0:0:
90,193,62541,1,0,0:0:0:0:
131,199,62626,1,0,0:0:0:0:
171,190,62712,1,0,0:0:0:0:
206,167,62798,1,0,0:0:0:0:
229,132,62884,2,0,L|134:129,1,83.9999974365235
185,284,63227,1,0,0:0:0:0:
334,225,63398,6,0,L|322:324,1,83.9999974365235
179,360,63741,1,0,0:0:0:0:
165,212,63912,1,0,0:0:0:0:
206,211,63997,1,0,0:0:0:0:
240,234,64083,1,0,0:0:0:0:
256,272,64169,1,0,0:0:0:0:
249,313,64255,2,0,L|171:367,1,83.9999974365235
57,260,64598,1,0,0:0:0:0:
127,113,64770,6,0,L|26:141,1,83.9999974365235
131,265,65112,1,0,0:0:0:0:
243,152,65284,1,0,0:0:0:0:
242,110,65369,1,0,0:0:0:0:
223,73,65455,1,0,0:0:0:0:
189,48,65541,1,0,0:0:0:0:
148,42,65627,2,0,L|54:45,1,83.9999974365235
164,190,65970,1,0,0:0:0:0:
51,303,66141,6,0,P|28:245|39:185,1,83.9999974365235
164,190,66484,1,0,0:0:0:0:
249,285,66655,1,0,0:0:0:0:
207,288,66740,1,0,0:0:0:0:
172,267,66826,1,0,0:0:0:0:
155,230,66912,1,0,0:0:0:0:
164,190,66998,2,0,L|261:191,1,83.9999974365235
393,267,67341,1,0,0:0:0:0:
357,114,67512,6,0,P|303:97|260:123,1,83.9999974365235
452,206,67855,1,0,0:0:0:0:
484,48,68027,1,0,0:0:0:0:
442,43,68112,1,0,0:0:0:0:
400,38,68198,1,0,0:0:0:0:
358,33,68284,1,0,0:0:0:0:
317,29,68370,2,0,L|213:34,1,83.9999974365235
187,178,68712,1,0,0:0:0:0:
332,117,68884,6,0,L|321:207,1,83.9999974365235
201,303,69227,1,0,0:0:0:0:
321,200,69398,1,0,0:0:0:0:
358,216,69483,1,0,0:0:0:0:
370,254,69569,1,0,0:0:0:0:
348,289,69655,1,0,0:0:0:0:
307,294,69741,2,0,L|242:231,1,83.9999974365235
386,140,70084,1,0,0:0:0:0:
459,291,70255,6,0,L|502:179,1,83.9999974365235
452,54,70598,1,0,0:0:0:0:
286,75,70770,1,0,0:0:0:0:
284,116,70855,1,0,0:0:0:0:
309,148,70941,1,0,0:0:0:0:
349,157,71027,1,0,0:0:0:0:
385,139,71112,1,0,0:0:0:0:
397,102,71198,1,0,0:0:0:0:
363,146,71283,1,0,0:0:0:0:
345,198,71369,1,0,0:0:0:0:
344,254,71455,1,0,0:0:0:0:
359,307,71540,1,0,0:0:0:0:
395,347,71627,6,0,P|333:320|291:339,1,83.9999974365235
260,216,71970,1,0,0:0:0:0:
319,322,72141,2,0,P|257:349|215:330,1,83.9999974365235
260,216,72484,1,0,0:0:0:0:
243,346,72655,2,0,L|158:300,1,83.9999974365235
260,216,72998,1,0,0:0:0:0:
169,306,73170,2,0,P|156:256|123:224,1,83.9999974365235
260,216,73512,1,0,0:0:0:0:
260,216,73855,2,0,L|344:183,1,83.9999974365235
406,37,74198,1,0,0:0:0:0:
277,127,74370,6,0,L|357:203,1,83.9999974365235
465,136,74712,1,0,0:0:0:0:
277,127,74884,2,0,P|235:114|181:132,1,83.9999974365235
268,86,75227,2,0,P|225:95|187:138,1,83.9999974365235
166,93,75570,2,0,P|189:118|234:127,1,41.9999987182618
248,199,75741,6,0,L|243:289,1,83.9999974365235
97,352,76084,1,0,0:0:0:0:
45,199,76255,2,0,P|90:210|116:251,1,83.9999974365235
204,102,76598,1,0,0:0:0:0:
204,102,76684,1,0,0:0:0:0:
204,102,76770,2,0,P|159:113|133:154,1,83.9999974365235
211,219,77112,5,2,0:0:0:0:
243,230,77197,1,0,0:0:0:0:
276,222,77283,1,0,0:0:0:0:
299,196,77369,1,0,0:0:0:0:
303,162,77454,1,2,0:0:0:0:
284,191,77540,1,0,0:0:0:0:
277,225,77626,1,0,0:0:0:0:
285,259,77712,1,0,0:0:0:0:
305,287,77797,1,2,0:0:0:0:
337,300,77883,1,0,0:0:0:0:
371,294,77969,1,0,0:0:0:0:
395,269,78054,1,0,0:0:0:0:
400,235,78140,1,2,0:0:0:0:
396,200,78226,1,0,0:0:0:0:
392,165,78312,1,0,0:0:0:0:
388,130,78397,1,0,0:0:0:0:
385,95,78483,5,2,0:0:0:0:
360,60,78569,1,0,0:0:0:0:
320,43,78654,1,0,0:0:0:0:
277,48,78740,1,0,0:0:0:0:
244,76,78826,1,2,0:0:0:0:
221,112,78912,1,0,0:0:0:0:
181,127,78997,1,0,0:0:0:0:
140,114,79083,1,0,0:0:0:0:
116,78,79169,1,2,0:0:0:0:
150,104,79254,1,0,0:0:0:0:
173,141,79340,1,0,0:0:0:0:
180,184,79426,1,0,0:0:0:0:
170,226,79513,1,2,0:0:0:0:
153,265,79597,1,0,0:0:0:0:
166,307,79683,1,0,0:0:0:0:
201,330,79769,1,0,0:0:0:0:
244,332,79854,5,2,0:0:0:0:
270,287,79940,1,0,0:0:0:0:
315,260,80026,1,2,0:0:0:0:
367,259,80112,1,0,0:0:0:0:
413,282,80197,1,2,0:0:0:0:
387,237,80283,1,0,0:0:0:0:
380,186,80369,1,2,0:0:0:0:
394,136,80454,1,0,0:0:0:0:
426,95,80541,1,2,0:0:0:0:
430,146,80626,1,0,0:0:0:0:
400,188,80712,1,2,0:0:0:0:
351,201,80798,1,0,0:0:0:0:
304,178,80883,1,2,0:0:0:0:
283,131,80969,1,0,0:0:0:0:
297,82,81055,6,0,L|249:84,1,35,2|0,0:0|0:0,0:0:0:0:
58,166,81398,2,0,L|99:172,1,35
182,237,81570,2,0,L|141:243,1,35
59,312,81741,2,0,L|100:318,1,35
177,349,81912,5,0,0:0:0:0:
238,339,81997,1,0,0:0:0:0:
300,329,82083,1,0,0:0:0:0:
363,319,82169,1,0,0:0:0:0:
425,310,82254,1,0,0:0:0:0:
402,174,82427,1,0,0:0:0:0:
402,174,82512,1,0,0:0:0:0:
402,174,82598,6,0,P|366:166|327:197,1,66.4999982242585
208,265,82941,1,0,0:0:0:0:
310,343,83112,1,0,0:0:0:0:
301,310,83197,1,0,0:0:0:0:
292,278,83283,1,0,0:0:0:0:
283,246,83369,1,0,0:0:0:0:
274,214,83455,2,0,L|223:156,1,66.4999982242585
82,185,83798,1,0,0:0:0:0:
175,348,83970,6,0,L|258:364,1,66.4999982242585
164,215,84312,1,0,0:0:0:0:
58,273,84484,1,0,0:0:0:0:
90,275,84569,1,0,0:0:0:0:
122,265,84655,1,0,0:0:0:0:
147,243,84741,1,0,0:0:0:0:
164,215,84827,2,0,L|153:129,1,66.4999982242585
41,22,85170,1,0,0:0:0:0:
189,71,85341,6,0,L|258:75,1,66.4999982242585
99,93,85684,1,0,0:0:0:0:
207,179,85855,1,0,0:0:0:0:
239,172,85940,1,0,0:0:0:0:
272,165,86026,1,0,0:0:0:0:
304,158,86112,1,0,0:0:0:0:
337,152,86198,2,0,L|378:154,1,33.2499991121292
491,183,86370,2,0,L|450:184,1,33.2499991121292
385,39,86541,1,0,0:0:0:0:
386,228,86712,6,0,L|423:315,1,66.4999982242585
457,109,87055,1,0,0:0:0:0:
385,39,87227,1,0,0:0:0:0:
354,25,87312,1,0,0:0:0:0:
322,20,87398,1,0,0:0:0:0:
289,23,87484,1,0,0:0:0:0:
258,36,87570,2,0,L|166:33,1,66.4999982242585
78,116,87912,1,0,0:0:0:0:
154,282,88084,6,0,P|187:242|176:144,1,132.999996448517
33,271,88598,1,0,0:0:0:0:
33,271,88684,1,0,0:0:0:0:
33,271,88770,2,0,P|46:321|76:345,1,66.4999982242585
235,287,89112,1,0,0:0:0:0:
71,191,89284,1,0,0:0:0:0:
179,351,89455,6,0,P|232:360|316:340,1,132.999996448517
365,146,89970,1,0,0:0:0:0:
365,146,90055,1,0,0:0:0:0:
365,146,90141,2,0,L|325:168,1,33.2499991121292
459,242,90312,2,0,L|499:220,1,33.2499991121292
365,136,90484,2,0,L|325:158,1,33.2499991121292
459,252,90655,2,0,L|499:230,1,33.2499991121292
364,124,90827,6,0,L|324:146,1,33.2499991121292
460,256,90998,2,0,L|500:234,1,33.2499991121292
292,232,91170,1,0,0:0:0:0:
408,197,91341,1,0,0:0:0:0:
433,175,91426,1,0,0:0:0:0:
447,145,91512,1,0,0:0:0:0:
450,112,91598,1,0,0:0:0:0:
439,81,91684,2,0,P|411:59|400:28,1,66.4999982242585
271,17,92027,1,0,0:0:0:0:
271,17,92198,6,0,P|262:65|235:88,1,66.4999982242585
92,39,92541,1,0,0:0:0:0:
175,115,92712,1,0,0:0:0:0:
188,145,92797,1,0,0:0:0:0:
191,178,92883,1,0,0:0:0:0:
182,209,92969,1,0,0:0:0:0:
163,237,93055,1,0,0:0:0:0:
139,258,93140,1,0,0:0:0:0:
132,290,93226,1,0,0:0:0:0:
145,320,93312,1,0,0:0:0:0:
173,337,93397,1,0,0:0:0:0:
206,334,93483,1,0,0:0:0:0:
231,313,93570,6,0,L|319:321,1,66.4999982242585
398,183,93912,1,0,0:0:0:0:
287,244,94084,2,0,L|241:241,1,33.2499991121292
372,270,94255,1,0,0:0:0:0:
298,161,94427,2,0,L|213:155,1,66.4999982242585
398,183,94770,1,0,0:0:0:0:
379,43,94941,6,0,P|368:81|380:120,1,66.4999982242585
484,188,95284,1,0,0:0:0:0:
455,93,95455,2,0,L|453:37,1,33.2499991121292
398,183,95627,2,0,L|400:239,1,33.2499991121292
465,93,95798,2,0,L|467:37,1,33.2499991121292
388,183,95970,2,0,L|390:239,1,33.2499991121292
428,340,96141,2,0,L|388:338,1,33.2499991121292
288,247,96312,6,0,P|305:282|310:325,1,66.4999982242585
162,351,96655,1,0,0:0:0:0:
72,227,96827,1,0,0:0:0:0:
87,179,96912,1,0,0:0:0:0:
102,131,96998,1,0,0:0:0:0:
181,191,97170,1,0,0:0:0:0:
196,239,97255,1,0,0:0:0:0:
211,287,97341,1,0,0:0:0:0:
273,209,97512,1,0,0:0:0:0:
272,108,97684,6,0,L|199:92,1,66.4999982242585
330,41,98027,1,0,0:0:0:0:
367,165,98198,1,0,0:0:0:0:
367,165,98284,1,0,0:0:0:0:
367,165,98370,2,0,L|371:213,1,33.2499991121292
444,280,98541,2,0,L|444:201,1,66.4999982242585
411,85,98884,1,0,0:0:0:0:
280,111,99055,5,0,0:0:0:0:
265,140,99140,1,0,0:0:0:0:
255,172,99226,1,0,0:0:0:0:
250,205,99312,1,0,0:0:0:0:
250,238,99397,1,0,0:0:0:0:
255,271,99483,1,0,0:0:0:0:
264,303,99569,1,0,0:0:0:0:
278,333,99655,1,0,0:0:0:0:
297,361,99740,1,0,0:0:0:0:
273,338,99826,1,0,0:0:0:0:
242,324,99912,1,0,0:0:0:0:
209,323,99998,1,0,0:0:0:0:
178,333,100083,1,0,0:0:0:0:
147,344,100169,1,0,0:0:0:0:
114,341,100255,1,0,0:0:0:0:
86,323,100341,1,0,0:0:0:0:
69,295,100427,6,0,L|60:242,3,33.2499991121292
150,232,100770,2,0,L|159:178,3,33.2499991121292
68,169,101112,2,0,L|58:115,3,33.2499991121292
147,101,101455,2,0,L|156:47,3,33.2499991121292
235,32,101798,5,0,0:0:0:0:
276,31,101883,1,0,0:0:0:0:
313,49,101969,1,0,0:0:0:0:
338,83,102055,1,0,0:0:0:0:
344,124,102140,1,0,0:0:0:0:
330,163,102226,1,0,0:0:0:0:
299,192,102312,1,0,0:0:0:0:
259,203,102398,1,0,0:0:0:0:
219,194,102484,1,0,0:0:0:0:
258,207,102569,1,0,0:0:0:0:
284,239,102655,1,0,0:0:0:0:
288,280,102741,1,0,0:0:0:0:
270,317,102827,1,0,0:0:0:0:
306,296,102912,1,0,0:0:0:0:
347,289,102998,1,0,0:0:0:0:
414,93,103341,5,0,0:0:0:0:
125,136,103512,1,0,0:0:0:0:
400,203,103684,1,0,0:0:0:0:
267,95,103855,1,0,0:0:0:0:
215,67,103940,1,0,0:0:0:0:
156,61,104026,1,0,0:0:0:0:
100,75,104112,1,0,0:0:0:0:
52,108,104197,1,0,0:0:0:0:
156,246,104370,1,0,0:0:0:0:
169,200,104454,1,0,0:0:0:0:
165,153,104541,6,0,P|195:187|247:187,1,83.9999974365235
67,183,104884,1,0,0:0:0:0:
139,328,105055,1,0,0:0:0:0:
179,336,105140,1,0,0:0:0:0:
221,331,105226,1,0,0:0:0:0:
259,313,105312,1,0,0:0:0:0:
289,284,105397,1,0,0:0:0:0:
182,94,105570,1,0,0:0:0:0:
140,244,105741,1,0,0:0:0:0:
241,150,105912,6,0,P|291:140|348:173,1,83.9999974365235
430,287,106255,1,0,0:0:0:0:
309,306,106427,1,0,0:0:0:0:
293,267,106512,1,0,0:0:0:0:
290,225,106598,1,0,0:0:0:0:
299,184,106684,1,0,0:0:0:0:
321,148,106770,2,0,P|339:114|326:55,1,83.9999974365235
217,185,107112,1,0,0:0:0:0:
377,202,107284,6,0,L|467:218,1,83.9999974365235
296,258,107627,1,0,0:0:0:0:
250,104,107798,1,0,0:0:0:0:
219,77,107883,1,0,0:0:0:0:
178,81,107969,1,0,0:0:0:0:
153,113,108055,1,0,0:0:0:0:
160,154,108141,2,0,L|94:208,1,83.9999974365235
71,106,108484,1,0,0:0:0:0:
213,243,108655,6,0,L|308:260,1,83.9999974365235
390,128,108998,1,0,0:0:0:0:
259,93,109170,1,0,0:0:0:0:
268,134,109255,1,0,0:0:0:0:
277,175,109341,1,0,0:0:0:0:
286,216,109427,1,0,0:0:0:0:
295,257,109512,2,0,L|390:274,1,83.9999974365235
356,177,109855,1,0,0:0:0:0:
300,339,110027,6,0,L|212:352,1,83.9999974365235
85,250,110370,1,0,0:0:0:0:
197,184,110541,1,0,0:0:0:0:
201,225,110626,1,0,0:0:0:0:
206,267,110712,1,0,0:0:0:0:
211,309,110798,1,0,0:0:0:0:
216,350,110884,2,0,L|128:363,1,83.9999974365235
49,263,111227,1,0,0:0:0:0:
126,151,111398,6,0,L|119:246,1,83.9999974365235
42,96,111741,1,0,0:0:0:0:
192,49,111912,1,0,0:0:0:0:
219,80,111997,1,0,0:0:0:0:
231,120,112083,1,0,0:0:0:0:
224,161,112169,1,0,0:0:0:0:
200,195,112255,2,0,P|246:181|304:200,1,83.9999974365235
384,300,112598,1,0,0:0:0:0:
282,352,112770,6,0,L|266:270,1,83.9999974365235
384,300,113112,1,0,0:0:0:0:
265,269,113284,2,0,L|281:187,1,83.9999974365235
281,186,113627,2,0,L|265:104,1,83.9999974365235
341,38,113884,1,0,0:0:0:0:
341,38,113927,1,0,0:0:0:0:
341,38,113970,6,0,L|377:36,19,20.9999993591309
429,105,114827,2,0,L|465:103,15,20.9999993591309
429,193,115512,5,0,0:0:0:0:
413,207,115597,1,0,0:0:0:0:
401,224,115683,1,0,0:0:0:0:
392,243,115769,1,0,0:0:0:0:
389,263,115854,1,0,0:0:0:0:
389,284,115940,1,0,0:0:0:0:
395,305,116026,1,0,0:0:0:0:
404,323,116112,1,0,0:0:0:0:
415,339,116198,5,0,0:0:0:0:
396,315,116283,1,0,0:0:0:0:
373,298,116369,1,0,0:0:0:0:
346,286,116455,1,0,0:0:0:0:
317,282,116540,1,0,0:0:0:0:
288,285,116626,1,0,0:0:0:0:
261,296,116712,1,0,0:0:0:0:
237,313,116798,1,0,0:0:0:0:
217,333,116884,5,0,0:0:0:0:
183,346,116969,1,0,0:0:0:0:
147,348,117055,1,0,0:0:0:0:
112,337,117141,1,0,0:0:0:0:
82,317,117226,1,0,0:0:0:0:
60,288,117312,1,0,0:0:0:0:
49,253,117398,1,0,0:0:0:0:
50,217,117484,1,0,0:0:0:0:
66,178,117570,5,0,0:0:0:0:
96,205,117655,1,0,0:0:0:0:
131,225,117741,1,0,0:0:0:0:
170,236,117827,1,0,0:0:0:0:
211,238,117912,1,0,0:0:0:0:
251,231,117998,1,0,0:0:0:0:
289,214,118084,1,0,0:0:0:0:
321,189,118170,1,0,0:0:0:0:
347,156,118255,5,0,0:0:0:0:
304,126,118340,1,0,0:0:0:0:
253,130,118426,1,0,0:0:0:0:
215,164,118512,1,0,0:0:0:0:
206,215,118597,1,0,0:0:0:0:
231,260,118683,1,0,0:0:0:0:
279,280,118769,1,0,0:0:0:0:
328,266,118855,1,0,0:0:0:0:
368,232,118941,5,0,0:0:0:0:
416,219,119026,1,0,0:0:0:0:
454,253,119112,1,0,0:0:0:0:
446,302,119198,1,0,0:0:0:0:
399,332,119284,1,0,0:0:0:0:
364,292,119369,1,0,0:0:0:0:
343,244,119455,1,0,0:0:0:0:
338,192,119541,1,0,0:0:0:0:
349,141,119627,5,0,0:0:0:0:
487,39,119798,1,0,0:0:0:0:
417,227,119970,1,0,0:0:0:0:
290,73,120141,1,0,0:0:0:0:
472,141,120312,2,0,L|503:192,1,52.5000020027161
286,169,120484,2,0,L|255:220,1,52.5000020027161
417,227,120655,1,0,0:0:0:0:
251,333,120827,6,0,L|188:323,1,38.5000011749268
110,267,120998,6,0,L|126:346,1,77.0000023498536
17,268,121341,1,0,0:0:0:0:
125,191,121512,2,0,L|109:270,1,77.0000023498536
218,192,121855,1,0,0:0:0:0:
109,115,122027,2,0,L|125:194,1,77.0000023498536
16,116,122370,1,0,0:0:0:0:
124,39,122541,2,0,L|108:118,1,77.0000023498536
217,40,122884,1,0,0:0:0:0:
16,116,123055,2,0,L|61:218,1,77.0000023498536
189,218,123398,1,0,0:0:0:0:
113,126,123570,1,0,0:0:0:0:
91,287,123741,6,0,P|142:316|185:309,1,77.0000023498536
218,135,124084,1,0,0:0:0:0:
118,208,124255,2,0,P|62:202|28:163,1,77.0000023498536
118,208,124598,2,0,P|72:174|62:124,1,77.0000023498536
118,208,124941,2,0,P|95:156|111:107,1,77.0000023498536
221,29,125284,1,0,0:0:0:0:
263,218,125455,1,0,0:0:0:0:
183,132,125627,1,0,0:0:0:0:
183,132,125712,1,0,0:0:0:0:
183,132,125798,2,0,L|255:130,1,38.5000011749268
359,81,125970,2,0,L|253:78,1,77.0000023498536
354,187,126312,1,0,0:0:0:0:
471,137,126484,6,0,P|469:71|431:117,1,154.000004699707
451,239,126998,1,0,0:0:0:0:
445,276,127083,1,0,0:0:0:0:
420,304,127169,1,0,0:0:0:0:
383,314,127255,1,0,0:0:0:0:
348,302,127341,2,0,P|291:288|264:300,1,77.0000023498536
140,356,127684,1,0,0:0:0:0:
219,223,127855,6,0,P|234:176|161:83,1,154.000004699707
87,228,128370,1,0,0:0:0:0:
118,249,128455,1,0,0:0:0:0:
150,270,128541,1,0,0:0:0:0:
182,292,128627,1,0,0:0:0:0:
214,313,128712,2,0,P|256:305|281:254,1,77.0000023498536
318,91,129055,1,0,0:0:0:0:
272,165,129227,6,0,P|321:186|398:102,1,154.000004699707
478,188,129741,1,0,0:0:0:0:
469,225,129826,1,0,0:0:0:0:
461,263,129912,1,0,0:0:0:0:
452,300,129998,1,0,0:0:0:0:
444,338,130084,2,0,P|388:321|352:336,1,77.0000023498536
218,360,130427,1,0,0:0:0:0:
346,233,130598,6,0,L|268:271,1,77.0000023498536
152,219,130941,1,0,0:0:0:0:
212,99,131112,1,0,0:0:0:0:
248,88,131197,1,0,0:0:0:0:
281,105,131283,1,0,0:0:0:0:
293,141,131369,1,0,0:0:0:0:
277,175,131454,1,0,0:0:0:0:
298,131,131540,1,0,0:0:0:0:
337,102,131626,1,0,0:0:0:0:
385,93,131712,1,0,0:0:0:0:
432,107,131797,1,0,0:0:0:0:
467,141,131883,1,0,0:0:0:0:
483,187,131970,6,0,L|410:213,1,77.0000023498536
373,334,132312,1,0,0:0:0:0:
373,334,132484,6,0,L|300:308,1,77.0000023498536
263,187,132826,1,0,0:0:0:0:
263,187,132998,6,0,L|190:213,1,77.0000023498536
153,334,133340,1,0,0:0:0:0:
153,334,133512,6,0,L|80:308,1,77.0000023498536
43,187,133855,2,0,B|68:139|73:109|73:109|84:157|115:191,1,154.000004699707
191,268,134370,2,0,L|235:268,1,38.5000011749268
301,94,134541,2,0,P|272:156|315:236,1,154.000004699707
437,148,135055,2,0,L|357:166,1,77.0000023498536
498,270,135398,2,0,L|418:252,1,77.0000023498536
340,82,135741,1,0,0:0:0:0:
473,168,135912,6,0,L|478:336,1,154.000004699707
325,362,136427,1,0,0:0:0:0:
247,223,136598,1,0,0:0:0:0:
283,235,136683,1,0,0:0:0:0:
319,247,136769,1,0,0:0:0:0:
356,260,136855,1,0,0:0:0:0:
392,272,136941,2,0,L|385:186,1,77.0000023498536
280,73,137284,1,0,0:0:0:0:
156,127,137455,5,0,0:0:0:0:
132,157,137540,1,0,0:0:0:0:
119,193,137626,1,0,0:0:0:0:
118,231,137712,1,0,0:0:0:0:
129,268,137797,1,0,0:0:0:0:
151,299,137883,1,0,0:0:0:0:
182,322,137969,1,0,0:0:0:0:
218,334,138055,1,0,0:0:0:0:
232,246,138141,5,0,0:0:0:0:
270,242,138226,1,0,0:0:0:0:
307,250,138312,1,0,0:0:0:0:
340,269,138398,1,0,0:0:0:0:
366,298,138483,1,0,0:0:0:0:
369,259,138569,1,0,0:0:0:0:
361,222,138655,1,0,0:0:0:0:
342,189,138741,1,0,0:0:0:0:
347,98,138827,5,0,0:0:0:0:
376,120,138912,1,0,0:0:0:0:
411,110,138998,1,0,0:0:0:0:
422,74,139084,1,0,0:0:0:0:
400,45,139169,1,0,0:0:0:0:
398,83,139255,1,0,0:0:0:0:
405,121,139341,1,0,0:0:0:0:
420,156,139427,1,0,0:0:0:0:
448,240,139512,5,0,0:0:0:0:
431,288,139597,1,0,0:0:0:0:
393,322,139683,1,0,0:0:0:0:
343,333,139769,1,0,0:0:0:0:
294,318,139854,1,0,0:0:0:0:
249,280,139940,1,0,0:0:0:0:
194,260,140026,1,0,0:0:0:0:
136,258,140112,1,0,0:0:0:0:
60,206,140198,5,0,0:0:0:0:
43,155,140284,1,0,0:0:0:0:
73,104,140370,1,0,0:0:0:0:
132,105,140455,1,0,0:0:0:0:
160,156,140541,1,0,0:0:0:0:
131,206,140627,1,0,0:0:0:0:
112,262,140712,1,0,0:0:0:0:
98,320,140798,1,0,0:0:0:0:
122,372,140884,5,0,0:0:0:0:
169,345,140970,1,0,0:0:0:0:
227,325,141055,1,0,0:0:0:0:
288,324,141141,1,0,0:0:0:0:
345,344,141227,1,0,0:0:0:0:
389,304,141312,1,0,0:0:0:0:
387,245,141398,1,0,0:0:0:0:
219,53,141741,5,0,0:0:0:0:
171,288,141912,1,0,0:0:0:0:
343,137,142084,1,0,0:0:0:0:
94,125,142255,1,0,0:0:0:0:
89,163,142340,1,0,0:0:0:0:
84,201,142426,1,0,0:0:0:0:
79,239,142512,1,0,0:0:0:0:
74,277,142597,1,0,0:0:0:0:
328,276,142770,1,0,0:0:0:0:
328,276,142855,1,0,0:0:0:0:
328,276,142941,5,0,0:0:0:0:
256,192,143027,12,0,143970,0:0:0:0:
173,98,144312,6,0,L|86:126,1,70
246,198,144655,1,0,0:0:0:0:
332,53,144827,1,0,0:0:0:0:
332,53,144912,1,0,0:0:0:0:
332,53,144998,2,0,L|421:62,1,70
216,36,145341,1,0,0:0:0:0:
343,168,145512,1,0,0:0:0:0:
343,168,145597,1,0,0:0:0:0:
343,168,145683,6,0,L|432:177,1,70
481,38,146027,1,0,0:0:0:0:
412,175,146198,1,0,0:0:0:0:
412,175,146284,1,0,0:0:0:0:
412,175,146370,2,0,P|423:223|448:244,1,70
342,75,146712,1,0,0:0:0:0:
263,175,146884,2,0,L|210:189,1,35
263,175,147055,6,0,P|274:223|299:244,1,70
231,86,147398,1,0,0:0:0:0:
143,172,147570,1,0,0:0:0:0:
142,206,147655,1,0,0:0:0:0:
142,241,147741,1,0,0:0:0:0:
141,276,147827,1,0,0:0:0:0:
141,311,147912,1,0,0:0:0:0:
241,214,148084,1,0,0:0:0:0:
50,208,148255,1,0,0:0:0:0:
247,319,148427,6,0,L|346:334,1,70
412,160,148770,1,0,0:0:0:0:
271,227,148941,1,0,0:0:0:0:
271,227,149027,1,0,0:0:0:0:
271,227,149112,2,0,L|183:236,1,70
394,277,149455,2,0,L|482:286,1,70
463,284,149712,1,0,0:0:0:0:
463,284,149798,5,0,0:0:0:0:
413,79,149970,1,0,0:0:0:0:
317,265,150141,1,0,0:0:0:0:
483,138,150312,1,0,0:0:0:0:
274,109,150484,1,0,0:0:0:0:
398,277,150655,1,0,0:0:0:0:
340,74,150827,1,0,0:0:0:0:
245,260,150998,1,0,0:0:0:0:
430,161,151170,6,0,L|452:82,1,70
268,156,151512,1,0,0:0:0:0:
359,264,151684,1,0,0:0:0:0:
359,264,151770,1,0,0:0:0:0:
359,264,151855,2,0,L|372:301,1,35
277,296,152027,2,0,L|264:333,1,35
369,264,152198,2,0,L|392:330,1,70
385,168,152541,6,0,P|342:178|303:152,1,87.5
440,82,153055,2,0,P|465:120|473:217,1,131.25000500679
304,240,153570,2,0,B|295:228|278:215|249:221|239:209|214:228|213:247|213:276|205:296|238:311|284:314|335:313|371:325|371:325|367:288|380:239|389:193|382:158|362:159|333:152|315:150|289:169|299:182|286:209|295:228|304:240,1,560,4|4,2:0|2:0,0:0:0:0:
256,192,158027,5,0,0:0:0:0:
256,192,168998,5,0,0:0:0:0:
171,97,169170,1,0,0:0:0:0:
161,106,169255,1,0,0:0:0:0:
151,115,169341,1,0,0:0:0:0:
340,287,169512,1,0,0:0:0:0:
351,278,169597,1,0,0:0:0:0:
362,268,169683,1,0,0:0:0:0:
159,274,169855,1,0,0:0:0:0:
170,287,169940,1,0,0:0:0:0:
180,299,170026,1,0,0:0:0:0:
353,110,170198,1,0,0:0:0:0:
342,97,170283,1,0,0:0:0:0:
330,83,170369,1,0,0:0:0:0:
139,191,170541,6,0,L|106:188,2,26.2500010013581
373,191,170884,2,0,L|406:188,2,26.2500010013581
257,75,171227,2,0,L|260:42,2,26.2500010013581
257,309,171570,2,0,L|260:342,2,26.2500010013581
378,270,171912,5,0,0:0:0:0:
435,181,172084,1,0,0:0:0:0:
370,98,172255,1,0,0:0:0:0:
388,270,172427,5,0,0:0:0:0:
445,181,172597,1,0,0:0:0:0:
380,98,172770,1,0,0:0:0:0:
398,270,172941,2,0,L|489:274,1,87.5
485,273,173455,1,0,0:0:0:0:
309,344,173627,2,0,L|218:348,1,87.5
221,347,174141,1,0,0:0:0:0:
76,182,174312,1,0,0:0:0:0:
233,69,174484,5,0,0:0:0:0:
257,79,174569,1,0,0:0:0:0:
275,97,174655,1,0,0:0:0:0:
285,121,174741,1,0,0:0:0:0:
285,147,174826,1,0,0:0:0:0:
275,172,174912,1,0,0:0:0:0:
256,190,174998,1,0,0:0:0:0:
232,200,175084,1,0,0:0:0:0:
210,201,175170,5,0,0:0:0:0:
228,177,175255,1,0,0:0:0:0:
253,161,175341,1,0,0:0:0:0:
281,152,175427,1,0,0:0:0:0:
311,153,175512,1,0,0:0:0:0:
339,163,175598,1,0,0:0:0:0:
362,181,175684,1,0,0:0:0:0:
380,205,175770,1,0,0:0:0:0:
388,239,175855,5,0,0:0:0:0:
342,234,175940,1,0,0:0:0:0:
306,205,176026,1,0,0:0:0:0:
291,162,176112,1,0,0:0:0:0:
303,118,176197,1,0,0:0:0:0:
337,87,176283,1,0,0:0:0:0:
382,79,176369,1,0,0:0:0:0:
424,97,176455,1,0,0:0:0:0:
448,136,176541,5,0,0:0:0:0:
421,156,176626,1,0,0:0:0:0:
390,166,176712,1,0,0:0:0:0:
357,167,176798,1,0,0:0:0:0:
325,157,176883,1,0,0:0:0:0:
298,138,176969,1,0,0:0:0:0:
278,112,177055,1,0,0:0:0:0:
268,80,177141,1,0,0:0:0:0:
265,44,177227,5,0,0:0:0:0:
201,34,177312,1,0,0:0:0:0:
155,79,177398,1,0,0:0:0:0:
163,142,177484,1,0,0:0:0:0:
218,186,177570,1,0,0:0:0:0:
264,229,177655,1,0,0:0:0:0:
253,292,177741,1,0,0:0:0:0:
194,316,177827,1,0,0:0:0:0:
145,279,177912,5,0,0:0:0:0:
203,248,177998,1,0,0:0:0:0:
268,249,178084,1,0,0:0:0:0:
325,282,178170,1,0,0:0:0:0:
377,326,178255,1,0,0:0:0:0:
438,346,178341,1,0,0:0:0:0:
492,311,178427,1,0,0:0:0:0:
163,82,179970,6,0,B|119:93|79:60|79:60|114:120,1,140
292,159,180312,2,0,B|325:161|373:117|373:117|344:127|299:128,1,140
198,172,180570,1,0,0:0:0:0:
198,172,180655,2,0,B|183:206|183:206|182:245,1,70
90,204,180827,2,0,B|97:240|97:240|118:272,1,70
265,307,180998,2,0,B|229:337|185:322|185:322|241:361,1,140
271,220,181255,1,0,0:0:0:0:
271,220,181341,6,0,P|276:140|233:93,1,140
364,21,181684,2,0,P|361:98|412:145,1,140
357,222,181941,1,0,0:0:0:0:
357,222,182027,2,0,B|380:251|380:251|441:267,1,70
442,363,182198,2,0,B|419:334|419:334|358:318,1,70
286,274,182370,2,0,B|298:303|298:303|291:356,1,70
274,184,182541,2,0,B|262:155|262:155|269:102,1,70
364,21,182712,6,0,B|340:91|340:91|431:15,1,140
232,33,183055,2,0,B|201:55|162:49|162:49|189:83|183:146,1,140
95,120,183312,1,0,0:0:0:0:
95,120,183398,2,0,L|118:196,1,70
106,344,183570,2,0,L|129:268,1,70
340,229,183741,2,0,L|134:229,1,140
235,311,183998,1,0,0:0:0:0:
235,311,184084,6,0,B|333:311|333:311|398:363,1,140
426,161,184427,2,0,P|418:248|452:307,1,140
340,229,184684,1,0,0:0:0:0:
340,229,184770,2,0,L|336:140,1,70
248,26,184941,2,0,L|252:115,1,70
251,190,185112,1,0,0:0:0:0:
175,253,185198,1,0,0:0:0:0:
76,249,185284,1,0,0:0:0:0:
18,169,185370,1,0,0:0:0:0:
65,84,185455,6,0,B|130:61|179:99|179:99|123:120,1,140
254,278,185798,2,0,B|280:264|338:284|338:284|309:259|312:213,1,140
398,189,186055,1,0,0:0:0:0:
398,189,186141,2,0,B|382:161|334:156,1,70
419,271,186312,2,0,B|435:299|483:304,1,70
469,137,186484,2,0,B|422:57|422:57|332:37,1,140
277,97,186741,1,0,0:0:0:0:
277,97,186827,6,0,P|231:96|282:65,1,140
173,233,187170,2,0,B|141:217|141:217|163:170|243:186,1,140
225,304,187427,1,0,0:0:0:0:
225,304,187512,2,0,B|194:326|194:326|140:312,1,70
302,341,187684,2,0,B|324:310|324:310|310:256,1,70
324,127,187855,2,0,L|311:205,1,70
429,314,188027,2,0,L|418:229,1,70
426,45,188198,6,0,L|420:130,1,70
239,46,188370,2,0,B|285:6|340:43|340:43|285:62,1,140
204,130,188712,2,0,B|169:129|149:153|149:153|133:131|118:123|118:123|161:124,1,140
210,216,188970,1,0,0:0:0:0:
210,216,189055,2,0,B|209:254|209:254|195:290,1,70
53,177,189227,2,0,L|39:97,1,70
104,262,189398,2,0,B|92:302|92:302|64:258,1,70
153,124,189570,6,0,B|178:92|233:105|233:105|179:140,1,140
310,159,189827,2,0,B|346:167|346:167|387:159,1,70
252,40,189998,2,0,L|171:36,1,70
382,66,190170,2,0,P|421:76|466:50,1,70
300,241,190341,2,0,P|292:275|311:327,1,70
462,210,190512,2,0,L|457:127,1,70
384,207,190684,1,0,0:0:0:0:
310,159,190770,1,0,0:0:0:0:
216,179,190855,1,0,0:0:0:0:
157,249,190941,6,0,B|172:348|172:348|194:298,1,140
94,146,191284,2,0,B|79:47|79:47|57:97,1,140
184,60,191541,1,0,0:0:0:0:
184,60,191627,2,0,P|225:53|269:66,1,70
445,119,191798,2,0,P|404:112|360:125,1,70
223,293,191970,2,0,P|249:237|198:134,1,140
342,222,192227,1,0,0:0:0:0:
342,222,192312,6,0,B|399:276|399:276|335:275,1,140
421,189,192655,2,0,B|480:244|480:244|469:285|478:312,1,140
354,349,192912,1,0,0:0:0:0:
354,349,192998,2,0,L|272:343,1,70
153,298,193170,2,0,L|235:292,1,70
69,209,193341,2,0,L|58:310,1,70
141,125,193512,2,0,L|152:24,1,70
158,212,193684,6,0,P|236:181|225:78,1,140
366,41,194027,2,0,P|348:117|384:215,1,140
490,162,194284,1,0,0:0:0:0:
490,162,194370,2,0,B|465:142|465:142|396:118,1,70
220,57,194541,2,0,B|245:37|245:37|314:13,1,70
307,237,194712,2,0,B|308:315,1,70
429,129,194884,2,0,B|428:51,1,70
242,141,195055,6,0,P|179:138|132:55,1,140
316,74,195398,2,0,B|327:141|327:141|306:213,1,140
404,217,195655,1,0,0:0:0:0:
404,217,195741,2,0,P|433:211|476:233,1,70
257,285,195912,2,0,P|228:291|185:269,1,70
431,269,196084,2,0,P|465:283|494:337,1,70
229,232,196255,2,0,P|195:218|166:164,1,70
316,238,196427,5,2,0:0:0:0:
305,206,196511,1,0,0:0:0:0:
313,173,196597,1,0,0:0:0:0:
339,150,196683,1,0,0:0:0:0:
373,146,196770,1,2,0:0:0:0:
344,165,196854,1,0,0:0:0:0:
310,172,196940,1,0,0:0:0:0:
276,164,197026,1,0,0:0:0:0:
248,144,197113,1,2,0:0:0:0:
235,112,197197,1,0,0:0:0:0:
241,78,197283,1,0,0:0:0:0:
266,54,197369,1,0,0:0:0:0:
300,49,197455,1,2,0:0:0:0:
335,53,197541,1,0,0:0:0:0:
370,57,197627,1,0,0:0:0:0:
405,61,197713,1,0,0:0:0:0:
440,64,197797,5,2,0:0:0:0:
475,89,197883,1,0,0:0:0:0:
492,129,197969,1,0,0:0:0:0:
487,172,198055,1,0,0:0:0:0:
459,205,198140,1,2,0:0:0:0:
423,228,198226,1,0,0:0:0:0:
408,268,198312,1,0,0:0:0:0:
421,309,198397,1,0,0:0:0:0:
457,333,198483,1,2,0:0:0:0:
431,299,198569,1,0,0:0:0:0:
394,276,198655,1,0,0:0:0:0:
351,269,198741,1,0,0:0:0:0:
309,279,198827,1,2,0:0:0:0:
270,296,198911,1,0,0:0:0:0:
228,283,198997,1,0,0:0:0:0:
205,248,199083,1,0,0:0:0:0:
197,203,199170,5,0,0:0:0:0:
261,219,199255,1,0,0:0:0:0:
302,167,199341,1,0,0:0:0:0:
272,108,199427,1,0,0:0:0:0:
205,112,199512,1,0,0:0:0:0:
152,151,199597,1,0,0:0:0:0:
93,121,199683,1,0,0:0:0:0:
95,54,199769,1,0,0:0:0:0:
156,27,199855,1,0,0:0:0:0:
186,89,199940,1,0,0:0:0:0:
187,159,200026,1,0,0:0:0:0:
159,222,200112,1,0,0:0:0:0:
106,268,200197,1,0,0:0:0:0:
38,261,200284,1,0,0:0:0:0:
14,194,200370,1,0,0:0:0:0:
284,136,200712,5,0,0:0:0:0:
100,146,200884,1,0,0:0:0:0:
284,136,201055,1,0,0:0:0:0:
166,253,201227,1,0,0:0:0:0:
166,253,201312,1,0,0:0:0:0:
166,253,201398,2,0,L|83:249,1,70
300,244,201570,1,0,0:0:0:0:
169,77,201741,1,0,0:0:0:0:
169,77,201827,1,0,0:0:0:0:
169,77,201912,6,0,P|225:65|169:100,1,175
32,96,202255,2,0,B|36:125|19:168|19:168|51:135|99:144|120:204,1,175
33,245,202512,1,0,0:0:0:0:
33,245,202598,2,0,B|36:287|54:304|54:304|66:268,1,87.5
217,335,202770,2,0,P|159:326|120:363,1,87.5
152,243,202941,2,0,B|188:242|263:214|263:214|220:214|175:198,1,175
297,291,203198,1,0,0:0:0:0:
297,291,203284,6,0,P|349:215|309:143,1,175
423,360,203627,2,0,B|420:250|420:250|467:163,1,175
371,41,203884,1,0,0:0:0:0:
371,41,203970,2,0,P|399:96|384:182,1,87.5
259,213,204141,2,0,P|231:158|246:72,1,87.5
346,266,204312,2,0,B|272:308|272:308|152:295,1,175
89,164,204570,1,0,0:0:0:0:
89,164,204655,6,0,P|118:243|13:223,1,175
64,64,204998,2,0,B|90:50|90:50|117:64|130:90|130:90|143:64|170:50|170:50|196:64,1,175
192,160,205255,1,0,0:0:0:0:
192,160,205341,2,0,P|208:192|192:240,1,87.5
272,336,205512,2,0,B|256:320|256:320|224:336|176:336,1,87.5
320,208,205684,2,0,B|288:240|288:240|320:256|336:288,1,87.5
384,160,205855,2,0,P|320:128|256:160,1,87.5
400,240,206027,6,0,B|416:336|416:336|448:240,1,175
368,48,206370,2,0,B|304:16|240:64|240:64|288:16,1,175
208,144,206627,1,0,0:0:0:0:
208,144,206712,2,0,P|160:160|128:128,1,87.5
240,304,206884,2,0,B|224:256|224:256|256:176,1,87.5
112,304,207055,2,0,B|144:240|144:240|32:304,1,175
48,192,207312,1,0,0:0:0:0:
48,192,207398,6,0,P|48:96|128:32,1,175
294,103,207741,2,0,B|214:151|214:151|102:135,1,175
224,48,207998,1,0,0:0:0:0:
224,48,208084,2,0,P|288:16|336:32,1,87.5
304,240,208255,2,0,P|288:208|320:240,1,87.5
416,32,208427,2,0,P|400:128|480:160,1,175
432,240,208684,1,0,0:0:0:0:
432,240,208770,6,0,P|384:256|448:256,1,175
304,320,209112,2,0,P|240:288|240:192,1,175
176,336,209370,1,0,0:0:0:0:
176,336,209455,2,0,P|144:256|160:192,1,87.5
176,96,209627,2,0,P|144:176|160:240,1,87.5
96,352,209798,2,0,P|64:256|64:176,1,175
144,176,210055,1,0,0:0:0:0:
144,176,210141,6,0,P|240:160|256:64,1,175
304,224,210484,2,0,P|272:240|256:368,1,175
400,320,210741,1,0,0:0:0:0:
400,320,210827,2,0,B|352:304|352:304|288:336,1,87.5
400,160,210998,2,0,B|400:224|400:224|448:272,1,87.5
240,144,211170,2,0,B|288:128|288:128|368:160,1,87.5
304,224,211341,2,0,B|256:240|256:240|176:208,1,87.5
96,80,211512,6,0,P|144:176|64:240,1,175
208,48,211855,2,0,B|265:57|323:38|323:38|265:38,1,175
416,80,212112,1,0,0:0:0:0:
416,80,212198,2,0,L|480:80,7,43.75
352,144,212541,2,0,L|288:144,6,43.75
432,192,212884,6,0,P|448:272|320:320,1,181.999991668702
240,256,213227,2,0,B|288:208|352:240|352:240|288:256,1,181.999991668702
256,336,213484,1,0,0:0:0:0:
256,336,213570,2,0,B|208:352|208:352|160:336,1,90.9999958343508
144,176,213741,2,0,B|160:224|160:224|144:272,1,90.9999958343508
64,352,213912,2,0,B|48:208|48:208|80:144,1,181.999991668702
48,64,214170,1,0,0:0:0:0:
48,64,214255,6,0,P|128:96|208:16,1,181.999991668702
272,192,214598,2,0,P|240:176|304:176,1,181.999991668702
320,32,214855,1,0,0:0:0:0:
320,32,214941,2,0,P|368:64|384:176,1,90.9999958343508
304,288,215112,2,0,B|352:256|352:256|368:144,1,90.9999958343508
448,176,215284,2,0,B|448:288|448:288|368:352,1,181.999991668702
304,288,215541,1,0,0:0:0:0:
304,288,215627,6,0,B|208:272|208:272|288:224,1,181.999991668702
208,352,215970,2,0,B|80:320|80:320|160:288,1,181.999991668702
48,160,216227,1,0,0:0:0:0:
48,160,216312,2,0,B|16:208|64:240|64:240,1,90.9999958343508
128,96,216484,2,0,B|96:64|96:64|48:48,1,90.9999958343508
144,192,216655,2,0,B|224:160|224:160|272:64,1,181.999991668702
352,112,216912,1,0,0:0:0:0:
352,112,216998,6,0,B|304:208|304:208|336:304,1,181.999991668702
464,160,217341,2,0,B|448:320|448:320|400:336,1,181.999991668702
288,352,217598,1,0,0:0:0:0:
288,352,217684,2,0,B|240:304|240:304|208:208,1,90.9999958343508
96,272,217855,2,0,B|144:224|144:224|240:192,1,90.9999958343508
128,64,218027,2,0,B|176:112|176:112|208:208,1,90.9999958343508
336,112,218198,2,0,B|288:160|288:160|192:192,1,90.9999958343508
155,91,218370,5,0,0:0:0:0:
128,123,218455,1,0,0:0:0:0:
113,164,218541,1,0,0:0:0:0:
112,206,218627,1,0,0:0:0:0:
125,247,218712,1,0,0:0:0:0:
149,282,218798,1,0,0:0:0:0:
183,307,218884,1,0,0:0:0:0:
224,320,218970,1,0,0:0:0:0:
257,248,219054,5,0,0:0:0:0:
299,244,219141,1,0,0:0:0:0:
340,253,219227,1,0,0:0:0:0:
377,274,219313,1,0,0:0:0:0:
405,307,219398,1,0,0:0:0:0:
410,263,219484,1,0,0:0:0:0:
400,222,219570,1,0,0:0:0:0:
379,186,219654,1,0,0:0:0:0:
320,114,219740,5,0,0:0:0:0:
288,91,219827,1,0,0:0:0:0:
250,102,219913,1,0,0:0:0:0:
237,142,219997,1,0,0:0:0:0:
261,174,220084,1,0,0:0:0:0:
264,131,220170,1,0,0:0:0:0:
256,89,220254,1,0,0:0:0:0:
239,51,220340,1,0,0:0:0:0:
159,29,220426,5,0,0:0:0:0:
106,48,220512,1,0,0:0:0:0:
68,90,220598,1,0,0:0:0:0:
56,146,220684,1,0,0:0:0:0:
72,200,220769,1,0,0:0:0:0:
114,250,220855,1,0,0:0:0:0:
137,312,220941,1,0,0:0:0:0:
139,376,221027,1,0,0:0:0:0:
211,349,221113,5,0,0:0:0:0:
268,367,221197,1,0,0:0:0:0:
324,334,221283,1,0,0:0:0:0:
323,268,221370,1,0,0:0:0:0:
267,237,221454,1,0,0:0:0:0:
211,269,221540,1,0,0:0:0:0:
149,290,221627,1,0,0:0:0:0:
84,306,221713,1,0,0:0:0:0:
35,242,221797,5,0,0:0:0:0:
87,212,221883,1,0,0:0:0:0:
152,190,221970,1,0,0:0:0:0:
220,189,222054,1,0,0:0:0:0:
283,211,222140,1,0,0:0:0:0:
332,166,222227,1,0,0:0:0:0:
330,100,222312,1,0,0:0:0:0:
330,100,222655,5,0,0:0:0:0:
202,148,222827,1,0,0:0:0:0:
74,196,222998,1,0,0:0:0:0:
192,352,223170,1,0,0:0:0:0:
253,339,223255,1,0,0:0:0:0:
302,303,223341,1,0,0:0:0:0:
338,254,223426,1,0,0:0:0:0:
350,193,223512,1,0,0:0:0:0:
96,96,223684,1,0,0:0:0:0:
96,96,223770,1,0,0:0:0:0:
96,96,223855,6,0,L|192:112,1,83.9999974365235
416,96,224198,2,0,L|320:112,1,83.9999974365235
96,112,224541,6,0,L|192:112,1,83.9999974365235
416,112,224884,2,0,L|320:112,1,83.9999974365235
224,320,225227,6,0,P|192:272|208:240,1,77.0000023498536
288,64,225570,2,0,P|320:112|304:144,1,77.0000023498536
240,320,225912,6,0,P|208:272|208:240,1,77.0000023498536
272,64,226255,2,0,P|304:112|304:144,1,77.0000023498536
96,176,226598,6,0,B|144:160|144:160|192:176,1,70
416,208,226941,2,0,B|368:224|368:224|320:208,1,70
96,192,227284,6,0,B|144:176|144:176|192:176,1,70
416,192,227627,2,0,B|368:208|368:208|320:208,1,70
256,32,227970,6,0,B|256:80|256:80|240:112,1,62.9999980773926
256,352,228312,2,0,B|256:304|256:304|272:272,1,62.9999980773926
288,48,228655,6,0,B|272:80|272:80|240:112,1,62.9999980773926
224,336,228998,2,0,B|240:304|240:304|272:272,1,62.9999980773926
400,176,229341,6,0,L|384:240,1,56
112,176,229684,2,0,L|128:240,1,56
416,192,230027,6,0,L|384:240,1,56
96,192,230370,2,0,L|128:240,1,56
448,224,230712,6,0,L|384:240,1,48.9999985046387
64,224,231055,2,0,L|128:240,1,48.9999985046387
448,256,231398,6,0,L|384:240,1,48.9999985046387
64,256,231741,2,0,L|128:240,1,48.9999985046387
432,272,232084,6,0,L|384:240,1,41.9999987182618
80,272,232427,2,0,L|128:240,1,41.9999987182618
416,288,232770,6,0,L|384:240,1,41.9999987182618
96,288,233112,2,0,L|128:240,1,41.9999987182618
400,288,233455,6,0,L|384:240,1,35
112,288,233798,2,0,L|128:240,1,35
384,288,234141,6,0,L|384:240,1,35
128,288,234484,2,0,L|128:240,1,35
368,272,234827,6,0,L|384:240,1,28
144,272,235170,2,0,L|128:240,1,28
352,256,235512,6,0,L|384:240,1,28
160,256,235855,1,0,0:0:0:0:
160,256,236027,2,0,L|304:144,1,178.499994552612
240,80,237570,6,0,L|201:81,1,35
316,42,238084,2,0,L|341:44,1,24.5
397,112,238770,1,0,0:0:0:0:
297,318,239455,1,0,0:0:0:0:
101,125,240312,6,0,L|118:125,1,17.5
88,211,240827,2,0,L|62:210,1,24.5
106,285,241512,1,0,0:0:0:0:
279,234,242198,1,0,0:0:0:0:
147,80,243055,1,0,0:0:0:0:
352,266,244255,1,0,0:0:0:0:
256,192,244427,12,0,245798,0:0:0:0:
