osu file format v14

[General]
AudioFilename: Song.mp3
AudioLeadIn: 0
PreviewTime: 6738
Countdown: 0
SampleSet: Soft
StackLeniency: 0.7
Mode: 0
LetterboxInBreaks: 0
WidescreenStoryboard: 1

[Editor]
Bookmarks: 29982
DistanceSpacing: 2.9
BeatDivisor: 4
GridSize: 4
TimelineZoom: 1.7

[Metadata]
Title:Senpai Yadano
TitleUnicode:Senpai Yadano
Artist:Sakura Ayane
ArtistUnicode:Sakura Ayane
Creator:Flutteh
Version:Senpai
Source:Yahari Ore no Seishun Love Comedy wa Machigatteiru Zoku
Tags:Iroha Isshiki Oregairu Senpai Flutteh My Teen Romantic Comedy Snafu
BeatmapID:985366
BeatmapSetID:398378

[Difficulty]
HPDrainRate:7
CircleSize:4
OverallDifficulty:8.4
ApproachRate:9.5
SliderMultiplier:1.8
SliderTickRate:1

[Events]
//Background and Video events
0,0,"Iroha Isshiki.jpg",0,0
//Break Periods
//Storyboard Layer 0 (Background)
//Storyboard Layer 1 (Fail)
//Storyboard Layer 2 (Pass)
//Storyboard Layer 3 (Foreground)
//Storyboard Sound Samples

[TimingPoints]
912,363.636363636364,4,2,1,100,1,0
24184,-133.333333333333,4,2,1,100,0,0

[Colours]
Combo1 : 61,201,241
Combo2 : 255,0,128
Combo3 : 255,0,50
Combo4 : 255,100,0
Combo5 : 255,0,255
Combo6 : 255,198,84
Combo7 : 255,113,84
Combo8 : 255,255,0

[HitObjects]
416,32,912,5,8,0:0:0:0:
328,286,1093,1,0,0:0:0:0:
204,45,1275,1,8,0:0:0:0:
395,236,1457,1,0,0:0:0:0:
124,236,1639,1,8,0:0:0:0:
315,44,1821,1,0,0:0:0:0:
224,336,2002,2,0,P|144:330|114:299,1,90,8|8,0:0|0:0,0:0:0:0:
64,112,2366,5,2,0:0:0:0:
325,45,2548,1,0,0:0:0:0:
172,268,2730,1,8,0:0:0:0:
130,226,2821,1,0,0:0:0:0:
103,173,2912,1,8,0:0:0:0:
90,116,3002,1,0,0:0:0:0:
100,58,3093,2,2,P|193:24|214:36,2,90,8|0|8,0:0|0:0|0:0,0:0:0:0:
0,204,3639,1,0,0:0:0:0:
256,192,3821,5,8,0:0:0:0:
64,352,4002,1,0,0:0:0:0:
448,64,4184,1,8,0:0:0:0:
256,192,4366,1,0,0:0:0:0:
448,352,4548,1,8,0:0:0:0:
80,80,4730,2,0,P|92:48|160:32,2,90,8|0|8,0:0|0:0|0:0,0:0:0:0:
115,256,5275,1,0,0:0:0:0:
320,32,5457,5,0,0:0:0:0:
464,272,5639,1,8,0:0:0:0:
176,272,5821,1,0,0:0:0:0:
464,96,6002,5,8,0:0:0:0:
176,96,6184,1,8,0:0:0:0:
320,336,6366,2,8,P|384:352|428:336,2,90
216,48,6912,5,0,0:0:0:0:
84,280,7093,1,8,0:0:0:0:
344,200,7275,1,0,0:0:0:0:
80,144,7457,1,8,0:0:0:0:
344,88,7639,1,0,0:0:0:0:
232,336,7821,1,8,0:0:0:0:
208,68,8002,1,0,0:0:0:0:
360,224,8184,5,8,0:0:0:0:
116,106,8366,2,0,P|79:56|81:2,2,90,2|8|0,0:0|0:0|0:0,0:0:0:0:
382,202,8912,6,2,B|334:218|334:90|214:94,1,180,8|4,0:0|0:0,0:0:0:0:
504,40,9457,1,0,0:0:0:0:
258,147,9639,5,8,0:0:0:0:
449,338,9821,1,0,0:0:0:0:
224,176,10002,2,0,P|277:133|324:124,1,90,8|0,0:0|0:0,0:0:0:0:
104,319,10366,1,8,0:0:0:0:
104,48,10548,1,2,0:0:0:0:
329,197,10730,2,0,P|275:239|228:248,1,90,8|0,0:0|0:0,0:0:0:0:
28,99,11093,6,2,P|92:131|140:115,1,90,8|4,0:0|0:0,0:0:0:0:
373,74,11457,1,8,0:0:0:0:
181,265,11639,2,2,B|208:177|297:263|324:129,1,180
97,220,12184,1,8,0:0:0:0:
288,96,12366,1,8,0:0:0:0:
352,320,12548,5,8,0:0:0:0:
136,156,12730,2,0,P|168:116|217:105,1,90,0|8,0:0|0:0,0:0:0:0:
116,312,13093,1,0,0:0:0:0:
307,120,13275,1,8,0:0:0:0:
36,120,13457,2,0,P|50:168|91:198,1,90,0|8,0:0|0:0,0:0:0:0:
291,268,13820,1,0,0:0:0:0:
174,75,14002,5,8,0:0:0:0:
367,190,14184,2,0,P|347:230|313:258,1,90,0|8,0:0|0:0,0:0:0:0:
208,336,14547,1,0,0:0:0:0:
338,97,14730,1,8,0:0:0:0:
116,136,14912,2,8,P|144:188|192:208,1,90
382,275,15275,1,8,0:0:0:0:
168,56,15457,5,8,0:0:0:0:
304,328,15639,1,0,0:0:0:0:
408,64,15821,1,8,0:0:0:0:
136,296,16002,1,2,0:0:0:0:
424,144,16184,1,8,0:0:0:0:
76,140,16366,1,8,0:0:0:0:
340,60,16548,1,8,0:0:0:0:
248,272,16730,1,8,0:0:0:0:
36,48,16912,53,8,0:0:0:0:
476,44,17275,1,8,0:0:0:0:
256,352,17639,1,8,0:0:0:0:
256,32,18002,2,4,L|256:144,1,90,8|4,0:0|0:0,0:0:0:0:
368,336,18366,5,8,0:0:0:0:
256,48,18548,1,0,0:0:0:0:
120,344,18730,1,8,0:0:0:0:
400,140,18912,1,0,0:0:0:0:
80,232,19093,1,8,0:0:0:0:
376,28,19275,1,8,0:0:0:0:
240,336,19457,1,8,0:0:0:0:
72,56,19639,1,2,0:0:0:0:
324,296,19821,5,8,0:0:0:0:
168,16,20002,1,0,0:0:0:0:
40,288,20184,1,8,0:0:0:0:
256,60,20366,1,0,0:0:0:0:
96,344,20548,5,8,0:0:0:0:
404,296,20730,1,8,0:0:0:0:
72,216,20912,1,8,0:0:0:0:
312,40,21093,1,8,0:0:0:0:
320,352,21275,5,8,0:0:0:0:
128,64,21457,2,0,P|64:96|52:144,1,90,0|8,0:0|0:0,0:0:0:0:
384,288,21821,1,0,0:0:0:0:
64,128,22002,1,8,0:0:0:0:
432,224,22184,1,0,0:0:0:0:
16,192,22366,1,8,0:0:0:0:
480,160,22548,1,0,0:0:0:0:
0,240,22730,6,2,P|36:284|92:292,1,90,8|4,0:0|0:0,0:0:0:0:
388,131,23093,2,2,P|352:87|296:79,1,90,8|4,0:0|0:0,0:0:0:0:
64,176,23457,1,8,0:0:0:0:
448,176,23639,85,2,0:0:0:0:
64,256,23821,1,8,0:0:0:0:
448,96,24002,1,2,0:0:0:0:
101,185,24184,6,2,P|143:251|214:266,1,135.000005149842,8|8,0:0|0:0,0:0:0:0:
400,272,24730,1,2,0:0:0:0:
170,129,24912,6,2,P|212:62|283:47,1,135.000005149842,8|8,0:0|0:0,0:0:0:0:
140,288,25457,1,2,0:0:0:0:
392,160,25639,2,0,P|440:205|428:292,1,135.000005149842,8|8,0:0|0:0,0:0:0:0:
208,304,26184,1,2,0:0:0:0:
437,155,26366,2,0,P|423:90|367:56,1,135.000005149842,8|8,0:0|0:0,0:0:0:0:
114,155,26912,6,0,L|130:227,1,67.5000025749208,2|8,0:0|0:0,0:0:0:0:
288,348,27275,1,0,0:0:0:0:
396,100,27457,1,8,0:0:0:0:
132,160,27639,1,0,0:0:0:0:
387,247,27821,2,0,P|380:296|352:320,2,67.5000025749208,8|2|8,0:0|0:0|0:0,0:0:0:0:
192,320,28366,1,0,0:0:0:0:
436,68,28548,5,8,0:0:0:0:
48,224,28730,1,0,0:0:0:0:
280,28,28912,1,8,0:0:0:0:
244,63,29002,1,0,0:0:0:0:
215,104,29093,1,0,0:0:0:0:
195,150,29184,1,0,0:0:0:0:
195,200,29275,1,8,0:0:0:0:
304,312,29457,5,8,0:0:0:0:
257,290,29548,1,0,0:0:0:0:
224,252,29639,1,0,0:0:0:0:
196,208,29730,1,0,0:0:0:0:
196,156,29821,1,0,0:0:0:0:
215,104,29912,1,0,0:0:0:0:
244,63,30002,5,8,0:0:0:0:
64,352,30184,1,0,0:0:0:0:
128,56,30366,1,8,0:0:0:0:
184,360,30548,1,0,0:0:0:0:
448,352,30730,1,0,0:0:0:0:
384,56,30912,1,8,0:0:0:0:
328,360,31094,1,0,0:0:0:0:
224,68,31276,1,0,0:0:0:0:
444,244,31457,5,8,0:0:0:0:
160,104,31639,1,0,0:0:0:0:
496,192,31821,1,8,0:0:0:0:
88,140,32003,1,0,0:0:0:0:
360,352,32184,5,8,0:0:0:0:
108,44,32366,1,0,0:0:0:0:
412,144,32548,1,8,0:0:0:0:
20,196,32730,1,0,0:0:0:0:
480,320,32912,5,8,0:0:0:0:
20,248,33093,1,0,0:0:0:0:
480,192,33275,1,8,0:0:0:0:
16,124,33457,1,0,0:0:0:0:
480,112,33639,5,8,0:0:0:0:
48,288,33821,1,0,0:0:0:0:
480,32,34002,1,8,0:0:0:0:
48,368,34184,1,0,0:0:0:0:
128,32,34366,5,8,0:0:0:0:
442,340,34548,1,8,0:0:0:0:
48,224,34730,1,8,0:0:0:0:
484,44,34912,1,4,0:0:0:0:
