osu file format v14

[General]
AudioFilename: audio.mp3
AudioLeadIn: 0
PreviewTime:48547
Countdown: 0
SampleSet: Soft
StackLeniency: 0
Mode: 0
LetterboxInBreaks: 0
WidescreenStoryboard: 1

[Editor]
Bookmarks: 12958,37732,74893,77990
DistanceSpacing: 2.2
BeatDivisor: 4
GridSize: 8
TimelineZoom: 1.1

[Metadata]
Title:FROZEN MIDNIGHT (TV Size)
TitleUnicode:FROZEN MIDNIGHT (TV Size)
Artist:Sakuma Takao
ArtistUnicode:佐久間貴生
Creator:Flask
Version:zyoi's Hard
Source:氷属性男子とクールな同僚女子
Tags:koori zokusei danshi to kuuru na douryou joshi the ice guy and his cool female colleague fuyutsuki fuyutsuki-san himuro himuro-kun komori-san komori saejima-kun saejima otonashi-san otonashi katori-kun katori anime japanese jpop j-pop opening zyoi enjoy -_e_n_j_u_- arronchu1207 chu kyouren gokugohan12468 kittyadventure ascended -ascended- -_ascended_- kaedeharakazuha addy2607
BeatmapID:3979198
BeatmapSetID:1925310

[Difficulty]
HPDrainRate:4
CircleSize:4
OverallDifficulty:6
ApproachRate:6.5
SliderMultiplier:2.2
SliderTickRate:1

[Events]
//Background and Video events
Video,0,"vid.mp4"
0,0,"himuro_kun.jpg",0,0
//Break Periods
//Storyboard Layer 0 (Background)
//Storyboard Layer 1 (Fail)
//Storyboard Layer 2 (Pass)
//Storyboard Layer 3 (Foreground)
//Storyboard Layer 4 (Overlay)
//Storyboard Sound Samples

[TimingPoints]
571,774.193548387097,4,2,1,30,1,0
571,-142.857142857143,4,2,1,30,0,0
2119,-142.857142857143,4,2,2,30,0,0
3667,-142.857142857143,4,2,1,30,0,0
5603,-142.857142857143,4,2,3,30,0,0
6764,-142.857142857143,4,2,1,30,0,0
8700,-142.857142857143,4,2,3,30,0,0
9861,-111.111111111111,4,2,1,30,0,0
11409,-111.111111111111,4,2,1,40,0,0
12183,-111.111111111111,4,2,4,50,0,0
12958,-100,4,2,1,40,0,0
37732,-142.857142857143,4,2,4,30,0,0
48571,-100,4,2,4,60,0,0
50119,-90.9090909090909,4,2,5,70,0,0
52054,-90.9090909090909,4,2,6,50,0,0
52441,-90.9090909090909,4,2,1,50,0,0
52829,-90.9090909090909,4,2,7,50,0,0
53216,-90.9090909090909,4,2,5,70,0,0
55151,-90.9090909090909,4,2,5,50,0,0
55538,-90.9090909090909,4,2,5,60,0,0
56312,-90.9090909090909,4,2,5,70,0,0
58248,-90.9090909090909,4,2,8,50,0,0
59022,-90.9090909090909,4,2,9,60,0,0
59409,-90.9090909090909,4,2,5,30,0,0
59796,-90.9090909090909,4,2,5,40,0,0
60183,-90.9090909090909,4,2,5,50,0,0
60571,-90.9090909090909,4,2,5,60,0,0
60958,-90.9090909090909,4,2,5,70,0,0
62506,-83.3333333333333,4,2,1,75,0,1
62893,-83.3333333333333,4,2,1,55,0,1
63280,-83.3333333333333,4,2,1,75,0,1
63667,-83.3333333333333,4,2,1,55,0,1
64054,-83.3333333333333,4,2,1,75,0,1
64441,-83.3333333333333,4,2,1,55,0,1
64829,-83.3333333333333,4,2,1,65,0,1
65603,-83.3333333333333,4,2,1,75,0,1
65990,-83.3333333333333,4,2,1,55,0,1
66377,-83.3333333333333,4,2,1,75,0,1
66764,-83.3333333333333,4,2,1,55,0,1
67151,-83.3333333333333,4,2,1,75,0,1
67925,-83.3333333333333,4,2,1,65,0,1
68700,-83.3333333333333,4,2,1,75,0,1
69087,-83.3333333333333,4,2,1,55,0,1
69474,-83.3333333333333,4,2,1,75,0,1
69861,-83.3333333333333,4,2,1,55,0,1
70248,-83.3333333333333,4,2,1,75,0,1
70635,-83.3333333333333,4,2,1,55,0,1
71022,-83.3333333333333,4,2,1,65,0,1
71796,-83.3333333333333,4,2,1,75,0,1
72183,-83.3333333333333,4,2,1,65,0,1
72571,-83.3333333333333,4,2,1,75,0,1
72958,-83.3333333333333,4,2,1,65,0,1
73345,-83.3333333333333,4,2,1,80,0,1
73732,-83.3333333333333,4,2,5,80,0,1
74119,-83.3333333333333,4,2,5,70,0,1
74506,-83.3333333333333,4,2,5,60,0,1
74700,-83.3333333333333,4,2,5,50,0,1
74893,-142.857142857143,4,2,10,40,0,0
86506,-142.857142857143,4,2,11,30,0,0
87280,-142.857142857143,4,2,10,20,0,0
88054,-142.857142857143,4,2,11,10,0,0
88829,-142.857142857143,4,2,10,5,0,0

[Colours]
Combo1 : 45,187,255
Combo2 : 173,255,91
Combo3 : 255,255,89
Combo4 : 255,149,149
Combo5 : 255,179,102

[HitObjects]
89,151,571,6,0,L|166:142,1,76.9999976501466,2|0,0:0|0:0,0:0:0:0:
48,249,1538,2,0,L|125:240,1,76.9999976501466,2|0,0:0|0:0,0:0:0:0:
187,291,2119,1,2,0:0:0:0:
392,361,2506,6,0,L|387:322,1,38.4999988250733,8|0,0:3|0:0,0:0:0:0:
346,252,2893,1,8,0:0:0:0:
479,105,3280,6,0,L|474:143,1,38.4999988250733,2|2,0:3|0:0,0:0:0:0:
492,175,3571,1,2,0:0:0:0:
483,184,3667,6,0,P|446:192|415:215,1,76.9999976501466,2|0,0:0|0:0,0:0:0:0:
294,136,4635,2,0,P|273:169|267:207,1,76.9999976501466,2|0,0:0|0:0,0:0:0:0:
260,318,5216,6,0,P|235:289|197:283,1,76.9999976501466,2|8,0:0|0:3,0:0:0:0:
195,287,5796,1,8,0:3:0:0:
123,346,5990,1,8,0:3:0:0:
120,351,6183,1,8,0:3:0:0:
45,289,6377,1,8,0:3:0:0:
42,294,6571,1,8,0:3:0:0:
76,203,6765,6,0,L|-1:212,1,76.9999976501466,2|0,0:0|0:0,0:0:0:0:
107,117,7732,2,0,L|30:126,1,76.9999976501466,2|0,0:0|0:0,0:0:0:0:
61,40,8312,1,2,0:0:0:0:
238,0,8700,6,0,L|230:61,1,38.4999988250733,0|0,3:0|0:0,0:0:0:0:
188,105,9087,1,8,0:0:0:0:
308,214,9474,6,0,L|303:175,1,38.4999988250733,2|2,0:3|0:0,0:0:0:0:
287,145,9764,1,2,0:0:0:0:
296,134,9861,6,0,P|333:131|456:32,2,197.99999395752,2|2|2,0:0|0:0|0:0,0:0:0:0:
471,317,12183,2,0,P|460:271|411:255,1,98.9999969787599,2|2,0:0|0:3,0:0:0:0:
287,329,12958,6,0,L|301:220,1,110,2|2,3:2|0:0,0:0:0:0:
259,155,13538,1,2,3:2:0:0:
237,80,13732,2,0,P|210:143|168:184,1,110,10|2,0:0|0:0,0:0:0:0:
159,246,14312,1,2,0:0:0:0:
85,269,14506,6,0,P|159:304|169:359,2,110,2|2|8,0:0|0:3|0:0,0:0:0:0:
9,283,15474,2,0,P|34:266|74:258,1,55,2|2,0:3|0:3,0:0:0:0:
89,188,15861,1,2,0:0:0:0:
0,145,16054,6,0,L|14:36,1,110,2|2,3:2|0:0,0:0:0:0:
60,97,16635,1,2,3:2:0:0:
122,52,16829,2,0,P|205:15|217:-23,1,110,10|2,0:0|0:0,0:0:0:0:
269,52,17409,1,2,0:0:0:0:
225,115,17603,6,0,P|216:131|222:176,1,55,2|2,0:0|0:0,0:0:0:0:
269,223,17990,1,2,3:2:0:0:
275,222,18183,1,2,0:3:0:0:
280,305,18377,2,0,P|241:260|168:242,1,110,8|2,0:0|0:3,0:0:0:0:
117,263,18958,1,2,0:0:0:0:
202,345,19151,6,0,P|259:355|303:387,1,110,2|2,3:2|0:3,0:0:0:0:
377,374,19732,1,2,3:2:0:0:
369,297,19925,2,0,P|393:244|435:210,1,110,10|0,0:0|0:0,0:0:0:0:
509,206,20506,1,2,0:0:0:0:
474,137,20700,6,0,P|490:62|507:26,2,110,2|2|8,0:0|3:0|0:0,0:0:0:0:
433,202,21667,2,0,P|397:196|378:172,1,55,2|2,0:3|0:0,0:0:0:0:
371,107,22054,1,2,0:0:0:0:
408,3,22248,6,0,L|299:17,1,110,2|2,3:2|0:3,0:0:0:0:
238,65,22829,1,2,3:2:0:0:
231,141,23022,2,0,P|198:94|137:59,1,110,10|2,0:0|0:3,0:0:0:0:
77,60,23603,1,2,0:0:0:0:
13,109,23796,6,0,L|27:0,1,110,2|2,0:3|3:0,0:0:0:0:
138,176,24571,1,8,0:0:0:0:
61,174,24764,1,2,0:3:0:0:
6,227,24958,1,2,0:3:0:0:
4,303,25151,1,2,0:3:0:0:
56,358,25345,6,0,P|103:337|199:334,1,110,2|2,3:2|0:0,0:0:0:0:
233,306,25925,1,2,3:2:0:0:
257,379,26119,2,0,P|267:350|347:330,1,110,10|2,0:0|0:0,0:0:0:0:
396,276,26700,1,2,0:0:0:0:
457,230,26893,6,0,P|447:290|443:339,2,110,2|2|10,0:0|3:2|0:0,0:0:0:0:
399,178,27861,2,0,P|402:150|407:123,1,55,2|2,0:3|0:0,0:0:0:0:
462,70,28248,1,2,0:3:0:0:
377,12,28441,6,0,P|335:61|278:66,1,110,2|2,3:2|0:0,0:0:0:0:
224,34,29022,1,2,3:0:0:0:
149,52,29216,2,0,P|212:88|216:146,1,110,10|2,0:0|0:0,0:0:0:0:
190,349,29990,6,0,P|189:304|128:246,1,110,2|2,0:0|3:0,0:0:0:0:
77,229,30571,1,2,0:3:0:0:
0,218,30764,2,0,P|49:197|69:147,1,110,10|2,0:0|0:0,0:0:0:0:
46,73,31345,1,2,0:3:0:0:
147,125,31538,6,0,P|181:128|217:63,1,110,2|2,3:2|0:3,0:0:0:0:
175,6,32119,1,2,3:2:0:0:
224,64,32312,2,0,L|337:51,1,110,10|2,0:0|0:3,0:0:0:0:
396,95,32893,1,2,0:0:0:0:
467,124,33087,6,0,P|433:121|397:186,1,110,2|2,0:0|3:0,0:0:0:0:
439,243,33668,1,2,0:0:0:0:
390,185,33861,2,0,L|277:198,1,110,10|2,0:0|0:3,0:0:0:0:
218,154,34442,1,2,0:0:0:0:
106,173,34635,6,0,B|119:215|119:215|138:227|138:227|150:271,1,110,2|2,3:2|0:3,0:0:0:0:
103,337,35216,1,2,3:2:0:0:
98,340,35409,1,10,0:0:0:0:
179,362,35603,2,0,P|237:336|291:339,1,110,2|2,0:3|0:3,0:0:0:0:
376,356,36183,6,0,L|363:298,3,55,2|2|2|2,0:3|0:3|3:0|0:3,0:0:0:0:
440,291,36958,2,0,P|473:244|523:215,1,110,8|2,0:0|0:3,0:0:0:0:
394,90,37732,6,0,L|408:-19,1,76.9999976501466,2|0,0:0|0:0,0:0:0:0:
300,186,38506,2,0,L|319:33,1,153.999995300293,10|2,0:0|0:0,0:0:0:0:
158,47,39667,2,0,P|194:50|206:84,2,76.9999976501466,2|10|2,0:0|0:0|0:0,0:0:0:0:
148,207,40829,6,0,L|300:187,1,153.999995300293,2|8,0:0|0:0,0:0:0:0:
213,324,41990,1,2,0:0:0:0:
53,295,42377,6,0,L|67:186,1,76.9999976501466,2|2,0:0|0:0,0:0:0:0:
123,368,43151,2,0,L|137:259,1,76.9999976501466,10|2,0:0|0:0,0:0:0:0:
90,135,43925,1,0,0:0:0:0:
191,9,44312,6,0,L|114:18,2,76.9999976501466,2|10|2,0:0|0:0|0:0,0:0:0:0:
40,68,45474,1,2,0:0:0:0:
40,68,45861,1,2,0:0:0:0:
199,126,46248,2,0,L|189:202,1,76.9999976501466,10|0,0:0|0:0,0:0:0:0:
53,295,47022,5,2,0:0:0:0:
201,349,47409,2,0,B|285:342|252:304|342:294,1,153.999995300293,2|2,0:0|0:0,0:0:0:0:
488,264,48571,6,0,P|500:357|417:308,1,220,2|2,0:0|3:2,0:0:0:0:
404,239,49732,1,2,0:0:0:0:
307,136,50119,6,0,B|319:94|319:94|309:60|309:60|321:20,1,121.000003692627,6|2,3:2|0:3,0:0:0:0:
194,240,50893,2,0,B|206:198|206:198|196:164|196:164|208:124,1,121.000003692627,6|2,3:2|0:3,0:0:0:0:
81,344,51667,2,0,B|93:302|93:302|83:268|83:268|95:228,1,121.000003692627,6|2,3:2|0:3,0:0:0:0:
140,64,52441,1,2,0:0:0:0:
140,64,52635,2,0,L|64:74,2,60.5000018463135,2|2|0,0:0|0:3|0:0,0:0:0:0:
215,131,53216,6,0,P|270:73|338:59,1,121.000003692627,6|2,3:2|0:3,0:0:0:0:
176,251,53990,2,0,P|138:204|83:180,1,121.000003692627,6|2,3:2|0:3,0:0:0:0:
215,371,54764,2,0,P|252:324|307:300,1,121.000003692627,6|8,3:2|0:0,0:0:0:0:
367,382,55345,1,8,0:0:0:0:
360,375,55441,1,8,0:0:0:0:
353,368,55538,6,0,L|368:248,1,121.000003692627,8|10,0:3|0:0,0:0:0:0:
436,208,56119,1,8,0:0:0:0:
365,125,56312,6,0,P|350:59|419:40,1,121.000003692627,6|2,3:2|0:0,0:0:0:0:
365,255,57087,2,0,P|297:251|298:180,1,121.000003692627,4|2,3:2|0:3,0:0:0:0:
490,289,57861,2,0,P|469:353|400:334,1,121.000003692627,6|2,3:2|0:3,0:0:0:0:
346,342,58441,1,2,0:3:0:0:
271,368,58635,2,0,P|243:349|136:349,1,121.000003692627,8|2,0:0|0:3,0:0:0:0:
50,220,59409,6,0,L|31:67,1,121.000003692627,6|2,3:2|3:2,0:0:0:0:
299,35,60183,1,2,3:2:0:0:
314,108,60376,1,8,0:0:0:0:
271,171,60570,1,10,0:0:0:0:
198,186,60763,1,8,0:0:0:0:
134,147,60958,6,0,L|124:71,1,60.5000018463135,10|0,3:2|3:0,0:0:0:0:
203,38,61345,2,0,L|210:98,1,60.5000018463135,8|0,3:2|3:0,0:0:0:0:
279,180,61732,6,0,P|249:179|222:191,1,60.5000018463135,10|0,0:0|3:0,0:0:0:0:
172,252,62119,1,8,3:2:0:0:
175,259,62312,1,8,0:0:0:0:
94,333,62506,6,0,B|80:308|80:308|185:350,1,131.99999597168,4|2,3:1|0:3,0:0:0:0:
255,378,63087,1,2,0:3:0:0:
335,350,63280,2,0,P|377:270|434:284,1,131.99999597168,10|2,0:0|3:0,0:0:0:0:
507,130,64054,5,2,0:0:0:0:
425,156,64248,2,0,L|433:91,1,65.9999979858399,2|2,0:0|3:0,0:0:0:0:
439,85,64635,1,2,0:3:0:0:
396,10,64829,5,10,0:0:0:0:
323,57,65022,2,0,L|328:89,5,32.99999899292,2|2|2|2|2|2,0:0|0:3|0:3|0:3|0:3|0:3,0:0:0:0:
315,131,65603,6,0,P|258:75|205:91,1,131.99999597168,6|2,3:2|0:3,0:0:0:0:
159,151,66183,1,2,0:3:0:0:
228,201,66377,2,0,B|237:219|237:219|195:333,1,131.99999597168,10|2,0:0|3:0,0:0:0:0:
6,349,67151,2,0,P|67:344|90:302,1,98.9999969787599,2|0,0:0|0:0,0:0:0:0:
121,291,67538,2,0,L|109:199,1,65.9999979858399,2|2,3:0|0:3,0:0:0:0:
159,151,67925,6,0,P|108:107|116:80,1,65.9999979858399,10|2,0:0|0:3,0:0:0:0:
23,110,68312,2,0,L|35:18,1,65.9999979858399,2|2,0:0|0:3,0:0:0:0:
142,33,68700,6,0,B|163:27|176:6|176:6|206:43|268:73,1,131.99999597168,4|2,3:2|0:0,0:0:0:0:
327,76,69280,1,2,0:3:0:0:
397,27,69474,2,0,P|374:110|370:184,1,131.99999597168,10|2,0:0|3:0,0:0:0:0:
339,299,70248,5,2,0:3:0:0:
402,241,70441,2,0,L|467:249,1,65.9999979858399,2|2,0:3|3:0,0:0:0:0:
473,255,70829,1,2,0:3:0:0:
507,333,71022,5,8,0:0:0:0:
421,334,71216,2,0,L|416:366,5,32.99999899292,2|2|2|2|2|2,0:3|0:3|0:0|0:3|0:3|0:3,0:0:0:0:
374,379,71796,6,0,B|263:353|344:298|207:266,1,197.99999395752,6|2,3:2|0:3,0:0:0:0:
145,206,72571,2,0,B|142:150|125:107|125:107|153:146|204:174,1,197.99999395752,10|2,0:0|0:3,0:0:0:0:
322,198,73345,6,0,P|398:162|382:99,1,131.99999597168,2|8,3:2|0:0,0:0:0:0:
391,118,73925,1,2,0:3:0:0:
309,74,74119,1,10,0:0:0:0:
315,66,74312,1,8,0:0:0:0:
227,30,74506,1,8,0:3:0:0:
233,22,74700,1,4,0:3:0:0:
143,46,74893,6,0,B|212:62|222:126|222:126|203:107|171:109,1,153.999995300293,2|8,3:2|0:0,0:0:0:0:
121,149,75861,2,0,P|75:163|60:89,1,115.49999647522,2|2,0:0|0:0,0:0:0:0:
191,223,76829,1,0,3:0:0:0:
0,255,77216,1,8,0:0:0:0:
38,325,77409,2,0,L|25:226,1,76.9999976501466,2|0,0:0|0:0,0:0:0:0:
122,282,77990,6,0,L|131:358,2,76.9999976501466,2|0|8,3:2|3:0|0:0,0:0:0:0:
287,82,79538,1,2,0:0:0:0:
221,125,79732,1,0,3:0:0:0:
292,161,79925,1,0,3:0:0:0:
255,326,80312,2,0,P|286:278|340:260,1,115.49999647522,10|0,0:0|3:0,0:0:0:0:
423,323,81087,6,0,B|441:328|454:346|454:346|427:231,1,153.999995300293,2|8,3:2|0:0,0:0:0:0:
400,154,82054,2,0,P|416:109|478:106,1,115.49999647522,2|2,0:0|0:0,0:0:0:0:
314,56,83022,1,0,3:0:0:0:
217,195,83409,1,8,0:0:0:0:
145,149,83603,2,0,L|154:72,1,76.9999976501466,2|0,0:0|0:0,0:0:0:0:
151,60,84183,5,2,3:2:0:0:
256,192,84571,12,0,88829,0:0:0:0:
