osu file format v14

[General]
AudioFilename: audio.mp3
AudioLeadIn: 0
PreviewTime: 48547
Countdown: 0
SampleSet: Soft
StackLeniency: 0.7
Mode: 0
LetterboxInBreaks: 0
WidescreenStoryboard: 0

[Editor]
Bookmarks: 12958,25345,37732,50119,62506,74893
DistanceSpacing: 1.4
BeatDivisor: 16
GridSize: 32
TimelineZoom: 2.2

[Metadata]
Title:FROZEN MIDNIGHT (TV Size)
TitleUnicode:FROZEN MIDNIGHT (TV Size)
Artist:Sakuma Takao
ArtistUnicode:佐久間貴生
Creator:Flask
Version:Ascended's Another
Source:氷属性男子とクールな同僚女子
Tags:koori zokusei danshi to kuuru na douryou joshi the ice guy and his cool female colleague fuyutsuki fuyutsuki-san himuro himuro-kun komori-san komori saejima-kun saejima otonashi-san otonashi katori-kun katori anime japanese jpop j-pop opening zyoi enjoy -_e_n_j_u_- arronchu1207 chu kyouren gokugohan12468 kittyadventure ascended -ascended- -_ascended_- kaedeharakazuha addy2607
BeatmapID:3989414
BeatmapSetID:1925310

[Difficulty]
HPDrainRate:5
CircleSize:4.2
OverallDifficulty:8
ApproachRate:8.5
SliderMultiplier:3.3
SliderTickRate:1

[Events]
//Background and Video events
Video,0,"vid.mp4"
0,0,"himuro2.jpg",0,0
//Break Periods
//Storyboard Layer 0 (Background)
//Storyboard Layer 1 (Fail)
//Storyboard Layer 2 (Pass)
//Storyboard Layer 3 (Foreground)
//Storyboard Layer 4 (Overlay)
//Storyboard Sound Samples

[TimingPoints]
571,774.193548387097,4,2,1,30,1,0
571,-166.666666666667,4,2,1,30,0,0
2119,-166.666666666667,4,2,2,30,0,0
3667,-166.666666666667,4,2,1,30,0,0
4635,-125,4,2,1,30,0,0
5603,-100,4,2,3,30,0,0
6764,-166.666666666667,4,2,1,30,0,0
8312,-117.647058823529,4,2,1,30,0,0
8700,-117.647058823529,4,2,3,30,0,0
9861,-117.647058823529,4,2,1,30,0,0
11409,-117.647058823529,4,2,1,40,0,0
12183,-117.647058823529,4,2,4,50,0,0
12958,-76.9230769230769,4,2,1,40,0,0
13538,-90.9090909090909,4,2,1,40,0,0
18764,-133.333333333333,4,2,1,40,0,0
19151,-76.9230769230769,4,2,1,40,0,0
20119,-90.9090909090909,4,2,1,40,0,0
20700,-90.9090909090909,4,2,1,40,0,0
25345,-90.9090909090909,4,2,1,40,0,0
37732,-133.333333333333,4,2,4,30,0,0
48571,-133.333333333333,4,2,4,60,0,0
49345,-100,4,2,4,60,0,0
50119,-50,4,2,5,70,0,0
52054,-50,4,2,6,50,0,0
52441,-50,4,2,1,50,0,0
52829,-50,4,2,7,50,0,0
53216,-50,4,2,5,70,0,0
55151,-50,4,2,5,50,0,0
55538,-50,4,2,5,60,0,0
56312,-50,4,2,5,70,0,0
58248,-50,4,2,8,50,0,0
58635,-250,4,2,8,50,0,0
59022,-250,4,2,9,60,0,0
59409,-181.818181818181,4,2,5,30,0,0
59796,-117.647058823529,4,2,5,40,0,0
60183,-117.647058823529,4,2,5,50,0,0
60571,-117.647058823529,4,2,5,60,0,0
60958,-117.647058823529,4,2,5,70,0,0
62506,-62.5,4,2,1,75,0,1
62893,-62.5,4,2,1,55,0,1
63280,-62.5,4,2,1,75,0,1
63667,-62.5,4,2,1,55,0,1
64054,-62.5,4,2,1,75,0,1
64441,-62.5,4,2,1,55,0,1
64829,-62.5,4,2,1,65,0,1
65603,-62.5,4,2,1,75,0,1
65990,-62.5,4,2,1,55,0,1
66377,-62.5,4,2,1,75,0,1
66764,-62.5,4,2,1,55,0,1
66958,-55.5555555555556,4,2,1,55,0,1
67151,-55.5555555555556,4,2,1,75,0,1
67538,-83.3333333333333,4,2,1,75,0,1
67925,-133.333333333333,4,2,1,65,0,1
68700,-55.5555555555556,4,2,1,75,0,1
69087,-55.5555555555556,4,2,1,55,0,1
69474,-55.5555555555556,4,2,1,75,0,1
69861,-76.9230769230769,4,2,1,55,0,1
70248,-76.9230769230769,4,2,1,75,0,1
70635,-76.9230769230769,4,2,1,55,0,1
71022,-76.9230769230769,4,2,1,65,0,1
71796,-58.8235294117647,4,2,1,75,0,1
72183,-58.8235294117647,4,2,1,65,0,1
72571,-52.6315789473684,4,2,1,75,0,1
72958,-52.6315789473684,4,2,1,65,0,1
73345,-52.6315789473684,4,2,1,80,0,1
73732,-52.6315789473684,4,2,5,80,0,1
74119,-52.6315789473684,4,2,5,70,0,1
74506,-52.6315789473684,4,2,5,60,0,1
74700,-52.6315789473684,4,2,5,50,0,1
74893,-285.714285714284,4,2,10,40,0,0
77990,-181.818181818181,4,2,10,40,0,0
80312,-285.714285714284,4,2,10,40,0,0
83603,-181.818181818181,4,2,10,40,0,0
85603,-181.818181818181,4,2,10,30,0,0
86506,-181.818181818181,4,2,11,30,0,0
87280,-181.818181818181,4,2,10,20,0,0
88054,-181.818181818181,4,2,11,10,0,0
88829,-181.818181818181,4,2,10,5,0,0

[Colours]
Combo1 : 45,187,255
Combo2 : 173,255,91
Combo3 : 255,255,89
Combo4 : 255,149,149
Combo5 : 255,179,102

[HitObjects]
92,129,571,5,2,0:0:0:0:
92,129,635,2,0,B|31:88|-35:119|-61:178|-12:234|37:214|44:192,1,230.99999295044,2|2,0:0|0:0,0:0:0:0:
37,201,1603,1,2,0:0:0:0:
172,91,2119,6,0,B|185:63|163:45|156:48|137:28|154:-2,2,98.9999969787598,2|8|8,0:0|0:3|0:0,0:0:0:0:
164,232,3280,2,0,P|160:210|158:183,1,49.4999984893799,2|2,0:3|0:0,0:0:0:0:
259,124,3667,5,2,0:0:0:0:
259,124,3732,2,0,P|345:151|434:167,1,181.49999446106,2|0,0:0|0:0,0:0:0:0:
507,114,4635,1,2,0:0:0:0:
507,114,4700,2,0,B|537:56|465:9|465:9|440:56,1,176,2|2,0:0|0:0,0:0:0:0:
492,235,5603,6,0,P|503:240|490:231,1,41.25,8|0,0:3|0:0,0:0:0:0:
492,235,5796,6,0,P|503:240|490:231,1,41.25,8|0,0:3|0:0,0:0:0:0:
492,235,5990,6,0,P|503:240|490:231,1,41.25,8|0,0:3|0:0,0:0:0:0:
492,235,6183,6,0,P|503:240|490:231,1,41.25,8|0,0:3|0:0,0:0:0:0:
492,235,6377,6,0,P|503:240|490:231,1,41.25,8|0,0:3|0:0,0:0:0:0:
492,235,6570,6,0,P|503:240|490:231,1,41.25,8|0,0:3|0:0,0:0:0:0:
403,287,6764,5,2,0:0:0:0:
403,287,6829,2,0,B|332:260|293:315|308:333|265:385|202:352,1,230.99999295044,2|2,0:0|0:0,0:0:0:0:
204,353,7796,1,2,0:0:0:0:
134,285,8312,6,0,P|140:242|202:232,1,105.187502006292,2|0,0:0|0:0,0:0:0:0:
268,169,8700,2,0,L|265:152,4,17.5312503343821,0|0|0|0|0,3:0|0:0|0:0|0:0|0:0,0:0:0:0:
268,169,9087,2,0,P|208:146|170:122,1,105.187502006292,8|0,0:0|0:0,0:0:0:0:
93,161,9474,2,0,P|81:168|88:157,1,35.0625006687641,2|0,0:3|0:0,0:0:0:0:
26,115,9667,5,2,0:0:0:0:
7,96,9764,1,2,0:0:0:0:
19,62,9861,1,2,0:0:0:0:
256,192,9909,12,2,12571,0:3:0:0:
500,6,12958,6,0,B|422:26|440:64|363:89,1,160.874992635727,2|0,3:2|0:0,0:0:0:0:
364,88,13345,1,2,0:0:0:0:
198,162,13538,6,0,L|204:206,1,45.3750013847352,2|0,3:2|0:0,0:0:0:0:
284,122,13732,1,10,0:0:0:0:
283,121,13925,2,0,P|282:75|294:32,1,90.7500027694703,2|2,0:3|0:0,0:0:0:0:
196,77,14312,1,2,0:0:0:0:
350,176,14506,6,0,P|418:199|495:301,1,181.500005538941,2|2,0:0|0:3,0:0:0:0:
364,375,15087,5,0,0:0:0:0:
359,382,15183,1,0,0:0:0:0:
368,384,15280,2,0,P|416:355|415:311,2,90.7500027694703,8|2|2,0:0|0:3|0:3,0:0:0:0:
328,304,15861,1,2,0:0:0:0:
220,359,16054,6,0,B|181:374|160:343|172:332|145:296|105:311,1,136.125004154205,2|0,3:2|0:0,0:0:0:0:
102,315,16441,1,2,0:0:0:0:
242,232,16635,6,0,L|231:282,1,45.3750013847352,2|0,3:2|0:0,0:0:0:0:
180,177,16829,1,10,0:0:0:0:
180,177,17022,2,0,P|161:111|145:81,1,90.7500027694703,2|2,0:3|0:0,0:0:0:0:
254,153,17409,1,2,0:0:0:0:
65,138,17603,1,2,0:0:0:0:
40,172,17796,1,2,0:0:0:0:
41,257,17990,6,0,P|57:265|46:249,1,45.3750013847352,2|0,3:2|0:0,0:0:0:0:
115,335,18183,6,0,P|132:328|115:322,1,45.3750013847352,2|0,0:3|0:0,0:0:0:0:
33,353,18377,5,8,0:0:0:0:
29,358,18441,1,0,0:0:0:0:
207,285,18764,6,0,P|240:297|270:303,1,61.875002360344,2|2,0:3|0:0,0:0:0:0:
512,330,19151,6,0,B|463:308|463:308|409:323|409:323|381:378|324:385,1,214.49999018097,2|2,3:2|0:3,0:0:0:0:
422,363,19732,1,2,3:2:0:0:
334,219,19925,2,0,L|343:164,1,53.6249975452424,10|0,0:0|0:0,0:0:0:0:
354,242,20119,2,0,P|392:268|441:275,2,90.7500027694703,2|0|2,0:3|0:0|0:0,0:0:0:0:
271,113,20700,6,0,P|188:104|167:185,1,181.500005538941,2|2,0:0|3:0,0:0:0:0:
86,98,21280,5,2,0:3:0:0:
93,105,21377,1,0,0:0:0:0:
83,110,21474,1,8,0:0:0:0:
175,197,21667,2,0,P|165:225|161:249,1,45.3750013847352,2|0,0:3|0:0,0:0:0:0:
92,299,21861,1,2,0:0:0:0:
92,299,22054,1,2,0:0:0:0:
209,369,22248,6,0,B|282:314|282:314|378:350,1,181.500005538941,2|2,3:2|0:3,0:0:0:0:
252,295,22829,1,2,3:2:0:0:
338,232,23022,2,0,L|349:185,1,45.3750013847352,10|0,0:0|0:0,0:0:0:0:
289,122,23216,1,2,0:3:0:0:
289,122,23409,1,2,0:3:0:0:
358,182,23603,1,2,0:0:0:0:
431,154,23796,6,0,L|462:148,2,22.6875006923676,2|2|2,0:3|0:3|0:3,0:0:0:0:
388,59,23990,5,2,0:3:0:0:
389,61,24087,1,0,0:0:0:0:
383,61,24183,1,2,3:0:0:0:
384,55,24280,1,0,0:0:0:0:
388,59,24377,1,2,0:3:0:0:
384,64,24474,1,0,0:0:0:0:
400,51,24571,6,0,P|387:63|398:48,1,45.3750013847352,8|0,0:0|0:0,0:0:0:0:
296,16,24764,6,0,P|295:33|292:16,1,45.3750013847352,2|0,0:3|0:0,0:0:0:0:
193,63,24958,6,0,P|205:75|190:64,1,45.3750013847352,2|0,0:3|0:0,0:0:0:0:
157,168,25151,6,0,P|174:168|156:171,1,45.3750013847352,2|0,0:3|0:0,0:0:0:0:
15,77,25345,6,0,P|57:92|101:103,1,90.7500027694703,2|2,3:2|0:3,0:0:0:0:
237,238,25732,1,2,0:0:0:0:
190,314,25925,2,0,L|180:359,1,45.3750013847352,2|0,3:2|0:0,0:0:0:0:
174,373,26119,1,10,0:0:0:0:
92,266,26312,2,0,B|59:234|59:234|73:185,2,90.7500027694703,2|2|2,0:3|0:0|0:0,0:0:0:0:
0,384,26893,6,0,P|15:305|113:297,1,181.500005538941,2|2,0:0|3:2,0:0:0:0:
274,364,27474,5,2,0:3:0:0:
269,371,27570,1,0,0:0:0:0:
278,373,27667,2,0,P|326:344|325:300,1,90.7500027694703,10|2,0:0|0:3,0:0:0:0:
416,380,28054,1,2,0:0:0:0:
194,303,28441,6,0,P|181:234|156:118,2,181.500005538941,2|2|10,3:2|0:0|0:0,0:0:0:0:
272,220,29409,6,0,P|295:215|285:239,1,45.3750013847352,2|0,0:3|0:0,0:0:0:0:
282,239,29603,2,0,P|291:192|376:176,1,136.125004154205,2|0,0:0|0:0,0:0:0:0:
432,220,29990,2,0,P|463:212|494:165,2,90.7500027694703,2|0|2,0:0|0:0|3:0,0:0:0:0:
389,63,30571,6,0,P|394:86|370:76,1,45.3750013847352,2|0,0:3|0:0,0:0:0:0:
371,71,30764,1,10,0:0:0:0:
288,99,30958,1,2,0:3:0:0:
199,43,31151,6,0,B|201:34|201:34|193:21,4,22.6875006923676,2|0|0|0|2,0:0|0:0|0:0|0:0|0:3,0:0:0:0:
130,118,31538,5,2,3:2:0:0:
121,105,31732,1,2,0:3:0:0:
108,117,31925,1,2,0:3:0:0:
204,169,32119,1,2,3:2:0:0:
108,117,32312,1,10,0:0:0:0:
0,246,32506,6,0,P|28:238|51:180,2,90.7500027694703,2|2|2,0:3|0:3|0:0,0:0:0:0:
83,302,33087,6,0,B|145:290|176:330|170:339|194:369|250:349,1,181.500005538941,2|2,0:0|3:0,0:0:0:0:
5,344,33667,5,2,0:0:0:0:
10,351,33763,1,0,0:0:0:0:
0,355,33861,1,10,0:0:0:0:
176,300,34054,2,0,P|167:269|161:250,2,45.3750013847352,2|0|2,0:3|0:0|0:3,0:0:0:0:
176,300,34441,1,2,0:0:0:0:
341,369,34635,6,0,B|360:317|360:317|357:268|310:237|269:263,1,181.500005538941,2|2,3:2|0:3,0:0:0:0:
390,302,35216,1,2,3:2:0:0:
453,248,35409,2,0,P|474:241|496:235,1,45.3750013847352,10|0,0:0|0:0,0:0:0:0:
388,158,35603,2,0,B|374:176|374:176|376:198,2,45.3750013847352,2|0|2,0:3|0:0|0:3,0:0:0:0:
388,158,35990,1,2,0:3:0:0:
476,358,36183,6,0,P|472:347|469:336,4,22.6875006923676,2|2|2|2|2,0:3|0:3|0:3|0:3|0:3,0:0:0:0:
480,369,36571,1,2,3:0:0:0:
385,296,36764,1,2,0:3:0:0:
261,384,36958,6,0,B|244:306|298:331|264:232,1,136.125004154205,8|0,0:0|0:0,0:0:0:0:
262,243,37345,2,0,P|259:203|261:145,1,90.7500027694703,2|2,0:3|0:3,0:0:0:0:
232,12,37732,5,2,0:0:0:0:
234,0,37796,1,0,0:0:0:0:
304,76,38119,5,2,0:0:0:0:
300,64,38183,1,0,0:0:0:0:
260,152,38506,5,10,0:0:0:0:
326,219,38893,5,2,0:0:0:0:
335,227,38958,2,0,P|285:240|277:297,1,103.125003933907,0|2,0:0|0:0,0:0:0:0:
242,366,39667,5,2,0:0:0:0:
242,360,39731,1,0,0:0:0:0:
153,341,40054,2,0,P|100:352|31:382,1,123.750004720688,10|2,0:0|0:0,0:0:0:0:
75,275,40829,5,2,0:0:0:0:
77,263,40893,1,0,0:0:0:0:
6,208,41216,5,2,0:0:0:0:
10,220,41280,1,0,0:0:0:0:
0,304,41603,5,8,0:0:0:0:
95,185,41990,5,2,0:0:0:0:
86,177,42055,2,0,B|134:165|128:136|180:124,1,103.125003933907
251,184,42764,5,2,0:0:0:0:
263,188,42829,1,0,0:0:0:0:
321,133,43151,2,0,P|325:72|323:7,1,123.750004720688,10|2,0:0|0:0,0:0:0:0:
307,32,43667,5,2,0:0:0:0:
283,18,43796,5,2,0:0:0:0:
257,26,43925,5,2,0:0:0:0:
255,38,43989,1,0,0:0:0:0:
412,93,44312,5,2,0:0:0:0:
408,81,44376,1,0,0:0:0:0:
338,215,44699,5,10,0:0:0:0:
435,178,45086,5,2,0:0:0:0:
426,186,45151,2,0,P|447:237|498:234,1,103.125003933907,0|2,0:0|0:0,0:0:0:0:
381,301,45860,5,2,0:0:0:0:
381,295,45924,1,0,0:0:0:0:
411,383,46247,2,0,P|467:358|520:306,1,123.750004720688,10|2,0:0|0:0,0:0:0:0:
315,384,47022,5,2,0:0:0:0:
317,372,47086,1,0,0:0:0:0:
248,299,47409,5,2,0:0:0:0:
252,311,47473,1,0,0:0:0:0:
180,353,47796,5,8,0:0:0:0:
328,261,48183,5,2,0:0:0:0:
332,273,48247,1,0,0:0:0:0:
254,194,48571,5,2,0:0:0:0:
103,114,49345,6,0,L|108:88,15,20.625,2|0|0|0|0|0|0|0|2|0|0|0|0|0|0|0,3:2|0:0|0:0|0:0|0:0|0:0|0:0|0:0|0:0|0:0|0:0|0:0|0:0|0:0|0:0|0:0,0:0:0:0:
103,114,50119,6,0,B|94:69|48:45|46:66|-3:44|0:-1,1,165,6|0,3:2|0:0,0:0:0:0:
249,172,50893,6,0,B|264:129|236:85|223:102|191:58|217:20,1,165,6|0,3:2|0:0,0:0:0:0:
373,279,51667,6,0,B|407:249|405:197|385:205|379:151|421:131,1,165,6|2,3:2|0:0,0:0:0:0:
171,243,52054,5,2,0:3:0:0:
171,243,52151,2,0,B|160:251|162:265|162:265|172:270|176:281,6,41.25,0|0|0|0|0|0|2,0:0|0:0|0:0|0:0|0:0|0:0|0:0,0:0:0:0:
100,170,52635,5,2,0:0:0:0:
100,170,52829,2,0,P|123:247|103:169,1,247.5,2|0,0:3|0:0,0:0:0:0:
0,260,53216,6,0,B|-6:304|39:330|43:310|87:337|92:383,1,165,6|0,3:2|0:0,0:0:0:0:
219,32,53990,6,0,B|190:67|218:113|231:97|255:143|237:185,1,165,6|0,3:2|0:0,0:0:0:0:
511,0,54764,6,0,B|468:16|469:70|489:62|487:114|450:141,1,165,6|0,3:2|0:0,0:0:0:0:
316,324,55151,5,8,0:0:0:0:
372,253,55345,1,8,0:0:0:0:
388,240,55441,1,8,0:0:0:0:
367,234,55538,2,0,P|402:217|423:307,1,165,8|8,0:3|0:3,0:0:0:0:
393,383,55925,5,10,0:0:0:0:
136,280,56119,1,8,0:0:0:0:
209,218,56312,6,0,P|225:298|237:380,1,165,6|0,3:2|0:0,0:0:0:0:
137,159,57087,6,0,P|75:213|10:264,1,165,4|0,3:2|0:0,0:0:0:0:
158,73,57861,6,0,P|79:47|3:16,2,165,6|0|2,3:2|0:0|0:3,0:0:0:0:
292,184,58441,6,0,B|307:172|307:172|295:196,2,41.25,2|0|0,0:3|0:0|0:0,0:0:0:0:
272,166,58635,2,0,P|250:141|250:106,1,66,8|2,0:0|0:3,0:0:0:0:
412,168,59409,6,0,P|417:140|450:157,1,68.0625020771027,6|0,3:2|0:0,0:0:0:0:
459,163,59796,6,0,P|455:217|418:191,1,105.187502006292,2|0,3:2|0:0,0:0:0:0:
399,184,60183,5,2,3:2:0:0:
272,37,60377,5,8,0:0:0:0:
349,88,60571,5,10,0:0:0:0:
203,232,60764,5,8,0:0:0:0:
274,165,60958,5,10,3:2:0:0:
86,254,61151,1,0,3:0:0:0:
156,347,61345,5,8,3:2:0:0:
271,374,61538,1,0,3:0:0:0:
267,349,61732,5,10,0:0:0:0:
178,212,61925,6,0,L|169:169,1,35.0625006687641,0|0,3:0|0:0,0:0:0:0:
311,96,62119,6,0,L|320:53,1,35.0625006687641,8|0,3:2|0:0,0:0:0:0:
303,50,62312,5,8,0:0:0:0:
291,36,62409,1,0,0:0:0:0:
321,9,62506,2,0,B|349:64|300:96|285:94|236:119|254:175,1,198,4|2,3:1|0:0,0:0:0:0:
260,180,62893,1,2,0:3:0:0:
511,295,63087,6,0,P|513:318|502:297,1,66,2|0,0:3|0:0,0:0:0:0:
463,217,63280,2,0,B|402:206|346:170|346:170|377:199|383:229,1,198,10|0,0:0|0:0,0:0:0:0:
387,233,63667,1,2,3:0:0:0:
138,326,63861,5,2,0:3:0:0:
138,326,63958,1,0,0:0:0:0:
138,326,64054,2,0,P|120:298|118:265,1,66,2|0,0:0|0:0,0:0:0:0:
195,240,64248,2,0,P|212:267|214:300,1,66,2|0,0:0|0:0,0:0:0:0:
70,384,64441,6,0,P|64:278|210:250,1,264,2|10,3:0|0:0,0:0:0:0:
85,37,65022,5,2,0:0:0:0:
72,41,65118,1,2,0:3:0:0:
59,45,65215,1,2,0:3:0:0:
47,49,65312,1,2,0:3:0:0:
34,53,65409,1,2,0:3:0:0:
22,57,65505,1,2,0:3:0:0:
0,42,65603,6,0,B|37:30|37:30|89:51|89:51|85:102|135:138,1,198,6|2,3:2|0:0,0:0:0:0:
138,141,65990,1,2,0:3:0:0:
406,186,66183,6,0,P|400:162|417:179,1,66,2|0,0:3|0:0,0:0:0:0:
510,194,66377,2,0,P|413:216|322:254,1,198,10|0,0:0|0:0,0:0:0:0:
326,258,66764,1,2,3:0:0:0:
294,0,66958,5,2,0:3:0:0:
294,0,67054,1,0,0:0:0:0:
294,0,67151,2,0,B|340:53|340:53|310:130,1,148.49999546814,2|2,0:0|0:3,0:0:0:0:
254,192,67441,1,0,0:0:0:0:
254,192,67538,2,0,B|214:158|214:158|231:112,1,98.9999969787599,2|2,3:0|0:3,0:0:0:0:
2,190,67925,6,0,L|18:193,4,15.468750590086,10|0|0|0|2,0:0|0:0|0:0|0:0|0:3,0:0:0:0:
509,193,68312,6,0,L|494:191,4,15.468750590086,2|0|0|0|2,0:0|0:0|0:0|0:0|0:3,0:0:0:0:
226,381,68700,6,0,B|199:349|221:306|221:306|269:261|269:261|286:219|251:189,1,222.74999320221,4|0,3:2|0:0,0:0:0:0:
249,187,69087,1,2,0:0:0:0:
305,349,69280,5,2,0:3:0:0:
347,126,69474,2,0,P|240:157|130:173,1,222.74999320221,10|0,0:0|0:0,0:0:0:0:
65,119,69861,2,0,B|88:70|88:70|146:97,1,107.249995090485,2|2,3:0|0:3,0:0:0:0:
27,222,70248,6,0,P|18:240|31:225,1,53.6249975452424,2|0,0:3|0:0,0:0:0:0:
99,291,70441,6,0,P|100:311|103:291,1,53.6249975452424,2|0,0:3|0:0,0:0:0:0:
180,255,70635,6,0,B|236:249|227:283|284:276,1,107.249995090485,2|2,3:0|0:3,0:0:0:0:
430,344,71022,5,8,0:0:0:0:
449,338,71119,1,2,0:3:0:0:
469,333,71216,1,2,0:3:0:0:
489,329,71313,1,2,0:3:0:0:
508,327,71409,5,2,0:0:0:0:
466,312,71506,1,2,0:3:0:0:
444,361,71603,1,2,0:3:0:0:
404,353,71700,1,2,0:3:0:0:
378,383,71796,6,0,P|324:328|368:201,1,210.375004012585,6|0,3:2|0:0,0:0:0:0:
359,213,72183,1,2,0:0:0:0:
438,237,72377,1,2,0:3:0:0:
294,284,72571,6,0,B|228:288|200:240|225:189|189:135|107:151,1,235.124993721485,10|0,0:0|0:0,0:0:0:0:
43,105,72958,2,0,B|28:43|95:15|95:15|123:55,1,156.749995814324,2|2,0:0|0:3,0:0:0:0:
227,192,73345,5,2,3:2:0:0:
11,296,73538,5,2,0:3:0:0:
3,317,73635,1,2,0:3:0:0:
41,343,73732,2,0,P|111:326|107:238,1,156.749995814324,8|2,0:0|0:3,0:0:0:0:
17,205,74119,6,0,B|10:191|10:191|31:206,2,39.1874989535809,10|0|0,0:0|0:0|0:0,0:0:0:0:
26,212,74312,1,8,0:0:0:0:
301,130,74506,6,0,B|294:144|294:144|315:129,2,39.1874989535809,8|0|0,0:3|0:0|0:0,0:0:0:0:
310,123,74699,1,4,0:3:0:0:
502,198,74893,5,2,3:2:0:0:
510,192,74958,2,0,P|460:201|405:212,1,105.874996768952,0|8,0:0|0:0,0:0:0:0:
369,288,75861,1,2,0:0:0:0:
369,288,75925,2,0,P|335:278|322:237,1,76.9999976501466,2|2,0:0|0:0,0:0:0:0:
238,220,76829,2,0,P|211:215|181:209,1,57.7499982376099,0|8,3:0|0:0,0:0:0:0:
113,153,77409,5,2,0:0:0:0:
113,153,77474,2,0,B|105:132|105:132|127:155,1,48.1249985313416,2|0,0:0|0:0,0:0:0:0:
35,194,77990,2,0,P|9:217|22:275,2,90.7500027694703,2|0|8,3:2|3:0|0:0,0:0:0:0:
247,213,79538,5,2,0:0:0:0:
312,170,79732,1,0,3:0:0:0:
385,195,79925,1,0,3:0:0:0:
460,166,80312,6,0,P|465:132|477:52,1,115.49999647522,10|2,0:0|3:2,0:0:0:0:
477,51,81151,1,2,0:0:0:0:
248,76,81861,5,8,0:0:0:0:
321,28,82054,1,2,0:0:0:0:
331,19,82119,2,0,P|369:29|386:62,1,76.9999976501466,2|2,0:0|0:0,0:0:0:0:
276,176,83022,6,0,P|281:194|280:174,1,57.7499982376099,0|8,3:0|0:0,0:0:0:0:
170,121,83603,2,0,B|144:113|127:133|131:137|112:156|85:148,1,90.7500027694703,2|0,0:0|0:0,0:0:0:0:
16,121,84183,5,2,3:2:0:0:
496,263,85667,5,0,0:0:0:0:
482,270,85732,1,2,0:0:0:0:
468,257,85796,1,2,0:0:0:0:
256,192,85861,12,0,88829,0:0:0:0:
