osu file format v14

[General]
AudioFilename: audio.mp3
AudioLeadIn: 745
PreviewTime: 49902
Countdown: 0
SampleSet: Soft
StackLeniency: 0.7
Mode: 0
LetterboxInBreaks: 0
EpilepsyWarning: 1
WidescreenStoryboard: 1

[Editor]
DistanceSpacing: 1
BeatDivisor: 4
GridSize: 4
TimelineZoom: 2.6

[Metadata]
Title:Kirakira
TitleUnicode:キラキラ
Artist:Sako Tomohisa
ArtistUnicode:佐香 智久
Creator:Dino99
Version:Normal
Source:ポケットモンスターXY
Tags:Kantokun DreaM117er Pokemon Pikachu Saku
BeatmapID:966557
BeatmapSetID:449527

[Difficulty]
HPDrainRate:4
CircleSize:3
OverallDifficulty:4
ApproachRate:5
SliderMultiplier:1.12
SliderTickRate:1

[Events]
//Background and Video events
0,0,"Moe Pikachu.jpg",0,0
//Break Periods
//Storyboard Layer 0 (Background)
//Storyboard Layer 1 (Fail)
//Storyboard Layer 2 (Pass)
//Storyboard Layer 3 (Foreground)
//Storyboard Sound Samples

[TimingPoints]
755,352.941176470588,4,2,2,40,1,0
2166,-100,4,2,4,80,0,0
12225,-100,4,2,1,55,0,0
13460,-100,4,2,1,65,0,0
34813,-100,4,2,3,65,0,0
35166,-100,4,2,1,65,0,0
35343,-100,4,2,3,65,0,0
36049,-100,4,2,3,65,0,0
37460,-100,4,2,1,65,0,0
37637,-100,4,2,3,65,0,0
37990,-100,4,2,1,65,0,0
38166,-100,4,2,3,65,0,0
40284,-100,4,2,1,65,0,0
40460,-100,4,2,3,65,0,0
40813,-100,4,2,1,65,0,0
40990,-100,4,2,3,75,0,0
41696,-100,4,2,3,80,0,0
42402,-100,4,2,1,80,0,0
42754,-100,4,2,3,80,0,0
43107,-100,4,2,1,80,0,0
43460,-100,4,2,3,80,0,0
43637,-100,4,2,1,80,0,0
44166,-100,4,2,3,80,0,0
45225,-100,4,2,1,80,0,0
45578,-100,4,2,3,80,0,0
45754,-100,4,2,1,80,0,0
46284,-100,4,2,3,80,0,0
46637,-100,4,2,1,80,0,0
46990,-100,4,2,3,80,0,0
47696,-100,4,2,3,40,0,0
47872,-100,4,2,3,50,0,0
48049,-100,4,2,2,60,0,0
48578,-100,4,2,2,90,0,0
48931,-100,4,2,1,80,0,0
49107,-100,4,2,2,80,0,0
49460,-100,4,2,1,60,0,0
49990,-100,4,2,4,85,0,1
60049,-100,4,2,3,90,0,0
60931,-100,4,2,1,90,0,0
61284,-100,4,2,4,85,0,1
71343,-100,4,2,2,70,0,0
72754,-100,4,2,3,90,0,0
74166,-100,4,1,0,80,0,0
75578,-100,4,2,2,85,0,1
80166,-100,4,1,0,90,0,1
81225,-100,4,2,2,85,0,1
85460,-100,4,2,2,80,0,0
86872,-100,4,2,3,90,0,0
88990,-100,4,2,3,80,0,0
89696,-100,4,2,3,70,0,0
90402,-100,4,2,3,60,0,0
91107,-100,4,2,3,50,0,0
91813,-100,4,2,3,40,0,0
92519,-100,4,2,3,30,0,0
93225,-100,4,2,3,20,0,0
93578,-100,4,2,3,5,0,0

[Colours]
Combo1 : 3,146,92
Combo2 : 183,0,183
Combo3 : 0,108,240
Combo4 : 255,0,0
Combo5 : 249,187,0
SliderBorder : 255,255,255

[HitObjects]
72,120,755,6,0,P|60:68|84:12,2,112,4|4|4,0:0|0:0|0:0,0:0:0:0:
164,184,1813,1,8,0:0:0:0:
264,128,2166,6,0,P|340:116|368:132,1,112,4|8,0:0|0:0,0:0:0:0:
440,220,2872,2,0,P|452:276|420:328,1,112,0|8,0:0|0:0,0:0:0:0:
376,344,3402,2,0,L|264:336,1,112,2|0,0:0|0:0,0:0:0:0:
208,332,3931,1,8,0:0:0:0:
96,320,4284,1,0,0:0:0:0:
160,228,4637,1,8,0:0:0:0:
48,216,4990,6,0,P|40:164|80:100,1,112,2|8,0:0|0:0,0:0:0:0:
168,68,5696,2,0,L|160:12,2,56,0|0|8,0:0|0:0|0:0,0:0:0:0:
220,84,6225,2,0,B|264:88|264:88|280:100|280:100|332:104,1,112,2|0,0:0|0:0,0:0:0:0:
376,80,6754,2,0,P|408:56|480:64,2,112,8|0|8,0:0|0:0|0:0,0:0:0:0:
360,192,7813,5,4,0:0:0:0:
452,256,8166,1,8,0:0:0:0:
348,300,8519,2,0,B|288:284|288:284|220:292,1,112,0|8,0:0|0:0,0:0:0:0:
184,296,9049,2,0,B|134:301|134:301|74:285,1,112,2|0,0:0|0:0,0:0:0:0:
48,236,9578,1,8,0:0:0:0:
60,124,9931,2,0,P|104:80|160:84,1,112,0|8,0:0|0:0,0:0:0:0:
248,136,10637,6,0,L|368:116,1,112,2|8,0:0|0:0,0:0:0:0:
472,108,11343,2,0,L|444:216,1,112,0|8,0:0|0:0,0:0:0:0:
428,272,11872,1,6,0:0:0:0:
328,324,12225,6,0,P|280:296|224:312,1,112,0|8,1:0|0:3,0:0:0:0:
124,352,12931,2,0,L|112:292,1,56,8|8,0:0|1:0,0:0:0:0:
104,184,13460,6,0,P|112:120|136:64,1,112,4|8,0:0|0:0,0:0:0:0:
240,100,14166,2,8,P|232:164|208:220,1,112
136,288,14872,1,10,0:0:0:0:
244,316,15225,2,8,P|288:304|356:304,1,112
464,328,15931,1,8,0:0:0:0:
432,220,16284,6,8,L|420:108,1,112,10|8,0:0|0:0,0:0:0:0:
340,28,16990,2,8,L|328:140,1,112
236,204,17696,1,10,0:0:0:0:
224,92,18049,1,8,0:0:0:0:
112,104,18402,1,10,0:0:0:0:
124,216,18754,2,0,L|116:272,1,56,0|2,0:0|0:0,0:0:0:0:
108,328,19107,6,8,P|160:304|216:316,1,112
320,340,19813,2,8,P|374:349|424:325,1,112
408,216,20519,2,8,P|353:206|303:230,1,112,10|8,0:0|0:0,0:0:0:0:
224,152,21225,2,8,P|248:92|232:40,1,112
132,92,21931,6,8,P|108:152|124:204,1,112,10|8,0:0|0:0,0:0:0:0:
172,296,22637,1,8,0:0:0:0:
272,244,22990,1,8,0:0:0:0:
360,316,23343,2,0,L|428:308,2,56,10|0|10,0:0|0:0|0:0,0:0:0:0:
272,244,24049,2,0,L|204:236,2,56,10|0|10,0:0|0:0|0:0,0:0:0:0:
364,180,24754,6,0,P|408:148|308:80,1,224,6|8,0:0|0:0,0:0:0:0:
212,120,25813,2,0,P|152:128|104:112,1,112,8|10,0:0|0:0,0:0:0:0:
76,64,26343,1,0,0:0:0:0:
76,64,26519,2,0,P|80:136|68:180,1,112,8|10,0:0|0:0,0:0:0:0:
60,228,27049,1,0,0:0:0:0:
60,228,27225,2,0,P|56:300|68:344,1,112,8|10,0:0|0:0,0:0:0:0:
176,364,27931,5,8,0:0:0:0:
272,312,28284,2,8,B|320:304|320:304|332:308|332:308|384:300,1,112
428,200,28990,2,0,L|440:140,2,56,10|0|8,0:0|0:0|0:0,0:0:0:0:
340,128,29696,2,0,L|329:73,2,56,10|0|8,0:0|0:0|0:0,0:0:0:0:
240,180,30402,5,14,0:0:0:0:
144,124,30754,2,8,B|108:108|108:108|36:124,2,112
240,180,31813,2,0,L|232:240,1,56,10|0,0:0|0:0,0:0:0:0:
224,292,32166,1,8,0:0:0:0:
136,224,32519,2,0,L|128:284,1,56,10|0,0:0|0:0,0:0:0:0:
120,336,32872,1,8,0:0:0:0:
224,292,33225,6,0,P|284:288|336:304,1,112,10|8,0:0|0:0,0:0:0:0:
428,364,33931,1,8,0:0:0:0:
436,252,34284,2,0,P|444:200|424:136,1,112,8|8,0:0|0:0,0:0:0:0:
388,104,34813,2,0,P|336:88|272:92,1,112,8|8,0:0|0:0,0:0:0:0:
232,120,35343,2,0,L|244:176,2,56,8|8|8,0:0|0:0|0:0,0:0:0:0:
132,72,36049,6,0,B|108:116|128:156|128:156|108:176|108:176|136:232|96:280,1,224,4|8,0:0|0:0,0:0:0:0:
248,352,37284,2,0,L|316:336,1,56,2|8,0:0|0:0,0:0:0:0:
356,324,37637,1,8,0:0:0:0:
464,296,37990,1,8,0:0:0:0:
464,296,38166,2,0,P|460:236|444:184,1,112,8|0,0:0|0:0,0:0:0:0:
392,88,38872,6,0,P|414:125|297:163,1,224,4|8,0:0|0:0,0:0:0:0:
164,64,40107,2,0,L|108:52,2,56,2|8|8,0:0|0:0|0:0,0:0:0:0:
140,172,40813,1,8,0:0:0:0:
84,180,40990,2,0,L|28:188,2,56,8|8|8,0:0|0:0|0:0,0:0:0:0:
108,292,41696,6,0,B|144:296|144:296|176:316|176:316|216:320,1,112,4|8,0:0|0:0,0:0:0:0:
328,324,42402,2,0,L|344:384,2,56,8|8|8,0:0|0:0|0:0,0:0:0:0:
276,224,43107,2,0,P|320:192|380:192,1,112,10|8,0:0|0:0,0:0:0:0:
428,212,43637,2,0,L|400:92,1,112,10|8,0:0|0:0,0:0:0:0:
392,48,44166,1,8,0:0:0:0:
292,96,44519,6,0,B|268:108|236:104|236:104|208:112|180:108,1,112,4|8,0:0|0:0,0:0:0:0:
72,88,45225,2,0,L|64:28,2,56,8|8|8,0:0|0:0|0:0,0:0:0:0:
80,144,45754,2,0,P|100:196|88:252,1,112,12|0,0:0|0:0,0:0:0:0:
60,296,46284,2,0,L|180:284,1,112,8|8,0:0|0:0,0:0:0:0:
272,336,46990,1,8,0:0:0:0:
272,336,47166,6,0,L|392:324,1,112,4|8,0:0|0:0,0:0:0:0:
432,296,47696,2,0,L|436:240,1,56,8|8,0:0|0:0,0:0:0:0:
440,184,48049,1,8,0:0:0:0:
396,80,48402,1,8,0:0:0:0:
396,80,48578,2,0,P|344:112|288:96,1,112,4|8,0:0|0:0,0:0:0:0:
244,84,49107,2,0,P|189:75|144:106,1,112,8|8,0:0|0:3,0:0:0:0:
116,156,49637,2,0,L|108:216,1,56,8|8,0:0|0:0,0:0:0:0:
84,260,49990,6,0,B|192:236|192:236|248:256,1,168,4|8,0:0|0:0,0:0:0:0:
352,288,50872,2,0,L|464:272,1,112,0|8,0:0|0:0,0:0:0:0:
512,168,51578,2,0,L|401:152,1,112,2|8,0:0|0:0,0:0:0:0:
344,144,52107,1,2,0:0:0:0:
264,64,52460,1,8,0:1:0:0:
264,64,52637,1,8,1:0:0:0:
168,120,52990,6,0,P|180:180|160:228,1,112,0|8,0:0|0:0,0:0:0:0:
48,216,53696,2,0,P|64:288|96:320,1,112,0|8,0:0|0:0,0:0:0:0:
140,340,54225,2,0,L|252:332,1,112,4|0,0:0|0:0,0:0:0:0:
300,364,54754,1,8,0:0:0:0:
300,364,54931,2,0,L|412:356,1,112,4|8,0:0|0:1,0:0:0:0:
468,352,55460,1,8,1:0:0:0:
452,244,55813,6,0,P|432:192|440:128,1,112,4|8,0:0|0:0,0:0:0:0:
344,76,56519,2,0,P|292:52|220:72,1,112,0|8,0:0|0:0,0:0:0:0:
188,84,57049,2,0,P|133:91|83:68,1,112,2|0,0:0|0:0,0:0:0:0:
56,20,57578,1,8,0:0:0:0:
16,124,57931,2,0,P|8:180|28:236,1,112,0|8,0:0|0:0,0:0:0:0:
120,292,58637,6,0,L|236:284,1,112,6|8,0:0|0:0,0:0:0:0:
336,324,59343,2,0,L|332:384,2,56,2|0|8,0:0|0:0|0:0,0:0:0:0:
408,240,60049,1,8,0:0:0:0:
408,240,60225,2,0,P|388:188|392:124,1,112,8|8,0:0|0:0,0:0:0:0:
416,84,60754,2,0,L|472:96,2,56,8|8|8,0:3|0:0|0:0,0:0:0:0:
360,88,61284,6,0,B|313:82|282:109|282:109|242:94|198:117,1,168,6|8,0:0|0:0,0:0:0:0:
92,144,62166,2,0,L|76:84,2,56,0|0|8,0:0|0:0|0:0,0:0:0:0:
80,256,62872,2,0,L|196:272,1,112,2|8,0:0|0:0,0:0:0:0:
232,308,63402,2,0,L|348:292,1,112,2|8,0:0|0:1,0:0:0:0:
388,324,63931,1,8,1:0:0:0:
388,324,64107,6,0,P|380:264|396:216,1,112,2|0,0:0|0:0,0:0:0:0:
444,184,64637,1,10,0:0:0:0:
392,84,64990,2,0,L|452:76,2,56,0|0|8,0:0|0:0|0:0,0:0:0:0:
336,88,65519,2,0,P|288:56|232:56,1,112,6|0,0:0|0:0,0:0:0:0:
180,72,66049,1,8,0:0:0:0:
180,72,66225,2,0,P|132:92|100:148,1,112,6|8,0:0|0:1,0:0:0:0:
96,196,66754,1,8,1:0:0:0:
116,304,67107,6,0,P|164:332|220:316,1,112,4|8,0:0|0:0,0:0:0:0:
308,256,67813,2,0,P|361:243|408:270,1,112,0|8,0:0|0:0,0:0:0:0:
456,300,68343,2,0,P|484:256|472:184,1,112,2|0,0:0|0:0,0:0:0:0:
460,144,68872,1,8,0:0:0:0:
380,64,69225,2,0,L|396:4,2,56,0|0|8,0:0|0:0|0:0,0:0:0:0:
276,108,69931,6,0,P|212:88|160:108,1,112,4|8,0:0|0:0,0:0:0:0:
80,168,70637,2,0,L|88:224,2,56,0|0|8,0:0|0:0|0:0,0:0:0:0:
64,56,71343,1,6,0:0:0:0:
64,56,72754,6,0,P|84:116|68:176,1,112,4|8,0:0|0:0,0:0:0:0:
56,216,73284,2,0,P|36:276|52:336,1,112,4|8,0:0|0:0,0:0:0:0:
84,360,73813,1,8,0:0:0:0:
84,360,73990,2,0,P|144:368|200:360,1,112,4|0,0:0|0:0,0:0:0:0:
248,348,74519,2,0,P|308:340|364:348,1,112,2|2,0:0|0:0,0:0:0:0:
412,364,75049,2,0,L|472:356,2,56,0|2|0,0:0|0:0|0:0,0:0:0:0:
358,346,75578,6,0,P|342:290|358:230,1,112,4|8,0:0|0:0,0:0:0:0:
448,180,76284,1,8,0:0:0:0:
348,128,76637,1,8,0:0:0:0:
348,128,76813,2,0,B|320:116|292:120|292:120|268:112|236:120,1,112,2|0,0:0|0:0,0:0:0:0:
192,152,77343,2,0,B|164:164|136:160|136:160|112:168|80:160,2,112,8|8|8,0:0|0:0|0:0,0:0:0:0:
132,60,78402,5,10,0:0:0:0:
82,160,78754,2,0,P|66:216|78:276,1,112,8|8,0:0|0:0,0:0:0:0:
104,316,79284,2,0,L|160:324,1,56,0|8,0:0|0:0,0:0:0:0:
216,324,79637,2,0,P|272:308|348:324,1,112,2|0,0:0|0:0,0:0:0:0:
376,336,80166,5,2,0:0:0:0:
356,224,80519,1,2,0:0:0:0:
436,148,80872,1,2,0:0:0:0:
420,36,81225,6,0,P|360:48|304:40,1,112,4|8,0:0|0:0,0:0:0:0:
204,84,81931,2,0,L|208:140,2,56,8|0|8,0:0|0:0|0:0,0:0:0:0:
168,44,82460,2,0,P|120:28|48:48,1,112,2|0,0:0|0:0,0:0:0:0:
16,76,82990,2,0,P|0:136|12:188,1,112,8|8,0:0|0:0,0:0:0:0:
44,228,83519,1,0,0:0:0:0:
44,228,83696,1,8,0:0:0:0:
132,296,84049,6,0,L|252:288,1,112,10|8,0:0|0:0,0:0:0:0:
296,304,84578,1,0,0:0:0:0:
348,320,84754,2,0,L|468:312,1,112,8|8,0:0|0:0,0:0:0:0:
504,276,85284,1,0,0:0:0:0:
504,276,85460,1,14,0:0:0:0:
256,192,86872,12,4,88107,0:0:0:0:
256,192,88284,12,0,93578,0:0:0:0:
