osu file format v14

[General]
AudioFilename: audio.mp3
AudioLeadIn: 0
PreviewTime: 47746
Countdown: 1
SampleSet: Normal
StackLeniency: 0.7
Mode: 0
LetterboxInBreaks: 0
WidescreenStoryboard: 0

[Editor]
Bookmarks: 7956
DistanceSpacing: 1.3
BeatDivisor: 4
GridSize: 4
TimelineZoom: 3.199999

[Metadata]
Title:Getter Ban Ban [TV Size]
TitleUnicode:ゲッタバンバン [TV Size]
Artist:Sako Tomohisa
ArtistUnicode:佐香 智久
Creator:- ascended -
Version:Ban Ban!
Source:ポケットモンスター XY
Tags:ポケットモンスター XY Pokemon Nintendo Pocket Monsters -ascended- ascended
BeatmapID:1823390
BeatmapSetID:872503

[Difficulty]
HPDrainRate:5.1
CircleSize:3.8
OverallDifficulty:7.2
ApproachRate:9.6
SliderMultiplier:1.4
SliderTickRate:1

[Events]
//Background and Video events
0,0,"background.jpg",0,0
//Break Periods
//Storyboard Layer 0 (Background)
//Storyboard Layer 1 (Fail)
//Storyboard Layer 2 (Pass)
//Storyboard Layer 3 (Foreground)
//Storyboard Sound Samples

[TimingPoints]
591,359.281437125748,4,1,1,100,1,0
2926,-66.6666666666667,4,2,1,100,0,0
11728,-100,4,2,1,100,0,0
14782,-50,4,2,1,100,0,0
14872,-50,4,2,1,100,0,0
15321,-66.6666666666667,4,2,1,100,0,0
35800,-50,4,2,1,100,0,0
47207,-133.333333333333,4,2,1,100,0,0
47297,-133.333333333333,4,2,1,100,0,1
47836,-33.3333333333333,4,2,1,100,0,1
48914,-52.6315789473684,4,2,1,100,0,1
52147,-50,4,2,1,100,0,1
54123,-66.6666666666667,4,2,1,100,0,1
54393,-50,4,2,1,100,0,1
56638,-66.6666666666667,4,2,1,100,0,1
56998,-50,4,2,1,100,0,1
58794,-133.333333333333,4,2,1,100,0,1
59243,-125,4,2,1,100,0,1
59333,-50,4,2,1,100,0,1
59513,-50,4,2,1,100,0,1
63451,-66.6666666666667,4,2,1,100,0,1
63824,-50,4,2,1,100,0,1
65244,-66.6666666666667,4,2,1,100,0,1
65620,-50,4,2,1,100,0,1
67956,-66.6666666666667,4,2,1,100,0,1
68056,-50,4,2,1,100,0,1
69393,-50,4,2,1,100,0,0
75321,-66.6666666666667,4,2,1,100,0,1
86279,-66.6666666666667,4,2,1,100,0,0

[HitObjects]
196,292,591,5,0,0:0:0:0:
196,90,770,1,0,0:0:0:0:
372,192,950,1,0,0:0:0:0:
143,231,1129,5,0,0:0:0:0:
275,73,1309,1,0,0:0:0:0:
346,267,1489,1,0,0:0:0:0:
152,119,1668,5,0,0:0:0:0:
379,175,1847,1,0,0:0:0:0:
294,297,2028,5,2,0:0:0:0:
249,283,2117,1,2,0:0:0:0:
220,240,2207,1,2,0:0:0:0:
237,194,2297,1,2,0:0:0:0:
277,160,2387,1,2,0:0:0:0:
81,318,2926,5,0,0:0:0:0:
81,218,3105,1,0,0:0:0:0:
165,267,3285,1,0,0:0:0:0:
256,147,3465,5,0,0:0:0:0:
162,180,3644,1,0,0:0:0:0:
180,82,3824,1,0,0:0:0:0:
326,90,4004,5,0,0:3:0:0:
339,175,4184,1,0,0:3:0:0:
404,128,4363,6,0,B|437:172|382:225|385:271,1,105.000004005432,0|0,0:3|0:3,0:3:0:0:
253,324,4722,1,0,0:0:0:0:
325,261,4902,1,0,0:0:0:0:
355,351,5082,1,0,0:0:0:0:
161,292,5261,6,0,B|189:221|256:243|279:265,1,105.000004005432
99,196,5620,5,0,0:0:0:0:
55,57,5800,1,0,0:0:0:0:
191,22,5980,1,0,0:0:0:0:
239,162,6159,2,0,P|297:143|327:87,1,105.000004005432
475,105,6519,6,0,P|436:56|373:49,1,105.000004005432
435,198,6878,2,0,P|405:167|326:172,1,105.000004005432
389,296,7237,5,0,0:0:0:0:
292,323,7417,1,0,0:0:0:0:
212,260,7596,6,0,P|161:255|119:285,1,105.000004005432
61,127,7956,2,0,P|97:177|161:175,1,105.000004005432
174,105,8315,1,0,0:0:0:0:
301,76,8495,5,0,0:0:0:0:
434,40,8674,1,0,0:0:0:0:
490,215,8854,1,0,0:0:0:0:
357,249,9034,1,0,0:0:0:0:
233,217,9213,6,0,P|241:167|288:149,1,105.000004005432
446,285,9573,2,0,P|438:335|392:354,1,105.000004005432
337,255,9932,1,0,0:0:0:0:
243,318,10111,5,0,0:0:0:0:
128,304,10291,1,0,0:0:0:0:
337,255,10471,5,0,0:0:0:0:
128,304,10650,2,0,P|78:305|53:261,1,105.000004005432
84,178,11010,5,0,0:0:0:0:
200,74,11189,1,0,0:0:0:0:
190,177,11369,5,2,0:0:0:0:
214,180,11459,1,2,0:0:0:0:
231,196,11549,1,2,0:0:0:0:
327,67,11728,6,0,B|361:66|374:90|396:83,1,70
363,169,12088,1,0,0:0:0:0:
350,256,12267,6,0,B|384:255|397:279|418:272,1,70
314,335,12626,1,0,0:0:0:0:
140,282,12806,1,0,0:0:0:0:
219,331,12986,1,0,0:0:0:0:
53,289,13165,2,0,P|44:256|65:223,1,70
163,220,13525,5,0,0:0:0:0:
368,166,13704,1,0,0:0:0:0:
329,94,13884,5,0,0:0:0:0:
276,300,14064,1,0,0:0:0:0:
329,94,14243,5,2,0:0:0:0:
296,126,14332,1,2,0:0:0:0:
288,171,14422,1,2,0:0:0:0:
308,213,14512,1,2,0:0:0:0:
348,235,14602,1,2,0:0:0:0:
394,230,14692,1,2,0:0:0:0:
418,194,14782,2,0,P|426:128|351:87,1,140
139,196,15141,5,0,0:0:0:0:
247,133,15321,1,0,0:0:0:0:
139,69,15501,1,0,0:0:0:0:
115,310,15680,6,0,B|152:242|221:287|227:231,1,105.000004005432
384,335,16040,5,0,0:0:0:0:
404,163,16219,1,0,0:0:0:0:
480,285,16399,1,0,0:0:0:0:
247,297,16579,1,0,0:0:0:0:
313,40,16758,6,0,B|271:89|359:115|272:144|326:154,1,105.000004005432
200,103,17117,1,0,0:0:0:0:
306,227,17297,1,0,0:0:0:0:
113,285,17477,6,0,B|78:289|165:260|77:234|119:185,1,105.000004005432
200,103,17836,1,0,0:0:0:0:
312,236,18016,1,0,0:0:0:0:
131,270,18195,6,0,P|196:237|254:262,1,105.000004005432
207,339,18555,1,0,0:0:0:0:
147,157,18734,1,0,0:0:0:0:
267,254,18914,6,0,P|292:188|346:155,1,105.000004005432
183,135,19274,1,0,0:0:0:0:
348,254,19453,1,0,0:0:0:0:
288,165,19632,5,0,0:0:0:0:
460,261,19812,1,0,0:0:0:0:
404,76,19992,5,8,0:0:0:0:
291,191,20171,1,8,0:0:0:0:
82,134,20351,1,8,0:0:0:0:
157,259,20531,6,0,P|198:304|167:368,1,105.000004005432
335,228,20890,1,0,0:0:0:0:
100,283,21070,1,0,0:0:0:0:
384,214,21249,6,0,P|425:259|394:323,1,105.000004005432
454,182,21608,1,0,0:0:0:0:
156,267,21788,1,0,0:0:0:0:
445,96,21968,6,0,B|371:43|315:107|301:69,1,105.000004005432
337,204,22327,1,0,0:0:0:0:
234,73,22507,1,0,0:0:0:0:
153,210,22686,6,0,B|154:243|130:166|56:232,1,105.000004005432
103,116,23045,1,0,0:0:0:0:
156,310,23225,2,0,B|158:344|134:267|60:333,1,105.000004005432
82,70,23585,5,0,0:0:0:0:
135,274,23764,1,0,0:0:0:0:
208,45,23944,5,0,0:0:0:0:
226,243,24123,1,0,0:0:0:0:
340,60,24303,5,0,0:0:0:0:
314,258,24482,1,0,0:0:0:0:
450,94,24662,5,0,0:0:0:0:
390,293,24841,1,0,0:0:0:0:
340,60,25022,5,0,0:0:0:0:
314,258,25201,1,0,0:0:0:0:
206,49,25381,5,0,0:0:0:0:
224,242,25561,1,0,0:0:0:0:
79,71,25740,5,0,0:0:0:0:
135,273,25920,1,0,0:0:0:0:
316,184,26099,1,0,0:0:0:0:
299,74,26279,5,0,0:0:0:0:
100,158,26459,1,0,0:0:0:0:
396,244,26638,1,0,0:0:0:0:
266,333,26818,6,0,P|210:294|154:303,1,105.000004005432
396,244,27177,1,0,0:0:0:0:
103,82,27357,1,2,0:0:0:0:
190,149,27446,1,2,0:0:0:0:
214,189,27536,1,2,0:0:0:0:
260,192,27626,1,2,0:0:0:0:
295,152,27716,1,2,0:0:0:0:
259,76,27896,5,0,0:0:0:0:
185,43,28076,1,0,0:0:0:0:
202,132,28255,1,0,0:0:0:0:
79,171,28435,2,0,B|147:160|174:234|212:206,1,105.000004005432
92,263,28794,5,0,0:0:0:0:
264,326,28974,1,0,0:0:0:0:
160,314,29153,2,0,B|183:249|236:280|253:216,1,105.000004005432
437,198,29513,5,0,0:0:0:0:
339,331,29692,1,0,0:0:0:0:
439,292,29872,2,0,P|374:249|320:269,1,105.000004005432
374,209,30231,5,0,0:0:0:0:
339,98,30411,1,0,0:0:0:0:
256,180,30590,1,0,0:0:0:0:
204,85,30770,5,0,0:0:0:0:
204,85,30950,2,0,B|138:75|107:140|77:121,1,105.000004005432
213,240,31309,5,0,0:0:0:0:
213,240,31489,2,0,B|147:230|116:295|76:278,1,105.000004005432
349,236,31848,5,0,0:3:0:0:
349,236,32028,2,0,B|335:271|400:302|390:352,1,105.000004005432,0|0,0:3|0:3,0:3:0:0:
354,126,32387,5,0,0:0:0:0:
167,90,32567,1,0,0:0:0:0:
300,223,32746,1,0,0:0:0:0:
277,40,32925,1,0,0:0:0:0:
191,209,33105,1,0,0:0:0:0:
411,97,33285,5,2,0:0:0:0:
373,104,33374,1,2,0:0:0:0:
340,126,33464,1,2,0:0:0:0:
306,145,33554,1,2,0:0:0:0:
270,174,33644,1,2,0:0:0:0:
72,104,33824,5,0,0:0:0:0:
155,112,34004,1,0,0:0:0:0:
155,112,34183,2,0,B|150:181|205:192|197:251,1,105.000004005432
84,218,34543,5,0,0:0:0:0:
284,347,34722,1,0,0:0:0:0:
151,314,34902,1,0,0:0:0:0:
151,314,35082,2,0,B|178:269|222:305|265:227,1,105.000004005432
445,122,35441,5,0,0:0:0:0:
328,283,35620,1,0,0:0:0:0:
404,213,35800,1,0,0:0:0:0:
404,213,35980,2,0,B|349:207|350:153|284:148,1,140
79,61,36339,6,0,B|79:140|79:140|79:176|115:197,1,140
159,86,36698,1,0,0:0:0:0:
234,124,36878,6,0,B|234:203|234:203|234:239|270:260,1,140
314,149,37237,1,0,0:0:0:0:
199,184,37417,1,0,0:0:0:0:
86,207,37596,2,0,B|37:255|46:316|2:389,1,140
288,308,37956,2,0,B|240:259|179:268|106:224,1,140
90,69,38315,5,8,0:0:0:0:
274,49,38495,1,8,0:0:0:0:
311,254,38674,1,8,0:0:0:0:
123,278,38854,1,8,0:0:0:0:
204,168,39034,1,0,0:0:0:0:
365,76,39213,6,0,B|340:113|314:151|271:213,1,140
420,180,39573,1,0,0:0:0:0:
435,333,39752,2,0,B|397:263|352:325|319:272,1,140
211,271,40111,1,0,0:0:0:0:
167,144,40291,1,0,0:0:0:0:
367,106,40471,6,0,B|333:45|295:97|250:32,1,140
404,216,40830,1,0,0:0:0:0:
159,142,41010,1,0,0:0:0:0:
333,121,41189,1,0,0:0:0:0:
179,332,41369,2,0,B|238:300|199:247|252:211,1,140
340,101,41728,1,0,0:0:0:0:
233,267,41908,6,0,B|267:328|305:276|350:341,1,140
132,182,42267,1,0,0:0:0:0:
352,241,42447,1,0,0:0:0:0:
164,326,42626,1,0,0:0:0:0:
329,99,42806,2,0,B|270:131|310:185|257:221,1,140
222,317,43165,1,0,0:0:0:0:
442,209,43345,2,0,B|365:229|424:281|356:312,1,140
160,100,43704,5,4,0:0:0:0:
272,320,43884,1,4,0:0:0:0:
256,51,44064,5,4,0:0:0:0:
195,332,44243,1,4,0:0:0:0:
398,158,44423,5,4,0:0:0:0:
127,247,44602,1,4,0:0:0:0:
412,239,44782,5,4,0:0:0:0:
86,169,44962,1,4,0:0:0:0:
225,78,45141,5,0,0:0:0:0:
336,307,45321,1,0,0:0:0:0:
225,78,45680,5,0,0:0:0:0:
336,307,45860,1,0,0:0:0:0:
303,67,46219,5,0,0:0:0:0:
198,299,46399,1,0,0:0:0:0:
303,67,46758,5,0,0:0:0:0:
198,299,46938,1,0,0:0:0:0:
293,324,47297,6,0,L|312:327,1,13.125000500679
304,301,47387,6,0,L|323:304,1,13.125000500679
308,279,47477,6,0,L|327:282,1,13.125000500679
312,254,47567,6,0,L|331:257,1,13.125000500679
312,239,47656,6,0,L|332:236,1,13.125000500679
318,209,47746,6,0,L|338:206,1,13.125000500679
315,189,47836,6,0,P|264:116|140:109,1,210
193,296,48195,1,0,0:0:0:0:
405,104,48375,5,0,0:0:0:0:
139,192,48555,1,0,0:0:0:0:
272,55,48734,5,0,0:0:0:0:
275,283,48914,2,0,P|332:251|432:272,1,132.999996448517
392,82,49273,6,0,P|335:114|240:94,1,132.999996448517
396,318,49632,1,0,0:0:0:0:
173,69,49812,5,0,0:0:0:0:
280,288,49992,1,0,0:0:0:0:
276,56,50171,5,0,0:0:0:0:
203,277,50351,1,0,0:0:0:0:
108,179,50531,6,0,P|147:119|218:93,1,132.999996448517
405,274,50890,2,0,B|442:223|343:216|337:134,1,132.999996448517
285,55,51249,5,0,0:0:0:0:
211,270,51429,1,0,0:0:0:0:
145,163,51608,5,0,0:0:0:0:
394,156,51788,1,0,0:0:0:0:
284,283,51968,1,0,0:0:0:0:
129,52,52147,6,0,B|68:123|120:166|66:202,1,140
302,79,52507,1,0,0:0:0:0:
160,247,52686,5,0,0:0:0:0:
427,219,52866,1,0,0:0:0:0:
270,287,53046,5,0,0:0:0:0:
429,102,53226,1,0,0:0:0:0:
372,305,53405,5,0,0:0:0:0:
366,62,53585,1,0,0:0:0:0:
178,71,53764,5,0,0:0:0:0:
310,235,53944,1,0,0:0:0:0:
340,108,54123,2,8,P|388:75|436:96,1,105.000004005432
223,232,54483,2,0,P|149:210|106:264,1,140
366,142,54842,5,0,0:0:0:0:
274,300,55022,1,0,0:0:0:0:
276,95,55201,5,0,0:0:0:0:
366,296,55381,1,0,0:0:0:0:
146,233,55561,5,0,0:0:0:0:
358,183,55740,1,0,0:0:0:0:
170,165,55920,5,0,0:0:0:0:
413,259,56099,1,0,0:0:0:0:
109,290,56279,5,0,0:0:0:0:
216,111,56459,1,0,0:0:0:0:
288,290,56638,2,8,P|239:322|192:302,1,105.000004005432
302,143,56998,2,0,P|375:164|419:111,1,140
139,278,57357,5,0,0:0:0:0:
255,103,57537,1,0,0:0:0:0:
250,322,57716,5,0,0:0:0:0:
173,99,57896,1,0,0:0:0:0:
417,157,58076,5,0,0:0:0:0:
223,235,58255,1,0,0:0:0:0:
411,127,58435,5,0,0:0:0:0:
159,175,58614,1,0,0:0:0:0:
240,280,58794,6,0,L|241:298,1,17.500000667572
264,276,58884,6,0,L|265:294,1,13.125000500679
291,268,58974,6,0,L|294:286,1,13.125000500679
317,265,59064,6,0,L|320:283,1,13.125000500679
332,258,59153,6,0,L|341:275,1,13.125000500679
347,258,59243,6,0,L|354:276,1,14
360,246,59333,6,0,P|412:174|391:87,1,140
151,60,59692,1,0,0:0:0:0:
390,320,59872,5,0,0:0:0:0:
338,99,60052,1,0,0:0:0:0:
437,235,60231,5,0,0:0:0:0:
227,82,60411,2,0,P|222:134|292:201,1,140
302,323,60770,6,0,B|381:290|317:232|397:207,1,140
199,321,61129,1,0,0:0:0:0:
379,109,61309,5,0,0:0:0:0:
202,263,61489,1,0,0:0:0:0:
412,236,61668,5,0,0:0:0:0:
112,155,61848,1,0,0:0:0:0:
316,61,62028,6,0,P|361:55|436:120,1,140
141,310,62387,2,0,B|231:253|170:220|234:210,1,140
394,234,62746,5,0,0:0:0:0:
197,129,62926,1,0,0:0:0:0:
333,274,63105,5,0,0:0:0:0:
243,72,63285,1,0,0:0:0:0:
196,293,63465,6,0,P|122:242|75:293,1,105.000004005432
335,216,63824,2,0,P|409:165|456:216,1,105.000004005432
182,302,64183,5,0,0:0:0:0:
255,81,64363,1,0,0:0:0:0:
305,319,64543,1,0,0:0:0:0:
333,127,64722,1,0,0:0:0:0:
216,313,64902,1,0,0:0:0:0:
186,138,65082,1,0,0:0:0:0:
358,287,65261,6,8,P|406:254|454:275,1,105.000004005432
209,240,65621,2,0,P|135:218|80:261,1,140
407,318,65980,1,0,0:0:0:0:
373,106,66159,5,0,0:0:0:0:
277,318,66339,1,0,0:0:0:0:
262,62,66518,5,0,0:0:0:0:
353,281,66698,1,0,0:0:0:0:
136,245,66878,5,0,0:0:0:0:
306,183,67057,1,0,0:0:0:0:
112,160,67237,5,0,0:0:0:0:
316,243,67416,1,0,0:0:0:0:
143,293,67596,5,0,0:0:0:0:
276,107,67776,1,0,0:0:0:0:
238,315,67956,5,0,0:0:0:0:
198,103,68135,1,0,0:0:0:0:
340,288,68315,6,8,P|387:334|446:304,1,140
201,119,68674,2,0,P|152:164|91:140,1,140
306,102,69033,5,0,0:0:0:0:
250,322,69213,1,0,0:0:0:0:
417,157,69393,5,2,0:0:0:0:
162,242,69572,1,2,0:0:0:0:
400,224,69752,5,2,0:0:0:0:
108,141,69931,1,2,0:0:0:0:
314,72,70111,6,2,B|277:104|323:172|233:242,1,140
424,104,70471,1,0,0:0:0:0:
248,283,70650,1,0,0:0:0:0:
177,107,70830,6,2,B|140:139|186:207|96:277,1,140
63,106,71190,1,2,0:0:0:0:
300,204,71369,1,2,0:0:0:0:
155,262,71549,5,2,0:0:0:0:
380,299,71728,1,2,0:0:0:0:
337,90,71908,5,0,0:0:0:0:
281,326,72088,1,0,0:0:0:0:
123,197,72267,6,0,P|191:139|278:191,1,140
426,103,72626,2,0,B|344:120|391:185|298:224,1,140
235,56,72986,5,0,0:0:0:0:
195,279,73165,1,0,0:0:0:0:
336,48,73345,6,0,P|394:116|342:203,1,140
351,316,73704,2,0,B|334:234|269:281|230:188,1,140
214,81,74064,5,0,0:0:0:0:
185,284,74243,1,0,0:0:0:0:
316,80,74423,5,0,0:0:0:0:
364,280,74602,1,0,0:0:0:0:
194,74,74782,5,0,0:0:0:0:
164,296,74962,1,0,0:0:0:0:
380,89,75141,1,0,0:0:0:0:
154,205,75321,6,2,P|76:169|-10:235,1,105.000004005432
341,101,75680,2,2,P|383:70|435:67,1,105.000004005432
435,312,76040,2,2,P|357:276|271:342,1,105.000004005432
58,337,76399,5,2,0:0:0:0:
329,267,76579,1,2,0:0:0:0:
106,270,76758,5,2,0:0:0:0:
366,336,76938,1,2,0:0:0:0:
183,138,77117,5,2,0:0:0:0:
503,229,77297,1,2,0:0:0:0:
142,224,77477,5,2,0:0:0:0:
438,129,77656,1,2,0:0:0:0:
125,80,77836,5,2,0:0:0:0:
220,324,78016,1,2,0:0:0:0:
399,52,78195,5,2,0:0:0:0:
95,175,78375,1,2,0:0:0:0:
448,322,78555,5,2,0:0:0:0:
306,21,78734,1,2,0:0:0:0:
214,353,78914,5,2,0:0:0:0:
476,248,79093,1,2,0:0:0:0:
171,54,79273,5,2,0:0:0:0:
308,333,79453,1,2,0:0:0:0:
88,166,79632,5,2,0:0:0:0:
422,121,79812,1,2,0:0:0:0:
205,357,79992,5,2,0:0:0:0:
138,45,80172,1,2,0:0:0:0:
417,256,80351,5,2,0:0:0:0:
80,337,80531,1,2,0:0:0:0:
272,53,80711,5,2,0:0:0:0:
353,350,80891,1,2,0:0:0:0:
86,89,81070,5,2,0:0:0:0:
393,91,81249,1,2,0:0:0:0:
100,161,81429,5,2,0:0:0:0:
428,162,81608,1,2,0:0:0:0:
82,234,81788,5,2,0:0:0:0:
428,231,81968,1,2,0:0:0:0:
79,307,82147,5,2,0:0:0:0:
409,311,82327,1,2,0:0:0:0:
181,52,82507,5,2,0:0:0:0:
181,353,82686,1,2,0:0:0:0:
418,112,82866,5,2,0:0:0:0:
101,123,83046,1,2,0:0:0:0:
297,350,83225,5,2,0:0:0:0:
333,54,83405,1,2,0:0:0:0:
72,336,83585,5,2,0:0:0:0:
400,236,83764,1,2,0:0:0:0:
76,173,83944,5,2,0:0:0:0:
330,335,84123,1,2,0:0:0:0:
233,40,84303,5,2,0:0:0:0:
181,336,84482,1,2,0:0:0:0:
409,140,84662,5,2,0:0:0:0:
79,162,84841,1,2,0:0:0:0:
215,339,85021,5,2,0:0:0:0:
357,36,85200,1,2,0:0:0:0:
133,114,85381,5,2,0:0:0:0:
318,336,85561,1,2,0:0:0:0:
416,187,85740,1,2,0:0:0:0:
132,291,85920,1,2,0:0:0:0:
307,38,86099,6,0,B|312:148|312:148|420:185|420:185|324:226|324:226|319:338|319:338|238:256|238:256|131:291|131:291|197:184|197:184|131:113|131:113|243:130|243:130|281:47,1,1050.00004005432
