osu file format v14

[General]
AudioFilename: Pokemon XY NEW OPENING - OP 3 - Getta Banban! (Mad-Paced Getter).mp3
AudioLeadIn: 1500
PreviewTime: 47325
Countdown: 0
SampleSet: Soft
StackLeniency: 0.7
Mode: 0
LetterboxInBreaks: 0
WidescreenStoryboard: 0

[Editor]
DistanceSpacing: 1
BeatDivisor: 4
GridSize: 4
TimelineZoom: 1

[Metadata]
Title:Getta Banban Anime Size ver.
TitleUnicode:ゲッタバンバン アニメサイズver.
Artist:Sako Tomohisa
ArtistUnicode:佐香 智久
Creator:CrystilonZ
Version:Normal
Source:ポケットモンスター XY
Tags:Pokémon Pokemon XY Nintendo GAME FREAK Mad-Paced Getter Kantokun
BeatmapID:731786
BeatmapSetID:330146

[Difficulty]
HPDrainRate:4
CircleSize:3.5
OverallDifficulty:4
ApproachRate:5
SliderMultiplier:1.1
SliderTickRate:1

[Events]
//Background and Video events
0,0,"BG.jpg",0,0
Video,0,"VVV.avi"
//Break Periods
//Storyboard Layer 0 (Background)
//Storyboard Layer 1 (Fail)
//Storyboard Layer 2 (Pass)
//Storyboard Layer 3 (Foreground)
//Storyboard Sound Samples

[TimingPoints]
260,359.281437125748,4,2,1,60,1,0
2595,-100,4,2,1,45,0,0
13912,-100,4,2,1,50,0,0
27565,-100,4,2,1,55,0,0
43373,-100,4,2,1,60,0,0
47505,-100,4,2,1,60,0,1
54691,-100,4,2,1,45,0,1
54780,-100,4,2,1,60,0,1
56307,-100,4,2,1,45,0,1
56397,-100,4,2,1,60,0,1
58912,-100,4,2,1,45,0,0
59002,-100,4,2,1,60,0,1
72116,-100,4,2,1,60,0,0
74990,-100,4,2,1,65,0,1
85768,-100,4,2,1,60,0,0

[Colours]
Combo1 : 177,116,54
Combo2 : 205,205,205
Combo3 : 21,126,255
Combo4 : 255,209,26
Combo5 : 255,51,51
Combo6 : 228,157,255
Combo7 : 90,181,23

[HitObjects]
128,36,260,6,0,P|156:76|148:156,1,110,0|12,1:0|0:0,0:0:0:0:
136,188,798,2,0,L|260:168,1,110,0|12,1:0|0:0,0:0:0:0:
320,248,1517,1,12,0:0:0:0:
320,248,1697,2,0,L|211:265,1,110,0|0,1:0|1:0,0:0:0:0:
352,156,2595,1,0,0:0:0:0:
352,156,2954,6,0,P|412:208|408:292,1,165,4|2,0:0|0:1,0:1:0:0:
320,348,3852,2,0,L|211:365,1,110,2|2,0:1|0:1,0:1:0:0:
124,296,4571,1,2,0:1:0:0:
136,188,4930,1,2,0:1:0:0:
88,88,5289,2,0,B|152:60|212:104|212:104|304:60,1,220,2|2,0:1|0:1,0:1:0:0:
388,120,6367,6,0,L|284:172,1,110,2|2,0:1|0:1,0:1:0:0:
381,222,7086,1,2,0:1:0:0:
484,180,7445,2,0,P|504:128|476:60,1,110,2|2,0:1|0:1,0:1:0:0:
388,120,8164,2,0,P|368:172|396:240,1,110,2|2,0:1|0:1,0:1:0:0:
476,280,8882,6,0,P|376:332|288:280,1,220,2|2,0:1|0:1,0:1:0:0:
272,172,9960,1,2,0:1:0:0:
240,68,10319,2,0,P|192:92|168:140,2,110,2|2|2,0:1|0:1|0:1,0:1:0:0:
272,172,11397,1,2,0:1:0:0:
192,248,11757,6,0,P|128:248|76:208,1,110,2|2,0:1|0:1,0:1:0:0:
167,140,12475,1,2,0:1:0:0:
272,172,12834,1,2,0:1:0:0:
294,280,13194,2,0,P|258:308|234:368,1,110,2|2,0:1|0:1,0:0:0:0:
340,376,13912,2,0,L|460:320,1,110,0|0,1:0|1:0,0:0:0:0:
496,336,14451,6,0,P|460:300|456:180,1,165,4|8,0:0|0:0,0:0:0:0:
472,84,15349,2,0,P|432:96|348:84,1,110,2|8,0:1|0:0,0:0:0:0:
312,72,15888,2,0,P|360:136|348:216,1,165,0|8,1:0|0:0,0:0:0:0:
248,164,16786,2,0,P|208:120|200:64,1,110,2|8,0:1|0:0,0:0:0:0:
100,16,17505,5,0,1:0:0:0:
32,104,17864,2,0,L|16:216,1,110,8|2,0:0|0:1,0:0:0:0:
56,316,18583,1,8,0:0:0:0:
56,316,18762,2,0,B|104:296|120:256|120:256|200:288,1,165,0|8,1:0|0:0,0:0:0:0:
292,324,19661,1,2,0:1:0:0:
400,308,20020,1,8,0:0:0:0:
361,207,20379,6,0,L|260:164,1,110,2|8,1:0|0:0,0:0:0:0:
152,172,21098,2,0,P|156:124|212:72,1,110,2|8,0:1|0:0,0:0:0:0:
303,57,21816,1,0,1:0:0:0:
372,144,22176,1,8,0:0:0:0:
263,166,22535,2,0,P|255:218|203:270,1,110,2|8,0:1|0:0,0:0:0:0:
152,172,23254,6,0,P|110:139|91:68,1,110,6|8,0:0|0:0,0:0:0:0:
200,68,23972,2,0,P|249:48|320:67,1,110,6|8,0:0|0:0,0:0:0:0:
372,144,24691,1,4,0:0:0:0:
460,208,25050,2,0,P|480:164|468:92,2,110,8|0|8,0:0|1:0|0:0,0:0:0:0:
412,236,25948,6,0,L|296:224,1,110,4|4,0:0|0:0,0:0:0:0:
240,316,26667,2,0,L|294:321,1,55,4|4,0:0|1:2,0:0:0:0:
220,240,27206,6,0,P|176:268|164:336,1,110,8|4,0:0|0:0,0:0:0:0:
64,368,27924,2,0,L|36:240,1,110,12|10,0:0|0:1,0:0:0:0:
76,156,28643,1,8,0:0:0:0:
76,156,28822,2,0,P|120:128|132:60,1,110,10|10,0:1|0:1,0:0:0:0:
116,24,29361,2,0,L|236:40,1,110,8|2,0:0|0:1,0:0:0:0:
316,100,30080,1,8,0:0:0:0:
332,208,30439,6,0,L|222:193,1,110,2|8,0:1|0:0,0:0:0:0:
268,296,31158,1,2,0:1:0:0:
376,308,31517,1,8,0:0:0:0:
376,308,31697,2,0,P|424:268|440:216,1,110,4|2,0:0|0:1,0:0:0:0:
440,168,32236,2,0,L|454:58,1,110,8|2,0:0|0:1,0:0:0:0:
345,98,32954,2,0,L|331:208,1,110,8|4,0:0|0:0,0:0:0:0:
244,144,33673,6,0,B|228:100|240:64|240:64|212:52,1,110,12|10,0:0|0:1,0:0:0:0:
132,128,34391,1,8,0:0:0:0:
132,128,34571,2,0,P|132:176|184:236,1,110,10|10,0:1|0:1,0:0:0:0:
216,247,35110,2,0,L|323:218,1,110,8|2,0:0|0:1,0:0:0:0:
388,132,35828,1,8,0:0:0:0:
438,233,36188,6,0,P|420:286|373:327,1,110,2|8,0:1|0:0,0:0:0:0:
271,341,36906,1,2,0:1:0:0:
212,250,37265,1,8,0:0:0:0:
212,250,37445,2,0,P|208:204|244:136,1,110,4|2,0:0|0:1,0:0:0:0:
264,100,37984,2,0,L|144:96,1,110,8|2,0:0|0:1,0:0:0:0:
80,16,38703,5,8,0:0:0:0:
80,16,38882,2,0,P|44:84|72:168,1,165,4|8,0:0|0:0,0:0:0:0:
160,224,39780,1,0,1:0:0:0:
236,304,40140,1,8,0:0:0:0:
236,304,40319,2,0,P|272:236|244:148,1,165,4|8,0:0|0:0,0:0:0:0:
154,96,41218,1,0,1:0:0:0:
248,40,41577,5,8,0:0:0:0:
248,40,41757,2,0,L|428:32,1,165,4|8,0:0|0:0,0:0:0:0:
464,128,42655,2,0,L|332:133,1,110,0|8,1:0|0:0,0:0:0:0:
246,149,43373,5,8,0:0:0:0:
160,224,43733,1,0,1:0:0:0:
67,166,44092,1,8,0:0:0:0:
150,95,44451,1,0,1:0:0:0:
246,149,44810,5,8,0:0:0:0:
256,192,44990,12,4,46607,0:0:0:0:
92,88,47505,6,0,P|140:104|200:84,1,110,4|2,0:0|0:0,0:0:0:0:
244,64,48044,2,0,L|232:184,1,110,8|0,0:0|1:0,0:0:0:0:
180,272,48762,1,8,0:0:0:0:
180,272,48942,2,0,P|231:288|284:272,1,110,2|2,1:2|0:0,0:0:0:0:
324,236,49481,2,0,L|334:126,1,110,8|0,0:0|1:0,0:0:0:0:
244,64,50200,5,8,0:0:0:0:
244,64,50379,2,0,P|280:32|344:20,1,110,4|2,1:2|0:0,0:0:0:0:
392,32,50918,2,0,P|420:88|480:112,1,110,8|0,0:0|1:0,0:0:0:0:
428,216,51637,1,8,0:0:0:0:
428,216,51816,2,0,L|418:326,1,110,4|2,0:2|0:0,0:0:0:0:
384,368,52355,2,0,P|344:352|272:356,1,110,8|0,0:0|1:0,0:0:0:0:
168,376,53074,1,8,0:0:0:0:
196,268,53433,5,4,0:0:0:0:
232,164,53792,2,0,P|180:156|128:180,1,110,8|0,0:0|1:0,0:0:0:0:
92,282,54511,1,8,0:0:0:0:
92,282,54691,2,0,P|145:289|195:267,1,110,4|2,1:2|0:0,0:0:0:0:
248,276,55230,2,0,L|348:200,1,110,8|0,0:0|1:0,0:0:0:0:
319,97,55948,2,0,L|231:163,1,110,8|4,0:0|0:0,0:0:0:0:
335,209,56667,6,0,P|396:184|424:132,1,110,8|0,0:0|1:0,0:0:0:0:
492,228,57385,1,8,0:0:0:0:
492,228,57565,2,0,L|484:344,1,110,4|12,0:0|0:0,0:0:0:0:
380,300,58283,2,0,P|319:325|295:377,1,110,4|8,0:0|0:0,0:0:0:0:
196,316,59002,6,0,P|140:324|80:296,1,110,4|2,0:0|0:0,0:0:0:0:
40,320,59541,2,0,L|64:196,1,110,8|0,0:0|1:0,0:0:0:0:
104,112,60259,1,8,0:0:0:0:
104,112,60439,2,0,P|144:136|168:204,1,110,2|2,1:2|0:0,0:0:0:0:
216,220,60978,2,0,P|272:240|336:212,1,110,8|0,0:0|1:0,0:0:0:0:
376,132,61697,5,8,0:0:0:0:
376,132,61876,2,0,P|412:168|428:240,1,110,4|2,1:2|0:0,0:0:0:0:
424,280,62415,2,0,L|328:340,1,110,8|0,0:0|1:0,0:0:0:0:
318,226,63134,1,8,0:0:0:0:
318,226,63313,2,0,P|272:168|292:64,1,165,4|8,0:2|0:0,0:0:0:0:
176,44,64212,2,0,L|64:60,1,110,0|8,1:0|0:0,0:0:0:0:
32,164,64930,5,4,0:2:0:0:
140,140,65289,2,0,P|140:196|108:244,1,110,8|0,0:0|1:0,0:0:0:0:
60,336,66008,1,8,0:0:0:0:
60,336,66188,2,0,P|108:352|172:328,1,110,4|2,0:2|0:0,0:0:0:0:
212,308,66727,2,0,P|244:276|324:260,1,110,8|0,0:0|1:0,0:0:0:0:
400,308,67445,1,8,0:0:0:0:
384,200,67804,6,0,P|344:168|272:164,1,110,4|8,0:2|0:0,0:0:0:0:
180,180,68523,2,0,P|188:114|274:53,1,165,0|4,1:0|1:2,0:0:0:0:
287,160,69421,1,0,1:0:0:0:
287,160,69601,2,0,L|143:60,1,165,8|2,0:0|0:0,0:0:0:0:
104,168,70499,6,0,P|112:220|168:256,1,110,4|0,1:2|1:0,0:0:0:0:
192,296,71038,2,0,P|240:280|296:296,1,110,8|0,0:0|1:0,0:0:0:0:
388,352,71757,2,0,L|416:240,1,110,8|4,0:0|1:2,0:0:0:0:
322,189,72475,6,0,L|295:295,1,110,4|0,1:2|1:0,0:0:0:0:
228,208,73194,1,8,0:0:0:0:
228,208,73373,2,0,P|236:144|328:92,1,165,4|8,0:2|0:0,0:0:0:0:
420,132,74271,1,0,1:0:0:0:
322,189,74631,1,8,0:0:0:0:
294,295,74990,6,0,P|236:320|172:300,1,110,4|8,1:2|0:0,0:0:0:0:
84,328,75709,2,0,P|92:264|141:219,1,110,4|8,1:2|0:0,0:0:0:0:
228,208,76427,1,4,1:2:0:0:
152,128,76786,1,8,0:0:0:0:
180,20,77146,2,0,P|137:13|72:54,1,110,4|8,1:2|0:0,0:0:0:0:
48,148,77864,5,4,1:2:0:0:
152,128,78224,2,0,P|194:134|259:93,1,110,8|4,0:0|1:2,0:0:0:0:
332,28,78942,1,8,0:0:0:0:
400,112,79301,2,0,L|384:232,1,110,4|12,1:2|0:2,0:0:0:0:
480,280,80020,2,0,L|494:170,1,110,4|12,1:2|0:2,0:0:0:0:
496,60,80739,5,4,1:2:0:0:
400,112,81098,1,8,0:0:0:0:
332,28,81457,1,4,1:2:0:0:
251,103,81816,1,8,0:0:0:0:
152,52,82176,2,0,P|140:132|164:168,1,110,4|8,1:2|0:0,0:0:0:0:
248,208,82894,2,0,P|264:259|248:310,1,110,4|8,1:2|0:0,0:0:0:0:
152,368,83613,5,4,1:2:0:0:
156,260,83972,2,0,P|124:232|44:232,1,110,8|4,0:0|1:2,0:0:0:0:
8,244,84511,2,0,L|16:124,1,110,0|4,1:0|1:2,0:0:0:0:
76,44,85230,2,0,P|108:76|116:100,1,55,4|4,1:2|1:2,0:0:0:0:
125,138,85589,2,0,L|197:142,1,55,4|4,1:2|1:2,0:0:0:0:
