osu file format v14

[General]
AudioFilename: audio.mp3
AudioLeadIn: 0
PreviewTime: 47827
Countdown: 0
SampleSet: Soft
StackLeniency: 0.7
Mode: 0
LetterboxInBreaks: 0
WidescreenStoryboard: 1

[Editor]
Bookmarks: 3276,47827,75312,86090
DistanceSpacing: 1
BeatDivisor: 4
GridSize: 4
TimelineZoom: 0.9999999

[Metadata]
Title:Getta Banban (TV Size)
TitleUnicode:ゲッタバンバン (TV Size)
Artist:Sako Tomohisa
ArtistUnicode:佐香智久
Creator:GodKei
Version:leo16834's Easy
Source:ポケットモンスターXY
Tags:ポケモン☆ゲット Pokemon☆Getto Pokémon☆Getto Getto 小川 智之 Ogawa Tomoyuki Get a Bangbang Bang Bang Mad-Paced Mad Paced Opening 3 Pokémon the Series: XY Pokemon Pocket Monsters XY エックスワイ Nintendo GAME FREAK J-Pop Jpop ジェイポップ anime japanese leo16834
BeatmapID:2217293
BeatmapSetID:1044415

[Difficulty]
HPDrainRate:2
CircleSize:3
OverallDifficulty:2
ApproachRate:3
SliderMultiplier:0.9
SliderTickRate:1

[Events]
//Background and Video events
0,0,"55237146_p0_master1200.jpg",0,0
Video,0,"Video.477p.mpeg4.mp3.avi"
//Break Periods
//Storyboard Layer 0 (Background)
//Storyboard Layer 1 (Fail)
//Storyboard Layer 2 (Pass)
//Storyboard Layer 3 (Foreground)
//Storyboard Layer 4 (Overlay)
//Storyboard Sound Samples

[TimingPoints]
602,359.280903214222,4,2,1,50,1,0
602,-100,4,2,1,50,0,0
3296,-100,4,2,1,50,0,0
14793,-100,4,2,1,50,0,0
27548,-100,4,2,1,50,0,0
47847,-100,4,2,1,70,0,1
72458,-100,4,2,1,70,0,0
75332,-100,4,2,1,80,0,0

[Colours]
Combo1 : 255,0,0
Combo2 : 244,244,0
Combo3 : 128,255,128
Combo4 : 0,128,255
Combo5 : 255,128,192
Combo6 : 255,128,64

[HitObjects]
144,36,602,5,0,1:0:0:0:
204,104,961,2,0,B|222:140|256:148|256:148|286:140|305:102,2,135,12|8|8,0:0|0:0|0:0,0:0:0:0:
204,104,3296,5,6,1:2:0:0:
140,168,3655,2,0,B|140:204|140:204|156:228|156:228|156:268,1,90,2|2,0:0|0:0,0:0:0:0:
120,336,4374,2,0,L|228:360,1,90,2|2,0:0|0:0,0:0:0:0:
298,355,5093,2,0,L|435:327,2,135,2|2|2,0:0|1:2|0:0,0:0:0:0:
207,355,6530,6,0,P|195:319|215:259,1,90,2|2,0:0|0:0,0:0:0:0:
282,221,7248,1,2,0:0:0:0:
360,177,7607,2,0,B|284:177|284:177|212:149|212:149|136:149,1,225,2|2,0:2|1:2,0:0:0:0:
123,60,8865,1,2,1:2:0:0:
54,120,9224,6,0,B|64:169|20:201|20:201|63:230|56:281,1,180,2|2,1:2|1:2,0:0:0:0:
213,162,10661,2,0,B|256:147|256:147|301:161,2,90,2|2|2,1:2|1:2|1:2,0:0:0:0:
147,223,11739,1,2,1:2:0:0:
213,283,12098,6,0,B|255:296|255:296|298:281,1,90,2|2,1:2|1:2,0:0:0:0:
365,220,12817,2,0,L|463:270,1,90,2|2,1:2|1:2,0:0:0:0:
478,177,13536,2,0,L|304:87,1,180,2|8,1:2|0:0,0:0:0:0:
196,168,14793,6,0,B|155:191|155:191|63:191,2,135,14|10|2,0:2|0:0|0:0,0:0:0:0:
256,100,16230,2,0,L|256:248,2,135,2|10|0,1:2|0:0|0:0,0:0:0:0:
180,52,17667,1,2,0:0:0:0:
256,4,18027,6,0,B|340:4|340:4|404:20,2,135,2|0|6,0:0|1:0|1:2,0:0:0:0:
180,52,19464,2,0,L|32:52,1,135,2|2,1:2|1:2,0:0:0:0:
4,132,20362,1,10,0:0:0:0:
69,193,20721,6,0,P|111:257|154:184,1,180,2|2,1:2|1:2,0:0:0:0:
255,43,22158,2,0,B|272:24|304:24|304:24|348:24,2,90,2|10|2,1:2|0:0|1:2,0:0:0:0:
192,108,23236,1,10,0:0:0:0:
252,176,23595,2,0,B|316:220|372:180|372:180|436:180,2,180,6|6|2,1:2|1:2|1:2,0:0:0:0:
76,132,25751,5,0,1:0:0:0:
160,240,26290,2,0,L|160:344,1,90,6|2,1:2|1:2,0:0:0:0:
240,368,27009,2,0,P|277:350|376:364,1,135,2|2,1:2|0:0,0:0:0:0:
452,328,27907,5,6,1:2:0:0:
388,268,28266,1,10,0:2:0:0:
472,232,28625,2,0,B|472:168|472:168|472:124|420:100,2,135,0|6|8,1:2|1:2|0:0,0:0:0:0:
292,232,30422,1,10,0:0:0:0:
232,168,30781,6,0,P|172:168|112:220,1,135,2|2,1:2|0:0,0:0:0:0:
200,248,31679,1,2,0:0:0:0:
212,336,32039,2,0,B|256:352|256:352|308:332,1,90,2|2,1:2|1:2,0:0:0:0:
376,296,32757,2,0,B|376:244|376:244|396:228|396:228|396:152,1,135,2|10,0:0|0:0,0:0:0:0:
396,80,33655,5,6,1:2:0:0:
316,120,34015,2,0,B|256:152|256:152|200:92|104:120,1,225,10|0,0:0|1:0,0:0:0:0:
96,28,35272,1,0,1:0:0:0:
28,84,35631,2,0,P|24:152|80:208,1,135,2|10,0:0|0:0,0:0:0:0:
132,260,36530,6,0,B|168:260|196:240|196:240|228:260|268:260,1,135,2|2,1:2|0:0,0:0:0:0:
256,168,37428,1,2,1:2:0:0:
336,208,37787,2,0,B|424:240|484:184|484:184|484:144|436:128,1,225,6|0,1:2|1:0,0:0:0:0:
332,68,39224,6,0,P|276:40|200:40,1,135,6|10,1:2|0:0,0:0:0:0:
120,68,40122,1,2,1:2:0:0:
55,186,40661,2,0,B|91:186|113:221|113:221|149:200|187:214,1,135,6|10,1:2|0:0,0:0:0:0:
256,180,41559,1,2,1:2:0:0:
388,168,42098,6,0,B|428:208|428:248|428:248|428:304,1,135,6|10,1:2|0:0,0:0:0:0:
364,356,42997,1,6,1:2:0:0:
304,288,43356,1,10,0:0:0:0:
252,360,43715,2,0,P|211:378|160:380,2,90,14|10|10,0:0|0:0|0:0,0:0:0:0:
200,284,44793,1,10,0:0:0:0:
256,212,45152,6,0,B|224:168|272:104|344:144|344:144|380:100|344:40,2,270,8|8|2,0:0|0:0|0:0,0:0:0:0:
328,324,47847,6,0,P|400:356|512:260,1,225,6|2,1:2|1:2,0:0:0:0:
396,204,49284,2,0,B|396:152|336:124|336:124|308:184|228:176,1,225,2|2,1:2|1:2,0:0:0:0:
132,92,50721,2,0,P|168:108|92:216,1,225,2|2,1:2|1:2,0:0:0:0:
192,320,52158,2,0,B|256:292|256:292|328:320,1,135,6|10,1:2|0:0,0:0:0:0:
400,352,53057,2,0,L|400:248,1,90,2|10,1:2|0:0,0:0:0:0:
400,172,53775,1,4,1:2:0:0:
320,212,54134,6,0,B|303:212|303:212|263:212|247:172,1,90,10|2,0:0|1:2,0:0:0:0:
200,21,55033,2,0,B|230:21|256:54|256:54|277:21|316:21,1,135,2|10,1:2|0:0,0:0:0:0:
395,54,55931,1,2,1:2:0:0:
478,19,56290,1,10,0:0:0:0:
474,108,56649,6,0,P|494:160|484:211,1,90,6|10,1:2|0:2,0:0:0:0:
420,249,57368,2,0,B|388:249|388:249|339:249|288:215,2,135,2|10|2,1:2|0:2|0:0,0:0:0:0:
490,305,58805,1,10,0:0:0:0:
352,352,59344,6,0,B|292:352|256:312|256:312|216:352|144:352,1,225,6|2,1:2|1:2,0:0:0:0:
192,224,60781,2,0,B|192:168|256:140|256:140|320:168|320:224,1,225,2|2,1:2|1:2,0:0:0:0:
352,92,62218,2,0,P|256:44|148:104,1,225,2|2,1:2|1:2,0:0:0:0:
256,184,63655,2,0,L|256:332,1,135,6|10,1:2|0:0,0:0:0:0:
172,352,64554,2,0,L|172:256,1,90,2|10,1:2|0:0,0:0:0:0:
100,208,65272,1,4,1:2:0:0:
172,156,65631,6,0,P|184:120|164:56,1,90,10|2,0:2|1:2,0:0:0:0:
56,136,66530,2,0,L|56:284,1,135,6|10,1:2|0:0,0:0:0:0:
56,360,67428,1,2,1:2:0:0:
132,316,67787,1,10,0:0:0:0:
212,360,68146,1,6,1:2:0:0:
256,280,68506,2,0,P|304:280|352:296,1,90,2|10,1:2|0:0,0:0:0:0:
472,336,69404,6,0,B|472:276|512:236|512:236|472:192|472:132,1,225,2|10,1:2|0:0,0:0:0:0:
352,68,70841,2,0,P|256:36|136:76,1,225,6|10,1:2|0:0,0:0:0:0:
152,225,72278,2,0,P|239:347|345:224,1,360,10|2,0:0|1:2,0:0:0:0:
252,20,74613,1,10,0:0:0:0:
184,80,74973,1,10,0:0:0:0:
116,20,75332,6,0,L|20:28,2,90,2|10|10,1:2|0:0|0:0,0:0:0:0:
196,128,76589,2,0,B|256:156|256:156|320:128,1,135,2|10,1:2|0:0,0:0:0:0:
380,64,77488,1,10,0:0:0:0:
444,128,77847,1,10,0:0:0:0:
380,192,78206,6,0,L|380:296,1,90,10|10,0:2|0:0,0:0:0:0:
380,372,78925,1,10,0:0:0:0:
256,316,79464,2,0,B|212:168|308:252|256:88,1,225,0|8,1:2|0:0,0:0:0:0:
256,8,80721,1,8,0:0:0:0:
176,52,81080,6,0,L|84:60,2,90,14|10|10,0:2|0:2|0:0,0:0:0:0:
208,184,82338,2,0,P|120:168|24:188,1,180,2|2,1:2|1:2,0:0:0:0:
40,316,83595,1,10,0:0:0:0:
124,336,83955,2,0,L|216:360,1,90,10|10,0:2|0:0,0:0:0:0:
300,356,84673,2,0,L|387:333,1,90,10|8,0:0|0:0,0:0:0:0:
404,244,85392,6,0,B|410:216|410:216|396:184|405:151,2,90,8|8|12,0:0|0:0|0:0,0:0:0:0:
