osu file format v14

[General]
AudioFilename: audio.mp3
AudioLeadIn: 0
PreviewTime: 47827
Countdown: 0
SampleSet: Soft
StackLeniency: 0.7
Mode: 0
LetterboxInBreaks: 0
WidescreenStoryboard: 1

[Editor]
Bookmarks: 3276,47827,75312,86090
DistanceSpacing: 2.1
BeatDivisor: 4
GridSize: 4
TimelineZoom: 3.199999

[Metadata]
Title:Getta Banban (TV Size)
TitleUnicode:ゲッタバンバン (TV Size)
Artist:Sako Tomohisa
ArtistUnicode:佐香智久
Creator:GodKei
Version:Insane
Source:ポケットモンスターXY
Tags:ポケモン☆ゲット Pokemon☆Getto Pokémon☆Getto Getto 小川 智之 Ogawa Tomoyuki Get a Bangbang Bang Bang Mad-Paced Mad Paced Opening 3 Pokémon the Series: XY Pokemon Pocket Monsters XY エックスワイ Nintendo GAME FREAK J-Pop Jpop ジェイポップ anime japanese leo16834
BeatmapID:2183368
BeatmapSetID:1044415

[Difficulty]
HPDrainRate:6
CircleSize:4
OverallDifficulty:8
ApproachRate:9
SliderMultiplier:1.4
SliderTickRate:1

[Events]
//Background and Video events
0,0,"55237146_p0_master1200.jpg",0,0
Video,0,"Video.477p.mpeg4.mp3.avi"
//Break Periods
//Storyboard Layer 0 (Background)
//Storyboard Layer 1 (Fail)
//Storyboard Layer 2 (Pass)
//Storyboard Layer 3 (Foreground)
//Storyboard Layer 4 (Overlay)
//Storyboard Sound Samples

[TimingPoints]
602,359.280903214222,4,2,1,50,1,0
602,-100,4,2,1,50,0,0
3296,-100,4,2,1,50,0,0
14793,-100,4,2,1,50,0,0
27548,-100,4,2,1,50,0,0
47847,-83.3333333333333,4,2,1,70,0,1
72458,-83.3333333333333,4,2,1,70,0,0
75332,-83.3333333333333,4,2,1,80,0,0

[Colours]
Combo1 : 237,18,18
Combo2 : 23,250,5
Combo3 : 18,13,242
Combo4 : 235,224,20

[HitObjects]
104,56,602,6,0,P|146:63|191:100,1,70,0|0,1:0|1:0,0:0:0:0:
203,176,961,1,12,0:0:0:0:
310,123,1140,2,0,P|309:88|307:53,1,70,0|0,1:0|1:0,0:0:0:0:
316,210,1500,5,8,0:0:0:0:
222,136,1679,1,0,1:0:0:0:
139,240,1859,1,4,1:2:0:0:
218,317,2039,5,8,0:0:0:0:
257,315,2128,1,8,0:0:0:0:
297,317,2218,1,8,0:0:0:0:
337,323,2308,1,8,0:0:0:0:
376,332,2398,1,8,0:0:0:0:
364,256,3296,6,0,P|410:253|447:348,1,140,6|2,1:2|0:0,0:0:0:0:
478,184,3835,1,2,1:2:0:0:
478,184,4015,2,0,P|468:127|469:107,1,70,2|0,0:0|1:2,0:0:0:0:
368,22,4374,2,0,P|372:61|372:97,1,70,2|0,0:0|1:0,0:0:0:0:
245,113,4733,6,0,P|295:131|315:230,1,140,2|2,0:0|0:0,0:0:0:0:
163,201,5272,2,0,P|217:200|250:206,1,70,2|0,1:2|0:0,0:0:0:0:
128,117,5631,2,0,P|74:116|41:122,1,70,2|0,1:2|0:0,0:0:0:0:
185,45,5991,1,2,1:2:0:0:
78,200,6170,6,0,P|63:238|63:341,1,140,2|2,0:0|0:0,0:0:0:0:
227,292,6709,1,2,1:2:0:0:
227,292,6889,2,0,P|169:291|134:307,1,70,2|0,0:0|1:0,0:0:0:0:
339,219,7248,1,2,0:0:0:0:
218,207,7428,1,2,1:2:0:0:
371,352,7607,6,0,P|371:312|383:211,1,140,2|2,0:2|0:0,0:0:0:0:
449,57,8146,1,2,1:2:0:0:
487,175,8326,1,2,0:2:0:0:
415,83,8506,2,0,P|374:83|331:89,1,70,2|0,1:2|0:0,0:0:0:0:
276,18,8865,2,0,P|241:21|206:21,1,70,2|0,1:2|0:0,0:0:0:0:
58,110,9224,6,0,P|94:95|182:140,1,140,2|0,1:2|1:0,0:0:0:0:
27,229,9763,1,2,0:0:0:0:
172,232,9943,2,0,P|126:253|103:276,1,70,2|0,1:2|0:0,0:0:0:0:
201,361,10302,1,0,1:0:0:0:
268,217,10482,1,2,0:2:0:0:
268,217,10661,6,0,P|275:268|276:303,1,70,2|0,1:2|0:0,0:0:0:0:
398,193,11021,2,0,P|391:244|390:279,1,70,2|0,1:2|0:0,0:0:0:0:
287,142,11380,2,0,P|245:143|204:176,1,70,2|0,1:2|0:0,0:0:0:0:
352,71,11739,1,2,1:2:0:0:
247,29,11919,1,2,0:0:0:0:
138,132,12098,6,0,P|137:81|142:51,1,70,2|0,1:2|0:0,0:0:0:0:
268,217,12458,2,0,P|271:251|269:286,1,70,2|0,1:2|0:0,0:0:0:0:
119,154,12817,2,0,P|118:103|123:73,1,70,2|0,1:2|0:0,0:0:0:0:
249,239,13177,2,0,P|252:273|250:308,1,70,2|0,1:2|0:0,0:0:0:0:
422,85,13536,6,0,P|374:105|362:199,1,140,2|0,1:2|1:0,0:0:0:0:
314,31,14075,1,0,0:0:0:0:
431,164,14254,1,8,0:0:0:0:
452,191,14343,1,8,0:0:0:0:
465,224,14433,1,10,0:0:0:0:
470,258,14523,1,8,0:0:0:0:
465,293,14613,2,0,L|402:297,1,35,10|8,0:0|0:0,0:0:0:0:
306,268,14793,6,0,B|274:252|274:252|380:233,1,140,14|2,0:2|0:0,0:0:0:0:
197,216,15332,1,10,0:0:0:0:
231,76,15512,2,0,P|183:104|165:144,1,70,2|0,0:0|1:2,0:0:0:0:
67,81,15871,1,2,0:0:0:0:
152,18,16051,1,10,0:0:0:0:
240,156,16230,6,0,P|286:131|298:39,1,140,2|0,1:2|1:0,0:0:0:0:
408,183,16769,1,10,0:0:0:0:
383,55,16949,1,2,0:0:0:0:
323,258,17128,2,0,P|328:210|337:176,1,70,2|0,1:2|0:0,0:0:0:0:
416,288,17488,1,10,0:0:0:0:
281,328,17667,2,0,P|249:285|240:242,1,70,2|0,0:0|1:0,0:0:0:0:
363,350,18027,1,2,0:0:0:0:
187,325,18206,1,10,0:0:0:0:
187,325,18386,2,0,P|152:326|122:345,1,70,2|0,0:0|1:2,0:0:0:0:
208,190,18745,2,0,P|252:188|289:203,1,70,2|8,0:0|0:0,0:0:0:0:
191,101,19104,6,0,P|148:121|131:230,1,140,6|2,1:2|1:2,0:0:0:0:
278,103,19643,2,0,P|278:55|285:12,1,70,10|0,0:0|0:0,0:0:0:0:
333,175,20003,1,2,1:2:0:0:
365,90,20182,1,2,0:0:0:0:
473,255,20362,1,10,0:0:0:0:
441,170,20541,1,2,0:0:0:0:
312,259,20721,6,0,P|374:268|406:342,1,140,2|8,1:2|0:0,0:0:0:0:
232,211,21260,1,2,0:0:0:0:
232,211,21440,2,0,P|219:259|212:355,1,140,2|8,1:2|0:0,0:0:0:0:
126,193,21979,1,2,0:0:0:0:
126,193,22158,6,0,P|70:210|48:227,1,70,2|0,1:2|0:0,0:0:0:0:
240,115,22518,2,0,P|197:75|172:63,1,70,10|0,0:0|0:0,0:0:0:0:
364,174,22877,2,0,P|377:117|376:96,1,70,2|0,1:2|0:0,0:0:0:0:
261,202,23236,1,10,0:0:0:0:
396,267,23416,1,2,0:0:0:0:
215,297,23595,6,0,P|251:304|291:331,1,70,6|0,1:2|0:0,0:0:0:0:
116,356,23955,2,0,P|80:363|40:390,1,70,10|0,0:0|0:0,0:0:0:0:
138,261,24314,1,6,1:2:0:0:
20,204,24494,1,0,0:0:0:0:
158,240,24673,2,0,P|200:223|242:228,1,70,10|0,0:0|0:0,0:0:0:0:
119,115,25033,5,2,1:2:0:0:
215,297,25212,1,0,1:0:0:0:
301,106,25392,1,8,0:0:0:0:
337,319,25572,1,0,1:0:0:0:
216,167,25751,1,0,1:0:0:0:
430,118,25931,1,0,1:0:0:0:
242,194,26110,1,10,0:0:0:0:
458,269,26290,1,6,1:2:0:0:
257,74,26649,5,2,1:2:0:0:
70,270,27009,6,0,L|14:277,1,35,2|0,1:2|0:0,0:0:0:0:
112,160,27188,2,0,P|146:172|187:247,1,105,0|0,1:2|0:0,0:0:0:0:
209,269,27548,2,8,L|202:315,3,35,10|8|10|8,0:0|0:0|0:0|0:0,0:0:0:0:
289,223,27907,6,0,P|295:181|310:125,1,70,6|0,1:2|0:0,0:0:0:0:
167,36,28266,2,0,P|174:70|179:104,1,70,10|0,0:2|0:0,0:0:0:0:
382,137,28625,1,0,1:2:0:0:
323,67,28805,2,0,L|240:81,1,70,0|8,1:2|0:0,0:0:0:0:
412,286,29164,2,0,P|413:231|421:131,1,140,6|0,1:2|1:2,0:0:0:0:
505,248,29703,1,8,0:0:0:0:
335,297,29883,2,0,P|278:311|255:341,1,70,2|0,0:0|1:2,0:0:0:0:
222,208,30242,1,2,0:0:0:0:
164,379,30422,2,0,P|168:338|178:297,1,70,10|0,0:0|0:0,0:0:0:0:
86,176,30781,6,0,P|87:223|83:334,1,140,2|8,1:2|0:0,0:0:0:0:
20,125,31320,2,0,P|50:98|86:86,1,70,2|0,0:0|1:0,0:0:0:0:
260,47,31679,2,0,P|230:20|194:8,1,70,2|8,0:0|0:0,0:0:0:0:
195,212,32039,2,0,P|165:174|193:84,1,140,2|2,1:2|1:2,0:0:0:0:
254,270,32578,1,8,0:0:0:0:
350,170,32757,2,0,P|277:127|230:150,1,140,2|2,0:0|0:0,0:0:0:0:
423,129,33296,1,10,0:0:0:0:
343,266,33476,1,2,0:0:0:0:
442,291,33655,6,0,P|417:236|413:198,1,70,6|0,1:2|0:0,0:0:0:0:
281,206,34014,2,0,P|271:239|254:270,1,70,10|0,0:0|0:0,0:0:0:0:
176,344,34374,1,0,1:2:0:0:
96,267,34554,2,0,P|92:227|92:192,1,70,0|8,1:2|0:0,0:0:0:0:
187,52,34913,2,0,P|182:94|177:193,1,140,0|0,1:0|1:0,0:0:0:0:
75,86,35452,1,8,0:0:0:0:
263,33,35631,6,0,P|315:40|357:120,1,140,2|2,0:0|0:0,0:0:0:0:
433,181,36170,1,10,0:0:0:0:
418,30,36350,1,2,0:0:0:0:
280,111,36530,6,0,P|257:147|289:234,1,140,2|10,1:2|0:0,0:0:0:0:
378,345,37069,1,2,0:0:0:0:
236,340,37248,1,0,1:2:0:0:
427,275,37428,2,0,P|456:314|464:355,1,70,2|8,1:2|0:0,0:0:0:0:
321,170,37787,6,0,P|259:169|204:243,1,140,6|0,1:2|1:2,0:0:0:0:
68,239,38326,1,8,0:0:0:0:
138,297,38506,1,0,0:0:0:0:
61,149,38685,1,0,1:0:0:0:
200,135,38865,1,0,0:0:0:0:
85,54,39045,1,8,0:0:0:0:
304,1,39224,6,0,P|253:-1|168:77,1,140,6|2,1:2|0:0,0:0:0:0:
375,85,39763,2,0,P|322:95|280:96,1,70,10|0,0:0|0:0,0:0:0:0:
434,167,40122,2,0,P|468:163|502:155,1,70,2|2,1:2|0:0,0:0:0:0:
282,207,40482,1,8,0:0:0:0:
372,326,40661,6,0,P|362:260|365:177,1,140,6|2,1:2|0:0,0:0:0:0:
256,292,41200,2,0,P|276:337|276:368,1,70,10|2,0:0|0:0,0:0:0:0:
123,252,41560,2,0,P|127:217|144:186,1,70,2|2,1:2|0:0,0:0:0:0:
193,359,41919,1,8,0:0:0:0:
40,270,42098,6,0,P|48:225|13:110,1,140,6|2,1:2|0:0,0:0:0:0:
169,39,42637,1,10,0:0:0:0:
34,54,42817,1,2,0:0:0:0:
178,60,42997,2,0,P|167:98|163:153,1,70,6|2,1:2|0:0,0:0:0:0:
308,70,43356,2,0,P|303:35|293:1,1,70,10|2,0:0|0:0,0:0:0:0:
471,61,43715,5,14,0:0:0:0:
471,61,43895,1,0,1:0:0:0:
292,147,44074,1,10,0:0:0:0:
292,147,44254,1,0,1:0:0:0:
479,175,44434,1,10,0:0:0:0:
479,175,44613,1,0,1:0:0:0:
290,263,44793,1,10,0:0:0:0:
290,263,44972,1,0,1:0:0:0:
417,355,45152,5,8,0:0:0:0:
367,128,45332,1,8,0:0:0:0:
356,150,45691,5,8,0:0:0:0:
254,370,45870,1,8,0:0:0:0:
232,350,46230,5,8,0:0:0:0:
130,130,46409,1,8,0:0:0:0:
131,156,46769,5,8,0:0:0:0:
29,376,46948,1,8,0:0:0:0:
131,254,47308,6,0,L|102:255,10,17.5,2|0|0|0|0|0|0|0|0|0|0,0:0|0:0|0:0|0:0|0:0|0:0|0:0|0:0|0:0|0:0|0:0,0:0:0:0:
162,260,47847,6,0,P|210:248|272:332,1,167.999994873047,6|2,1:2|0:0,0:0:0:0:
413,209,48386,2,0,P|468:216|518:253,1,83.9999974365235,10|0,0:0|0:0,0:0:0:0:
272,127,48745,2,0,P|217:134|167:171,1,83.9999974365235,2|0,1:2|0:0,0:0:0:0:
271,332,49104,1,8,0:0:0:0:
347,164,49284,6,0,P|357:118|275:45,1,167.999994873047,2|2,1:2|0:0,0:0:0:0:
175,229,49823,2,0,P|189:175|193:128,1,83.9999974365235,10|0,0:0|0:0,0:0:0:0:
318,340,50182,2,0,P|304:286|300:239,1,83.9999974365235,2|0,1:2|0:0,0:0:0:0:
207,384,50542,1,8,0:0:0:0:
436,168,50721,6,0,P|419:217|425:332,1,167.999994873047,2|0,1:2|0:0,0:0:0:0:
267,146,51260,2,0,P|321:150|362:178,1,83.9999974365235,10|0,0:0|0:0,0:0:0:0:
190,260,51619,2,0,P|152:277|111:278,1,83.9999974365235,2|0,1:2|0:0,0:0:0:0:
83,162,51979,1,10,0:0:0:0:
271,68,52158,6,0,P|201:98|206:191,1,167.999994873047,6|2,1:2|0:0,0:0:0:0:
379,88,52697,1,10,0:0:0:0:
404,209,52877,1,2,0:0:0:0:
257,289,53057,1,2,1:2:0:0:
299,162,53236,1,2,0:0:0:0:
378,343,53416,1,10,0:0:0:0:
198,180,53595,1,2,0:0:0:0:
438,282,53775,6,0,L|443:112,1,167.999994873047,4|10,1:2|0:0,0:0:0:0:
356,246,54314,1,0,0:0:0:0:
292,48,54494,2,0,P|314:93|319:138,1,83.9999974365235,2|0,1:2|0:0,0:0:0:0:
259,221,54853,1,10,0:0:0:0:
163,113,55033,6,0,P|127:38|38:42,1,167.999994873047,2|2,1:2|0:0,0:0:0:0:
45,163,55571,2,0,P|79:195|91:259,1,83.9999974365235,10|0,0:0|0:0,0:0:0:0:
211,349,55931,1,2,1:2:0:0:
187,173,56110,1,2,0:0:0:0:
99,363,56290,1,10,0:0:0:0:
178,148,56470,1,2,0:0:0:0:
329,277,56649,6,0,P|254:275|216:376,1,167.999994873047,6|10,1:2|0:2,0:0:0:0:
210,348,57188,1,0,0:0:0:0:
357,193,57368,2,0,P|399:224|416:264,1,83.9999974365235,2|0,1:2|0:0,0:0:0:0:
340,79,57727,1,10,0:0:0:0:
493,110,57907,5,10,0:2:0:0:
148,134,58266,5,10,0:0:0:0:
296,346,58625,6,0,L|354:336,1,41.9999987182618,0|0,0:0|0:0,0:0:0:0:
185,309,58805,1,10,0:0:0:0:
161,275,58894,1,8,0:0:0:0:
124,255,58984,1,8,0:0:0:0:
82,254,59074,1,8,0:0:0:0:
40,268,59164,2,0,L|16:215,1,41.9999987182618,0|0,3:0|3:0,0:0:0:0:
147,48,59344,6,0,P|77:98|78:174,1,167.999994873047,6|2,1:2|0:0,0:0:0:0:
318,77,59883,2,0,P|242:87|210:102,1,83.9999974365235,10|0,0:0|0:0,0:0:0:0:
441,182,60242,2,0,P|365:192|333:207,1,83.9999974365235,2|0,1:2|0:0,0:0:0:0:
467,88,60601,1,8,0:0:0:0:
261,276,60781,6,0,P|277:207|209:149,1,167.999994873047,2|2,1:2|0:0,0:0:0:0:
348,297,61320,2,0,P|392:322|419:347,1,83.9999974365235,10|0,0:0|0:0,0:0:0:0:
185,238,61679,2,0,P|148:257|116:285,1,83.9999974365235,2|0,1:2|0:0,0:0:0:0:
294,149,62039,1,8,0:0:0:0:
92,70,62218,6,0,P|149:59|193:150,1,167.999994873047,2|2,1:2|0:0,0:0:0:0:
362,33,62757,2,0,P|295:28|264:48,1,83.9999974365235,10|0,0:0|0:0,0:0:0:0:
432,187,63116,2,0,P|472:196|512:185,1,83.9999974365235,2|0,1:2|0:0,0:0:0:0:
367,113,63476,1,8,0:2:0:0:
227,244,63655,6,0,P|218:200|318:208,1,167.999994873047,6|2,1:2|0:0,0:0:0:0:
220,350,64194,1,10,0:0:0:0:
403,300,64374,1,2,0:0:0:0:
207,314,64554,1,2,1:2:0:0:
377,384,64733,1,2,0:0:0:0:
311,188,64913,1,10,0:0:0:0:
252,380,65092,1,2,0:0:0:0:
413,223,65272,6,0,P|423:170|342:82,1,167.999994873047,4|10,1:2|0:2,0:0:0:0:
183,99,65811,1,0,0:0:0:0:
331,17,65991,2,0,P|378:16|423:45,1,83.9999974365235,2|0,1:2|0:0,0:0:0:0:
269,193,66350,1,8,0:0:0:0:
141,17,66530,6,0,P|149:61|139:192,1,167.999994873047,6|2,1:2|0:0,0:0:0:0:
30,356,67068,2,0,P|33:294|36:251,1,83.9999974365235,10|0,0:0|0:0,0:0:0:0:
135,335,67428,1,2,1:2:0:0:
192,174,67607,1,2,0:0:0:0:
234,384,67787,1,10,0:0:0:0:
209,147,67967,1,2,0:0:0:0:
336,287,68146,6,0,B|361:255|361:255|219:258,1,167.999994873047,6|2,1:2|1:2,0:0:0:0:
374,378,68685,1,0,0:0:0:0:
473,288,68865,1,10,0:0:0:0:
463,247,68954,1,8,0:0:0:0:
462,205,69044,1,8,0:0:0:0:
468,163,69134,1,8,0:0:0:0:
483,124,69224,2,0,L|505:51,1,41.9999987182618,8|8,0:0|0:0,0:0:0:0:
287,52,69404,6,0,P|364:49|383:124,1,167.999994873047,2|2,1:2|0:0,0:0:0:0:
176,195,69943,1,10,0:0:0:0:
211,47,70122,1,2,1:2:0:0:
335,192,70302,1,10,0:0:0:0:
208,313,70482,1,2,1:2:0:0:
340,333,70661,2,0,L|400:349,1,41.9999987182618,2|0,1:2|0:0,0:0:0:0:
208,223,70841,6,0,P|161:235|132:357,1,167.999994873047,6|0,1:2|0:0,0:0:0:0:
313,229,71380,1,10,0:0:0:0:
333,228,71469,1,8,0:0:0:0:
354,227,71559,1,10,0:0:0:0:
177,119,71739,1,10,0:0:0:0:
260,350,71919,1,10,0:0:0:0:
312,111,72098,1,8,0:0:0:0:
312,111,72188,1,8,0:0:0:0:
312,111,72278,2,0,L|310:55,1,41.9999987182618,10|8,0:0|0:0,0:0:0:0:
125,234,72458,6,0,P|132:171|124:37,1,167.999994873047,6|8,1:2|0:0,0:0:0:0:
219,244,72997,1,0,1:0:0:0:
37,136,73176,1,8,0:0:0:0:
222,150,73356,1,0,1:0:0:0:
18,247,73535,1,8,0:0:0:0:
233,355,73715,6,0,P|249:275|335:282,1,167.999994873047,2|2,1:2|1:2,0:0:0:0:
422,367,74254,1,2,1:2:0:0:
480,206,74434,1,10,0:0:0:0:
480,206,74524,1,8,0:0:0:0:
480,206,74613,2,8,L|469:148,3,41.9999987182618,10|8|10|8,0:0|0:0|0:0|0:0,0:0:0:0:
419,71,74973,1,10,0:0:0:0:
378,65,75062,1,8,0:0:0:0:
340,82,75152,1,10,0:0:0:0:
318,117,75242,1,8,0:0:0:0:
319,158,75332,6,0,P|268:157|247:266,1,167.999994873047,2|10,1:2|0:0,0:0:0:0:
402,140,75871,1,0,1:0:0:0:
240,54,76050,2,0,P|185:51|134:69,1,83.9999974365235,10|0,0:0|1:0,0:0:0:0:
26,183,76410,1,10,0:0:0:0:
87,27,76589,1,2,1:2:0:0:
119,253,76769,6,0,P|136:186|132:151,1,83.9999974365235,8|2,0:0|1:2,0:0:0:0:
227,359,77128,1,10,0:0:0:0:
30,301,77308,1,0,1:0:0:0:
248,253,77488,2,0,P|297:246|349:259,1,83.9999974365235,10|0,0:0|1:0,0:0:0:0:
216,132,77847,1,10,0:0:0:0:
142,332,78027,1,2,1:2:0:0:
339,163,78206,6,0,P|383:185|404:310,1,167.999994873047,10|10,0:2|0:0,0:0:0:0:
480,149,78745,1,0,1:0:0:0:
280,93,78925,2,0,P|322:72|378:79,1,83.9999974365235,10|2,0:0|1:2,0:0:0:0:
210,14,79284,1,8,0:0:0:0:
149,176,79464,1,0,1:2:0:0:
123,58,79643,5,8,0:2:0:0:
247,242,79823,1,0,1:0:0:0:
53,200,80003,1,8,0:0:0:0:
317,136,80182,1,0,1:0:0:0:
115,307,80362,1,8,0:0:0:0:
208,94,80542,1,0,1:0:0:0:
313,326,80721,1,8,0:0:0:0:
313,326,80811,1,8,0:0:0:0:
313,326,80901,2,0,L|333:261,1,41.9999987182618,0|0,0:0|0:0,0:0:0:0:
428,148,81080,6,0,P|423:201|431:351,1,167.999994873047,14|10,0:2|0:2,0:0:0:0:
335,66,81619,1,0,1:0:0:0:
241,244,81799,2,0,P|242:174|248:135,1,83.9999974365235,10|2,0:0|1:2,0:0:0:0:
142,298,82158,1,8,0:0:0:0:
329,233,82338,1,2,1:2:0:0:
128,146,82518,6,0,P|130:94|123:55,1,83.9999974365235,8|0,0:0|1:0,0:0:0:0:
243,160,82877,1,8,0:0:0:0:
274,0,83056,1,2,1:2:0:0:
404,127,83236,2,0,P|343:130|310:146,1,83.9999974365235,8|2,0:0|1:2,0:0:0:0:
506,85,83595,1,10,0:0:0:0:
376,22,83775,1,2,1:2:0:0:
480,196,83955,6,0,P|484:247|501:313,1,83.9999974365235,10|0,0:2|1:0,0:0:0:0:
304,220,84314,2,0,P|311:178|315:136,1,83.9999974365235,10|0,0:0|1:0,0:0:0:0:
162,233,84673,1,10,0:0:0:0:
354,285,84853,1,2,1:2:0:0:
234,383,85033,2,0,P|236:340|224:285,1,83.9999974365235,8|2,0:0|1:2,0:0:0:0:
77,217,85392,5,8,0:0:0:0:
333,216,85571,1,8,0:0:0:0:
112,372,85751,1,8,0:0:0:0:
202,113,85931,1,8,0:0:0:0:
300,379,86110,1,12,0:0:0:0:
