osu file format v14

[General]
AudioFilename: audio.mp3
AudioLeadIn: 0
PreviewTime: 47827
Countdown: 0
SampleSet: Soft
StackLeniency: 0.7
Mode: 0
LetterboxInBreaks: 0
WidescreenStoryboard: 1

[Editor]
Bookmarks: 47288,75312,86090
DistanceSpacing: 1.3
BeatDivisor: 4
GridSize: 4
TimelineZoom: 1.4

[Metadata]
Title:Getta Banban (TV Size)
TitleUnicode:ゲッタバンバン (TV Size)
Artist:Sako Tomohisa
ArtistUnicode:佐香智久
Creator:GodKei
Version:Hard
Source:ポケットモンスターXY
Tags:ポケモン☆ゲット Pokemon☆Getto Pokémon☆Getto Getto 小川 智之 Ogawa Tomoyuki Get a Bangbang Bang Bang Mad-Paced Mad Paced Opening 3 Pokémon the Series: XY Pokemon Pocket Monsters XY エックスワイ Nintendo GAME FREAK J-Pop Jpop ジェイポップ anime japanese leo16834
BeatmapID:2208851
BeatmapSetID:1044415

[Difficulty]
HPDrainRate:5
CircleSize:3.5
OverallDifficulty:6
ApproachRate:8
SliderMultiplier:1.3
SliderTickRate:1

[Events]
//Background and Video events
0,0,"55237146_p0_master1200.jpg",0,0
Video,0,"Video.477p.mpeg4.mp3.avi"
//Break Periods
//Storyboard Layer 0 (Background)
//Storyboard Layer 1 (Fail)
//Storyboard Layer 2 (Pass)
//Storyboard Layer 3 (Foreground)
//Storyboard Layer 4 (Overlay)
//Storyboard Sound Samples

[TimingPoints]
602,359.280903214222,4,2,1,49,1,0
602,-100,4,2,1,50,0,0
3296,-100,4,2,1,50,0,0
14793,-100,4,2,1,50,0,0
27548,-100,4,2,1,49,0,0
47308,-399.999999999997,4,2,1,49,0,0
47847,-90.9090909090909,4,2,1,70,0,1
72458,-90.9090909090909,4,2,1,70,0,0
75332,-90.9090909090909,4,2,1,80,0,0

[Colours]
Combo1 : 244,11,11
Combo2 : 79,217,38
Combo3 : 18,6,249
Combo4 : 255,236,0

[HitObjects]
103,82,602,6,0,P|80:129|79:152,1,65,0|0,1:0|1:0,0:0:0:0:
122,213,961,1,12,0:0:0:0:
47,260,1140,2,0,P|82:303|81:336,1,65,0|0,1:0|1:0,0:0:0:0:
152,360,1500,1,12,0:0:0:0:
221,312,1679,2,0,P|254:285|286:278,1,65,0|4,1:0|1:2,0:0:0:0:
345,328,2039,6,0,L|334:378,3,32.5,8|8|8|8,0:0|0:0|0:0|0:0,0:0:0:0:
379,301,2398,1,8,0:0:0:0:
379,301,3296,6,0,P|392:251|388:151,1,130,6|2,1:2|0:0,0:0:0:0:
401,88,3835,1,2,1:2:0:0:
401,88,4015,2,0,P|448:86|480:94,1,65,2|0,0:0|1:2,0:0:0:0:
342,24,4374,2,0,P|295:22|263:30,1,65,2|0,0:0|1:0,0:0:0:0:
239,100,4733,6,0,P|192:102|134:180,1,130,2|2,0:0|0:0,0:0:0:0:
83,93,5272,2,0,P|84:50|89:21,1,65,2|0,1:2|0:0,0:0:0:0:
14,151,5631,2,0,P|18:183|18:215,1,65,2|0,1:2|0:0,0:0:0:0:
52,293,5991,1,2,1:2:0:0:
117,239,6170,6,0,P|162:228|220:298,1,130,2|2,0:0|0:0,0:0:0:0:
280,336,6709,1,2,1:2:0:0:
280,336,6889,2,0,P|294:286|293:248,1,65,2|0,0:0|1:0,0:0:0:0:
357,222,7248,1,2,0:0:0:0:
284,177,7428,1,2,1:2:0:0:
357,135,7607,6,0,P|426:124|458:76,1,130,2|2,0:2|0:0,0:0:0:0:
394,21,8146,1,2,1:2:0:0:
314,54,8326,1,2,0:2:0:0:
237,17,8506,2,0,P|190:25|154:36,1,65,2|0,1:2|0:0,0:0:0:0:
140,107,8865,2,0,P|93:99|57:88,1,65,2|0,1:2|0:0,0:0:0:0:
20,30,9224,6,0,P|47:87|30:173,1,130,2|0,1:2|1:0,0:0:0:0:
103,209,9763,1,2,0:0:0:0:
103,209,9943,2,0,P|146:218|168:295,1,130,2|0,1:2|1:0,0:0:0:0:
78,308,10482,1,2,0:2:0:0:
78,308,10661,6,0,P|20:315|-3:320,1,65,2|0,1:2|0:0,0:0:0:0:
144,370,11021,2,0,P|173:374|209:362,1,65,2|0,1:2|0:0,0:0:0:0:
271,305,11380,2,0,P|303:302|341:315,1,65,2|0,1:2|0:0,0:0:0:0:
405,368,11739,1,2,1:2:0:0:
481,328,11919,1,2,0:0:0:0:
425,264,12098,6,0,P|415:231|408:185,1,65,2|0,1:2|0:0,0:0:0:0:
485,161,12458,2,0,P|494:129|500:98,1,65,2|0,1:2|0:0,0:0:0:0:
436,42,12817,1,2,1:2:0:0:
356,70,12997,1,0,0:0:0:0:
271,35,13176,2,0,B|230:29|230:29|195:46,1,65,2|0,1:2|0:0,0:0:0:0:
151,111,13536,2,0,B|205:128|205:128|239:113|239:113|289:122,1,130,2|0,1:2|1:0,0:0:0:0:
338,182,14075,1,0,0:0:0:0:
255,199,14254,1,8,0:0:0:0:
255,199,14344,1,8,0:0:0:0:
255,199,14434,2,0,L|195:201,3,32.5,10|8|10|8,0:0|0:0|0:0|0:0,0:0:0:0:
185,233,14793,6,0,P|115:241|79:302,1,130,14|2,0:2|0:0,0:0:0:0:
145,350,15332,1,10,0:0:0:0:
229,316,15512,2,0,P|271:310|311:317,1,65,2|0,0:0|1:2,0:0:0:0:
370,361,15871,1,2,0:0:0:0:
447,313,16051,1,10,0:0:0:0:
368,268,16230,6,0,P|357:220|379:132,1,130,2|0,1:2|1:0,0:0:0:0:
445,85,16769,1,10,0:0:0:0:
445,85,16949,1,2,0:0:0:0:
359,55,17128,2,0,P|311:51|275:56,1,65,2|0,1:2|0:0,0:0:0:0:
225,112,17488,1,10,0:0:0:0:
225,112,17667,6,0,B|176:85|176:85|87:95,1,130,2|2,0:0|0:0,0:0:0:0:
51,169,18206,1,10,0:0:0:0:
51,169,18386,2,0,P|95:192|108:216,1,65,0|0,0:0|1:0,0:0:0:0:
63,285,18745,2,0,P|30:281|-2:288,1,65,2|8,0:0|0:0,0:0:0:0:
125,345,19104,6,0,B|169:334|169:334|273:355,1,130,6|2,1:2|1:2,0:0:0:0:
296,270,19643,2,0,P|348:263|385:279,1,65,10|0,0:0|0:0,0:0:0:0:
432,321,20003,1,2,1:2:0:0:
432,321,20182,1,2,0:0:0:0:
471,238,20362,1,10,0:0:0:0:
471,238,20542,1,2,0:0:0:0:
399,182,20721,6,0,P|348:167|257:192,1,130,2|8,1:2|0:0,0:0:0:0:
218,109,21260,1,2,0:0:0:0:
218,109,21440,2,0,P|205:61|124:88,1,130,2|8,1:2|0:0,0:0:0:0:
70,127,21979,1,2,0:0:0:0:
70,127,22158,6,0,P|52:175|49:199,1,65,2|0,1:2|0:0,0:0:0:0:
131,230,22518,2,0,P|149:278|152:302,1,65,10|0,0:0|0:0,0:0:0:0:
65,338,22877,2,0,P|147:323|205:352,1,130,2|10,1:2|0:0,0:0:0:0:
264,288,23416,1,2,0:0:0:0:
319,360,23595,6,0,P|316:285|328:203,1,130,6|10,1:2|0:0,0:0:0:0:
453,104,24314,2,0,P|459:168|456:233,1,130,6|10,1:2|0:0,0:0:0:0:
354,82,25033,6,0,P|296:80|262:86,1,65,2|0,1:2|1:0,0:0:0:0:
208,37,25392,1,8,0:0:0:0:
148,106,25572,2,0,L|62:110,2,65,0|0|0,1:0|1:0|1:0,0:0:0:0:
227,149,26110,1,10,0:0:0:0:
166,215,26290,2,0,P|134:207|102:206,1,65,6|0,1:2|0:0,0:0:0:0:
37,270,26649,2,0,P|40:315|53:352,1,65,2|8,1:2|0:0,0:0:0:0:
149,356,27009,1,2,1:2:0:0:
149,356,27188,2,0,P|210:349|289:357,1,130,0|2,1:2|0:0,0:0:0:0:
303,270,27727,1,2,0:0:0:0:
303,270,27907,6,0,P|361:321|364:384,1,130,6|10,1:2|0:2,0:0:0:0:
462,371,28446,1,0,0:0:0:0:
462,371,28625,2,0,P|497:348|510:313,2,65,0|0|8,1:2|1:2|0:0,0:0:0:0:
435,287,29164,2,0,L|423:143,1,130,6|0,1:2|1:2,0:0:0:0:
455,74,29703,1,8,0:0:0:0:
455,74,29883,2,0,P|412:68|341:119,1,130,2|2,0:0|0:0,0:0:0:0:
315,201,30422,1,10,0:0:0:0:
250,137,30601,1,0,0:0:0:0:
261,46,30781,6,0,P|209:41|129:66,1,130,2|8,1:2|0:0,0:0:0:0:
63,118,31320,2,0,P|51:160|47:195,1,65,2|0,0:0|1:0,0:0:0:0:
116,241,31679,2,0,P|128:283|132:318,1,65,2|8,0:0|0:0,0:0:0:0:
45,336,32039,2,0,P|103:323|184:350,1,130,2|2,1:2|1:2,0:0:0:0:
248,293,32578,1,8,0:0:0:0:
331,352,32757,2,0,L|324:210,1,130,2|2,0:0|0:0,0:0:0:0:
377,147,33296,1,10,0:0:0:0:
451,199,33476,1,2,0:0:0:0:
465,109,33655,6,0,P|417:60|339:57,1,130,6|10,1:2|0:0,0:0:0:0:
267,65,34194,1,0,0:0:0:0:
267,65,34374,2,0,P|272:29|283:0,2,65,0|0|8,1:2|1:2|0:0,0:0:0:0:
202,129,34913,2,0,P|154:115|86:167,1,130,0|0,1:0|1:0,0:0:0:0:
75,249,35452,1,8,0:0:0:0:
75,249,35631,2,0,P|138:245|176:311,1,130,2|2,0:0|0:0,0:0:0:0:
244,353,36170,1,10,0:0:0:0:
294,276,36350,1,2,0:0:0:0:
346,350,36530,6,0,P|404:364|488:340,1,130,2|10,1:2|0:0,0:0:0:0:
509,261,37069,1,2,0:0:0:0:
444,196,37248,1,0,1:2:0:0:
508,131,37428,2,0,L|446:109,1,65,2|8,1:2|0:0,0:0:0:0:
361,141,37787,2,0,P|301:115|237:117,1,130,6|0,1:2|1:2,0:0:0:0:
202,35,38326,2,0,P|197:85|138:81,1,97.5,8|0,0:0|0:0,0:0:0:0:
116,114,38685,2,0,P|142:154|130:203,1,97.5,0|0,1:0|0:0,0:0:0:0:
90,220,39045,1,8,0:0:0:0:
141,294,39224,6,0,P|178:282|283:309,1,130,6|2,1:2|0:0,0:0:0:0:
319,378,39763,1,10,0:0:0:0:
319,378,39943,1,0,0:0:0:0:
383,313,40122,2,0,P|418:321|456:309,1,65,2|2,1:2|0:0,0:0:0:0:
482,230,40482,1,8,0:0:0:0:
430,155,40661,6,0,P|366:142|302:153,1,130,6|2,1:2|0:0,0:0:0:0:
235,99,41200,1,10,0:0:0:0:
235,99,41380,1,2,0:0:0:0:
180,172,41560,2,0,P|219:200|223:238,1,65,2|2,1:2|0:0,0:0:0:0:
177,293,41919,1,8,0:0:0:0:
89,269,42098,6,0,P|91:210|89:121,1,130,6|2,1:2|0:0,0:0:0:0:
125,54,42637,2,0,P|154:55|189:61,1,65,10|2,0:0|0:0,0:0:0:0:
259,120,42997,1,6,1:2:0:0:
303,37,43176,1,2,0:0:0:0:
376,91,43356,2,0,P|406:91|449:108,1,65,10|2,0:0|0:0,0:0:0:0:
476,190,43715,5,14,0:0:0:0:
476,190,43895,1,0,1:0:0:0:
420,261,44074,2,0,P|434:305|434:338,1,65,10|0,0:0|1:0,0:0:0:0:
357,370,44434,1,10,0:0:0:0:
357,370,44613,1,0,1:0:0:0:
294,297,44793,2,0,P|265:281|234:273,1,65,10|0,0:0|0:0,0:0:0:0:
164,331,45152,5,8,0:0:0:0:
164,331,45332,1,8,0:0:0:0:
340,278,45691,1,8,0:0:0:0:
340,278,45871,1,8,0:0:0:0:
170,205,46230,1,8,0:0:0:0:
170,205,46410,1,8,0:0:0:0:
352,173,46769,1,8,0:0:0:0:
352,173,46949,1,8,0:0:0:0:
378,37,47308,6,0,L|388:76,1,40.625,2|0,0:0|0:0,0:0:0:0:
372,95,47847,6,0,P|319:89|224:73,1,143.000004364014,6|0,1:2|0:0,0:0:0:0:
140,132,48386,2,0,P|135:93|140:54,1,71.5000021820069,10|0,0:0|0:0,0:0:0:0:
231,171,48745,2,0,P|233:209|228:248,1,71.5000021820069,2|0,1:2|0:0,0:0:0:0:
170,326,49104,1,8,0:0:0:0:
265,361,49284,6,0,B|312:345|312:345|421:368,1,143.000004364014,2|2,1:2|0:0,0:0:0:0:
494,296,49823,2,0,P|489:246|492:204,1,71.5000021820069,10|0,0:0|0:0,0:0:0:0:
390,182,50182,2,0,P|395:132|392:90,1,71.5000021820069,2|0,1:2|0:0,0:0:0:0:
478,43,50542,1,8,0:0:0:0:
372,26,50721,6,0,P|324:27|227:68,1,143.000004364014,2|0,1:2|0:0,0:0:0:0:
144,116,51260,2,0,P|136:66|145:33,1,71.5000021820069,10|0,0:0|0:0,0:0:0:0:
235,147,51619,2,0,P|239:182|230:216,1,71.5000021820069,2|0,1:2|0:0,0:0:0:0:
123,231,51979,1,10,0:0:0:0:
199,306,52158,6,0,P|264:306|290:391,1,143.000004364014,6|2,1:2|0:0,0:0:0:0:
389,316,52697,1,10,0:0:0:0:
474,380,52877,1,2,0:0:0:0:
496,275,53057,2,0,P|481:228|489:184,1,71.5000021820069,2|2,1:2|0:0,0:0:0:0:
386,157,53416,1,10,0:0:0:0:
479,105,53595,1,2,0:0:0:0:
403,29,53775,6,0,B|377:59|377:59|258:59,1,143.000004364014,4|10,1:2|0:0,0:0:0:0:
187,123,54314,1,0,0:0:0:0:
187,123,54494,2,0,P|240:132|268:151,1,71.5000021820069,2|0,1:2|0:0,0:0:0:0:
271,239,54853,1,10,0:0:0:0:
182,210,55033,2,0,P|136:206|68:301,1,143.000004364014,2|2,1:2|0:0,0:0:0:0:
166,313,55571,2,0,P|213:306|250:326,1,71.5000021820069,10|0,0:0|0:0,0:0:0:0:
319,367,55931,1,2,1:2:0:0:
319,367,56110,1,2,0:0:0:0:
363,277,56290,2,0,P|409:289|439:309,1,71.5000021820069,10|2,0:0|0:0,0:0:0:0:
489,381,56649,6,0,P|484:312|485:206,1,143.000004364014,6|10,1:2|0:2,0:0:0:0:
472,37,57368,2,0,P|474:94|389:96,1,143.000004364014,2|10,1:2|0:0,0:0:0:0:
322,14,57907,2,0,P|272:31|249:100,1,107.25000327301,10|0,0:2|0:0,0:0:0:0:
218,122,58266,2,0,P|167:109|91:135,1,107.25000327301,10|0,0:0|0:0,0:0:0:0:
71,160,58625,1,0,0:0:0:0:
155,226,58805,1,10,0:0:0:0:
155,226,58895,1,8,0:0:0:0:
155,226,58985,2,0,L|164:182,3,35.7500010910034,8|8|0|0,0:0|0:0|3:0|3:0,0:0:0:0:
123,257,59344,6,0,P|185:253|239:326,1,143.000004364014,6|2,1:2|0:0,0:0:0:0:
321,374,59883,2,0,P|333:326|343:288,1,71.5000021820069,10|0,0:0|0:0,0:0:0:0:
443,280,60242,2,0,P|431:232|421:194,1,71.5000021820069,2|0,1:2|0:0,0:0:0:0:
471,113,60601,1,8,0:0:0:0:
388,44,60781,6,0,P|345:38|293:116,1,143.000004364014,2|2,1:2|0:0,0:0:0:0:
206,46,61320,2,0,P|156:38|124:55,1,71.5000021820069,10|0,0:0|0:0,0:0:0:0:
29,130,61679,2,0,P|79:122|111:139,1,71.5000021820069,2|0,1:2|0:0,0:0:0:0:
199,163,62039,1,8,0:0:0:0:
132,231,62218,6,0,P|67:260|44:338,1,143.000004364014,2|2,1:2|0:0,0:0:0:0:
151,335,62757,2,0,P|199:332|231:349,1,71.5000021820069,10|0,0:0|0:0,0:0:0:0:
275,248,63116,2,0,P|308:258|343:253,1,71.5000021820069,2|0,1:2|0:0,0:0:0:0:
395,348,63476,1,8,0:2:0:0:
395,348,63655,6,0,P|394:287|391:195,1,143.000004364014,6|2,1:2|0:0,0:0:0:0:
436,107,64194,1,10,0:0:0:0:
353,37,64374,1,2,0:0:0:0:
281,117,64554,2,0,P|233:104|194:104,1,71.5000021820069,2|2,1:2|0:0,0:0:0:0:
133,29,64913,1,10,0:0:0:0:
70,115,65092,1,2,0:0:0:0:
153,182,65272,6,0,P|209:182|280:251,1,143.000004364014,4|10,1:2|0:2,0:0:0:0:
359,170,65811,1,0,0:0:0:0:
433,247,65991,2,0,P|429:282|430:318,1,71.5000021820069,2|0,1:2|0:0,0:0:0:0:
337,372,66350,1,8,0:0:0:0:
250,308,66530,6,0,P|175:302|110:352,1,143.000004364014,6|2,1:2|0:0,0:0:0:0:
39,268,67068,2,0,P|51:224|48:167,1,71.5000021820069,10|0,0:0|0:0,0:0:0:0:
140,136,67428,1,2,1:2:0:0:
59,65,67607,1,2,0:0:0:0:
158,24,67787,2,0,P|209:39|230:55,1,71.5000021820069,10|2,0:0|0:0,0:0:0:0:
270,146,68146,5,6,1:2:0:0:
322,52,68326,1,0,0:0:0:0:
379,143,68506,2,0,P|357:206|356:233,1,71.5000021820069,2|0,1:2|0:0,0:0:0:0:
423,293,68865,1,10,0:0:0:0:
423,293,68955,1,8,0:0:0:0:
423,293,69045,2,0,L|482:291,3,35.7500010910034,8|8|8|8,0:0|0:0|0:0|0:0,0:0:0:0:
394,331,69404,6,0,P|326:325|253:357,1,143.000004364014,2|2,1:2|0:0,0:0:0:0:
166,296,69943,2,0,P|116:313|72:308,1,71.5000021820069,10|2,0:0|1:2,0:0:0:0:
38,223,70302,1,10,0:0:0:0:
117,151,70482,1,2,1:2:0:0:
30,91,70661,1,2,1:2:0:0:
120,32,70841,6,0,P|175:29|272:45,1,143.000004364014,6|0,1:2|0:0,0:0:0:0:
345,109,71380,1,10,0:0:0:0:
345,109,71470,1,8,0:0:0:0:
345,109,71559,1,10,0:0:0:0:
434,49,71739,2,0,P|429:102|434:140,1,71.5000021820069,10|10,0:0|0:0,0:0:0:0:
487,211,72098,1,8,0:0:0:0:
395,267,72278,1,8,0:0:0:0:
395,267,72368,1,8,0:0:0:0:
395,267,72458,6,0,P|344:271|309:286,1,71.5000021820069,6|0,1:2|1:2,0:0:0:0:
267,368,72817,2,0,P|280:291|273:198,1,143.000004364014,8|8,0:0|0:0,0:0:0:0:
352,149,73356,1,0,1:0:0:0:
352,149,73536,1,8,0:0:0:0:
286,64,73715,2,0,P|213:79|118:56,1,143.000004364014,2|2,1:2|1:2,0:0:0:0:
59,132,74254,1,2,1:2:0:0:
156,182,74434,1,10,0:0:0:0:
68,249,74613,2,8,L|-16:222,2,71.5000021820069,10|10|10,0:0|0:0|0:0,0:0:0:0:
144,309,75152,1,10,3:0:0:0:
162,309,75242,1,8,3:0:0:0:
180,309,75332,6,0,P|242:317|300:390,1,143.000004364014,2|10,1:2|0:0,0:0:0:0:
391,345,75871,1,0,1:0:0:0:
356,251,76050,2,0,P|358:188|357:162,1,71.5000021820069,10|0,0:0|1:0,0:0:0:0:
440,122,76410,1,10,0:0:0:0:
383,39,76589,1,2,1:2:0:0:
313,98,76769,6,0,P|271:94|230:114,1,71.5000021820069,8|2,0:0|1:2,0:0:0:0:
157,41,77128,2,0,P|112:48|71:80,1,71.5000021820069,10|0,0:0|1:0,0:0:0:0:
149,138,77488,2,0,P|159:175|161:226,1,71.5000021820069,10|0,0:0|0:0,0:0:0:0:
177,314,77847,1,10,0:0:0:0:
261,247,78027,1,2,1:2:0:0:
301,345,78206,6,0,P|356:344|391:329,1,71.5000021820069,10|0,0:2|1:0,0:0:0:0:
446,261,78565,2,2,P|428:210|429:181,1,71.5000021820069,10|0,0:0|1:0,0:0:0:0:
484,104,78925,1,10,0:0:0:0:
401,35,79104,1,2,1:2:0:0:
324,112,79284,2,0,P|268:104|232:112,1,71.5000021820069,8|0,0:0|1:2,0:0:0:0:
176,32,79643,6,0,P|196:76|196:184,1,143.000004364014,8|8,0:2|0:0,0:0:0:0:
100,208,80182,1,0,1:0:0:0:
181,277,80362,2,0,P|244:272|270:289,1,71.5000021820069,8|0,0:0|1:0,0:0:0:0:
342,341,80721,2,0,L|397:327,3,35.7500010910034,8|8|0|0,0:0|0:0|0:0|0:0,0:0:0:0:
311,367,81080,6,0,P|255:352|151:379,1,143.000004364014,14|10,0:2|0:2,0:0:0:0:
86,302,81619,1,0,1:0:0:0:
100,208,81799,2,0,P|83:159|82:133,1,71.5000021820069,10|2,0:0|1:2,0:0:0:0:
125,41,82158,1,8,0:0:0:0:
214,100,82338,1,2,1:2:0:0:
286,20,82518,6,0,P|367:12|406:74,1,143.000004364014,8|10,0:0|0:0,0:0:0:0:
346,145,83056,1,2,1:2:0:0:
452,192,83236,2,0,P|444:237|445:287,1,71.5000021820069,8|2,0:0|1:2,0:0:0:0:
347,311,83595,1,10,0:0:0:0:
264,242,83775,1,2,1:2:0:0:
234,345,83955,6,0,P|176:338|144:344,1,71.5000021820069,10|0,0:2|1:0,0:0:0:0:
61,304,84314,2,0,P|81:261|79:225,1,71.5000021820069,10|0,0:0|1:0,0:0:0:0:
39,138,84673,1,10,0:0:0:0:
124,84,84853,2,0,P|173:67|212:90,2,71.5000021820069,2|8|2,1:2|0:0|1:2,0:0:0:0:
171,180,85392,5,8,0:0:0:0:
271,216,85571,1,8,0:0:0:0:
183,277,85751,1,8,0:0:0:0:
286,307,85931,1,8,0:0:0:0:
366,236,86110,1,12,0:0:0:0:
