osu file format v14

[General]
AudioFilename: audio.mp3
AudioLeadIn: 0
PreviewTime: 47847
Countdown: 0
SampleSet: Soft
StackLeniency: 0.7
Mode: 0
LetterboxInBreaks: 0
WidescreenStoryboard: 1

[Editor]
Bookmarks: 27907,37069,86110
DistanceSpacing: 1.4
BeatDivisor: 4
GridSize: 8
TimelineZoom: 1.5

[Metadata]
Title:Getta Banban (TV Size)
TitleUnicode:ゲッタバンバン (TV Size)
Artist:Sako Tomohisa
ArtistUnicode:佐香智久
Creator:[-Evil-]
Version:kanocchi's Hard
Source:ポケットモンスターXY
Tags:getter sakou 小川 智之 Ogawa Tomoyuki Mad-Paced Mad Paced Opening 3 Pokémon the Series: XY Pokemon Pocket Monsters XY J-Pop Jpop pop anime japanese hakashii kanocchi NexusQI
BeatmapID:2340315
BeatmapSetID:1112682

[Difficulty]
HPDrainRate:4.5
CircleSize:3.7
OverallDifficulty:6.5
ApproachRate:8
SliderMultiplier:1.3
SliderTickRate:1

[Events]
//Background and Video events
0,0,"getta ban ban.jpg",0,0
//Break Periods
//Storyboard Layer 0 (Background)
//Storyboard Layer 1 (Fail)
//Storyboard Layer 2 (Pass)
//Storyboard Layer 3 (Foreground)
//Storyboard Layer 4 (Overlay)
//Storyboard Sound Samples

[TimingPoints]
602,359.281437125748,4,2,1,60,1,0
2937,-125,4,2,1,55,0,0
14793,-100,4,2,1,60,0,0
26290,-100,4,2,1,70,0,0
27907,-100,4,2,1,70,0,0
47847,-100,4,2,1,75,0,1
54404,-100,4,2,1,5,0,1
54494,-100,4,2,1,75,0,1
54763,-100,4,2,1,5,0,1
54853,-100,4,2,1,75,0,1
57278,-100,4,2,1,5,0,1
57368,-100,4,2,1,75,0,1
57637,-100,4,2,1,5,0,1
57727,-100,4,2,1,75,0,1
59254,-100,4,2,1,75,0,0
59344,-100,4,2,1,75,0,1
65901,-100,4,2,1,5,0,1
65991,-100,4,2,1,75,0,1
66260,-100,4,2,1,5,0,1
66350,-100,4,2,1,75,0,1
68775,-100,4,2,1,5,0,1
68865,-100,4,2,1,75,0,1
72458,-100,4,2,1,70,0,0
75332,-100,4,2,1,75,0,0

[Colours]
Combo1 : 255,255,64
Combo2 : 255,128,128
Combo3 : 152,152,231

[HitObjects]
384,80,602,5,0,1:0:0:0:
384,80,781,1,0,1:0:0:0:
408,160,961,2,0,L|400:248,1,65,12|0,0:0|1:0,0:0:0:0:
440,304,1320,1,0,1:0:0:0:
376,360,1500,2,0,P|328:360|304:352,1,65,12|0,0:0|1:0,0:0:0:0:
256,296,1859,1,0,1:2:0:0:
184,336,2039,2,0,L|192:384,4,32.5,8|8|8|8|8,0:0|0:0|0:0|0:0|0:0,0:0:0:0:
24,296,3296,6,0,L|32:184,1,104,6|2,1:2|0:0,0:0:0:0:
64,120,3835,1,2,1:2:0:0:
64,120,4015,2,0,P|112:104|176:120,1,104,2|2,0:0|0:0,0:0:0:0:
200,184,4554,1,0,1:0:0:0:
256,240,4733,6,0,L|312:248,1,52,2|0,0:0|1:0,0:0:0:0:
368,192,5093,2,0,L|419:184,2,52,2|2|2,0:0|1:2|0:0,0:0:0:0:
495,223,5631,2,0,P|502:249|504:275,1,52,2|2,1:2|0:0,0:0:0:0:
456,352,5991,1,2,1:2:0:0:
368,352,6170,6,0,L|240:344,1,104,2|2,0:0|0:0,0:0:0:0:
184,368,6709,1,2,1:2:0:0:
112,336,6889,2,0,B|101:297|101:297|105:279|105:279|88:218,1,104,2|2,0:0|0:0,0:0:0:0:
120,160,7428,1,2,1:2:0:0:
200,184,7607,2,0,L|264:176,1,52,2|0,0:0|1:0,0:0:0:0:
280,272,7967,2,0,L|216:264,1,52,2|2,0:0|1:2,0:0:0:0:
248,352,8326,1,2,0:0:0:0:
336,352,8506,2,0,P|352:336|368:304,1,52,2|2,1:2|0:0,0:0:0:0:
456,336,8865,2,0,P|465:315|469:279,1,52,2|0,1:2|0:0,0:0:0:0:
440,200,9224,6,0,L|448:72,1,104,2|0,1:2|1:0,0:0:0:0:
368,64,9763,1,2,0:0:0:0:
368,64,9943,2,0,P|320:56|264:88,1,104,2|0,1:2|1:0,0:0:0:0:
192,120,10482,1,2,0:0:0:0:
120,80,10661,2,0,L|56:72,1,52,2|0,1:2|0:0,0:0:0:0:
0,168,11021,2,0,L|51:161,1,52,2|0,1:2|0:0,0:0:0:0:
135,195,11380,2,0,P|181:225|205:291,1,104,2|2,1:2|1:2,0:0:0:0:
110,287,11919,1,2,0:0:0:0:
80,376,12099,6,0,L|192:368,1,104,2|2,1:2|1:2,0:0:0:0:
264,328,12637,1,0,0:0:0:0:
264,328,12817,2,0,P|304:320|336:328,1,52,2|0,1:2|0:0,0:0:0:0:
392,360,13176,2,0,P|432:368|464:360,1,52,2|0,1:2|0:0,0:0:0:0:
504,296,13536,1,2,1:2:0:0:
464,208,13715,1,0,0:0:0:0:
496,120,13895,2,0,L|488:56,1,52,0|0,1:0|0:0,0:0:0:0:
408,40,14254,5,0,1:0:0:0:
408,40,14344,1,8,0:0:0:0:
408,40,14434,2,0,L|360:32,3,26,10|8|2|8,0:0|0:0|1:2|0:0,0:0:0:0:
352,48,14793,6,0,P|336:80|336:136,1,65,6|0,1:2|0:0,0:0:0:0:
392,176,15152,1,2,0:0:0:0:
392,176,15332,1,10,0:0:0:0:
456,240,15512,2,0,P|416:264|336:248,1,130,2|2,0:0|0:0,0:0:0:0:
272,184,16051,1,10,0:0:0:0:
272,184,16230,6,0,B|256:232|256:232|272:328,1,130,2|2,1:2|1:2,0:0:0:0:
208,384,16769,2,0,L|136:376,1,65,10|2,0:0|0:0,0:0:0:0:
96,296,17128,2,0,L|168:304,1,65,2|0,1:2|0:0,0:0:0:0:
136,216,17488,1,10,0:0:0:0:
136,216,17667,2,0,P|199:193|263:233,1,130,2|2,0:0|0:0,0:0:0:0:
296,136,18206,5,10,0:0:0:0:
296,136,18386,2,0,L|288:280,1,130,2|2,0:0|0:0,0:0:0:0:
368,304,18925,1,10,0:0:0:0:
456,288,19104,2,0,L|461:209,1,65,2|0,1:2|0:0,0:0:0:0:
432,136,19464,1,2,1:2:0:0:
432,136,19643,2,0,L|437:57,1,65,10|2,0:0|0:0,0:0:0:0:
368,8,20003,2,0,P|320:0|296:8,1,65,2|2,1:2|0:0,0:0:0:0:
240,64,20362,2,0,P|192:72|168:64,1,65,10|2,0:0|0:0,0:0:0:0:
104,16,20721,6,0,B|88:64|88:64|96:160,1,130,2|8,1:2|0:0,0:0:0:0:
152,216,21260,1,2,0:0:0:0:
72,264,21440,2,0,P|67:330|109:384,1,130,2|8,1:2|0:0,0:0:0:0:
160,304,21979,1,2,0:0:0:0:
248,272,22158,2,0,P|288:264|320:272,1,65,2|0,1:2|0:0,0:0:0:0:
376,336,22518,2,0,P|408:340|439:332,1,65,10|0,0:0|0:0,0:0:0:0:
496,256,22877,2,0,L|512:104,1,130,2|10,1:2|0:0,0:0:0:0:
496,40,23416,1,2,0:0:0:0:
408,32,23596,6,0,P|376:32|328:48,1,65,6|0,1:2|0:0,0:0:0:0:
296,120,23955,2,0,P|264:120|216:104,1,65,10|0,0:0|0:0,0:0:0:0:
152,64,24314,2,0,L|144:224,1,130,6|10,1:2|0:0,0:0:0:0:
216,256,24853,1,0,0:0:0:0:
288,320,25033,6,0,L|280:384,1,65,6|0,1:2|1:0,0:0:0:0:
368,360,25392,2,0,L|376:296,1,65,8|0,0:0|1:0,0:0:0:0:
376,208,25751,1,0,1:0:0:0:
456,168,25931,2,0,L|448:103,1,65,0|8,1:0|0:0,0:0:0:0:
384,40,26290,6,0,P|336:8|258:14,1,130,12|8,0:0|0:0,0:0:0:0:
304,104,26829,1,0,1:0:0:0:
232,168,27009,2,0,P|200:168|160:160,1,65,10|8,0:0|0:0,0:0:0:0:
104,96,27368,1,2,0:0:0:0:
48,168,27548,2,0,L|56:208,3,32.5,10|8|10|8,0:0|0:0|0:0|0:0,0:0:0:0:
96,232,27907,6,0,L|88:368,2,130,6|10|0,1:2|0:0|1:0,0:0:0:0:
168,168,28805,1,0,1:0:0:0:
240,224,28985,1,8,0:0:0:0:
240,224,29164,6,0,B|288:232|288:232|392:216,1,130,0|0,1:0|1:0,0:0:0:0:
432,152,29703,2,0,P|440:120|440:88,1,65,8|2,0:0|0:0,0:0:0:0:
344,48,30063,2,0,P|352:80|352:112,1,65,0|2,1:0|0:0,0:0:0:0:
272,152,30422,1,10,0:0:0:0:
184,120,30601,1,2,0:0:0:0:
120,192,30781,6,0,P|96:248|128:328,1,130,2|10,1:2|0:0,0:0:0:0:
192,360,31320,2,0,L|328:352,1,130,2|2,0:0|1:2,0:0:0:0:
376,280,31859,1,8,0:0:0:0:
376,280,32039,2,0,L|384:208,1,65,2|0,1:2|0:0,0:0:0:0:
472,232,32398,2,0,L|464:160,1,65,2|8,1:2|0:0,0:0:0:0:
384,120,32757,2,0,P|328:96|256:128,1,130,2|2,0:0|0:0,0:0:0:0:
224,200,33296,1,10,0:0:0:0:
224,200,33476,1,2,0:0:0:0:
136,200,33655,6,0,L|-24:192,2,130,6|10|0,1:2|0:0|1:0,0:0:0:0:
128,288,34554,1,0,1:0:0:0:
184,360,34733,1,8,0:0:0:0:
264,312,34913,2,0,P|328:304|400:352,1,130,0|0,1:0|1:0,0:0:0:0:
464,376,35452,1,8,0:0:0:0:
504,296,35631,2,0,P|512:248|512:224,1,65,2|0,0:0|1:0,0:0:0:0:
424,240,35991,1,2,0:0:0:0:
424,240,36170,2,0,P|410:193|400:171,1,65,10|2,0:0|0:0,0:0:0:0:
320,144,36530,6,0,B|280:140|280:140|238:152|238:152|191:148,1,130,2|10,1:2|0:0,0:0:0:0:
144,72,37069,2,0,L|152:232,1,130,2|2,0:0|1:2,0:0:0:0:
96,272,37607,1,8,0:0:0:0:
144,352,37787,2,0,P|200:384|272:368,1,130,2|2,1:2|1:2,0:0:0:0:
328,312,38326,2,0,L|400:320,1,65,8|0,0:0|0:0,0:0:0:0:
440,240,38685,2,0,L|368:232,1,65,0|0,1:0|0:0,0:0:0:0:
360,144,39045,1,8,0:0:0:0:
360,144,39224,6,0,B|272:128|272:128|208:144,1,130,6|2,1:2|0:0,0:0:0:0:
200,224,39763,2,0,P|192:256|200:312,1,65,10|2,0:0|0:0,0:0:0:0:
232,368,40122,1,2,1:2:0:0:
144,368,40302,2,0,L|64:360,1,65,2|8,0:0|0:0,0:0:0:0:
24,288,40661,6,0,L|32:136,1,130,6|2,1:2|0:0,0:0:0:0:
104,104,41200,2,0,P|136:96|176:104,1,65,10|2,0:0|0:0,0:0:0:0:
208,184,41560,1,2,1:2:0:0:
208,184,41739,2,0,P|240:188|271:180,1,65,2|8,0:0|0:0,0:0:0:0:
320,104,42099,6,0,L|313:233,1,130,6|2,1:2|0:0,0:0:0:0:
352,320,42637,2,0,P|384:336|424:336,1,65,10|2,0:0|0:0,0:0:0:0:
488,280,42997,1,6,1:2:0:0:
488,192,43176,1,2,0:0:0:0:
488,192,43356,2,0,L|496:112,1,65,10|2,0:0|0:0,0:0:0:0:
432,64,43715,6,0,P|368:48|296:96,1,130,14|10,0:0|0:0,0:0:0:0:
216,208,44434,2,0,P|152:224|80:176,1,130,10|10,0:0|0:0,0:0:0:0:
168,128,45152,5,8,0:0:0:0:
168,128,45332,1,8,0:0:0:0:
151,319,45691,1,8,0:0:0:0:
151,319,45871,1,8,0:0:0:0:
288,112,46230,5,8,0:0:0:0:
288,112,46410,1,8,0:0:0:0:
266,358,46769,1,8,0:0:0:0:
266,358,46949,1,8,0:0:0:0:
376,328,47308,5,2,0:0:0:0:
376,328,47398,1,2,0:0:0:0:
376,328,47488,2,0,L|424:320,3,32.5,2|2|2|2,0:0|0:0|0:0|0:0,0:0:0:0:
440,304,47847,6,0,P|464:240|432:160,1,130,6|2,1:2|0:0,0:0:0:0:
360,128,48386,2,0,P|352:96|360:56,1,65,10|0,0:0|0:0,0:0:0:0:
440,16,48745,2,0,L|304:8,1,130,2|8,1:2|0:0,0:0:0:0:
240,96,49284,6,0,B|260:173|281:126|308:226,1,130,2|2,1:2|0:0,0:0:0:0:
288,312,49823,2,0,P|264:328|224:336,1,65,10|0,0:0|0:0,0:0:0:0:
144,280,50182,2,0,P|96:256|24:272,1,130,2|8,1:2|0:0,0:0:0:0:
8,352,50721,6,0,L|0:200,1,130,6|2,1:2|0:0,0:0:0:0:
64,120,51260,2,0,L|-16:112,1,65,10|0,0:0|0:0,0:0:0:0:
56,24,51619,2,0,P|120:32|168:96,1,130,2|8,1:2|0:0,0:0:0:0:
224,168,52158,6,0,P|280:200|352:184,1,130,6|2,1:2|0:0,0:0:0:0:
432,240,52697,2,0,L|424:312,1,65,10|2,0:0|0:0,0:0:0:0:
336,344,53057,1,6,1:2:0:0:
232,320,53236,1,2,0:0:0:0:
232,320,53416,1,10,0:0:0:0:
144,384,53596,2,0,B|128:336|128:336|136:232,1,130,2|0,0:0|0:0,0:0:0:0:
200,184,54134,6,0,P|240:184|280:200,1,65,10|0,0:0|0:0,0:0:0:0:
328,264,54494,2,0,P|359:272|394:267,1,65,2|0,1:2|0:0,0:0:0:0:
368,176,54853,1,10,0:0:0:0:
368,176,55033,2,0,L|376:32,1,130,6|2,1:2|0:0,0:0:0:0:
272,24,55572,2,0,L|200:16,1,65,10|0,0:0|0:0,0:0:0:0:
168,112,55931,2,0,L|232:104,1,65,2|2,1:2|0:0,0:0:0:0:
272,197,56290,1,10,0:0:0:0:
240,288,56470,2,0,P|190:317|110:297,1,130,2|0,0:0|0:0,0:0:0:0:
48,248,57009,6,0,P|40:208|56:160,1,65,10|0,0:0|0:0,0:0:0:0:
136,152,57368,2,0,P|145:112|180:75,1,65,2|0,1:2|0:0,0:0:0:0:
264,112,57727,1,10,0:0:0:0:
264,112,57907,2,0,L|424:104,2,130,10|10|8,0:0|0:0|0:0,0:0:0:0:
240,208,58805,5,10,0:0:0:0:
240,208,58895,1,8,0:0:0:0:
240,208,58985,2,0,L|232:256,3,32.5,8|8|8|8,0:0|0:0|0:0|0:0,0:0:0:0:
224,264,59344,6,0,P|176:296|96:280,1,130,6|2,1:2|0:0,0:0:0:0:
10,232,59883,2,0,L|16:311,1,65,10|0,0:0|0:0,0:0:0:0:
98,189,60242,2,0,L|111:41,1,130,2|8,1:2|0:0,0:0:0:0:
198,10,60781,2,0,P|254:-14|334:26,1,130,2|2,1:2|0:0,0:0:0:0:
312,104,61320,2,0,P|304:136|304:176,1,65,10|0,0:0|0:0,0:0:0:0:
400,208,61679,2,0,L|392:352,1,130,2|8,1:2|0:0,0:0:0:0:
288,360,62218,6,0,B|224:336|224:392|152:360,1,130,6|2,1:2|0:0,0:0:0:0:
112,280,62757,2,0,P|104:240|112:200,1,65,10|0,0:0|0:0,0:0:0:0:
192,152,63116,1,2,1:2:0:0:
152,56,63296,2,0,L|80:48,1,65,0|8,0:0|0:0,0:0:0:0:
192,152,63655,6,0,L|344:144,1,130,6|2,1:2|0:0,0:0:0:0:
400,72,64194,1,10,0:0:0:0:
472,144,64374,1,2,0:0:0:0:
408,232,64554,2,0,P|400:264|408:304,1,65,6|2,1:2|0:0,0:0:0:0:
480,344,64913,1,10,0:0:0:0:
480,344,65093,2,0,L|320:336,1,130,2|0,0:0|0:0,0:0:0:0:
256,288,65631,6,0,L|248:376,1,65,10|0,0:0|0:0,0:0:0:0:
144,368,65991,2,0,L|149:303,1,65,2|0,1:2|0:0,0:0:0:0:
88,216,66350,1,10,0:0:0:0:
136,120,66530,2,0,P|183:82|261:94,1,130,6|2,1:2|0:0,0:0:0:0:
312,176,67069,2,0,P|344:168|384:144,1,65,10|2,0:0|0:0,0:0:0:0:
456,216,67428,2,0,P|479:193|502:152,1,65,2|2,1:2|0:0,0:0:0:0:
488,56,67787,1,10,0:0:0:0:
384,16,67967,2,0,L|240:8,1,130,2|0,0:0|0:0,0:0:0:0:
288,112,68506,6,0,P|296:144|288:192,1,65,10|0,0:0|0:0,0:0:0:0:
216,256,68865,1,10,0:0:0:0:
216,256,68955,1,8,0:0:0:0:
216,256,69045,2,0,L|168:248,2,32.5,8|8|8,0:0|0:0|0:0,0:0:0:0:
272,336,69404,6,0,P|336:368|408:336,1,130,6|2,1:2|1:2,0:0:0:0:
432,256,69943,2,0,L|440:176,1,65,10|2,0:0|1:2,0:0:0:0:
384,96,70302,1,10,0:0:0:0:
384,96,70482,1,2,1:2:0:0:
288,136,70661,1,0,1:0:0:0:
200,80,70841,6,0,B|152:71|152:71|118:81|118:81|47:69,1,130,14|2,0:0|1:2,0:0:0:0:
160,168,71380,2,0,L|168:240,1,65,10|10,0:0|0:0,0:0:0:0:
128,336,71739,1,10,0:0:0:0:
128,336,71829,1,8,0:0:0:0:
128,336,71919,2,0,L|184:328,2,32.5,2|0|10,1:2|1:0|0:0,0:0:0:0:
80,256,72278,1,10,0:0:0:0:
160,168,72458,6,0,P|224:160|288:200,1,130,6|8,1:2|0:0,0:0:0:0:
328,272,72997,1,0,1:0:0:0:
424,280,73176,2,0,L|432:200,1,65,8|0,0:0|1:0,0:0:0:0:
448,128,73536,1,8,0:0:0:0:
448,128,73715,2,0,P|392:104|320:128,1,130,2|10,1:2|0:0,0:0:0:0:
272,200,74254,2,0,P|240:208|208:208,1,65,2|10,1:2|0:0,0:0:0:0:
128,152,74613,2,0,P|95:152|64:160,1,65,10|10,0:0|0:0,0:0:0:0:
16,248,74973,1,10,0:0:0:0:
40,336,75152,1,8,0:0:0:0:
128,376,75332,6,0,L|224:368,1,65,6|0,1:2|0:0,0:0:0:0:
280,320,75691,2,0,P|280:288|264:240,1,65,10|0,0:0|1:0,0:0:0:0:
176,232,76051,2,0,L|80:224,1,65,14|0,0:0|1:0,0:0:0:0:
88,128,76410,1,10,0:0:0:0:
88,128,76590,6,0,L|80:48,1,65,2|8,1:2|0:0,0:0:0:0:
184,32,76949,1,2,1:2:0:0:
256,104,77128,2,0,L|249:168,1,65,10|0,0:0|1:0,0:0:0:0:
272,272,77488,2,0,P|312:288|360:288,1,65,14|0,0:0|1:0,0:0:0:0:
416,240,77847,1,10,0:0:0:0:
360,160,78027,1,2,1:2:0:0:
360,160,78206,6,0,L|368:16,2,130,10|10|14,0:0|0:0|0:0,0:0:0:0:
264,207,79104,2,0,L|272:279,1,65,2|8,1:2|0:0,0:0:0:0:
296,368,79464,2,0,B|216:376|216:376|152:360,1,130,2|2,1:2|1:2,0:0:0:0:
91,302,80003,2,0,P|75:342|68:374,1,65,8|0,0:0|1:0,0:0:0:0:
176,264,80362,2,0,L|168:184,1,65,12|0,0:0|1:0,0:0:0:0:
104,120,80721,2,0,L|112:80,3,32.5,8|8|8|8,0:0|0:0|0:0|0:0,0:0:0:0:
136,64,81081,6,0,P|192:48|264:88,1,130,14|10,0:0|0:0,0:0:0:0:
312,168,81619,1,0,1:0:0:0:
408,136,81799,2,0,L|402:72,1,65,14|2,0:0|1:2,0:0:0:0:
504,112,82158,1,8,0:0:0:0:
472,208,82338,2,0,L|458:367,1,130,2|2,1:2|1:2,0:0:0:0:
368,368,82877,2,0,L|303:360,1,65,10|2,0:0|1:2,0:0:0:0:
288,264,83236,1,12,0:0:0:0:
208,312,83416,2,0,L|136:304,1,65,2|10,1:2|0:0,0:0:0:0:
64,360,83775,1,2,1:2:0:0:
64,360,83955,6,0,P|48:304|94:221,1,130,10|10,0:0|0:0,0:0:0:0:
176,232,84494,1,0,1:0:0:0:
152,128,84673,2,0,L|88:120,1,65,14|2,0:0|1:2,0:0:0:0:
192,40,85033,1,10,0:0:0:0:
288,72,85212,2,0,P|296:128|272:208,1,130,2|0,1:2|1:0,0:0:0:0:
192,264,85751,5,0,1:0:0:0:
96,304,85931,1,0,1:0:0:0:
112,208,86110,1,4,1:2:0:0:
