osu file format v14

[General]
AudioFilename: audio.mp3
AudioLeadIn: 0
PreviewTime: 47847
Countdown: 0
SampleSet: Soft
StackLeniency: 0.7
Mode: 0
LetterboxInBreaks: 0
WidescreenStoryboard: 1

[Editor]
Bookmarks: 9224,14793,27907,33655,39224
DistanceSpacing: 1
BeatDivisor: 2
GridSize: 32
TimelineZoom: 1.7

[Metadata]
Title:Getta Banban (TV Size)
TitleUnicode:ゲッタバンバン (TV Size)
Artist:Sako Tomohisa
ArtistUnicode:佐香智久
Creator:[-Evil-]
Version:hakashii's Normal
Source:ポケットモンスターXY
Tags:getter sakou 小川 智之 Ogawa Tomoyuki Mad-Paced Mad Paced Opening 3 Pokémon the Series: XY Pokemon Pocket Monsters XY J-Pop Jpop pop anime japanese hakashii kanocchi NexusQI
BeatmapID:2343295
BeatmapSetID:1112682

[Difficulty]
HPDrainRate:4
CircleSize:3
OverallDifficulty:4
ApproachRate:6
SliderMultiplier:1.1
SliderTickRate:1

[Events]
//Background and Video events
0,0,"getta ban ban.jpg",0,0
//Break Periods
//Storyboard Layer 0 (Background)
//Storyboard Layer 1 (Fail)
//Storyboard Layer 2 (Pass)
//Storyboard Layer 3 (Foreground)
//Storyboard Layer 4 (Overlay)
//Storyboard Sound Samples

[TimingPoints]
602,359.281437125748,4,2,1,60,1,0
2937,-100,4,2,1,55,0,0
14793,-100,4,2,1,60,0,0
26290,-100,4,2,1,70,0,0
47847,-100,4,2,1,75,0,1
54404,-100,4,2,1,5,0,1
54494,-100,4,2,1,75,0,1
54763,-100,4,2,1,5,0,1
54853,-100,4,2,1,75,0,1
57278,-100,4,2,1,5,0,1
57368,-100,4,2,1,75,0,1
57637,-100,4,2,1,5,0,1
57727,-100,4,2,1,75,0,1
59254,-100,4,2,1,75,0,0
59344,-100,4,2,1,75,0,1
65901,-100,4,2,1,5,0,1
65991,-100,4,2,1,75,0,1
66260,-100,4,2,1,5,0,1
66350,-100,4,2,1,75,0,1
68775,-100,4,2,1,5,0,1
68865,-100,4,2,1,75,0,1
72458,-100,4,2,1,70,0,0
75332,-100,4,2,1,75,0,0

[Colours]
Combo1 : 255,255,64
Combo2 : 255,128,128
Combo3 : 152,152,231

[HitObjects]
23,169,602,6,0,P|82:161|107:162,1,55,0|0,1:0|1:0,0:0:0:0:
119,196,961,2,0,P|178:196|196:114,1,110,12|0,0:0|1:0,0:0:0:0:
216,103,1500,1,12,0:0:0:0:
305,39,1859,1,0,1:2:0:0:
305,39,2039,2,0,L|331:104,1,55,8|8,0:0|0:0,0:0:0:0:
319,144,2398,1,8,0:0:0:0:
477,190,2937,2,0,L|466:272,1,55,2|2,0:0|0:0,0:0:0:0:
476,299,3296,6,0,B|451:278|451:278|288:316,1,165,6|2,1:2|1:2,0:0:0:0:
283,347,4015,1,2,0:0:0:0:
183,304,4374,1,2,0:0:0:0:
86,357,4733,2,0,P|60:303|89:237,1,110,2|2,0:0|0:0,0:0:0:0:
112,219,5272,1,2,1:2:0:0:
24,152,5631,2,0,L|37:81,1,55,2|2,1:2|0:0,0:0:0:0:
24,43,5991,1,2,1:2:0:0:
24,43,6170,6,0,B|106:13|106:13|191:83,1,165,2|2,0:0|1:2,0:0:0:0:
174,117,6889,1,2,0:0:0:0:
282,99,7248,2,0,L|269:161,1,55,2|2,0:0|1:2,0:0:0:0:
241,199,7607,2,0,B|256:264|256:264|254:288|254:288|278:381,1,165,2|2,0:0|1:2,0:0:0:0:
381,377,8506,2,0,L|435:371,1,55,2|2,1:2|0:0,0:0:0:0:
489,358,8865,1,2,1:2:0:0:
503,249,9224,6,0,B|515:200|469:175|462:177|455:179|414:132|457:72,1,165,2|2,1:2|0:0,0:0:0:0:
441,51,9943,1,2,1:2:0:0:
346,107,10302,1,0,1:0:0:0:
236,95,10661,2,0,L|251:240,1,110,2|2,1:2|1:2,0:0:0:0:
249,314,11380,1,2,1:2:0:0:
139,318,11739,2,0,L|73:338,1,55,2|2,1:2|0:0,0:0:0:0:
46,372,12099,6,0,P|7:327|34:243,1,110,2|2,1:2|1:2,0:0:0:0:
98,217,12817,2,0,P|131:153|111:107,1,110,2|2,1:2|1:2,0:0:0:0:
58,29,13536,2,0,B|96:-2|147:32|144:37|142:43|186:82|237:40,1,165,2|0,1:2|0:0,0:0:0:0:
259,80,14254,1,0,1:0:0:0:
259,80,14434,2,0,P|282:65|309:59,1,55,10|2,0:0|1:2,0:0:0:0:
348,21,14793,6,0,P|420:58|440:128,1,110,6|2,1:2|0:0,0:0:0:0:
422,134,15332,2,0,L|430:233,1,55,10|2,0:0|0:0,0:0:0:0:
496,274,15871,2,0,L|485:348,1,55,2|10,0:0|0:0,0:0:0:0:
453,371,16230,2,0,B|417:324|374:354|372:359|373:364|326:403|265:344,1,165,2|10,1:2|0:0,0:0:0:0:
252,343,16949,1,2,0:0:0:0:
252,343,17128,2,0,P|254:307|295:262,1,55,2|0,1:2|0:0,0:0:0:0:
303,253,17488,2,0,P|277:205|255:192,1,55,10|2,0:0|0:0,0:0:0:0:
184,147,18027,6,0,L|100:175,1,55,2|10,0:0|0:0,0:0:0:0:
85,194,18386,2,0,P|40:156|62:80,1,110,2|2,0:0|0:0,0:0:0:0:
113,27,19104,2,0,L|311:56,1,165,2|10,1:2|0:0,0:0:0:0:
328,69,19823,1,2,0:0:0:0:
328,69,20003,2,0,L|313:-2,2,55,2|2|10,1:2|0:0|0:0,0:0:0:0:
434,96,20721,6,0,B|467:222,1,110,2|8,1:2|0:0,0:0:0:0:
483,253,21260,1,2,0:0:0:0:
483,253,21440,1,2,1:2:0:0:
406,331,21799,1,8,0:0:0:0:
298,310,22158,2,0,L|273:165,1,110,2|10,1:2|0:0,0:0:0:0:
252,153,22697,1,0,0:0:0:0:
252,153,22877,1,2,1:2:0:0:
151,198,23236,2,0,P|113:217|70:214,1,55,10|2,0:0|0:0,0:0:0:0:
48,200,23596,6,0,B|58:161|32:149|31:144|30:140|7:113|27:75,1,110,6|10,1:2|0:0,0:0:0:0:
87,10,24314,2,0,P|148:13|211:39,1,110,6|10,1:2|0:0,0:0:0:0:
289,83,25033,2,0,B|325:102|325:102|453:20,1,165,6|0,1:2|1:0,0:0:0:0:
485,40,25751,2,0,P|502:73|498:117,1,55,0|0,1:0|1:0,0:0:0:0:
472,137,26110,1,8,0:0:0:0:
472,137,26290,5,12,0:0:0:0:
509,240,26649,1,8,0:0:0:0:
463,340,27009,1,10,0:0:0:0:
463,340,27188,2,0,P|409:305|342:325,1,110,8|10,0:0|0:0,0:0:0:0:
251,350,27907,6,0,L|267:224,1,110,6|10,1:2|0:0,0:0:0:0:
202,150,28625,2,0,P|194:120|186:94,1,55,0|0,1:0|1:0,0:0:0:0:
159,48,28985,1,8,0:0:0:0:
159,48,29164,2,0,P|214:17|264:32,1,110,0|0,1:0|1:0,0:0:0:0:
300,60,29703,1,8,0:0:0:0:
392,0,30063,1,0,1:0:0:0:
488,52,30422,1,10,0:0:0:0:
463,159,30781,6,0,L|486:290,1,110,2|10,1:2|0:0,0:0:0:0:
501,318,31320,2,0,B|445:329|445:329|392:290,1,110,2|2,0:0|1:2,0:0:0:0:
327,217,32039,1,2,1:2:0:0:
220,243,32398,1,2,1:2:0:0:
143,164,32757,1,2,0:0:0:0:
143,164,32937,2,0,P|128:215|116:276,1,110,0|10,1:0|0:0,0:0:0:0:
79,373,33655,6,0,P|12:353|0:306,2,110,6|10|0,1:2|0:0|1:0,0:0:0:0:
134,372,34554,1,0,1:0:0:0:
229,315,34913,2,0,L|353:333,1,110,0|0,1:0|1:0,0:0:0:0:
388,352,35452,1,8,0:0:0:0:
452,262,35811,2,0,P|447:205|437:142,1,110,0|10,1:0|0:0,0:0:0:0:
443,42,36530,6,0,P|385:32|291:24,1,110,2|10,1:2|0:0,0:0:0:0:
280,12,37069,2,0,P|241:76|261:129,1,110,2|2,0:0|1:2,0:0:0:0:
268,214,37787,2,0,B|214:210|214:210|204:198|204:198|122:188,1,110,2|2,1:2|1:2,0:0:0:0:
114,170,38326,1,8,0:0:0:0:
52,258,38685,1,0,1:0:0:0:
93,360,39045,1,8,0:0:0:0:
93,360,39224,6,0,L|216:318,1,110,6|2,1:2|0:0,0:0:0:0:
243,295,39763,1,10,0:0:0:0:
338,350,40122,1,2,1:2:0:0:
444,320,40482,1,8,0:0:0:0:
444,320,40661,6,0,P|486:277|466:193,1,110,6|2,1:2|0:0,0:0:0:0:
448,191,41200,1,10,0:0:0:0:
340,214,41560,1,2,1:2:0:0:
239,169,41919,1,8,0:0:0:0:
239,169,42099,6,0,L|282:22,1,110,6|2,1:2|0:0,0:0:0:0:
273,8,42637,1,10,0:0:0:0:
176,61,42997,2,0,L|119:55,1,55,6|2,1:2|0:0,0:0:0:0:
83,14,43356,2,0,L|24:44,1,55,10|2,0:0|0:0,0:0:0:0:
6,86,43715,5,14,0:0:0:0:
82,165,44075,1,10,0:0:0:0:
28,261,44434,1,10,0:0:0:0:
68,363,44793,1,10,0:0:0:0:
172,327,45152,6,0,L|249:316,1,55,8|8,0:0|0:0,0:0:0:0:
310,247,45691,2,0,L|243:231,1,55,8|8,0:0|0:0,0:0:0:0:
213,132,46230,1,8,0:0:0:0:
213,132,46410,1,8,0:0:0:0:
271,39,46769,1,8,0:0:0:0:
271,39,46949,1,8,0:0:0:0:
379,59,47308,2,0,L|395:-8,2,55,2|2|2,0:0|0:0|0:0,0:0:0:0:
409,104,47847,6,0,L|445:252,1,110,6|2,1:2|0:0,0:0:0:0:
460,259,48386,1,10,0:0:0:0:
396,349,48745,1,2,1:2:0:0:
291,313,49104,1,8,0:0:0:0:
291,313,49284,6,0,L|308:173,1,110,2|2,1:2|0:0,0:0:0:0:
325,152,49823,1,10,0:0:0:0:
230,95,50182,1,2,1:2:0:0:
128,138,50542,1,8,0:0:0:0:
128,138,50721,6,0,L|164:279,1,110,6|2,1:2|0:0,0:0:0:0:
179,294,51260,1,10,0:0:0:0:
87,354,51619,1,2,1:2:0:0:
3,281,51979,1,8,0:0:0:0:
3,281,52158,6,0,L|27:119,1,110,6|2,1:2|0:0,0:0:0:0:
49,126,52697,2,0,L|39:55,1,55,10|2,0:0|0:0,0:0:0:0:
51,17,53057,2,0,B|83:0|107:19|108:23|108:27|137:52|178:35,1,110,6|10,1:2|0:0,0:0:0:0:
206,27,53596,1,2,0:0:0:0:
206,27,53775,5,6,1:2:0:0:
294,92,54134,1,10,0:0:0:0:
264,198,54494,1,2,1:2:0:0:
328,286,54853,1,10,0:0:0:0:
328,286,55033,6,0,L|479:308,1,110,6|2,1:2|0:0,0:0:0:0:
482,271,55572,2,0,L|461:220,1,55,10|0,0:0|0:0,0:0:0:0:
420,184,55931,2,0,L|461:46,1,110,2|10,1:2|0:0,0:0:0:0:
365,10,56649,5,6,1:2:0:0:
274,73,57009,1,10,0:0:0:0:
165,54,57368,1,2,1:2:0:0:
69,108,57727,1,10,0:0:0:0:
69,108,57907,6,0,L|96:225,1,110,10|10,0:0|0:0,0:0:0:0:
66,263,58446,1,2,0:0:0:0:
76,372,58805,2,0,L|18:364,2,55,10|8|8,0:0|0:0|0:0,0:0:0:0:
129,383,59344,6,0,B|182:377|182:377|193:369|193:369|281:357,1,110,6|2,1:2|0:0,0:0:0:0:
281,333,59883,1,10,0:0:0:0:
381,376,60242,1,2,1:2:0:0:
466,307,60601,1,8,0:0:0:0:
466,307,60781,6,0,P|480:260|485:189,1,110,2|2,1:2|0:0,0:0:0:0:
443,164,61320,1,10,0:0:0:0:
344,115,61679,1,2,1:2:0:0:
259,185,62039,1,8,0:0:0:0:
259,185,62218,6,0,L|252:334,1,110,6|2,1:2|0:0,0:0:0:0:
219,338,62757,1,10,0:0:0:0:
114,371,63116,1,2,1:2:0:0:
23,307,63476,1,8,0:0:0:0:
23,307,63655,6,0,P|3:246|3:181,1,110,6|2,1:2|0:0,0:0:0:0:
34,156,64194,2,0,L|46:69,1,55,10|2,0:0|0:0,0:0:0:0:
35,46,64554,2,0,P|110:12|151:40,1,110,6|10,1:2|0:0,0:0:0:0:
176,48,65093,1,2,0:0:0:0:
176,48,65272,5,4,1:2:0:0:
285,38,65631,2,0,L|260:163,1,110,10|2,0:0|1:2,0:0:0:0:
219,247,66350,1,10,0:0:0:0:
219,247,66530,6,0,P|216:306|297:348,1,110,6|2,1:2|0:0,0:0:0:0:
296,314,67069,1,10,0:0:0:0:
393,364,67428,2,0,P|452:360|475:289,1,110,2|10,1:2|0:0,0:0:0:0:
498,269,67967,1,2,0:0:0:0:
498,269,68146,5,6,1:2:0:0:
459,165,68506,2,0,P|466:107|485:37,1,110,10|10,0:0|0:0,0:0:0:0:
372,25,69224,1,8,0:0:0:0:
372,25,69404,6,0,B|322:24|322:24|311:14|311:14|232:11,1,110,6|2,1:2|1:2,0:0:0:0:
221,45,69943,2,0,L|135:57,1,55,10|2,0:0|1:2,0:0:0:0:
119,81,70302,1,10,0:0:0:0:
119,81,70482,1,2,1:2:0:0:
11,56,70841,6,0,P|25:134|32:183,1,110,14|2,0:0|1:2,0:0:0:0:
65,205,71380,2,0,P|81:251|81:277,1,55,10|10,0:0|0:0,0:0:0:0:
52,304,71739,2,0,L|-32:324,2,55,10|2|10,0:0|1:2|0:0,0:0:0:0:
94,339,72278,1,10,0:0:0:0:
94,339,72458,6,0,B|116:326|141:345|142:346|142:349|171:371|202:354,1,110,6|8,1:2|0:0,0:0:0:0:
243,255,73176,2,0,P|241:200|228:173,1,55,8|0,0:0|1:0,0:0:0:0:
211,154,73536,1,8,0:0:0:0:
211,154,73715,6,0,B|230:116|230:116|333:91,1,110,2|10,1:2|0:0,0:0:0:0:
342,73,74254,2,0,L|424:58,1,55,2|10,1:2|0:0,0:0:0:0:
449,47,74613,2,0,P|475:74|471:128,1,55,10|10,0:0|0:0,0:0:0:0:
464,143,74973,1,10,0:0:0:0:
507,243,75332,5,6,1:2:0:0:
404,282,75691,1,10,0:0:0:0:
307,229,76051,1,14,0:0:0:0:
201,260,76410,1,10,0:0:0:0:
201,260,76590,6,0,P|182:331|172:397,1,110,2|2,1:2|1:2,0:0:0:0:
123,382,77128,1,10,0:0:0:0:
21,338,77488,1,14,0:0:0:0:
45,231,77847,2,0,P|42:194|39:158,1,55,10|2,0:0|1:2,0:0:0:0:
9,130,78206,6,0,P|51:72|131:82,1,110,10|10,0:0|0:0,0:0:0:0:
184,112,78925,2,0,L|265:125,1,55,14|2,0:0|1:2,0:0:0:0:
290,102,79284,1,8,0:0:0:0:
290,102,79464,6,0,L|421:57,1,110,2|2,1:2|1:2,0:0:0:0:
448,71,80003,1,8,0:0:0:0:
431,179,80362,1,12,0:0:0:0:
495,259,80721,2,0,L|475:321,1,55,8|8,0:0|0:0,0:0:0:0:
489,365,81081,5,14,0:0:0:0:
379,378,81440,1,10,0:0:0:0:
288,315,81799,1,14,0:0:0:0:
178,323,82158,1,8,0:0:0:0:
178,323,82338,6,0,L|36:306,1,110,2|2,1:2|1:2,0:0:0:0:
18,286,82877,2,0,L|33:210,1,55,10|2,0:0|1:2,0:0:0:0:
52,182,83236,1,12,0:0:0:0:
14,77,83596,1,10,0:0:0:0:
106,16,83955,6,0,P|191:56|197:96,1,110,10|10,0:0|0:0,0:0:0:0:
166,111,84494,1,0,1:0:0:0:
166,111,84673,2,0,L|154:180,1,55,14|2,0:0|1:2,0:0:0:0:
231,246,85212,6,0,L|255:401,1,110,2|0,1:2|1:0,0:0:0:0:
297,379,85751,2,0,P|328:376|362:353,1,55,0|0,1:0|1:0,0:0:0:0:
377,318,86110,1,4,1:2:0:0:
