osu file format v14

[General]
AudioFilename: audio.mp3
AudioLeadIn: 0
PreviewTime: 47847
Countdown: 0
SampleSet: Soft
StackLeniency: 0.7
Mode: 0
LetterboxInBreaks: 0
WidescreenStoryboard: 1

[Editor]
Bookmarks: 9224,14793,27907,33655,39224,79643,81081
DistanceSpacing: 2
BeatDivisor: 4
GridSize: 4
TimelineZoom: 1.5

[Metadata]
Title:Getta Banban (TV Size)
TitleUnicode:ゲッタバンバン (TV Size)
Artist:Sako Tomohisa
ArtistUnicode:佐香智久
Creator:[-Evil-]
Version:Nexus' Light Insane
Source:ポケットモンスターXY
Tags:getter sakou 小川 智之 Ogawa Tomoyuki Mad-Paced Mad Paced Opening 3 Pokémon the Series: XY Pokemon Pocket Monsters XY J-Pop Jpop pop anime japanese hakashii kanocchi NexusQI
BeatmapID:2330381
BeatmapSetID:1112682

[Difficulty]
HPDrainRate:5
CircleSize:3.8
OverallDifficulty:7
ApproachRate:8.5
SliderMultiplier:1.4
SliderTickRate:1

[Events]
//Background and Video events
0,0,"getta ban ban.jpg",0,0
//Break Periods
//Storyboard Layer 0 (Background)
//Storyboard Layer 1 (Fail)
//Storyboard Layer 2 (Pass)
//Storyboard Layer 3 (Foreground)
//Storyboard Layer 4 (Overlay)
//Storyboard Sound Samples

[TimingPoints]
602,359.281437125748,4,2,1,60,1,0
2937,-125,4,2,1,55,0,0
14793,-111.111111111111,4,2,1,60,0,0
26290,-111.111111111111,4,2,1,70,0,0
27907,-105.263157894737,4,2,1,70,0,0
47847,-86.9565217391304,4,2,1,75,0,1
54404,-86.9565217391304,4,2,1,5,0,1
54494,-86.9565217391304,4,2,1,75,0,1
54763,-86.9565217391304,4,2,1,5,0,1
54853,-86.9565217391304,4,2,1,75,0,1
57278,-86.9565217391304,4,2,1,5,0,1
57368,-86.9565217391304,4,2,1,75,0,1
57637,-86.9565217391304,4,2,1,5,0,1
57727,-86.9565217391304,4,2,1,75,0,1
59254,-86.9565217391304,4,2,1,75,0,0
59344,-86.9565217391304,4,2,1,75,0,1
65901,-86.9565217391304,4,2,1,5,0,1
65991,-86.9565217391304,4,2,1,75,0,1
66260,-86.9565217391304,4,2,1,5,0,1
66350,-86.9565217391304,4,2,1,75,0,1
68775,-86.9565217391304,4,2,1,5,0,1
68865,-86.9565217391304,4,2,1,75,0,1
72458,-86.9565217391304,4,2,1,70,0,0
75332,-86.9565217391304,4,2,1,75,0,0

[Colours]
Combo1 : 255,255,64
Combo2 : 255,128,128
Combo3 : 152,152,231

[HitObjects]
85,113,602,6,0,B|162:109,1,70,0|0,1:0|1:0,0:0:0:0:
252,107,961,1,12,0:0:0:0:
197,191,1140,2,0,B|113:196,1,70,0|0,1:0|1:0,0:0:0:0:
31,199,1500,1,12,0:0:0:0:
99,281,1679,2,0,B|185:276,1,70,0|0,1:0|1:2,0:0:0:0:
252,258,2039,2,0,P|253:275|249:292,4,35,8|8|8|8|8,0:0|0:0|0:0|0:0|0:0,0:0:0:0:
99,77,2937,5,2,0:0:0:0:
99,77,3116,1,2,0:0:0:0:
165,136,3296,2,0,B|211:130|211:130|232:143|232:143|285:139,1,112,6|2,1:2|0:0,0:0:0:0:
372,91,3835,1,2,1:2:0:0:
352,235,4015,2,0,L|343:157,1,56,2|0,0:0|1:0,0:0:0:0:
448,242,4374,2,0,L|439:320,1,56,2|0,0:0|1:0,0:0:0:0:
280,362,4733,6,0,B|308:344|345:350|326:369|361:379|406:362,1,112,2|2,0:0|0:0,0:0:0:0:
221,244,5272,2,0,L|227:312,1,56,2|2,1:2|0:0,0:0:0:0:
96,215,5631,2,0,B|122:204|122:204|162:208,1,56,2|2,1:2|0:0,0:0:0:0:
50,283,5991,1,2,1:2:0:0:
56,144,6170,6,0,B|108:122|108:122|171:126,1,112,2|2,0:0|0:0,0:0:0:0:
237,186,6709,1,2,1:2:0:0:
259,33,6889,2,0,L|249:102,1,56,2|0,0:0|1:0,0:0:0:0:
187,0,7248,1,2,0:0:0:0:
187,0,7428,1,2,1:2:0:0:
341,37,7607,6,0,B|383:31|383:31|415:43|415:43|463:37,1,112,2|2,0:0|0:0,0:0:0:0:
374,120,8146,1,2,1:2:0:0:
374,120,8326,1,2,0:0:0:0:
433,232,8506,2,0,L|439:154,1,56,2|2,1:2|0:0,0:0:0:0:
303,266,8865,2,0,P|332:257|371:259,1,56,2|0,1:2|0:0,0:0:0:0:
212,186,9224,6,0,B|188:168|156:175|156:175|138:196|101:198,1,112,2|0,1:2|1:0,0:0:0:0:
0,120,9763,1,2,0:0:0:0:
37,244,9943,2,0,P|76:281|153:271,1,112,2|0,1:2|1:0,0:0:0:0:
212,186,10482,1,2,0:0:0:0:
233,340,10661,6,0,L|223:261,1,56,2|0,1:2|0:0,0:0:0:0:
370,319,11021,2,0,P|336:307|300:311,1,56,2|0,1:2|0:0,0:0:0:0:
460,303,11380,2,0,L|452:358,1,56,2|0,1:2|0:0,0:0:0:0:
399,240,11739,1,2,1:2:0:0:
399,240,11919,1,2,0:0:0:0:
506,181,12099,6,0,L|513:243,1,56,2|0,1:2|0:0,0:0:0:0:
379,143,12458,2,0,P|415:132|446:136,1,56,2|0,1:2|0:0,0:0:0:0:
300,240,12817,2,0,P|272:239|246:229,1,56,2|0,1:2|0:0,0:0:0:0:
202,108,13176,2,0,L|191:169,1,56,2|0,1:2|0:0,0:0:0:0:
31,40,13536,6,0,B|76:33|76:33|100:47|100:47|160:41,1,112,2|0,1:2|1:0,0:0:0:0:
31,40,14075,1,0,0:0:0:0:
122,126,14254,1,0,1:0:0:0:
120,139,14343,1,8,0:0:0:0:
119,153,14433,1,10,0:0:0:0:
117,167,14523,1,8,0:0:0:0:
117,181,14613,2,0,L|74:178,1,28,2|8,1:2|0:0,0:0:0:0:
199,243,14793,6,0,B|249:237|249:237|273:252|273:252|330:247,1,125.999996154785,6|2,1:2|0:0,0:0:0:0:
380,172,15332,1,10,0:0:0:0:
283,100,15512,2,0,L|297:169,1,62.9999980773926,2|0,0:0|1:0,0:0:0:0:
361,63,15871,1,2,0:0:0:0:
237,30,16051,1,10,0:0:0:0:
419,1,16230,6,0,B|444:32|444:32|440:131,1,125.999996154785,2|2,1:2|1:2,0:0:0:0:
399,245,16769,1,10,0:0:0:0:
490,209,16949,1,2,0:0:0:0:
427,323,17128,2,0,P|399:330|364:322,1,62.9999980773926,2|0,1:2|0:0,0:0:0:0:
286,269,17488,1,10,0:0:0:0:
179,384,17667,6,0,B|156:297|156:297|171:241,1,125.999996154785,2|2,0:0|0:0,0:0:0:0:
46,270,18206,1,10,0:0:0:0:
120,183,18386,2,0,P|153:168|194:168,1,62.9999980773926,2|0,0:0|1:0,0:0:0:0:
277,198,18745,1,2,0:0:0:0:
233,91,18925,1,10,0:0:0:0:
362,212,19104,6,0,P|342:257|256:279,1,125.999996154785,2|2,1:2|1:2,0:0:0:0:
437,175,19643,2,0,P|444:215|431:263,1,62.9999980773926,10|2,0:0|0:0,0:0:0:0:
370,128,20003,1,2,1:2:0:0:
476,104,20182,1,2,0:0:0:0:
305,29,20362,1,10,0:0:0:0:
400,53,20542,1,2,0:0:0:0:
224,77,20721,6,0,B|206:115|206:115|231:219,1,125.999996154785,2|8,1:2|0:0,0:0:0:0:
302,151,21260,1,2,0:0:0:0:
272,260,21440,2,0,P|242:275|200:272,1,62.9999980773926,2|0,1:2|0:0,0:0:0:0:
113,250,21799,1,8,0:0:0:0:
225,196,21979,1,2,0:0:0:0:
115,87,22158,6,0,L|128:158,1,62.9999980773926,2|0,1:2|0:0,0:0:0:0:
270,47,22518,2,0,P|234:36|192:46,1,62.9999980773926,10|0,0:0|0:0,0:0:0:0:
355,152,22877,2,0,L|366:90,1,62.9999980773926,2|0,1:2|0:0,0:0:0:0:
310,228,23236,1,10,0:0:0:0:
426,190,23416,1,2,0:0:0:0:
395,343,23596,6,0,L|385:269,1,62.9999980773926,6|0,1:2|0:0,0:0:0:0:
233,381,23955,2,0,P|271:366|307:370,1,62.9999980773926,10|0,0:0|0:0,0:0:0:0:
178,230,24314,2,0,L|171:304,1,62.9999980773926,6|0,1:2|0:0,0:0:0:0:
44,162,24673,2,0,P|93:164|121:187,1,62.9999980773926,10|0,0:0|0:0,0:0:0:0:
141,52,25033,5,6,1:2:0:0:
63,0,25212,1,0,1:0:0:0:
226,19,25392,2,0,B|232:54|232:54|217:93,1,62.9999980773926,8|0,0:0|1:0,0:0:0:0:
104,170,25751,1,0,1:0:0:0:
195,223,25931,1,0,1:0:0:0:
84,274,26110,1,8,0:0:0:0:
250,142,26290,6,0,P|291:196|272:270,2,125.999996154785,12|8|10,0:0|0:0|0:0,0:0:0:0:
392,94,27188,2,0,B|361:82|361:82|317:85,1,62.9999980773926,8|2,0:0|0:0,0:0:0:0:
472,152,27548,2,0,L|466:204,1,31.4999990386963,10|8,0:0|0:0,0:0:0:0:
389,229,27727,2,0,L|395:282,1,31.4999990386963,10|8,0:0|0:0,0:0:0:0:
506,349,27907,6,0,P|470:333|428:340,1,66.4999982242585,6|0,1:2|0:0,0:0:0:0:
350,384,28266,2,0,L|266:379,1,66.4999982242585,10|0,0:0|0:0,0:0:0:0:
166,291,28625,2,0,L|249:283,1,66.4999982242585,0|0,1:0|1:0,0:0:0:0:
81,354,28985,1,8,0:0:0:0:
123,206,29164,6,0,L|268:192,1,132.999996448517,0|0,1:0|1:0,0:0:0:0:
349,141,29703,1,8,0:0:0:0:
261,14,29883,2,0,P|251:51|266:103,1,66.4999982242585,2|0,0:0|1:0,0:0:0:0:
349,141,30242,1,2,0:0:0:0:
428,7,30422,2,0,P|438:44|423:96,1,66.4999982242585,10|2,0:0|0:0,0:0:0:0:
355,205,30781,6,0,P|345:171|349:138,1,66.4999982242585,2|0,1:2|0:0,0:0:0:0:
476,170,31140,1,10,0:0:0:0:
406,273,31320,2,0,P|372:290|326:286,1,66.4999982242585,2|0,0:0|1:0,0:0:0:0:
186,235,31679,2,0,P|219:234|253:247,1,66.4999982242585,2|8,1:2|0:0,0:0:0:0:
98,346,32039,6,0,B|126:362|171:352|156:335|190:326|224:348,1,132.999996448517,2|2,1:2|1:2,0:0:0:0:
86,248,32578,1,8,0:0:0:0:
190,168,32757,2,0,L|185:238,1,66.4999982242585,2|0,0:0|1:0,0:0:0:0:
68,140,33116,1,2,0:0:0:0:
236,97,33296,2,0,P|197:84|163:88,1,66.4999982242585,10|2,0:0|0:0,0:0:0:0:
338,0,33655,6,0,L|330:75,1,66.4999982242585,6|0,1:2|0:0,0:0:0:0:
427,196,34015,2,0,L|415:118,1,66.4999982242585,10|0,0:0|0:0,0:0:0:0:
271,224,34374,2,0,P|304:223|335:234,1,66.4999982242585,0|0,1:0|1:0,0:0:0:0:
171,268,34733,1,8,0:0:0:0:
270,349,34913,6,0,B|324:342|324:342|350:357|350:357|401:352,1,132.999996448517,0|0,1:0|1:0,0:0:0:0:
503,315,35452,1,8,0:0:0:0:
422,189,35631,2,0,L|410:279,1,66.4999982242585,2|0,0:0|1:0,0:0:0:0:
397,97,35991,1,2,0:0:0:0:
327,209,36170,1,10,0:0:0:0:
422,189,36350,1,2,0:0:0:0:
267,269,36530,6,0,P|246:210|250:193,1,66.4999982242585,2|0,1:2|0:0,0:0:0:0:
287,96,36889,1,10,0:0:0:0:
124,131,37069,2,0,L|199:119,1,66.4999982242585,2|0,0:0|1:0,0:0:0:0:
9,42,37428,2,0,L|81:49,1,66.4999982242585,2|8,1:2|0:0,0:0:0:0:
25,140,37787,6,0,B|5:169|5:169|29:281,1,132.999996448517,2|2,1:2|1:2,0:0:0:0:
188,261,38326,2,0,P|144:242|111:244,1,66.4999982242585,8|0,0:0|0:0,0:0:0:0:
243,336,38685,2,0,P|275:332|304:316,1,66.4999982242585,0|0,1:0|0:0,0:0:0:0:
188,261,39045,1,8,0:0:0:0:
375,259,39224,6,0,B|398:296|398:296|381:404,1,132.999996448517,6|2,1:2|0:0,0:0:0:0:
453,224,39763,1,10,0:0:0:0:
322,190,39943,1,2,0:0:0:0:
450,128,40122,1,2,1:2:0:0:
312,124,40302,2,0,L|324:211,1,66.4999982242585,2|8,0:0|0:0,0:0:0:0:
111,76,40661,6,0,B|147:57|179:66|175:75|200:89|248:73,1,132.999996448517,6|2,1:2|0:0,0:0:0:0:
92,192,41200,1,10,0:0:0:0:
9,145,41380,1,2,0:0:0:0:
40,266,41560,1,2,1:2:0:0:
156,200,41739,2,0,P|117:189|90:191,1,66.4999982242585,2|8,0:0|0:0,0:0:0:0:
198,278,42099,6,0,P|239:240|231:156,1,132.999996448517,6|2,1:2|0:0,0:0:0:0:
149,38,42637,2,0,P|148:84|168:121,1,66.4999982242585,10|2,0:0|0:0,0:0:0:0:
230,60,42997,1,6,1:2:0:0:
155,102,43176,1,2,0:0:0:0:
305,102,43356,1,10,0:0:0:0:
230,60,43535,1,2,0:0:0:0:
274,186,43715,5,14,0:0:0:0:
352,197,43895,1,0,1:0:0:0:
420,108,44075,5,10,0:0:0:0:
493,80,44255,1,0,0:0:0:0:
464,251,44434,2,0,L|475:172,1,66.4999982242585,10|0,0:0|1:0,0:0:0:0:
384,342,44793,2,0,L|373:263,1,66.4999982242585,10|0,0:0|1:0,0:0:0:0:
284,358,45152,5,8,0:0:0:0:
222,375,45332,2,0,P|269:358|301:363,1,66.4999982242585,8|0,0:0|0:0,0:0:0:0:
54,294,45691,5,8,0:0:0:0:
117,311,45871,2,0,P|69:294|37:299,1,66.4999982242585,8|0,0:0|0:0,0:0:0:0:
184,160,46230,5,8,0:0:0:0:
178,227,46410,2,0,L|186:149,1,66.4999982242585,8|0,0:0|0:0,0:0:0:0:
291,107,46769,5,8,0:0:0:0:
285,41,46949,2,0,L|293:119,1,66.4999982242585,8|0,0:0|0:0,0:0:0:0:
397,230,47308,2,0,B|418:261|418:261|434:127,1,166.249995560646,2|0,0:0|0:0,0:0:0:0:
446,104,47847,6,0,B|399:75|359:94|374:111|326:119|289:106,1,161.000003070831,6|2,1:2|0:0,0:0:0:0:
163,36,48386,2,0,P|192:19|253:25,1,80.5000015354157,10|0,0:0|0:0,0:0:0:0:
190,204,48745,2,0,P|160:187|135:131,1,80.5000015354157,2|0,1:2|0:0,0:0:0:0:
163,36,49104,1,8,0:0:0:0:
261,173,49284,6,0,P|223:278|158:278,1,161.000003070831,2|2,1:2|0:0,0:0:0:0:
303,324,49823,2,0,L|384:331,1,80.5000015354157,10|0,0:0|0:0,0:0:0:0:
226,377,50182,2,0,L|146:384,1,80.5000015354157,2|0,1:2|0:0,0:0:0:0:
39,355,50541,1,8,0:0:0:0:
127,233,50721,6,0,B|159:279|159:279|143:398,1,161.000003070831,6|2,1:2|0:0,0:0:0:0:
277,193,51260,2,0,P|234:174|190:179,1,80.5000015354157,10|0,0:0|0:0,0:0:0:0:
52,132,51619,2,0,P|87:114|127:114,1,80.5000015354157,2|0,1:2|0:0,0:0:0:0:
4,210,51978,1,8,0:0:0:0:
0,57,52158,6,0,P|70:22|163:30,1,161.000003070831,6|2,1:2|0:0,0:0:0:0:
199,183,52697,2,0,L|209:103,1,80.5000015354157,10|2,0:0|0:0,0:0:0:0:
293,149,53057,1,6,1:2:0:0:
199,183,53236,1,2,0:0:0:0:
373,188,53416,1,10,0:0:0:0:
340,81,53596,1,2,0:0:0:0:
432,246,53775,6,0,B|388:290|320:257|320:257|290:268|281:297,1,161.000003070831,6|10,1:2|0:0,0:0:0:0:
201,362,54314,1,0,0:0:0:0:
201,175,54494,2,0,L|216:253,1,80.5000015354157,2|0,1:2|0:0,0:0:0:0:
266,107,54853,1,10,0:0:0:0:
108,151,55033,6,0,L|141:324,1,161.000003070831,6|2,1:2|0:0,0:0:0:0:
36,95,55572,2,0,P|22:130|29:198,1,80.5000015354157,10|0,0:0|0:0,0:0:0:0:
118,25,55931,1,2,1:2:0:0:
188,155,56110,2,0,L|88:150,2,80.5000015354157,2|10|2,0:0|0:0|0:0,0:0:0:0:
277,225,56649,6,0,P|313:207|382:211,1,80.5000015354157,6|0,1:2|0:0,0:0:0:0:
301,384,57009,2,0,P|267:361|236:300,1,80.5000015354157,10|0,0:0|0:0,0:0:0:0:
427,284,57368,2,0,P|424:324|386:381,1,80.5000015354157,2|0,1:2|0:0,0:0:0:0:
301,384,57727,1,10,0:0:0:0:
352,202,57907,6,0,B|457:187|457:187|525:231,1,161.000003070831,10|10,0:0|0:0,0:0:0:0:
384,108,58446,2,0,L|286:99,1,80.5000015354157,2|8,0:0|0:0,0:0:0:0:
159,126,58805,1,10,0:0:0:0:
157,105,58894,1,8,0:0:0:0:
155,85,58984,1,8,0:0:0:0:
153,65,59074,1,8,0:0:0:0:
151,45,59164,2,0,P|122:46|103:60,1,40.2500007677078,8|8,0:0|0:0,0:0:0:0:
75,150,59344,6,0,P|127:202|208:194,1,161.000003070831,6|2,1:2|0:0,0:0:0:0:
298,298,59883,2,0,L|313:210,1,80.5000015354157,10|0,0:0|0:0,0:0:0:0:
201,383,60242,2,0,L|187:294,1,80.5000015354157,2|0,1:2|0:0,0:0:0:0:
298,298,60601,1,8,0:0:0:0:
178,214,60781,6,0,B|113:203|113:203|78:219|78:219|7:205,1,161.000003070831,2|2,1:2|0:0,0:0:0:0:
82,39,61320,2,0,L|94:120,1,80.5000015354157,10|0,0:0|0:0,0:0:0:0:
208,79,61679,2,0,L|224:-12,1,80.5000015354157,2|0,1:2|0:0,0:0:0:0:
93,118,62038,1,8,0:0:0:0:
267,142,62218,6,0,B|304:126|353:134|338:155|371:172|427:155,1,161.000003070831,6|2,1:2|0:0,0:0:0:0:
382,0,62757,2,0,L|394:106,1,80.5000015354157,10|0,0:0|0:0,0:0:0:0:
494,206,63116,2,0,L|509:114,1,80.5000015354157,2|0,1:2|0:0,0:0:0:0:
383,230,63475,1,8,0:0:0:0:
472,357,63655,6,0,B|503:311|503:311|492:190,1,161.000003070831,6|2,1:2|0:0,0:0:0:0:
330,318,64194,2,0,P|371:302|416:306,1,80.5000015354157,10|2,0:0|0:0,0:0:0:0:
271,267,64554,1,6,1:2:0:0:
291,384,64733,1,2,0:0:0:0:
407,303,64913,1,10,0:0:0:0:
291,384,65093,1,2,0:0:0:0:
255,187,65272,6,0,P|195:235|212:327,1,161.000003070831,4|10,1:2|0:0,0:0:0:0:
350,208,65811,1,0,0:0:0:0:
282,115,65991,2,0,P|247:109|184:134,1,80.5000015354157,2|0,1:2|0:0,0:0:0:0:
79,172,66350,1,10,0:0:0:0:
162,52,66530,6,0,B|235:26|235:26|322:41,1,161.000003070831,6|2,1:2|0:0,0:0:0:0:
480,84,67069,2,0,L|394:94,1,80.5000015354157,10|2,0:0|0:0,0:0:0:0:
282,115,67428,1,2,1:2:0:0:
345,250,67607,2,0,P|362:195|355:152,2,80.5000015354157,2|10|2,0:0|0:0|0:0,0:0:0:0:
185,305,68146,6,0,L|296:293,1,80.5000015354157,6|0,1:2|0:0,0:0:0:0:
150,216,68506,2,0,L|39:204,1,80.5000015354157,10|0,0:0|0:0,0:0:0:0:
225,158,68865,1,10,0:0:0:0:
227,137,68954,1,8,0:0:0:0:
229,117,69044,1,8,0:0:0:0:
231,97,69134,1,8,0:0:0:0:
233,77,69224,2,0,P|257:70|282:72,1,40.2500007677078,8|8,0:0|0:0,0:0:0:0:
387,31,69404,6,0,L|372:212,1,161.000003070831,6|2,1:2|1:2,0:0:0:0:
465,305,69943,2,0,P|423:275|376:269,1,80.5000015354157,10|2,0:0|1:2,0:0:0:0:
322,347,70302,1,10,0:0:0:0:
395,268,70482,1,2,1:2:0:0:
464,384,70661,1,0,1:0:0:0:
307,263,70841,6,0,B|246:254|246:254|210:272|210:272|145:264,1,161.000003070831,14|2,0:0|1:2,0:0:0:0:
78,109,71380,1,10,0:0:0:0:
68,126,71469,1,8,0:0:0:0:
63,146,71559,1,10,0:0:0:0:
63,166,71649,1,8,0:0:0:0:
70,187,71739,6,0,L|175:178,1,80.5000015354157,10|2,0:0|1:2,0:0:0:0:
229,96,72099,1,10,0:0:0:0:
243,82,72188,1,8,0:0:0:0:
261,72,72278,1,10,0:0:0:0:
280,66,72368,1,8,0:0:0:0:
300,66,72458,6,0,L|291:162,1,80.5000015354157,6|0,1:2|1:0,0:0:0:0:
478,40,72817,2,0,P|433:22|373:28,1,80.5000015354157,8|0,0:0|1:0,0:0:0:0:
379,32,73087,1,0,1:0:0:0:
383,36,73176,1,8,0:0:0:0:
512,140,73356,1,0,1:0:0:0:
409,107,73536,1,8,0:0:0:0:
408,259,73715,6,0,B|433:161|433:161|408:104,1,161.000003070831,2|10,1:2|0:0,0:0:0:0:
458,336,74254,1,2,1:2:0:0:
344,304,74434,1,10,0:0:0:0:
344,304,74524,1,8,0:0:0:0:
344,304,74613,2,0,L|295:298,3,40.2500007677078,10|8|10|8,0:0|0:0|0:0|0:0,0:0:0:0:
185,327,74973,1,10,0:0:0:0:
183,297,75062,1,8,0:0:0:0:
181,267,75152,1,8,0:0:0:0:
180,237,75242,1,8,0:0:0:0:
178,207,75332,6,0,L|266:195,1,80.5000015354157,6|0,1:2|0:0,0:0:0:0:
416,129,75691,2,0,L|314:122,1,80.5000015354157,10|0,0:0|1:0,0:0:0:0:
225,5,76051,2,0,P|245:59|237:109,1,80.5000015354157,14|0,0:0|1:0,0:0:0:0:
145,130,76410,1,10,0:0:0:0:
244,81,76590,1,2,1:2:0:0:
84,76,76769,6,0,P|66:113|70:174,1,80.5000015354157,8|2,0:0|1:2,0:0:0:0:
192,281,77128,2,0,P|189:241|172:205,1,80.5000015354157,10|0,0:0|1:0,0:0:0:0:
136,346,77488,2,0,P|195:371|272:318,1,161.000003070831,14|10,0:0|0:0,0:0:0:0:
303,203,78027,1,2,1:2:0:0:
382,383,78206,6,0,L|365:282,1,80.5000015354157,10|0,0:0|1:0,0:0:0:0:
472,191,78566,2,0,L|460:275,1,80.5000015354157,10|0,0:0|1:0,0:0:0:0:
303,203,78925,2,0,P|334:187|400:193,1,80.5000015354157,14|2,0:0|1:2,0:0:0:0:
155,200,79283,1,8,0:0:0:0:
234,150,79463,1,2,1:2:0:0:
141,122,79643,6,0,P|141:165|165:214,1,80.5000015354157,8|2,0:0|1:2,0:0:0:0:
241,328,80003,5,8,0:0:0:0:
169,284,80182,1,0,1:0:0:0:
48,262,80362,5,12,0:0:0:0:
27,176,80542,1,0,1:0:0:0:
154,197,80721,1,8,0:0:0:0:
184,195,80810,1,8,0:0:0:0:
214,193,80900,1,8,0:0:0:0:
244,191,80990,1,8,0:0:0:0:
274,189,81081,6,0,B|331:173|331:173|366:189|366:189|434:173,1,161.000003070831,14|10,0:0|0:0,0:0:0:0:
503,209,81619,1,0,1:0:0:0:
474,53,81799,2,0,P|502:105|504:139,1,80.5000015354157,14|2,0:0|1:2,0:0:0:0:
332,35,82157,1,8,0:0:0:0:
415,0,82337,1,2,1:2:0:0:
369,115,82518,6,0,P|316:121|260:97,1,80.5000015354157,8|2,0:0|1:2,0:0:0:0:
202,56,82877,1,10,0:0:0:0:
290,114,83057,1,2,1:2:0:0:
219,237,83236,2,0,L|213:148,1,80.5000015354157,12|2,0:0|1:2,0:0:0:0:
137,301,83596,1,10,0:0:0:0:
219,237,83775,1,2,1:2:0:0:
74,367,83955,6,0,B|47:321|47:321|69:198,1,161.000003070831,10|10,0:0|0:0,0:0:0:0:
76,97,84494,1,0,1:0:0:0:
171,175,84673,2,0,L|281:161,1,80.5000015354157,14|2,0:0|1:2,0:0:0:0:
127,250,85033,1,10,0:0:0:0:
180,94,85212,6,0,L|363:75,1,161.000003070831,2|0,1:2|1:0,0:0:0:0:
403,175,85751,1,0,1:0:0:0:
454,58,85931,1,0,1:0:0:0:
480,241,86110,5,4,1:2:0:0:
