osu file format v14

[General]
AudioFilename: audio.mp3
AudioLeadIn: 0
PreviewTime: 47847
Countdown: 0
SampleSet: Soft
StackLeniency: 0.7
Mode: 0
LetterboxInBreaks: 0
WidescreenStoryboard: 0

[Editor]
Bookmarks: 9224,14793,27907,33655,39224
DistanceSpacing: 2
BeatDivisor: 4
GridSize: 4
TimelineZoom: 1

[Metadata]
Title:Getta Banban (TV Size)
TitleUnicode:ゲッタバンバン (TV Size)
Artist:Sako Tomohisa
ArtistUnicode:佐香智久
Creator:[-Evil-]
Version:Insane
Source:ポケットモンスターXY
Tags:getter sakou 小川 智之 Ogawa Tomoyuki Mad-Paced Mad Paced Opening 3 Pokémon the Series: XY Pokemon Pocket Monsters XY J-Pop Jpop pop anime japanese hakashii kanocchi NexusQI
BeatmapID:2324616
BeatmapSetID:1112682

[Difficulty]
HPDrainRate:5.9
CircleSize:3.9
OverallDifficulty:8
ApproachRate:9
SliderMultiplier:1.4
SliderTickRate:1

[Events]
//Background and Video events
0,0,"getta ban ban.jpg",0,0
//Break Periods
//Storyboard Layer 0 (Background)
//Storyboard Layer 1 (Fail)
//Storyboard Layer 2 (Pass)
//Storyboard Layer 3 (Foreground)
//Storyboard Layer 4 (Overlay)
//Storyboard Sound Samples

[TimingPoints]
602,359.281437125748,4,2,1,60,1,0
2937,-111.111111111111,4,2,1,55,0,0
14793,-100,4,2,1,60,0,0
26290,-83.3333333333333,4,2,1,70,0,0
27907,-90.9090909090909,4,2,1,70,0,0
47847,-76.9230769230769,4,2,1,75,0,1
54404,-76.9230769230769,4,2,1,5,0,1
54494,-76.9230769230769,4,2,1,75,0,1
54763,-76.9230769230769,4,2,1,5,0,1
54853,-76.9230769230769,4,2,1,75,0,1
57278,-76.9230769230769,4,2,1,5,0,1
57368,-76.9230769230769,4,2,1,75,0,1
57637,-76.9230769230769,4,2,1,5,0,1
57727,-76.9230769230769,4,2,1,75,0,1
59254,-76.9230769230769,4,2,1,75,0,0
59344,-76.9230769230769,4,2,1,75,0,1
65901,-76.9230769230769,4,2,1,5,0,1
65991,-76.9230769230769,4,2,1,75,0,1
66260,-76.9230769230769,4,2,1,5,0,1
66350,-76.9230769230769,4,2,1,75,0,1
68775,-76.9230769230769,4,2,1,5,0,1
68865,-76.9230769230769,4,2,1,75,0,1
72458,-76.9230769230769,4,2,1,70,0,0
75332,-76.9230769230769,4,2,1,75,0,0

[Colours]
Combo1 : 255,255,64
Combo2 : 255,128,128
Combo3 : 152,152,231

[HitObjects]
164,23,602,6,0,L|153:120,1,70,0|0,1:0|1:0,0:0:0:0:
89,238,961,1,12,0:0:0:0:
221,172,1140,2,0,L|210:269,1,70,0|0,1:0|1:0,0:0:0:0:
139,384,1500,1,12,0:0:0:0:
113,246,1679,1,0,1:0:0:0:
228,340,1859,1,0,1:2:0:0:
333,171,2039,5,8,0:0:0:0:
301,157,2128,1,8,0:0:0:0:
268,166,2218,1,8,0:0:0:0:
249,195,2308,1,8,0:0:0:0:
251,229,2398,1,8,0:0:0:0:
400,80,2937,5,2,0:0:0:0:
400,80,3117,1,2,0:0:0:0:
400,80,3296,2,0,P|450:143|441:209,1,125.999996154785,6|2,1:2|0:0,0:0:0:0:
404,268,3835,1,2,1:2:0:0:
319,181,4015,2,0,P|294:162|238:156,1,62.9999980773926,2|0,0:0|1:0,0:0:0:0:
160,201,4374,2,0,P|129:208|75:192,1,62.9999980773926,2|0,0:0|1:0,0:0:0:0:
63,161,4643,1,2,0:0:0:0:
63,161,4733,6,0,L|40:307,1,125.999996154785,2|2,0:0|0:0,0:0:0:0:
123,365,5272,2,0,P|170:361|198:341,1,62.9999980773926,2|2,1:2|0:0,0:0:0:0:
228,192,5631,1,2,1:2:0:0:
247,284,5811,1,2,0:0:0:0:
316,219,5991,1,2,1:2:0:0:
331,317,6171,2,0,L|336:378,1,62.9999980773926,2|0,0:0|1:0,0:0:0:0:
407,263,6530,5,2,0:0:0:0:
407,263,6709,1,2,1:2:0:0:
407,263,6889,2,0,P|434:224|522:209,1,125.999996154785,2|2,0:0|0:0,0:0:0:0:
511,91,7428,1,2,1:2:0:0:
511,91,7518,1,2,0:0:0:0:
511,91,7607,6,0,B|470:70|470:70|374:103,1,125.999996154785,2|2,0:0|0:0,0:0:0:0:
291,67,8146,2,0,P|276:26|277:-6,1,62.9999980773926,2|2,1:2|0:0,0:0:0:0:
337,170,8506,1,2,1:2:0:0:
394,95,8685,1,2,0:0:0:0:
247,143,8865,2,0,L|168:134,1,62.9999980773926,2|0,1:2|0:0,0:0:0:0:
91,250,9224,6,0,P|147:259|208:215,1,125.999996154785,2|0,1:2|1:0,0:0:0:0:
247,143,9763,1,2,0:0:0:0:
412,242,9943,2,0,P|356:251|295:207,1,125.999996154785,2|0,1:2|1:0,0:0:0:0:
360,97,10482,1,2,0:0:0:0:
360,97,10572,1,2,0:0:0:0:
360,97,10661,6,0,L|372:170,1,62.9999980773926,2|0,1:2|0:0,0:0:0:0:
451,268,11021,2,0,L|461:205,1,62.9999980773926,2|0,1:2|0:0,0:0:0:0:
356,275,11380,2,0,L|366:337,1,62.9999980773926,2|0,1:2|0:0,0:0:0:0:
281,225,11739,1,2,1:2:0:0:
367,183,11919,1,2,0:0:0:0:
279,86,12099,6,0,P|266:129|267:162,1,62.9999980773926,2|0,1:2|0:0,0:0:0:0:
183,267,12458,2,0,P|196:224|195:191,1,62.9999980773926,2|0,1:2|0:0,0:0:0:0:
279,86,12817,2,0,L|364:99,1,62.9999980773926,2|0,1:2|0:0,0:0:0:0:
196,206,13176,2,0,L|116:217,1,62.9999980773926,2|0,1:2|0:0,0:0:0:0:
42,121,13536,6,0,B|60:109|84:99|84:99|129:108|172:128,1,125.999996154785,2|0,1:2|1:0,0:0:0:0:
133,214,14075,1,0,0:0:0:0:
202,33,14254,1,0,1:0:0:0:
235,43,14343,1,8,0:0:0:0:
263,64,14433,1,10,0:0:0:0:
282,94,14523,1,8,0:0:0:0:
289,128,14613,2,0,L|282:173,1,31.4999990386963,2|8,1:2|0:0,0:0:0:0:
224,257,14793,6,0,B|263:245|291:271|291:271|320:294|360:285,1,140,6|2,1:2|0:0,0:0:0:0:
476,211,15332,1,10,0:0:0:0:
476,211,15422,1,2,0:0:0:0:
476,211,15512,2,0,L|462:136,1,70,2|0,0:0|1:0,0:0:0:0:
348,61,15871,1,2,0:0:0:0:
480,15,16051,1,10,0:0:0:0:
370,151,16230,6,0,B|358:206|336:254|336:254|321:208,1,140,2|2,1:2|1:2,0:0:0:0:
259,100,16769,1,10,0:0:0:0:
202,228,16949,1,2,0:0:0:0:
143,102,17128,2,0,P|111:72|55:61,1,70,2|0,1:2|0:0,0:0:0:0:
26,99,17398,1,2,0:0:0:0:
26,99,17488,1,10,0:0:0:0:
98,244,17667,2,0,L|82:159,1,70,2|0,0:0|1:0,0:0:0:0:
47,326,18027,5,2,0:0:0:0:
193,332,18206,1,10,0:0:0:0:
193,332,18296,1,2,0:0:0:0:
193,332,18386,2,0,P|228:332|267:308,1,70,2|0,0:0|1:0,0:0:0:0:
390,268,18745,2,0,L|309:243,1,70,2|10,0:0|0:0,0:0:0:0:
270,124,19104,6,0,B|358:97|358:97|418:136,1,140,2|2,1:2|1:2,0:0:0:0:
486,275,19643,2,0,L|501:189,1,70,10|2,0:0|0:0,0:0:0:0:
419,21,20003,1,2,1:2:0:0:
398,123,20182,1,2,0:0:0:0:
512,10,20362,1,10,0:0:0:0:
493,112,20542,1,2,0:0:0:0:
323,62,20721,6,0,B|290:52|258:78|258:78|223:106|192:93,1,140,2|8,1:2|0:0,0:0:0:0:
86,20,21260,1,2,0:0:0:0:
86,252,21440,2,0,B|117:177|117:177|96:112,1,140,2|8,1:2|0:0,0:0:0:0:
3,186,21979,1,2,0:0:0:0:
207,228,22158,6,0,P|243:232|285:271,1,70,2|0,1:2|0:0,0:0:0:0:
412,166,22518,2,0,P|376:170|334:209,1,70,10|0,0:0|0:0,0:0:0:0:
430,302,22877,1,2,1:2:0:0:
430,302,22967,1,2,0:0:0:0:
430,302,23057,1,0,0:0:0:0:
292,342,23236,1,10,0:0:0:0:
348,188,23416,1,2,0:0:0:0:
169,187,23596,6,0,L|154:273,1,70,6|0,1:2|0:0,0:0:0:0:
45,340,23955,2,0,L|30:254,1,70,10|0,0:0|0:0,0:0:0:0:
37,130,24314,2,0,P|86:109|130:115,1,70,6|0,1:2|0:0,0:0:0:0:
237,186,24673,2,0,P|183:190|143:171,1,70,10|0,0:0|0:0,0:0:0:0:
243,77,25033,5,6,1:2:0:0:
215,274,25212,1,0,1:0:0:0:
393,196,25392,2,0,L|298:181,1,70,8|0,0:0|1:0,0:0:0:0:
168,185,25751,1,0,1:0:0:0:
316,90,25931,1,0,1:0:0:0:
300,305,26110,1,8,0:0:0:0:
162,90,26290,6,0,P|115:69|59:70,1,83.9999974365235,12|0,0:0|0:0,0:0:0:0:
316,90,26649,2,0,P|363:69|411:68,1,83.9999974365235,8|0,0:0|1:0,0:0:0:0:
238,2,27009,1,10,0:0:0:0:
239,195,27188,2,0,L|223:278,1,83.9999974365235,8|2,0:0|0:0,0:0:0:0:
425,212,27548,2,0,L|418:256,1,41.9999987182618,10|8,0:0|0:0,0:0:0:0:
349,351,27727,2,0,L|340:284,1,41.9999987182618,10|8,0:0|0:0,0:0:0:0:
313,208,27907,6,0,P|275:195|216:199,1,77.0000023498536,6|0,1:2|0:0,0:0:0:0:
91,281,28266,2,0,B|65:189|65:189|105:124,1,154.000004699707,10|0,0:0|1:0,0:0:0:0:
255,35,28805,1,0,1:0:0:0:
238,194,28985,1,8,0:0:0:0:
421,90,29164,2,0,L|434:194,1,77.0000023498536,0|0,1:0|0:0,0:0:0:0:
361,346,29524,1,0,1:0:0:0:
336,194,29703,1,8,0:0:0:0:
199,300,29883,6,0,L|309:282,1,77.0000023498536,2|0,0:0|1:0,0:0:0:0:
138,382,30242,1,2,0:0:0:0:
108,230,30422,2,0,P|55:189|14:180,1,77.0000023498536,10|2,0:0|0:0,0:0:0:0:
20,113,30691,1,2,0:0:0:0:
20,113,30781,6,0,B|79:101|79:101|102:121|102:121|177:110,1,154.000004699707,2|10,1:2|0:0,0:0:0:0:
273,0,31320,2,0,L|258:108,1,77.0000023498536,2|0,0:0|1:0,0:0:0:0:
175,188,31679,2,0,L|160:80,1,77.0000023498536,2|8,1:2|0:0,0:0:0:0:
315,164,32039,2,0,B|340:215|340:215|316:319,1,154.000004699707,2|2,1:2|1:2,0:0:0:0:
175,188,32578,1,8,0:0:0:0:
96,343,32757,6,0,P|171:343|221:258,1,154.000004699707,2|2,0:0|0:0,0:0:0:0:
104,122,33296,1,10,0:0:0:0:
18,252,33476,1,2,0:0:0:0:
18,252,33566,1,2,0:0:0:0:
18,252,33655,2,0,P|59:260|122:237,1,77.0000023498536,6|0,1:2|0:0,0:0:0:0:
246,136,34015,6,0,P|291:77|365:80,1,154.000004699707,10|0,0:0|1:0,0:0:0:0:
309,224,34554,1,0,1:0:0:0:
173,62,34733,1,8,0:0:0:0:
108,242,34913,2,0,L|119:345,1,77.0000023498536,0|0,1:0|0:0,0:0:0:0:
220,168,35272,1,0,1:0:0:0:
217,322,35452,1,8,0:0:0:0:
89,138,35631,6,0,P|46:152|5:251,1,154.000004699707,2|2,0:0|0:0,0:0:0:0:
154,210,36170,1,10,0:0:0:0:
206,367,36350,1,2,0:0:0:0:
206,367,36440,1,2,0:0:0:0:
206,367,36530,6,0,B|249:337|249:337|258:218,1,154.000004699707,2|10,1:2|0:0,0:0:0:0:
319,95,37069,2,0,L|327:185,1,77.0000023498536,2|0,0:0|1:0,0:0:0:0:
434,62,37428,1,2,1:2:0:0:
411,214,37607,1,8,0:0:0:0:
325,1,37787,6,0,B|284:-10|254:23|254:23|222:52|179:36,1,154.000004699707,2|2,1:2|1:2,0:0:0:0:
109,177,38326,2,0,P|84:135|89:82,1,77.0000023498536,8|0,0:0|0:0,0:0:0:0:
224,183,38685,2,0,P|254:145|306:131,1,77.0000023498536,0|0,1:0|0:0,0:0:0:0:
154,293,39045,1,8,0:0:0:0:
403,297,39224,6,0,B|342:294|342:294|313:315|313:315|244:314,1,154.000004699707,6|2,1:2|0:0,0:0:0:0:
167,135,39763,1,10,0:0:0:0:
161,336,39943,1,2,0:0:0:0:
62,200,40122,1,2,1:2:0:0:
245,229,40302,2,0,L|348:214,1,77.0000023498536,2|8,0:0|0:0,0:2:0:0:
443,56,40661,6,0,B|467:86|467:86|342:68,1,154.000004699707,6|2,1:2|0:0,0:0:0:0:
167,122,41200,1,10,0:0:0:0:
286,0,41380,1,2,0:0:0:0:
209,216,41560,1,2,1:2:0:0:
82,75,41739,2,0,L|98:0,1,77.0000023498536,2|8,0:0|0:0,0:0:0:0:
177,215,42099,6,0,B|86:257|86:257|10:217,1,154.000004699707,6|2,1:2|0:0,0:0:0:0:
198,110,42637,2,0,P|255:143|275:178,1,77.0000023498536,10|2,0:0|0:0,0:0:0:0:
177,215,42997,1,6,1:2:0:0:
345,91,43176,1,2,0:0:0:0:
348,278,43356,1,10,0:0:0:0:
345,91,43536,1,2,0:0:0:0:
241,293,43715,5,14,0:0:0:0:
415,206,43895,1,0,1:0:0:0:
212,120,44075,2,0,L|225:211,1,77.0000023498536,10|0,0:0|0:0,0:0:0:0:
336,59,44434,1,10,0:0:0:0:
127,44,44613,1,0,1:0:0:0:
222,196,44793,1,10,0:0:0:0:
231,0,44973,1,0,1:0:0:0:
77,149,45152,5,8,0:0:0:0:
257,192,45332,2,0,L|163:170,1,77.0000023498536,8|0,0:0|0:0,0:0:0:0:
512,218,45691,5,8,0:0:0:0:
332,261,45871,2,0,L|426:239,1,77.0000023498536,8|0,0:0|0:0,0:0:0:0:
159,292,46230,5,8,0:0:0:0:
194,98,46410,2,0,L|178:193,1,77.0000023498536,8|0,0:0|0:0,0:0:0:0:
352,114,46769,5,8,0:0:0:0:
320,337,46949,2,0,L|334:241,1,77.0000023498536,8|0,0:0|0:0,0:0:0:0:
494,214,47308,5,2,0:0:0:0:
459,242,47397,1,2,0:0:0:0:
417,261,47487,1,2,0:0:0:0:
373,268,47577,1,2,0:0:0:0:
331,260,47667,2,0,L|290:244,1,38.5000011749268,2|2,0:0|0:0,0:0:0:0:
190,147,47847,6,0,B|190:188|181:221|181:221|192:244|192:244|181:288|186:339,1,181.999991668702,6|2,1:2|0:0,0:0:0:0:
89,169,48386,2,0,P|43:145|4:145,1,90.9999958343508,10|0,0:0|0:0,0:0:0:0:
158,46,48745,2,0,P|204:22|243:22,1,90.9999958343508,2|0,1:2|0:0,0:0:0:0:
330,181,49104,1,8,0:0:0:0:
434,31,49284,6,0,B|465:142|465:142|420:226,1,181.999991668702,2|2,1:2|0:0,0:0:0:0:
295,81,49823,2,0,P|239:127|229:170,1,90.9999958343508,10|0,0:0|0:0,0:0:0:0:
275,327,50182,2,0,P|245:261|206:240,1,90.9999958343508,2|0,1:2|0:0,0:0:0:0:
63,158,50542,1,8,0:0:0:0:
0,376,50721,6,0,B|48:391|84:356|84:356|120:319|171:337,1,181.999991668702,6|2,1:2|0:0,0:0:0:0:
355,274,51260,2,0,L|334:402,1,90.9999958343508,10|0,0:0|0:0,0:0:0:0:
217,161,51619,2,0,L|238:289,1,90.9999958343508,2|0,1:2|0:0,0:0:0:0:
349,114,51979,1,8,0:0:0:0:
182,41,52158,6,0,B|125:22|63:9|63:9|30:27|4:51,1,181.999991668702,6|2,1:2|0:0,0:0:0:0:
62,292,52697,1,10,0:0:0:0:
90,123,52877,1,2,0:0:0:0:
158,346,53057,1,6,1:2:0:0:
195,168,53236,1,2,0:0:0:0:
2,197,53416,1,10,0:0:0:0:
224,267,53596,1,2,0:0:0:0:
90,123,53775,6,0,P|123:75|176:55,1,90.9999958343508,6|0,1:2|0:0,0:0:0:0:
332,23,54134,2,0,P|336:77|430:57,1,136.499993751526,10|0,0:0|0:0,0:0:0:0:
488,37,54494,2,0,B|510:76|512:104|512:104|490:140|486:152,1,90.9999958343508,2|0,1:2|0:0,0:0:0:0:
360,194,54853,1,10,0:0:0:0:
470,329,55033,6,0,L|481:224,1,90.9999958343508,6|0,1:2|0:0,0:0:0:0:
278,245,55392,1,2,0:0:0:0:
356,380,55572,2,0,L|367:275,1,90.9999958343508,10|0,0:0|0:0,0:0:0:0:
299,88,55931,1,2,1:2:0:0:
156,228,56110,1,2,0:0:0:0:
335,188,56290,1,10,0:0:0:0:
138,105,56470,1,2,0:0:0:0:
224,337,56649,5,6,1:2:0:0:
259,120,56829,1,0,0:0:0:0:
30,206,57009,2,0,B|79:205|79:205|108:231|108:231|168:228,1,136.499993751526,10|0,0:0|0:0,0:0:0:0:
249,246,57368,2,0,B|268:224|268:224|255:135,1,90.9999958343508,2|0,1:2|0:0,0:0:0:0:
158,32,57727,1,10,0:0:0:0:
358,47,57907,5,10,0:0:0:0:
25,135,58266,1,10,0:0:0:0:
399,184,58625,1,8,0:0:0:0:
248,314,58805,5,10,0:0:0:0:
250,277,58894,1,8,0:0:0:0:
252,241,58984,1,8,0:0:0:0:
254,204,59074,1,8,0:0:0:0:
256,168,59164,2,0,L|259:110,1,45.4999979171754,8|8,0:0|0:0,0:0:0:0:
345,34,59344,6,0,P|284:3|178:30,1,181.999991668702,6|2,1:2|0:0,0:0:0:0:
44,153,59883,2,0,L|31:42,1,90.9999958343508,10|0,0:0|0:0,0:0:0:0:
189,225,60242,2,0,L|200:135,1,90.9999958343508,2|0,1:2|0:0,0:0:0:0:
104,290,60601,1,8,0:0:0:0:
298,209,60781,6,0,B|352:186|410:172|410:172|449:189|478:216,1,181.999991668702,2|2,1:2|0:0,0:0:0:0:
395,377,61320,2,0,P|386:333|401:280,1,90.9999958343508,10|0,0:0|0:0,0:0:0:0:
466,116,61679,2,0,P|475:160|460:213,1,90.9999958343508,2|0,1:2|0:0,0:0:0:0:
332,76,62039,1,8,0:0:0:0:
295,253,62218,6,0,B|286:336|271:383|271:383|257:361|244:322,1,181.999991668702,6|2,1:2|0:0,0:0:0:0:
156,181,62757,2,0,P|128:225|126:271,1,90.9999958343508,10|0,0:0|0:0,0:0:0:0:
247,127,63116,2,0,P|211:88|167:74,1,90.9999958343508,2|0,1:2|0:0,0:0:0:0:
234,252,63476,1,8,0:0:0:0:
54,178,63655,6,0,B|28:68|28:68|77:7,1,181.999991668702,6|2,1:2|0:0,0:0:0:0:
322,48,64194,1,10,0:0:0:0:
146,97,64374,1,2,0:0:0:0:
333,210,64554,1,6,1:2:0:0:
216,16,64733,1,2,0:0:0:0:
229,231,64913,1,10,0:0:0:0:
322,48,65093,1,2,0:0:0:0:
412,215,65272,6,0,P|426:265|424:308,1,90.9999958343508,4|0,1:2|0:0,0:0:0:0:
205,323,65631,2,0,B|236:281|236:281|336:265,1,136.499993751526,10|0,0:0|0:0,0:0:0:0:
328,185,65991,2,0,P|286:155|217:164,1,90.9999958343508,2|0,1:2|0:0,0:0:0:0:
130,243,66350,1,10,0:0:0:0:
182,84,66530,6,0,B|105:74|105:74|78:89|78:89|2:76,1,181.999991668702,6|2,1:2|0:0,0:0:0:0:
17,262,67069,2,0,L|32:152,2,90.9999958343508,10|2|2,0:0|0:0|1:2,0:0:0:0:
203,263,67607,1,2,0:0:0:0:
45,354,67787,1,10,0:0:0:0:
137,177,67967,1,2,0:0:0:0:
232,373,68146,6,0,L|339:385,1,90.9999958343508,6|0,1:2|0:0,0:0:0:0:
434,271,68506,2,0,B|392:246|392:246|297:276,1,136.499993751526,10|0,0:0|0:0,0:0:0:0:
212,240,68865,1,10,0:0:0:0:
223,196,68954,1,8,0:0:0:0:
254,163,69044,1,8,0:0:0:0:
296,146,69134,1,8,0:0:0:0:
340,151,69224,1,8,0:0:0:0:
376,171,69313,1,8,0:0:0:0:
400,204,69404,6,0,L|422:17,1,181.999991668702,6|2,1:2|1:2,0:0:0:0:
182,0,69943,1,10,0:0:0:0:
307,230,70122,1,2,1:2:0:0:
321,0,70302,1,10,0:0:0:0:
128,91,70482,2,0,L|111:204,1,90.9999958343508,2|0,1:2|1:0,0:0:0:0:
10,330,70841,6,0,P|76:300|148:386,1,181.999991668702,14|2,0:0|1:2,0:0:0:0:
223,201,71380,2,0,L|213:274,1,45.4999979171754,10|8,0:0|0:0,0:0:0:0:
282,365,71560,2,0,L|272:292,1,45.4999979171754,10|8,0:0|0:0,0:0:0:0:
374,123,71739,1,10,0:0:0:0:
394,342,71919,1,2,1:2:0:0:
216,246,72099,1,10,0:0:0:0:
213,206,72188,1,8,0:0:0:0:
211,167,72278,1,10,0:0:0:0:
209,128,72368,1,8,0:0:0:0:
207,89,72458,6,0,P|246:63|299:63,1,90.9999958343508,6|0,1:2|1:0,0:0:0:0:
410,213,72817,2,0,P|372:185|357:131,1,90.9999958343508,8|0,0:0|1:0,0:0:0:0:
412,71,73087,1,0,1:0:0:0:
412,71,73176,2,0,L|512:87,1,90.9999958343508,8|0,0:0|1:0,0:0:0:0:
490,268,73536,1,8,0:0:0:0:
357,145,73715,6,0,B|319:129|279:166|279:166|236:203|184:178,1,181.999991668702,2|10,1:2|0:0,0:0:0:0:
81,327,74254,1,2,1:2:0:0:
88,144,74434,1,10,0:0:0:0:
197,309,74613,1,10,0:0:0:0:
197,309,74703,1,8,0:0:0:0:
197,309,74793,2,0,L|205:366,1,45.4999979171754,10|8,0:0|0:0,0:0:0:0:
290,251,74973,1,10,0:0:0:0:
290,251,75063,1,8,0:0:0:0:
290,251,75152,2,0,L|280:326,1,45.4999979171754,8|8,0:0|0:0,0:0:0:0:
367,189,75332,6,0,P|330:155|276:145,1,90.9999958343508,6|0,1:2|0:0,0:0:0:0:
117,242,75691,2,0,P|164:225|198:182,1,90.9999958343508,10|0,0:0|1:0,0:0:0:0:
187,0,76051,2,0,P|183:50|210:98,1,90.9999958343508,14|0,0:0|1:0,0:0:0:0:
370,22,76410,5,10,0:0:0:0:
319,197,76590,2,0,L|302:93,1,90.9999958343508,2|8,1:2|0:0,0:0:0:0:
415,252,76949,1,2,1:2:0:0:
224,287,77128,2,0,L|207:183,1,90.9999958343508,10|0,0:0|1:0,0:0:0:0:
336,344,77488,6,0,B|380:361|442:368|442:368|478:349|510:319,1,181.999991668702,14|10,0:0|0:0,0:0:0:0:
461,148,78027,1,2,1:2:0:0:
292,220,78206,2,0,P|226:211|193:168,1,90.9999958343508,10|0,0:0|1:0,0:0:0:0:
146,357,78566,2,0,P|120:295|141:245,1,90.9999958343508,10|0,0:0|1:0,0:0:0:0:
36,114,78925,1,14,0:0:0:0:
216,105,79104,2,0,L|207:213,1,90.9999958343508,2|8,1:2|0:0,0:0:0:0:
386,126,79464,1,2,1:2:0:0:
285,278,79643,5,8,0:0:0:0:
312,41,79823,1,2,1:2:0:0:
412,256,80003,1,8,0:0:0:0:
216,105,80182,1,0,1:0:0:0:
473,153,80362,1,12,0:0:0:0:
285,278,80542,1,0,1:0:0:0:
312,41,80721,1,8,0:0:0:0:
312,41,80811,1,8,0:0:0:0:
312,41,80901,2,0,L|318:109,1,45.4999979171754,8|8,0:0|0:0,0:0:0:0:
380,152,81081,6,0,L|370:244,1,90.9999958343508,14|0,0:0|1:0,0:0:0:0:
194,292,81440,2,0,L|184:200,1,90.9999958343508,10|0,0:0|1:0,0:0:0:0:
206,20,81799,1,14,0:0:0:0:
33,78,81979,2,0,P|94:115|138:100,1,90.9999958343508,2|8,1:2|0:0,0:0:0:0:
290,85,82338,6,0,B|332:123|332:123|316:262,1,181.999991668702,2|2,1:2|1:2,0:0:0:0:
135,272,82877,2,0,P|151:225|222:195,1,90.9999958343508,10|2,0:0|1:2,0:0:0:0:
251,383,83236,1,12,0:0:0:0:
65,346,83416,1,2,1:2:0:0:
238,284,83596,1,10,0:0:0:0:
40,237,83775,1,2,1:2:0:0:
239,147,83955,6,0,P|280:126|340:133,1,90.9999958343508,10|0,0:0|1:0,0:0:0:0:
490,284,84314,2,0,P|445:275|402:232,1,90.9999958343508,10|0,0:0|1:0,0:0:0:0:
445,68,84673,1,14,0:0:0:0:
269,140,84853,2,0,L|280:247,1,90.9999958343508,2|10,1:2|0:0,0:0:0:0:
143,376,85212,6,0,L|164:161,1,181.999991668702,2|0,1:2|1:0,0:0:0:0:
0,38,85751,1,0,1:0:0:0:
207,95,85931,1,0,1:0:0:0:
7,217,86110,1,4,1:2:0:0:
