osu file format v14

[General]
AudioFilename: audio.mp3
AudioLeadIn: 0
PreviewTime: 66200
Countdown: 0
SampleSet: Normal
StackLeniency: 0.2
Mode: 1
LetterboxInBreaks: 0
WidescreenStoryboard: 0

[Editor]
Bookmarks: 48407
DistanceSpacing: 2
BeatDivisor: 6
GridSize: 32
TimelineZoom: 2

[Metadata]
Title:Floria (TV Size)
TitleUnicode:フローリア (TV Size)
Artist:Sako Tomohisa
ArtistUnicode:佐香 智久
Creator:Poii
Version:Muzukashii
Source:夏目友人帳 陸
Tags:op opening natsume yuujinchou roku faputa ayyri eiri-
BeatmapID:1557403
BeatmapSetID:737979

[Difficulty]
HPDrainRate:6.5
CircleSize:2
OverallDifficulty:4
ApproachRate:10
SliderMultiplier:1.4
SliderTickRate:1

[Events]
//Background and Video events
0,0,"gambar 33.jpg",0,60
//Break Periods
//Storyboard Layer 0 (Background)
//Storyboard Layer 1 (Fail)
//Storyboard Layer 2 (Pass)
//Storyboard Layer 3 (Foreground)
//Storyboard Sound Samples

[TimingPoints]
930,494.478325366738,4,1,0,50,1,0
7852,-92.5925925925926,4,1,0,50,0,0
8182,-90.9090909090909,4,1,0,50,0,0
8512,-89.2857142857143,4,1,0,50,0,0
8841,-86.9565217391304,4,1,0,50,0,0
15764,-92.5925925925926,4,1,0,50,0,0
16753,-100,4,1,0,50,0,0
24335,-92.5925925925926,4,1,0,50,0,0
24664,-90.9090909090909,4,1,0,50,0,0
31917,-89.2857142857143,4,1,0,50,0,0
32082,-88.4955752212389,4,1,0,50,0,0
32246,-87.719298245614,4,1,0,50,0,0
32576,-86.9565217391304,4,1,0,50,0,0
47740,-88.4955752212389,4,1,0,50,0,0
47905,-90.0900900900901,4,1,0,50,0,0
48070,-92.5925925925926,4,1,0,50,0,0
48399,-95.2380952380952,4,1,0,50,0,0
49388,-100,4,1,0,50,0,0
57959,-96.1538461538461,4,1,0,50,0,0
58123,-93.4579439252336,4,1,0,50,0,0
58288,-90.9090909090909,4,1,0,50,0,0
66201,-80,4,1,0,50,0,1
84991,-80,4,1,0,50,0,0

[HitObjects]
256,192,930,5,0,0:0:0:0:
256,192,1918,1,0,0:0:0:0:
256,192,2907,1,8,0:0:0:0:
256,192,3896,1,8,0:0:0:0:
256,192,4885,1,0,0:0:0:0:
256,192,5874,1,0,0:0:0:0:
256,192,6863,1,8,0:0:0:0:
256,192,7852,1,8,0:0:0:0:
256,192,8182,1,8,0:0:0:0:
256,192,8512,1,0,0:0:0:0:
256,192,8841,1,12,0:0:0:0:
256,192,9830,1,8,0:0:0:0:
256,192,10160,1,0,0:0:0:0:
256,192,10489,1,0,0:0:0:0:
256,192,10819,1,8,0:0:0:0:
256,192,11478,1,0,0:0:0:0:
256,192,11808,1,8,0:0:0:0:
256,192,12467,1,8,0:0:0:0:
256,192,12797,1,0,0:0:0:0:
256,192,13291,1,0,0:0:0:0:
256,192,13786,1,8,0:0:0:0:
256,192,14116,1,0,0:0:0:0:
256,192,14445,1,8,0:0:0:0:
256,192,14775,1,4,0:0:0:0:
256,192,15764,1,8,0:0:0:0:
256,192,16753,1,12,0:0:0:0:
256,192,17412,1,8,0:0:0:0:
256,192,17742,1,8,0:0:0:0:
256,192,18071,1,0,0:0:0:0:
256,192,18401,1,0,0:0:0:0:
256,192,18731,1,8,0:0:0:0:
256,192,19390,1,8,0:0:0:0:
256,192,19720,1,0,0:0:0:0:
256,192,20709,1,8,0:0:0:0:
256,192,21368,1,8,0:0:0:0:
256,192,21698,1,8,0:0:0:0:
256,192,22027,1,0,0:0:0:0:
256,192,22357,1,0,0:0:0:0:
256,192,22687,1,8,0:0:0:0:
256,192,23346,1,8,0:0:0:0:
256,192,23676,1,4,0:0:0:0:
256,192,24335,1,0,0:0:0:0:
256,192,24664,1,8,0:0:0:0:
256,192,25159,1,8,0:0:0:0:
256,192,25653,1,0,0:0:0:0:
256,192,25983,1,0,0:0:0:0:
256,192,26313,1,0,0:0:0:0:
256,192,26642,1,8,0:0:0:0:
256,192,27137,1,8,0:0:0:0:
256,192,27631,1,8,0:0:0:0:
256,192,27961,1,8,0:0:0:0:
256,192,28291,1,0,0:0:0:0:
256,192,28620,1,8,0:0:0:0:
256,192,29115,1,0,0:0:0:0:
256,192,29609,1,0,0:0:0:0:
256,192,29939,1,8,0:0:0:0:
256,192,30269,1,8,0:0:0:0:
256,192,30598,1,0,0:0:0:0:
256,192,31587,1,8,0:0:0:0:
256,192,31917,1,0,0:0:0:0:
256,192,32082,1,0,0:0:0:0:
256,192,32246,1,0,0:0:0:0:
256,192,32576,1,8,0:0:0:0:
256,192,33071,1,8,0:0:0:0:
256,192,33235,1,0,0:0:0:0:
256,192,33565,1,8,0:0:0:0:
256,192,33895,1,0,0:0:0:0:
256,192,34224,1,0,0:0:0:0:
256,192,34554,1,8,0:0:0:0:
256,192,35213,1,8,0:0:0:0:
256,192,35543,1,0,0:0:0:0:
256,192,36532,1,8,0:0:0:0:
256,192,37026,1,8,0:0:0:0:
256,192,37191,1,0,0:0:0:0:
256,192,37521,1,0,0:0:0:0:
256,192,37851,1,8,0:0:0:0:
256,192,38180,1,0,0:0:0:0:
256,192,38510,1,8,0:0:0:0:
256,192,39169,1,0,0:0:0:0:
256,192,39499,1,8,0:0:0:0:
256,192,40488,1,0,0:0:0:0:
256,192,40982,1,8,0:0:0:0:
256,192,41477,1,0,0:0:0:0:
256,192,41806,1,0,0:0:0:0:
256,192,42466,1,8,0:0:0:0:
256,192,42960,1,0,0:0:0:0:
256,192,43455,1,8,0:0:0:0:
256,192,43784,1,8,0:0:0:0:
256,192,44444,1,0,0:0:0:0:
256,192,44938,1,8,0:0:0:0:
256,192,45268,1,0,0:0:0:0:
256,192,45433,1,0,0:0:0:0:
256,192,45762,1,0,0:0:0:0:
256,192,46092,1,8,0:0:0:0:
256,192,46422,1,0,0:0:0:0:
256,192,47410,1,8,0:0:0:0:
256,192,47740,1,0,0:0:0:0:
256,192,47905,1,0,0:0:0:0:
256,192,48070,1,0,0:0:0:0:
256,192,48399,1,8,0:0:0:0:
256,192,49388,1,8,0:0:0:0:
256,192,49718,1,8,0:0:0:0:
256,192,50048,1,0,0:0:0:0:
256,192,50377,1,8,0:0:0:0:
256,192,50872,1,0,0:0:0:0:
256,192,51366,1,8,0:0:0:0:
256,192,52026,1,0,0:0:0:0:
256,192,52355,1,8,0:0:0:0:
256,192,52850,1,8,0:0:0:0:
256,192,53344,1,8,0:0:0:0:
256,192,53674,1,0,0:0:0:0:
256,192,54004,1,8,0:0:0:0:
256,192,54333,1,8,0:0:0:0:
256,192,54828,1,0,0:0:0:0:
256,192,55322,1,0,0:0:0:0:
256,192,55652,1,8,0:0:0:0:
256,192,55981,1,0,0:0:0:0:
256,192,56311,1,0,0:0:0:0:
256,192,57300,1,0,0:0:0:0:
256,192,57959,1,8,0:0:0:0:
256,192,58124,1,8,0:0:0:0:
256,192,58289,1,0,0:0:0:0:
256,192,58619,1,8,0:0:0:0:
256,192,58783,1,0,0:0:0:0:
256,192,59113,1,0,0:0:0:0:
256,192,59278,1,0,0:0:0:0:
256,192,59937,1,0,0:0:0:0:
256,192,60102,1,0,0:0:0:0:
256,192,60267,1,8,0:0:0:0:
256,192,60597,1,8,0:0:0:0:
256,192,60761,1,8,0:0:0:0:
256,192,61091,1,0,0:0:0:0:
256,192,61256,1,8,0:0:0:0:
256,192,61915,1,8,0:0:0:0:
256,192,62080,1,0,0:0:0:0:
256,192,62245,1,8,0:0:0:0:
256,192,62574,1,0,0:0:0:0:
256,192,62739,1,8,0:0:0:0:
256,192,63069,1,8,0:0:0:0:
256,192,63234,1,0,0:0:0:0:
256,192,63563,1,0,0:0:0:0:
256,192,63893,1,0,0:0:0:0:
256,192,64223,1,8,0:0:0:0:
256,192,64552,1,0,0:0:0:0:
256,192,64882,1,8,0:0:0:0:
256,192,65212,1,8,0:0:0:0:
256,192,66201,1,12,0:0:0:0:
256,192,66695,1,8,0:0:0:0:
256,192,66860,1,0,0:0:0:0:
256,192,67190,1,0,0:0:0:0:
256,192,67519,1,8,0:0:0:0:
256,192,67849,1,0,0:0:0:0:
256,192,68179,1,8,0:0:0:0:
256,192,68508,1,0,0:0:0:0:
256,192,68838,1,0,0:0:0:0:
256,192,69168,1,8,0:0:0:0:
256,192,69827,1,8,0:0:0:0:
256,192,69992,1,8,0:0:0:0:
256,192,70156,1,0,0:0:0:0:
256,192,70486,1,8,0:0:0:0:
256,192,70651,1,0,0:0:0:0:
256,192,70981,1,0,0:0:0:0:
256,192,71145,1,8,0:0:0:0:
256,192,71475,1,8,0:0:0:0:
256,192,71805,1,0,0:0:0:0:
256,192,72134,1,8,0:0:0:0:
256,192,72464,1,8,0:0:0:0:
256,192,72794,1,0,0:0:0:0:
256,192,73123,1,8,0:0:0:0:
256,192,74112,1,12,0:0:0:0:
256,192,74607,1,8,0:0:0:0:
256,192,74772,1,0,0:0:0:0:
256,192,75101,1,0,0:0:0:0:
256,192,75431,1,0,0:0:0:0:
256,192,75761,1,8,0:0:0:0:
256,192,76090,1,0,0:0:0:0:
256,192,76420,1,8,0:0:0:0:
256,192,76750,1,0,0:0:0:0:
256,192,77079,1,8,0:0:0:0:
256,192,77738,1,0,0:0:0:0:
256,192,77903,1,0,0:0:0:0:
256,192,78068,1,12,0:0:0:0:
256,192,78398,1,0,0:0:0:0:
256,192,78563,1,8,0:0:0:0:
256,192,78892,1,8,0:0:0:0:
256,192,79057,1,0,0:0:0:0:
256,192,79387,1,8,0:0:0:0:
256,192,79716,1,0,0:0:0:0:
256,192,80046,1,0,0:0:0:0:
256,192,80376,1,8,0:0:0:0:
256,192,80705,1,8,0:0:0:0:
256,192,81035,1,0,0:0:0:0:
256,192,81694,1,0,0:0:0:0:
256,192,81859,1,0,0:0:0:0:
256,192,82024,1,12,0:0:0:0:
256,192,82354,1,8,0:0:0:0:
256,192,82518,1,8,0:0:0:0:
256,192,82848,1,8,0:0:0:0:
256,192,83013,1,0,0:0:0:0:
256,192,83343,1,0,0:0:0:0:
256,192,83672,1,8,0:0:0:0:
256,192,84002,1,0,0:0:0:0:
256,192,84332,1,8,0:0:0:0:
256,192,84661,1,8,0:0:0:0:
256,192,84990,12,0,88616,0:0:0:0:
