osu file format v14

[General]
AudioFilename: audio.mp3
AudioLeadIn: 0
PreviewTime: 55495
Countdown: 1
SampleSet: None
StackLeniency: 0.7
Mode: 1
LetterboxInBreaks: 0
WidescreenStoryboard: 0

[Editor]
DistanceSpacing: 1
BeatDivisor: 4
GridSize: 32
TimelineZoom: 1.3

[Metadata]
Title:AKUTAGAWA OVERFLOW
TitleUnicode:AKUTAGAWA OVERFLOW
Artist:Sakimura Ryunosuke feat.NITRIC ACID PROJECT
ArtistUnicode:崎村龍之介 feat.NITRIC ACID PROJECT
Creator:applerss
Version:Inner Oni
Source:
Tags:芥川龍之介の河童 ~ Candid Friend breakcore
BeatmapID:1493299
BeatmapSetID:706117

[Difficulty]
HPDrainRate:6.9
CircleSize:5
OverallDifficulty:6.9
ApproachRate:6
SliderMultiplier:1.4
SliderTickRate:1

[Events]
//Background and Video events
0,0,"nitori.jpg",0,0
//Break Periods
//Storyboard Layer 0 (Background)
//Storyboard Layer 1 (Fail)
//Storyboard Layer 2 (Pass)
//Storyboard Layer 3 (Foreground)
//Storyboard Sound Samples

[TimingPoints]
242,275.229357798165,3,1,0,50,1,0
14278,275.229357798165,3,1,0,50,1,0
14278,-200,3,1,0,50,0,0
27457,-100,3,1,0,90,0,0
27460,275.229357798165,3,1,0,90,1,0
55625,-97.0873786407767,3,1,0,90,0,0
55716,-94.3396226415094,3,1,0,90,0,0
55808,-90.9090909090909,3,1,0,90,0,0
81748,-89.2857142857143,3,1,0,90,0,0
81817,-87.719298245614,3,1,0,90,0,0
81886,-86.2068965517241,3,1,0,90,0,0
81955,-84.7457627118644,3,1,0,90,0,1
108171,-87.719298245614,3,1,0,90,0,0
108239,-90.9090909090909,3,1,0,90,0,0
108308,-95.2380952380952,3,1,0,90,0,0
108377,-100,3,1,0,90,0,0
108652,-111.111111111111,3,1,0,70,0,0
121588,-111.111111111111,3,1,0,80,0,0
128010,-107.52688172043,3,1,0,90,0,0
128102,-104.166666666667,3,1,0,90,0,0
128193,-100,3,1,0,90,0,0
128744,-50,3,1,0,90,0,0
129019,-98.0392156862745,3,1,0,90,0,0
129570,-50,3,1,0,90,0,0
129845,-96.1538461538461,3,1,0,90,0,0
130395,-50,3,1,0,90,0,0
130671,-94.3396226415094,3,1,0,90,0,0
131221,-50,3,1,0,90,0,0
131496,-90.9090909090909,3,1,0,90,0,0
133698,-86.9565217391304,3,1,0,90,0,0
133973,-86.2068965517241,3,1,0,90,0,0
134661,-84.7457627118644,3,1,0,90,0,0
134799,-83.3333333333333,3,1,0,90,0,1
161015,-84.7457627118644,3,1,0,90,0,1
161083,-86.2068965517241,3,1,0,90,0,1
161152,-87.719298245614,3,1,0,90,0,1
161221,-89.2857142857143,3,1,0,90,0,1
161359,-90.9090909090909,3,1,0,90,0,1
162322,-91.743119266055,3,1,0,90,0,1
162391,-93.4579439252336,3,1,0,90,0,1
162459,-95.2380952380952,3,1,0,90,0,1
162597,-96.1538461538461,3,1,0,90,0,1
162666,-97.0873786407767,3,1,0,90,0,1
162735,-98.0392156862745,3,1,0,90,0,1
162872,-100,3,1,0,90,0,0
187641,275.229357798165,3,1,0,90,1,0
187667,275.229357798165,3,1,0,90,1,0
187942,-200,3,1,0,50,0,0
207483,-200,3,1,0,35,0,0

[HitObjects]
256,128,14278,5,0,0:0:0:0:
256,160,14553,1,0,0:0:0:0:
256,160,14690,1,0,0:0:0:0:
256,160,14828,1,8,0:0:0:0:
256,128,15103,1,0,0:0:0:0:
256,128,15378,1,0,0:0:0:0:
256,128,15516,1,0,0:0:0:0:
256,128,15654,1,8,0:0:0:0:
256,128,15929,1,8,0:0:0:0:
256,128,16204,1,0,0:0:0:0:
256,128,16479,1,8,0:0:0:0:
256,128,16617,1,0,0:0:0:0:
256,128,16755,1,8,0:0:0:0:
256,128,17030,1,0,0:0:0:0:
256,128,17305,1,0,0:0:0:0:
256,128,17580,1,0,0:0:0:0:
256,128,17855,1,0,0:0:0:0:
256,128,17993,1,8,0:0:0:0:
256,128,18131,1,8,0:0:0:0:
256,128,18406,1,8,0:0:0:0:
256,128,18681,1,0,0:0:0:0:
256,128,18956,1,0,0:0:0:0:
256,128,19232,1,8,0:0:0:0:
256,128,19782,1,8,0:0:0:0:
256,128,20057,1,0,0:0:0:0:
256,128,20333,1,8,0:0:0:0:
256,128,20608,1,0,0:0:0:0:
256,128,20883,1,8,0:0:0:0:
256,128,21158,1,0,0:0:0:0:
256,128,21296,1,0,0:0:0:0:
256,128,21433,1,8,0:0:0:0:
256,128,21709,1,8,0:0:0:0:
256,128,21984,1,0,0:0:0:0:
256,128,22122,1,0,0:0:0:0:
256,128,22259,1,0,0:0:0:0:
256,128,22397,1,8,0:0:0:0:
256,128,22534,1,8,0:0:0:0:
256,128,22672,1,0,0:0:0:0:
256,128,22810,1,0,0:0:0:0:
256,128,22947,1,8,0:0:0:0:
256,128,23085,1,8,0:0:0:0:
256,128,23360,1,8,0:0:0:0:
256,128,23498,1,8,0:0:0:0:
256,128,23635,1,0,0:0:0:0:
256,128,23773,1,8,0:0:0:0:
256,128,23910,1,0,0:0:0:0:
256,128,24186,1,0,0:0:0:0:
256,128,24461,1,0,0:0:0:0:
256,128,24599,1,0,0:0:0:0:
256,128,24736,1,8,0:0:0:0:
256,128,25011,1,8,0:0:0:0:
256,128,25287,1,0,0:0:0:0:
256,128,25562,1,8,0:0:0:0:
256,128,25837,1,0,0:0:0:0:
256,192,26663,1,8,0:0:0:0:
256,192,27460,1,4,0:0:0:0:
288,128,27735,1,8,0:0:0:0:
288,160,27872,1,0,0:0:0:0:
288,160,27941,1,8,0:0:0:0:
288,160,28010,1,0,0:0:0:0:
288,160,28079,1,0,0:0:0:0:
256,160,28148,1,8,0:0:0:0:
256,160,28285,1,8,0:0:0:0:
288,160,28423,1,8,0:0:0:0:
288,160,28560,1,8,0:0:0:0:
256,160,28606,1,8,0:0:0:0:
288,160,28652,1,8,0:0:0:0:
288,160,28698,1,0,0:0:0:0:
256,128,28836,1,8,0:0:0:0:
256,128,28973,1,8,0:0:0:0:
256,128,29111,1,4,0:0:0:0:
256,128,29386,1,8,0:0:0:0:
256,128,29524,1,0,0:0:0:0:
256,128,29593,1,8,0:0:0:0:
256,128,29661,1,0,0:0:0:0:
256,128,29730,1,0,0:0:0:0:
256,128,29799,1,8,0:0:0:0:
256,160,29937,1,8,0:0:0:0:
256,160,30074,1,8,0:0:0:0:
256,128,30212,1,0,0:0:0:0:
256,128,30281,1,0,0:0:0:0:
256,128,30349,1,0,0:0:0:0:
256,128,30487,1,0,0:0:0:0:
256,128,30556,1,0,0:0:0:0:
256,128,30625,1,0,0:0:0:0:
256,128,30762,1,8,0:0:0:0:
256,128,30900,1,0,0:0:0:0:
256,128,30969,1,8,0:0:0:0:
256,128,31037,1,0,0:0:0:0:
256,128,31106,1,0,0:0:0:0:
256,128,31175,1,8,0:0:0:0:
256,128,31313,1,8,0:0:0:0:
256,128,31450,1,8,0:0:0:0:
256,128,31588,1,8,0:0:0:0:
256,128,31657,1,0,0:0:0:0:
256,128,31726,1,8,0:0:0:0:
256,128,31863,1,0,0:0:0:0:
256,128,32070,1,8,0:0:0:0:
256,128,32138,1,0,0:0:0:0:
256,128,32207,1,0,0:0:0:0:
256,128,32276,1,0,0:0:0:0:
256,128,32345,1,0,0:0:0:0:
256,128,32414,1,0,0:0:0:0:
256,128,32689,1,8,0:0:0:0:
256,128,32826,1,0,0:0:0:0:
256,128,32895,1,8,0:0:0:0:
256,128,32964,1,0,0:0:0:0:
256,128,33033,1,0,0:0:0:0:
256,128,33102,1,8,0:0:0:0:
256,128,33239,1,0,0:0:0:0:
256,128,33308,1,0,0:0:0:0:
256,128,33377,1,0,0:0:0:0:
256,128,33515,1,0,0:0:0:0:
256,128,33583,1,0,0:0:0:0:
256,128,33652,1,0,0:0:0:0:
256,128,33790,1,0,0:0:0:0:
256,128,33927,1,0,0:0:0:0:
256,128,34065,1,8,0:0:0:0:
256,128,34203,1,0,0:0:0:0:
256,128,34271,1,8,0:0:0:0:
256,128,34340,1,0,0:0:0:0:
256,128,34409,1,0,0:0:0:0:
256,128,34478,1,8,0:0:0:0:
256,128,34615,1,8,0:0:0:0:
256,128,34684,1,8,0:0:0:0:
256,128,34753,1,8,0:0:0:0:
256,128,34891,1,8,0:0:0:0:
256,128,34959,1,8,0:0:0:0:
256,128,35028,1,8,0:0:0:0:
256,128,35097,1,8,0:0:0:0:
256,128,35166,1,0,0:0:0:0:
256,128,35235,1,0,0:0:0:0:
256,128,35304,1,0,0:0:0:0:
256,128,35372,1,0,0:0:0:0:
256,160,35441,1,8,0:0:0:0:
256,128,35487,1,8,0:0:0:0:
256,128,35533,1,8,0:0:0:0:
256,128,35579,1,8,0:0:0:0:
256,128,35625,1,8,0:0:0:0:
256,128,35671,1,8,0:0:0:0:
256,128,35716,1,0,0:0:0:0:
256,128,35992,1,8,0:0:0:0:
256,128,36129,1,0,0:0:0:0:
256,128,36198,1,8,0:0:0:0:
224,160,36267,1,0,0:0:0:0:
224,160,36336,1,0,0:0:0:0:
256,128,36404,1,8,0:0:0:0:
256,128,36542,1,0,0:0:0:0:
256,128,36611,1,0,0:0:0:0:
256,128,36680,1,0,0:0:0:0:
256,128,36817,1,0,0:0:0:0:
256,128,36886,1,0,0:0:0:0:
256,128,36955,1,0,0:0:0:0:
256,96,37093,1,0,0:0:0:0:
256,96,37230,1,0,0:0:0:0:
256,96,37368,1,0,0:0:0:0:
256,96,37574,1,0,0:0:0:0:
256,96,37643,1,8,0:0:0:0:
256,96,37781,1,0,0:0:0:0:
256,96,37849,1,8,0:0:0:0:
256,96,37918,1,0,0:0:0:0:
256,96,37987,1,0,0:0:0:0:
256,96,38056,1,8,0:0:0:0:
256,96,38193,1,8,0:0:0:0:
256,96,38331,1,8,0:0:0:0:
256,96,38469,1,8,0:0:0:0:
256,128,38515,1,8,0:0:0:0:
256,128,38560,1,8,0:0:0:0:
256,96,38606,1,0,0:0:0:0:
256,96,38744,1,8,0:0:0:0:
256,96,38882,1,8,0:0:0:0:
256,96,39019,1,0,0:0:0:0:
256,96,39294,1,8,0:0:0:0:
256,128,39432,1,0,0:0:0:0:
256,128,39501,1,8,0:0:0:0:
256,128,39570,1,0,0:0:0:0:
256,128,39638,1,0,0:0:0:0:
256,128,39707,1,8,0:0:0:0:
256,128,39845,1,8,0:0:0:0:
256,128,40120,1,0,0:0:0:0:
256,128,40395,1,8,0:0:0:0:
256,128,40464,1,8,0:0:0:0:
256,128,40533,1,8,0:0:0:0:
256,128,40602,1,8,0:0:0:0:
256,128,40671,1,0,0:0:0:0:
288,128,40762,1,0,0:0:0:0:
288,128,40854,1,0,0:0:0:0:
288,128,40946,1,8,0:0:0:0:
288,128,41129,1,8,0:0:0:0:
288,128,41221,1,8,0:0:0:0:
288,96,41359,1,8,0:0:0:0:
288,128,41496,1,0,0:0:0:0:
256,160,41771,1,8,0:0:0:0:
256,160,41909,1,0,0:0:0:0:
256,160,41978,1,8,0:0:0:0:
256,128,42047,1,0,0:0:0:0:
256,128,42115,1,0,0:0:0:0:
256,128,42184,1,8,0:0:0:0:
256,128,42322,1,4,0:0:0:0:
256,128,42597,1,8,0:0:0:0:
256,128,42666,1,8,0:0:0:0:
256,128,42735,1,8,0:0:0:0:
256,128,42872,1,0,0:0:0:0:
256,128,42941,1,0,0:0:0:0:
256,128,43010,1,8,0:0:0:0:
256,128,43148,1,8,0:0:0:0:
256,128,43285,1,8,0:0:0:0:
256,128,43423,1,8,0:0:0:0:
256,128,43469,1,8,0:0:0:0:
256,128,43515,1,8,0:0:0:0:
256,128,43560,1,0,0:0:0:0:
256,160,43698,1,8,0:0:0:0:
288,128,43836,1,8,0:0:0:0:
288,128,43973,1,0,0:0:0:0:
288,128,44248,1,8,0:0:0:0:
288,128,44386,1,0,0:0:0:0:
288,128,44455,1,8,0:0:0:0:
288,128,44524,1,0,0:0:0:0:
288,128,44593,1,0,0:0:0:0:
288,128,44661,1,8,0:0:0:0:
288,128,44799,1,8,0:0:0:0:
288,128,44937,1,8,0:0:0:0:
288,128,45074,1,0,0:0:0:0:
288,128,45349,1,0,0:0:0:0:
288,128,45384,1,0,0:0:0:0:
320,96,45487,1,0,0:0:0:0:
320,96,45521,1,0,0:0:0:0:
320,128,45625,1,8,0:0:0:0:
320,96,45762,1,0,0:0:0:0:
320,96,45831,1,8,0:0:0:0:
320,96,45900,1,0,0:0:0:0:
320,96,45969,1,0,0:0:0:0:
320,96,46037,1,8,0:0:0:0:
320,128,46175,1,8,0:0:0:0:
320,128,46313,1,8,0:0:0:0:
320,128,46450,1,8,0:0:0:0:
320,128,46519,1,0,0:0:0:0:
320,128,46588,1,8,0:0:0:0:
320,128,46726,1,0,0:0:0:0:
320,128,46932,1,8,0:0:0:0:
320,128,47001,1,0,0:0:0:0:
320,128,47070,1,0,0:0:0:0:
320,128,47138,1,0,0:0:0:0:
320,128,47207,1,0,0:0:0:0:
320,128,47276,1,0,0:0:0:0:
320,128,47551,1,8,0:0:0:0:
320,128,47689,1,0,0:0:0:0:
320,128,47758,1,8,0:0:0:0:
320,128,47826,1,0,0:0:0:0:
320,128,47895,1,0,0:0:0:0:
320,128,47964,1,8,0:0:0:0:
320,96,48102,1,0,0:0:0:0:
256,128,48171,1,0,0:0:0:0:
320,96,48239,1,0,0:0:0:0:
320,96,48377,1,0,0:0:0:0:
256,128,48446,1,0,0:0:0:0:
320,96,48515,1,0,0:0:0:0:
320,96,48652,1,0,0:0:0:0:
320,96,48790,1,0,0:0:0:0:
320,96,48927,1,8,0:0:0:0:
320,96,49065,1,8,0:0:0:0:
320,96,49134,1,0,0:0:0:0:
320,96,49203,1,0,0:0:0:0:
320,96,49271,1,0,0:0:0:0:
320,96,49340,1,8,0:0:0:0:
320,96,49478,1,8,0:0:0:0:
320,96,49615,1,8,0:0:0:0:
320,96,49753,1,8,0:0:0:0:
320,96,49822,1,8,0:0:0:0:
320,96,49891,1,8,0:0:0:0:
320,96,49959,1,8,0:0:0:0:
320,96,50028,1,0,0:0:0:0:
320,96,50097,1,0,0:0:0:0:
320,96,50166,1,0,0:0:0:0:
320,96,50235,1,0,0:0:0:0:
320,96,50304,1,8,0:0:0:0:
288,96,50349,1,8,0:0:0:0:
288,96,50395,1,8,0:0:0:0:
288,96,50441,1,8,0:0:0:0:
288,96,50487,1,8,0:0:0:0:
288,96,50533,1,8,0:0:0:0:
288,96,50579,1,0,0:0:0:0:
256,160,50854,1,8,0:0:0:0:
256,160,50992,1,0,0:0:0:0:
256,160,51060,1,8,0:0:0:0:
256,160,51129,1,0,0:0:0:0:
256,160,51198,1,0,0:0:0:0:
256,160,51267,1,8,0:0:0:0:
256,160,51404,1,0,0:0:0:0:
256,128,51473,1,0,0:0:0:0:
256,160,51542,1,0,0:0:0:0:
256,160,51680,1,0,0:0:0:0:
256,128,51748,1,0,0:0:0:0:
256,160,51817,1,0,0:0:0:0:
256,128,51955,1,8,0:0:0:0:
256,128,52001,1,8,0:0:0:0:
256,128,52047,1,8,0:0:0:0:
256,128,52093,1,0,0:0:0:0:
288,128,52230,1,0,0:0:0:0:
256,128,52505,1,8,0:0:0:0:
256,128,52643,1,0,0:0:0:0:
256,128,52712,1,8,0:0:0:0:
256,128,52781,1,0,0:0:0:0:
256,128,52849,1,0,0:0:0:0:
256,128,52918,1,8,0:0:0:0:
256,128,53056,1,8,0:0:0:0:
256,128,53193,1,8,0:0:0:0:
256,128,53331,1,8,0:0:0:0:
288,128,53377,1,8,0:0:0:0:
288,128,53423,1,8,0:0:0:0:
288,128,53469,1,0,0:0:0:0:
256,96,53606,1,8,0:0:0:0:
256,96,53744,1,8,0:0:0:0:
288,128,53882,1,0,0:0:0:0:
288,128,54157,1,8,0:0:0:0:
288,128,54294,1,0,0:0:0:0:
288,128,54363,1,8,0:0:0:0:
288,128,54432,1,0,0:0:0:0:
288,128,54501,1,0,0:0:0:0:
288,128,54570,1,8,0:0:0:0:
288,128,54707,1,0,0:0:0:0:
256,128,54776,1,0,0:0:0:0:
288,128,54845,1,0,0:0:0:0:
288,128,54982,1,0,0:0:0:0:
256,128,55051,1,0,0:0:0:0:
288,128,55120,1,0,0:0:0:0:
288,128,55258,1,8,0:0:0:0:
288,128,55326,1,8,0:0:0:0:
288,128,55395,1,8,0:0:0:0:
288,128,55464,1,8,0:0:0:0:
288,128,55533,1,0,0:0:0:0:
288,128,55625,1,0,0:0:0:0:
288,128,55716,1,0,0:0:0:0:
256,128,55808,1,8,0:0:0:0:
256,128,55992,1,8,0:0:0:0:
256,128,56083,1,8,0:0:0:0:
256,96,56221,1,8,0:0:0:0:
256,96,56359,1,8,0:0:0:0:
256,96,56634,1,8,0:0:0:0:
256,96,56771,1,8,0:0:0:0:
256,96,56840,1,8,0:0:0:0:
256,96,56909,1,0,0:0:0:0:
256,96,56978,1,0,0:0:0:0:
256,96,57047,1,8,0:0:0:0:
288,96,57184,1,8,0:0:0:0:
256,96,57230,1,8,0:0:0:0:
256,96,57276,1,8,0:0:0:0:
256,96,57322,1,8,0:0:0:0:
288,96,57459,1,8,0:0:0:0:
256,64,57505,1,8,0:0:0:0:
256,64,57551,1,8,0:0:0:0:
256,96,57597,1,8,0:0:0:0:
288,64,57735,1,0,0:0:0:0:
288,64,57872,1,0,0:0:0:0:
288,64,58010,1,0,0:0:0:0:
288,64,58216,1,0,0:0:0:0:
288,64,58285,1,8,0:0:0:0:
288,64,58423,1,0,0:0:0:0:
288,64,58492,1,8,0:0:0:0:
288,64,58560,1,0,0:0:0:0:
256,64,58629,1,0,0:0:0:0:
256,64,58698,1,8,0:0:0:0:
256,64,58836,1,8,0:0:0:0:
256,64,58973,1,0,0:0:0:0:
256,64,59111,1,8,0:0:0:0:
256,64,59248,1,8,0:0:0:0:
256,64,59386,1,8,0:0:0:0:
256,64,59524,1,0,0:0:0:0:
288,160,59661,1,8,0:0:0:0:
256,160,59730,1,8,0:0:0:0:
256,160,59799,1,8,0:0:0:0:
256,160,59868,1,8,0:0:0:0:
256,128,59937,1,0,0:0:0:0:
288,128,59982,1,0,0:0:0:0:
288,128,60028,1,0,0:0:0:0:
288,128,60074,1,0,0:0:0:0:
288,128,60120,1,0,0:0:0:0:
288,128,60166,1,0,0:0:0:0:
288,128,60212,1,8,0:0:0:0:
288,128,60349,1,8,0:0:0:0:
288,128,60487,1,8,0:0:0:0:
288,96,60533,1,8,0:0:0:0:
288,96,60579,1,8,0:0:0:0:
288,96,60625,1,0,0:0:0:0:
288,96,60671,1,0,0:0:0:0:
288,96,60716,1,0,0:0:0:0:
288,96,60762,1,8,0:0:0:0:
256,128,60900,1,8,0:0:0:0:
288,128,60969,1,8,0:0:0:0:
288,96,61037,1,0,0:0:0:0:
288,96,61175,1,8,0:0:0:0:
288,96,61313,1,8,0:0:0:0:
288,128,61359,1,8,0:0:0:0:
288,128,61404,1,0,0:0:0:0:
320,128,61450,1,0,0:0:0:0:
320,128,61496,1,0,0:0:0:0:
320,128,61542,1,0,0:0:0:0:
320,128,61588,1,8,0:0:0:0:
288,96,61726,1,0,0:0:0:0:
288,96,61794,1,8,0:0:0:0:
288,96,61863,1,0,0:0:0:0:
288,96,61932,1,0,0:0:0:0:
288,96,62001,1,8,0:0:0:0:
288,96,62138,1,4,0:0:0:0:
256,160,62345,1,0,0:0:0:0:
256,160,62414,1,8,0:0:0:0:
256,160,62551,1,8,0:0:0:0:
256,160,62620,1,8,0:0:0:0:
256,160,62689,1,0,0:0:0:0:
256,160,62758,1,0,0:0:0:0:
256,160,62826,1,8,0:0:0:0:
256,160,62964,1,8,0:0:0:0:
256,160,63102,1,8,0:0:0:0:
256,160,63239,1,0,0:0:0:0:
256,160,63515,1,0,0:0:0:0:
256,160,63790,1,8,0:0:0:0:
256,160,63927,1,0,0:0:0:0:
256,160,63996,1,8,0:0:0:0:
256,160,64065,1,0,0:0:0:0:
256,160,64134,1,0,0:0:0:0:
256,160,64203,1,8,0:0:0:0:
256,160,64340,1,8,0:0:0:0:
224,160,64478,1,0,0:0:0:0:
224,160,64615,1,8,0:0:0:0:
224,160,64753,1,8,0:0:0:0:
224,160,64891,1,4,0:0:0:0:
224,160,65166,1,0,0:0:0:0:
224,160,65235,1,0,0:0:0:0:
224,160,65304,1,0,0:0:0:0:
224,160,65372,1,0,0:0:0:0:
256,160,65441,1,0,0:0:0:0:
256,160,65648,1,0,0:0:0:0:
256,160,65716,1,8,0:0:0:0:
224,160,65854,1,0,0:0:0:0:
224,160,65923,1,8,0:0:0:0:
224,160,65992,1,0,0:0:0:0:
224,160,66060,1,0,0:0:0:0:
224,160,66129,1,8,0:0:0:0:
224,160,66267,1,8,0:0:0:0:
224,160,66336,1,8,0:0:0:0:
224,160,66404,1,0,0:0:0:0:
224,160,66542,1,8,0:0:0:0:
224,160,66611,1,0,0:0:0:0:
224,160,66680,1,0,0:0:0:0:
224,160,66817,1,0,0:0:0:0:
224,160,66955,1,0,0:0:0:0:
224,160,67093,1,8,0:0:0:0:
224,160,67230,1,0,0:0:0:0:
224,160,67299,1,8,0:0:0:0:
224,160,67368,1,0,0:0:0:0:
224,160,67437,1,0,0:0:0:0:
224,160,67505,1,8,0:0:0:0:
224,160,67643,1,8,0:0:0:0:
224,160,67781,1,8,0:0:0:0:
224,160,67918,1,8,0:0:0:0:
224,160,67987,1,8,0:0:0:0:
224,160,68056,1,8,0:0:0:0:
224,128,68125,1,8,0:0:0:0:
224,128,68193,1,0,0:0:0:0:
224,128,68262,1,0,0:0:0:0:
224,128,68331,1,0,0:0:0:0:
224,128,68400,1,0,0:0:0:0:
256,160,68469,1,8,0:0:0:0:
224,128,68515,1,8,0:0:0:0:
224,128,68560,1,8,0:0:0:0:
224,128,68606,1,8,0:0:0:0:
224,128,68652,1,8,0:0:0:0:
224,128,68698,1,8,0:0:0:0:
224,128,68744,1,0,0:0:0:0:
224,128,69019,1,8,0:0:0:0:
224,128,69157,1,0,0:0:0:0:
224,128,69226,1,8,0:0:0:0:
224,128,69294,1,0,0:0:0:0:
224,128,69363,1,0,0:0:0:0:
224,128,69432,1,8,0:0:0:0:
224,128,69570,1,0,0:0:0:0:
224,128,69638,1,0,0:0:0:0:
224,128,69707,1,0,0:0:0:0:
224,128,69845,1,0,0:0:0:0:
224,128,69914,1,0,0:0:0:0:
224,128,69982,1,0,0:0:0:0:
224,96,70120,1,8,0:0:0:0:
224,96,70166,1,8,0:0:0:0:
224,96,70212,1,8,0:0:0:0:
224,96,70258,1,0,0:0:0:0:
224,96,70395,1,0,0:0:0:0:
224,96,70602,1,0,0:0:0:0:
224,96,70671,1,8,0:0:0:0:
224,96,70808,1,0,0:0:0:0:
224,96,70877,1,8,0:0:0:0:
224,96,70946,1,0,0:0:0:0:
224,96,71015,1,0,0:0:0:0:
224,96,71083,1,8,0:0:0:0:
224,96,71221,1,8,0:0:0:0:
224,96,71359,1,8,0:0:0:0:
224,96,71496,1,8,0:0:0:0:
224,96,71542,1,8,0:0:0:0:
224,96,71588,1,8,0:0:0:0:
224,96,71634,1,0,0:0:0:0:
256,96,71771,1,8,0:0:0:0:
256,96,71909,1,8,0:0:0:0:
256,96,72047,1,0,0:0:0:0:
256,160,72253,1,0,0:0:0:0:
256,160,72322,1,8,0:0:0:0:
256,160,72459,1,0,0:0:0:0:
256,160,72528,1,8,0:0:0:0:
256,160,72597,1,0,0:0:0:0:
256,160,72666,1,0,0:0:0:0:
256,160,72735,1,8,0:0:0:0:
256,160,72872,1,0,0:0:0:0:
256,160,73148,1,0,0:0:0:0:
288,160,73423,1,8,0:0:0:0:
288,192,73492,1,8,0:0:0:0:
288,192,73560,1,8,0:0:0:0:
288,192,73629,1,8,0:0:0:0:
288,192,73698,1,0,0:0:0:0:
256,192,73790,1,0,0:0:0:0:
256,192,73882,1,0,0:0:0:0:
288,160,73973,1,8,0:0:0:0:
288,160,74157,1,8,0:0:0:0:
288,160,74248,1,8,0:0:0:0:
320,128,74386,1,8,0:0:0:0:
288,160,74524,1,8,0:0:0:0:
288,160,74799,1,0,0:0:0:0:
288,160,75074,1,0,0:0:0:0:
288,128,75120,1,0,0:0:0:0:
288,128,75166,1,0,0:0:0:0:
288,128,75212,1,0,0:0:0:0:
288,128,75258,1,0,0:0:0:0:
288,128,75304,1,0,0:0:0:0:
288,128,75349,1,8,0:0:0:0:
288,128,75487,1,8,0:0:0:0:
288,128,75625,1,0,0:0:0:0:
288,128,75900,1,8,0:0:0:0:
288,128,75969,1,8,0:0:0:0:
288,128,76037,1,0,0:0:0:0:
288,128,76106,1,8,0:0:0:0:
288,128,76175,1,0,0:0:0:0:
288,128,76313,1,8,0:0:0:0:
288,128,76450,1,8,0:0:0:0:
288,128,76588,1,8,0:0:0:0:
288,128,76726,1,0,0:0:0:0:
288,128,77001,1,0,0:0:0:0:
288,128,77035,1,0,0:0:0:0:
288,128,77138,1,0,0:0:0:0:
288,128,77173,1,0,0:0:0:0:
288,128,77276,1,8,0:0:0:0:
288,128,77414,1,8,0:0:0:0:
288,128,77482,1,8,0:0:0:0:
288,128,77551,1,0,0:0:0:0:
288,128,77620,1,0,0:0:0:0:
288,128,77689,1,8,0:0:0:0:
224,160,77826,1,0,0:0:0:0:
224,160,77964,1,8,0:0:0:0:
224,160,78102,1,8,0:0:0:0:
288,160,78239,1,8,0:0:0:0:
320,192,78377,1,0,0:0:0:0:
256,128,78652,1,0,0:0:0:0:
256,128,78721,1,0,0:0:0:0:
256,128,78790,1,0,0:0:0:0:
256,128,78859,1,0,0:0:0:0:
224,128,78927,1,8,0:0:0:0:
224,96,78996,1,0,0:0:0:0:
224,96,79065,1,0,0:0:0:0:
224,128,79203,1,8,0:0:0:0:
224,128,79340,1,8,0:0:0:0:
224,128,79409,1,8,0:0:0:0:
224,128,79478,1,0,0:0:0:0:
224,128,79547,1,0,0:0:0:0:
224,128,79615,1,8,0:0:0:0:
224,128,79684,1,0,0:0:0:0:
224,128,79753,1,8,0:0:0:0:
224,128,79822,1,0,0:0:0:0:
224,128,79891,1,0,0:0:0:0:
224,128,80028,1,8,0:0:0:0:
224,128,80097,1,8,0:0:0:0:
224,128,80166,1,8,0:0:0:0:
224,128,80304,1,0,0:0:0:0:
224,128,80441,1,0,0:0:0:0:
224,128,80579,1,8,0:0:0:0:
224,128,80716,1,8,0:0:0:0:
224,128,80785,1,8,0:0:0:0:
224,128,80854,1,0,0:0:0:0:
224,128,80923,1,8,0:0:0:0:
224,128,80992,1,8,0:0:0:0:
224,128,81129,1,8,0:0:0:0:
224,128,81267,1,8,0:0:0:0:
224,128,81404,1,8,0:0:0:0:
224,128,81450,1,8,0:0:0:0:
224,128,81496,1,8,0:0:0:0:
224,128,81542,1,8,0:0:0:0:
224,128,81588,1,8,0:0:0:0:
224,128,81634,1,8,0:0:0:0:
256,128,81680,1,0,0:0:0:0:
256,128,81748,1,0,0:0:0:0:
256,128,81817,1,0,0:0:0:0:
256,128,81886,1,0,0:0:0:0:
256,128,81955,1,0,0:0:0:0:
256,192,82230,1,8,0:0:0:0:
224,288,82299,1,0,0:0:0:0:
224,192,82368,1,0,0:0:0:0:
256,192,82437,1,8,0:0:0:0:
256,192,82505,1,8,0:0:0:0:
256,160,82643,1,8,0:0:0:0:
256,160,82712,1,8,0:0:0:0:
256,160,82781,1,0,0:0:0:0:
256,160,82918,1,8,0:0:0:0:
256,192,83056,1,8,0:0:0:0:
288,128,83102,1,8,0:0:0:0:
288,128,83148,1,8,0:0:0:0:
256,160,83193,1,0,0:0:0:0:
256,128,83331,1,8,0:0:0:0:
256,128,83469,1,8,0:0:0:0:
256,128,83606,1,4,0:0:0:0:
256,128,83882,1,8,0:0:0:0:
256,96,83950,1,8,0:0:0:0:
256,128,84019,1,8,0:0:0:0:
256,128,84088,1,8,0:0:0:0:
256,128,84157,1,0,0:0:0:0:
256,128,84226,1,0,0:0:0:0:
256,128,84294,1,8,0:0:0:0:
256,128,84432,1,8,0:0:0:0:
256,128,84570,1,8,0:0:0:0:
256,128,84707,1,0,0:0:0:0:
256,128,84982,1,0,0:0:0:0:
256,128,85017,1,0,0:0:0:0:
256,128,85120,1,0,0:0:0:0:
256,128,85154,1,0,0:0:0:0:
256,128,85258,1,8,0:0:0:0:
256,160,85395,1,0,0:0:0:0:
256,128,85464,1,8,0:0:0:0:
256,128,85533,1,0,0:0:0:0:
256,128,85602,1,0,0:0:0:0:
256,128,85671,1,8,0:0:0:0:
256,128,85808,1,8,0:0:0:0:
224,128,85946,1,0,0:0:0:0:
224,128,86015,1,8,0:0:0:0:
224,128,86083,1,8,0:0:0:0:
224,128,86221,1,8,0:0:0:0:
224,160,86359,1,0,0:0:0:0:
224,160,86634,1,0,0:0:0:0:
224,160,86703,1,0,0:0:0:0:
256,128,86771,1,0,0:0:0:0:
256,128,86840,1,0,0:0:0:0:
256,128,86909,1,8,0:0:0:0:
256,128,87047,1,0,0:0:0:0:
224,160,87184,1,8,0:0:0:0:
224,160,87253,1,8,0:0:0:0:
224,160,87322,1,0,0:0:0:0:
224,160,87391,1,8,0:0:0:0:
224,160,87459,1,0,0:0:0:0:
224,160,87528,1,0,0:0:0:0:
224,160,87597,1,8,0:0:0:0:
224,160,87735,1,0,0:0:0:0:
224,160,87872,1,0,0:0:0:0:
224,160,87941,1,0,0:0:0:0:
224,160,88010,1,8,0:0:0:0:
224,160,88148,1,8,0:0:0:0:
224,160,88216,1,8,0:0:0:0:
224,160,88285,1,0,0:0:0:0:
224,160,88423,1,0,0:0:0:0:
224,160,88560,1,12,0:0:0:0:
224,160,88698,1,8,0:0:0:0:
224,160,88767,1,8,0:0:0:0:
224,160,88836,1,0,0:0:0:0:
224,160,88904,1,0,0:0:0:0:
224,160,88973,1,8,0:0:0:0:
224,160,89111,1,8,0:0:0:0:
224,160,89248,1,8,0:0:0:0:
224,160,89386,1,8,0:0:0:0:
224,160,89455,1,8,0:0:0:0:
224,160,89524,1,8,0:0:0:0:
224,160,89593,1,8,0:0:0:0:
224,160,89661,1,0,0:0:0:0:
256,128,89707,1,0,0:0:0:0:
256,128,89753,1,0,0:0:0:0:
256,160,89799,1,8,0:0:0:0:
224,160,89868,1,0,0:0:0:0:
224,160,89937,1,8,0:0:0:0:
256,160,89982,1,0,0:0:0:0:
256,160,90028,1,0,0:0:0:0:
224,160,90074,1,8,0:0:0:0:
256,160,90120,1,8,0:0:0:0:
256,160,90166,1,0,0:0:0:0:
256,160,90212,1,8,0:0:0:0:
192,128,90349,1,0,0:0:0:0:
224,128,90487,1,8,0:0:0:0:
224,128,90556,1,0,0:0:0:0:
256,96,90625,1,0,0:0:0:0:
224,128,90693,1,8,0:0:0:0:
256,96,90762,1,0,0:0:0:0:
256,96,90900,1,8,0:0:0:0:
256,96,91037,1,0,0:0:0:0:
224,128,91175,1,8,0:0:0:0:
256,96,91244,1,8,0:0:0:0:
224,128,91313,1,0,0:0:0:0:
224,128,91382,1,0,0:0:0:0:
224,128,91450,1,8,0:0:0:0:
224,128,91519,1,8,0:0:0:0:
224,128,91588,1,0,0:0:0:0:
224,96,91634,1,8,0:0:0:0:
224,96,91680,1,8,0:0:0:0:
224,96,91726,1,0,0:0:0:0:
256,96,91863,1,0,0:0:0:0:
256,96,92001,1,0,0:0:0:0:
256,96,92138,1,8,0:0:0:0:
256,96,92207,1,8,0:0:0:0:
256,96,92276,1,0,0:0:0:0:
256,96,92345,1,8,0:0:0:0:
256,96,92414,1,0,0:0:0:0:
256,96,92482,1,0,0:0:0:0:
256,96,92551,1,8,0:0:0:0:
224,96,92620,1,0,0:0:0:0:
256,96,92689,1,8,0:0:0:0:
352,96,92826,1,8,0:0:0:0:
256,96,92964,1,8,0:0:0:0:
256,96,93010,1,8,0:0:0:0:
256,96,93056,1,8,0:0:0:0:
256,96,93102,1,0,0:0:0:0:
224,96,93239,1,8,0:0:0:0:
224,96,93377,1,8,0:0:0:0:
224,96,93515,1,0,0:0:0:0:
224,96,93790,1,8,0:0:0:0:
256,96,93927,1,0,0:0:0:0:
256,96,93996,1,8,0:0:0:0:
256,96,94065,1,0,0:0:0:0:
256,96,94134,1,0,0:0:0:0:
256,96,94203,1,8,0:0:0:0:
256,96,94340,1,12,0:0:0:0:
256,96,94615,1,4,0:0:0:0:
256,96,94891,1,8,0:0:0:0:
256,96,94959,1,8,0:0:0:0:
256,96,95028,1,8,0:0:0:0:
256,96,95097,1,0,0:0:0:0:
256,96,95166,1,8,0:0:0:0:
256,96,95304,1,8,0:0:0:0:
256,96,95441,1,0,0:0:0:0:
256,96,95510,1,0,0:0:0:0:
256,96,95579,1,8,0:0:0:0:
256,96,95648,1,0,0:0:0:0:
256,96,95716,1,8,0:0:0:0:
256,96,95785,1,8,0:0:0:0:
256,96,95854,1,8,0:0:0:0:
256,96,95923,1,8,0:0:0:0:
256,96,95992,1,0,0:0:0:0:
256,96,96129,1,0,0:0:0:0:
224,128,96267,1,8,0:0:0:0:
224,128,96336,1,0,0:0:0:0:
224,128,96404,1,8,0:0:0:0:
224,128,96473,1,8,0:0:0:0:
224,128,96542,1,0,0:0:0:0:
224,128,96611,1,0,0:0:0:0:
224,128,96680,1,8,0:0:0:0:
224,128,96748,1,0,0:0:0:0:
224,128,96817,1,8,0:0:0:0:
224,128,96955,1,8,0:0:0:0:
224,128,97093,1,0,0:0:0:0:
224,128,97230,1,8,0:0:0:0:
224,128,97299,1,8,0:0:0:0:
224,128,97368,1,0,0:0:0:0:
224,128,97505,1,0,0:0:0:0:
224,128,97643,1,8,0:0:0:0:
224,128,97781,1,8,0:0:0:0:
224,128,97849,1,8,0:0:0:0:
224,128,97918,1,0,0:0:0:0:
224,128,98056,1,0,0:0:0:0:
224,128,98193,1,8,0:0:0:0:
224,128,98331,1,8,0:0:0:0:
224,128,98469,1,0,0:0:0:0:
224,128,98537,1,0,0:0:0:0:
224,128,98606,1,0,0:0:0:0:
256,128,98675,1,0,0:0:0:0:
224,128,98744,1,8,0:0:0:0:
224,128,98790,1,0,0:0:0:0:
224,128,98836,1,0,0:0:0:0:
224,128,98882,1,8,0:0:0:0:
224,128,98950,1,0,0:0:0:0:
224,128,99019,1,8,0:0:0:0:
224,96,99065,1,8,0:0:0:0:
224,96,99111,1,8,0:0:0:0:
224,96,99157,1,8,0:0:0:0:
224,96,99203,1,8,0:0:0:0:
224,96,99248,1,8,0:0:0:0:
224,96,99294,1,0,0:0:0:0:
256,96,99570,1,8,0:0:0:0:
256,96,99707,1,8,0:0:0:0:
256,96,99776,1,8,0:0:0:0:
256,96,99845,1,0,0:0:0:0:
288,64,99914,1,0,0:0:0:0:
256,64,99982,1,8,0:0:0:0:
256,64,100051,1,0,0:0:0:0:
288,64,100120,1,8,0:0:0:0:
288,64,100258,1,0,0:0:0:0:
288,64,100395,1,8,0:0:0:0:
256,64,100533,1,0,0:0:0:0:
288,64,100671,1,8,0:0:0:0:
320,64,100716,1,8,0:0:0:0:
288,64,100762,1,8,0:0:0:0:
288,64,100808,1,0,0:0:0:0:
288,128,100946,1,0,0:0:0:0:
320,128,101221,1,8,0:0:0:0:
288,128,101290,1,0,0:0:0:0:
320,128,101359,1,8,0:0:0:0:
320,128,101427,1,8,0:0:0:0:
288,128,101496,1,0,0:0:0:0:
320,128,101634,1,8,0:0:0:0:
320,128,101771,1,8,0:0:0:0:
320,128,101909,1,8,0:0:0:0:
288,128,102047,1,8,0:0:0:0:
288,96,102093,1,8,0:0:0:0:
288,96,102138,1,0,0:0:0:0:
288,128,102184,1,0,0:0:0:0:
256,96,102253,1,0,0:0:0:0:
288,96,102322,1,8,0:0:0:0:
288,96,102459,1,8,0:0:0:0:
288,96,102597,1,12,0:0:0:0:
288,96,102735,1,0,0:0:0:0:
288,128,102804,1,0,0:0:0:0:
288,128,102872,1,8,0:0:0:0:
288,96,102941,1,8,0:0:0:0:
288,96,103010,1,0,0:0:0:0:
288,96,103079,1,8,0:0:0:0:
288,96,103148,1,0,0:0:0:0:
288,96,103216,1,0,0:0:0:0:
288,96,103285,1,8,0:0:0:0:
288,96,103423,1,8,0:0:0:0:
288,96,103560,1,0,0:0:0:0:
288,96,103698,1,0,0:0:0:0:
288,96,103767,1,0,0:0:0:0:
288,96,103836,1,8,0:0:0:0:
288,96,103904,1,0,0:0:0:0:
288,96,103973,1,8,0:0:0:0:
288,96,104042,1,8,0:0:0:0:
288,96,104111,1,8,0:0:0:0:
288,96,104180,1,8,0:0:0:0:
288,96,104248,1,0,0:0:0:0:
288,96,104340,1,0,0:0:0:0:
288,96,104432,1,0,0:0:0:0:
288,96,104524,1,8,0:0:0:0:
288,96,104707,1,8,0:0:0:0:
288,96,104799,1,8,0:0:0:0:
288,64,104937,1,8,0:0:0:0:
288,96,105074,1,4,0:0:0:0:
256,64,105349,1,8,0:0:0:0:
288,64,105418,1,0,0:0:0:0:
256,64,105487,1,0,0:0:0:0:
288,64,105556,1,8,0:0:0:0:
288,64,105625,1,0,0:0:0:0:
288,96,105671,1,0,0:0:0:0:
288,96,105716,1,0,0:0:0:0:
288,96,105762,1,0,0:0:0:0:
288,96,105808,1,0,0:0:0:0:
256,96,105854,1,0,0:0:0:0:
288,96,105900,1,8,0:0:0:0:
256,64,106175,1,8,0:0:0:0:
256,64,106313,1,0,0:0:0:0:
256,64,106382,1,8,0:0:0:0:
256,64,106450,1,0,0:0:0:0:
256,64,106519,1,0,0:0:0:0:
288,64,106588,1,8,0:0:0:0:
288,64,106726,1,4,0:0:0:0:
288,64,107001,1,8,0:0:0:0:
288,64,107138,1,8,0:0:0:0:
288,64,107207,1,8,0:0:0:0:
288,64,107276,1,0,0:0:0:0:
288,64,107345,1,0,0:0:0:0:
288,64,107414,1,8,0:0:0:0:
288,64,107551,1,4,0:0:0:0:
288,64,107826,1,4,0:0:0:0:
288,64,108102,1,8,0:0:0:0:
288,64,108171,1,8,0:0:0:0:
288,64,108239,1,8,0:0:0:0:
288,64,108308,1,8,0:0:0:0:
288,64,108377,1,0,0:0:0:0:
256,64,108652,1,8,0:0:0:0:
288,64,108927,1,8,0:0:0:0:
288,64,109203,1,8,0:0:0:0:
256,64,109386,1,8,0:0:0:0:
256,64,109478,1,0,0:0:0:0:
256,64,109753,1,8,0:0:0:0:
256,64,110028,1,0,0:0:0:0:
256,64,110212,1,0,0:0:0:0:
256,64,110304,1,8,0:0:0:0:
256,64,110579,1,8,0:0:0:0:
256,64,110854,1,0,0:0:0:0:
256,64,110946,1,0,0:0:0:0:
256,64,111037,1,0,0:0:0:0:
256,64,111129,1,8,0:0:0:0:
256,64,111404,1,8,0:0:0:0:
288,64,111588,1,8,0:0:0:0:
288,64,111680,1,0,0:0:0:0:
256,128,111955,1,8,0:0:0:0:
256,128,112230,1,8,0:0:0:0:
256,128,112414,1,0,0:0:0:0:
256,128,112505,1,8,0:0:0:0:
256,96,112781,1,8,0:0:0:0:
256,96,113056,1,0,0:0:0:0:
256,96,113331,1,0,0:0:0:0:
256,96,113882,1,8,0:0:0:0:
256,96,114157,1,8,0:0:0:0:
256,96,114432,1,8,0:0:0:0:
256,128,114615,1,8,0:0:0:0:
320,96,114707,1,0,0:0:0:0:
256,160,114799,1,0,0:0:0:0:
256,160,114891,1,8,0:0:0:0:
256,96,114982,1,4,0:0:0:0:
256,160,115258,1,8,0:0:0:0:
288,160,115533,1,8,0:0:0:0:
288,160,115716,1,8,0:0:0:0:
288,160,115808,1,0,0:0:0:0:
256,160,116083,1,8,0:0:0:0:
256,160,116267,1,0,0:0:0:0:
256,160,116359,1,8,0:0:0:0:
256,160,116634,1,0,0:0:0:0:
256,160,116817,1,0,0:0:0:0:
256,160,116909,1,8,0:0:0:0:
256,160,117184,1,8,0:0:0:0:
224,96,117368,1,8,0:0:0:0:
256,96,117459,1,0,0:0:0:0:
256,96,117551,1,8,0:0:0:0:
256,96,117643,1,8,0:0:0:0:
256,96,117735,1,0,0:0:0:0:
256,96,117918,1,0,0:0:0:0:
256,96,118010,1,8,0:0:0:0:
256,96,118285,1,0,0:0:0:0:
256,96,118560,1,8,0:0:0:0:
256,96,118744,1,0,0:0:0:0:
256,96,118836,1,8,0:0:0:0:
256,96,119111,1,8,0:0:0:0:
256,96,119386,1,8,0:0:0:0:
256,96,119570,1,8,0:0:0:0:
320,128,119661,1,0,0:0:0:0:
320,128,119937,1,0,0:0:0:0:
256,160,120212,1,0,0:0:0:0:
288,192,120487,1,0,0:0:0:0:
288,160,120762,1,8,0:0:0:0:
288,160,120946,1,8,0:0:0:0:
288,160,121037,1,8,0:0:0:0:
288,160,121313,1,8,0:0:0:0:
288,160,121404,1,8,0:0:0:0:
288,160,121496,1,8,0:0:0:0:
288,160,121588,1,4,0:0:0:0:
288,160,122414,1,12,0:0:0:0:
256,128,122597,1,8,0:0:0:0:
288,160,122872,1,8,0:0:0:0:
288,160,122964,1,0,0:0:0:0:
288,160,123239,1,0,0:0:0:0:
288,128,123377,1,0,0:0:0:0:
288,128,123446,1,0,0:0:0:0:
288,128,123515,1,8,0:0:0:0:
288,128,123652,1,8,0:0:0:0:
320,128,123790,1,0,0:0:0:0:
320,96,123859,1,0,0:0:0:0:
320,96,123927,1,0,0:0:0:0:
320,128,124065,1,12,0:0:0:0:
352,96,124248,1,8,0:0:0:0:
224,160,124340,1,0,0:0:0:0:
352,96,124524,1,8,0:0:0:0:
352,96,124615,1,0,0:0:0:0:
224,160,124891,1,0,0:0:0:0:
224,160,125074,1,0,0:0:0:0:
224,160,125349,1,8,0:0:0:0:
224,160,125441,1,0,0:0:0:0:
224,128,125579,1,0,0:0:0:0:
224,128,125716,1,12,0:0:0:0:
256,96,125854,1,0,0:0:0:0:
256,96,125923,1,0,0:0:0:0:
256,96,125992,1,8,0:0:0:0:
256,96,126060,1,0,0:0:0:0:
256,96,126129,1,0,0:0:0:0:
256,96,126198,1,0,0:0:0:0:
256,96,126267,1,8,0:0:0:0:
256,96,126336,1,0,0:0:0:0:
256,96,126404,1,8,0:0:0:0:
256,64,126542,1,0,0:0:0:0:
256,96,126726,1,0,0:0:0:0:
256,96,126817,1,8,0:0:0:0:
256,96,126955,1,0,0:0:0:0:
256,96,127093,1,8,0:0:0:0:
256,96,127368,1,12,0:0:0:0:
256,96,127643,1,0,0:0:0:0:
256,96,127918,1,8,0:0:0:0:
256,96,128010,1,0,0:0:0:0:
256,96,128102,1,0,0:0:0:0:
288,96,128193,1,8,0:0:0:0:
288,96,128469,1,0,0:0:0:0:
288,96,128744,1,12,0:0:0:0:
288,96,129019,1,0,0:0:0:0:
288,96,129294,1,0,0:0:0:0:
288,96,129432,1,0,0:0:0:0:
288,96,129570,1,12,0:0:0:0:
288,96,129845,1,0,0:0:0:0:
288,96,129982,1,0,0:0:0:0:
288,96,130120,1,0,0:0:0:0:
288,96,130258,1,0,0:0:0:0:
288,96,130395,1,12,0:0:0:0:
288,96,130671,1,0,0:0:0:0:
288,96,130808,1,0,0:0:0:0:
288,96,130946,1,0,0:0:0:0:
288,96,131083,1,0,0:0:0:0:
288,96,131221,1,12,0:0:0:0:
288,96,131496,1,12,0:0:0:0:
288,96,131771,1,12,0:0:0:0:
288,96,131909,1,0,0:0:0:0:
288,96,132047,1,12,0:0:0:0:
288,96,132322,1,12,0:0:0:0:
288,96,132459,1,0,0:0:0:0:
288,96,132597,1,12,0:0:0:0:
288,96,132735,1,0,0:0:0:0:
288,96,132872,1,12,0:0:0:0:
320,96,133148,1,0,0:0:0:0:
320,96,133698,1,8,0:0:0:0:
320,96,133973,1,8,0:0:0:0:
320,96,134111,1,8,0:0:0:0:
320,96,134248,1,8,0:0:0:0:
320,96,134294,1,8,0:0:0:0:
320,96,134340,1,0,0:0:0:0:
320,96,134386,1,0,0:0:0:0:
352,96,134524,1,8,0:0:0:0:
352,96,134661,1,8,0:0:0:0:
352,96,134799,1,4,0:0:0:0:
224,160,135074,1,8,0:0:0:0:
256,160,135143,1,0,0:0:0:0:
224,160,135212,1,8,0:0:0:0:
256,160,135281,1,8,0:0:0:0:
256,128,135349,1,0,0:0:0:0:
256,160,135418,1,8,0:0:0:0:
224,160,135487,1,8,0:0:0:0:
224,160,135625,1,8,0:0:0:0:
224,160,135762,1,8,0:0:0:0:
224,160,135900,1,8,0:0:0:0:
224,160,135946,1,8,0:0:0:0:
256,128,135992,1,8,0:0:0:0:
256,160,136037,1,0,0:0:0:0:
288,128,136175,1,8,0:0:0:0:
288,128,136313,1,8,0:0:0:0:
288,128,136450,1,4,0:0:0:0:
288,128,136726,1,8,0:0:0:0:
288,128,136863,1,8,0:0:0:0:
288,128,136932,1,8,0:0:0:0:
288,128,137001,1,0,0:0:0:0:
288,128,137070,1,0,0:0:0:0:
288,128,137138,1,8,0:0:0:0:
288,128,137207,1,0,0:0:0:0:
320,128,137276,1,8,0:0:0:0:
320,128,137414,1,8,0:0:0:0:
320,128,137551,1,4,0:0:0:0:
320,128,137826,1,8,0:0:0:0:
320,128,137861,1,8,0:0:0:0:
320,128,137964,1,8,0:0:0:0:
320,128,137998,1,8,0:0:0:0:
288,128,138102,1,8,0:0:0:0:
288,128,138239,1,0,0:0:0:0:
288,128,138308,1,0,0:0:0:0:
288,128,138377,1,8,0:0:0:0:
288,128,138446,1,0,0:0:0:0:
288,128,138515,1,8,0:0:0:0:
288,128,138652,1,8,0:0:0:0:
288,128,138721,1,0,0:0:0:0:
288,128,138790,1,8,0:0:0:0:
288,128,138927,1,8,0:0:0:0:
288,128,139065,1,8,0:0:0:0:
288,128,139203,1,8,0:0:0:0:
288,128,139271,1,0,0:0:0:0:
288,128,139340,1,0,0:0:0:0:
288,128,139478,1,0,0:0:0:0:
288,128,139547,1,0,0:0:0:0:
288,128,139615,1,0,0:0:0:0:
288,128,139684,1,0,0:0:0:0:
288,128,139753,1,8,0:0:0:0:
288,128,140028,1,8,0:0:0:0:
288,128,140166,1,0,0:0:0:0:
288,128,140235,1,8,0:0:0:0:
288,128,140304,1,0,0:0:0:0:
288,128,140372,1,0,0:0:0:0:
288,128,140441,1,8,0:0:0:0:
288,128,140579,1,0,0:0:0:0:
288,128,140716,1,0,0:0:0:0:
288,128,140785,1,0,0:0:0:0:
288,128,140854,1,8,0:0:0:0:
288,128,140992,1,8,0:0:0:0:
288,128,141060,1,8,0:0:0:0:
288,128,141129,1,0,0:0:0:0:
288,128,141267,1,0,0:0:0:0:
288,128,141404,1,8,0:0:0:0:
288,128,141542,1,0,0:0:0:0:
288,128,141611,1,8,0:0:0:0:
288,128,141680,1,0,0:0:0:0:
288,128,141748,1,0,0:0:0:0:
288,128,141817,1,8,0:0:0:0:
288,128,141886,1,0,0:0:0:0:
288,128,141955,1,8,0:0:0:0:
288,128,142093,1,8,0:0:0:0:
288,128,142230,1,8,0:0:0:0:
288,128,142299,1,8,0:0:0:0:
288,128,142368,1,8,0:0:0:0:
288,128,142437,1,8,0:0:0:0:
288,128,142505,1,0,0:0:0:0:
256,128,142574,1,0,0:0:0:0:
256,128,142643,1,8,0:0:0:0:
256,128,142689,1,0,0:0:0:0:
256,128,142735,1,0,0:0:0:0:
256,128,142781,1,8,0:0:0:0:
256,96,142849,1,0,0:0:0:0:
256,128,142918,1,8,0:0:0:0:
256,128,142964,1,8,0:0:0:0:
256,128,143010,1,0,0:0:0:0:
256,128,143056,1,8,0:0:0:0:
256,128,143193,1,0,0:0:0:0:
256,128,143331,1,0,0:0:0:0:
256,128,143400,1,0,0:0:0:0:
256,128,143469,1,8,0:0:0:0:
256,128,143537,1,8,0:0:0:0:
256,128,143606,1,0,0:0:0:0:
256,128,143675,1,0,0:0:0:0:
256,128,143744,1,8,0:0:0:0:
256,128,143813,1,0,0:0:0:0:
256,128,143882,1,8,0:0:0:0:
256,128,144019,1,0,0:0:0:0:
256,128,144157,1,0,0:0:0:0:
256,128,144226,1,0,0:0:0:0:
256,128,144294,1,8,0:0:0:0:
256,128,144363,1,8,0:0:0:0:
256,128,144432,1,0,0:0:0:0:
256,128,144478,1,8,0:0:0:0:
256,128,144524,1,8,0:0:0:0:
256,128,144570,1,0,0:0:0:0:
256,128,144707,1,0,0:0:0:0:
256,128,144845,1,0,0:0:0:0:
256,128,144982,1,8,0:0:0:0:
256,128,145051,1,0,0:0:0:0:
256,128,145120,1,0,0:0:0:0:
256,128,145189,1,8,0:0:0:0:
256,128,145258,1,8,0:0:0:0:
256,128,145326,1,0,0:0:0:0:
256,128,145395,1,8,0:0:0:0:
256,128,145533,1,8,0:0:0:0:
256,128,145671,1,8,0:0:0:0:
256,128,145808,1,8,0:0:0:0:
288,96,145854,1,8,0:0:0:0:
256,128,145900,1,0,0:0:0:0:
256,128,145946,1,0,0:0:0:0:
256,128,146083,1,8,0:0:0:0:
256,128,146221,1,8,0:0:0:0:
224,128,146359,1,0,0:0:0:0:
224,128,146496,1,0,0:0:0:0:
224,128,146565,1,0,0:0:0:0:
224,128,146634,1,8,0:0:0:0:
224,128,146771,1,0,0:0:0:0:
224,128,146840,1,8,0:0:0:0:
224,128,146909,1,0,0:0:0:0:
224,128,146978,1,0,0:0:0:0:
224,128,147047,1,8,0:0:0:0:
224,128,147115,1,0,0:0:0:0:
224,128,147184,1,8,0:0:0:0:
224,128,147322,1,8,0:0:0:0:
224,128,147459,1,0,0:0:0:0:
224,128,147597,1,0,0:0:0:0:
224,128,147666,1,0,0:0:0:0:
224,128,147735,1,8,0:0:0:0:
224,128,147804,1,8,0:0:0:0:
224,128,147872,1,8,0:0:0:0:
224,128,147941,1,0,0:0:0:0:
224,128,148010,1,8,0:0:0:0:
224,128,148148,1,0,0:0:0:0:
224,128,148285,1,8,0:0:0:0:
224,128,148354,1,0,0:0:0:0:
224,128,148423,1,0,0:0:0:0:
224,128,148492,1,0,0:0:0:0:
224,128,148560,1,8,0:0:0:0:
224,128,148629,1,8,0:0:0:0:
224,128,148698,1,8,0:0:0:0:
224,128,148767,1,8,0:0:0:0:
224,128,148836,1,0,0:0:0:0:
224,128,148973,1,0,0:0:0:0:
224,128,149042,1,0,0:0:0:0:
224,128,149111,1,8,0:0:0:0:
224,128,149180,1,0,0:0:0:0:
224,128,149248,1,0,0:0:0:0:
224,128,149317,1,8,0:0:0:0:
224,128,149386,1,0,0:0:0:0:
224,128,149455,1,8,0:0:0:0:
224,128,149524,1,8,0:0:0:0:
224,128,149661,1,0,0:0:0:0:
224,128,149799,1,8,0:0:0:0:
224,128,149868,1,8,0:0:0:0:
224,128,149937,1,0,0:0:0:0:
224,128,150005,1,0,0:0:0:0:
224,128,150074,1,8,0:0:0:0:
224,128,150143,1,8,0:0:0:0:
224,128,150212,1,0,0:0:0:0:
224,128,150281,1,0,0:0:0:0:
224,128,150349,1,8,0:0:0:0:
224,128,150487,1,8,0:0:0:0:
224,128,150625,1,0,0:0:0:0:
224,128,150693,1,8,0:0:0:0:
224,128,150762,1,0,0:0:0:0:
224,128,150831,1,0,0:0:0:0:
224,128,150900,1,8,0:0:0:0:
224,128,150969,1,0,0:0:0:0:
224,128,151037,1,8,0:0:0:0:
224,128,151175,1,8,0:0:0:0:
224,128,151313,1,8,0:0:0:0:
224,128,151359,1,8,0:0:0:0:
224,128,151404,1,8,0:0:0:0:
224,128,151450,1,8,0:0:0:0:
224,128,151588,1,8,0:0:0:0:
256,128,151634,1,0,0:0:0:0:
256,128,151680,1,0,0:0:0:0:
256,128,151726,1,8,0:0:0:0:
256,96,151794,1,0,0:0:0:0:
256,96,151863,1,8,0:0:0:0:
256,128,151909,1,8,0:0:0:0:
256,128,151955,1,8,0:0:0:0:
256,128,152001,1,8,0:0:0:0:
256,128,152047,1,8,0:0:0:0:
256,128,152093,1,8,0:0:0:0:
256,128,152138,1,0,0:0:0:0:
256,128,152276,1,0,0:0:0:0:
256,128,152414,1,8,0:0:0:0:
256,128,152551,1,0,0:0:0:0:
256,128,152620,1,8,0:0:0:0:
256,128,152689,1,0,0:0:0:0:
256,128,152758,1,0,0:0:0:0:
256,128,152826,1,8,0:0:0:0:
256,128,152964,1,8,0:0:0:0:
256,128,153033,1,0,0:0:0:0:
256,128,153102,1,0,0:0:0:0:
256,128,153239,1,0,0:0:0:0:
256,128,153308,1,0,0:0:0:0:
256,128,153377,1,0,0:0:0:0:
256,128,153515,1,8,0:0:0:0:
256,128,153560,1,8,0:0:0:0:
256,128,153606,1,8,0:0:0:0:
256,128,153652,1,0,0:0:0:0:
256,128,153790,1,0,0:0:0:0:
256,128,153927,1,0,0:0:0:0:
256,128,153996,1,0,0:0:0:0:
256,128,154065,1,8,0:0:0:0:
256,128,154203,1,0,0:0:0:0:
256,128,154271,1,8,0:0:0:0:
256,128,154340,1,0,0:0:0:0:
256,128,154409,1,0,0:0:0:0:
256,128,154478,1,8,0:0:0:0:
256,128,154615,1,8,0:0:0:0:
256,128,154753,1,8,0:0:0:0:
256,128,154891,1,8,0:0:0:0:
256,96,154937,1,8,0:0:0:0:
256,128,154982,1,0,0:0:0:0:
256,128,155028,1,0,0:0:0:0:
256,128,155097,1,0,0:0:0:0:
256,128,155166,1,8,0:0:0:0:
256,128,155304,1,8,0:0:0:0:
256,128,155441,1,8,0:0:0:0:
256,128,155579,1,0,0:0:0:0:
256,128,155648,1,0,0:0:0:0:
256,128,155716,1,8,0:0:0:0:
256,128,155854,1,0,0:0:0:0:
248,126,155923,1,8,0:0:0:0:
256,128,155992,1,8,0:0:0:0:
256,128,156060,1,0,0:0:0:0:
256,128,156129,1,8,0:0:0:0:
256,128,156267,1,8,0:0:0:0:
256,128,156404,1,0,0:0:0:0:
256,128,156542,1,0,0:0:0:0:
256,128,156611,1,0,0:0:0:0:
256,128,156680,1,8,0:0:0:0:
256,128,156748,1,0,0:0:0:0:
256,128,156817,1,8,0:0:0:0:
256,128,156886,1,8,0:0:0:0:
248,126,156955,1,8,0:0:0:0:
256,128,157024,1,8,0:0:0:0:
288,96,157093,1,0,0:0:0:0:
256,96,157184,1,0,0:0:0:0:
256,96,157276,1,0,0:0:0:0:
256,96,157368,1,8,0:0:0:0:
256,128,157551,1,8,0:0:0:0:
256,96,157643,1,8,0:0:0:0:
256,64,157781,1,8,0:0:0:0:
288,96,157918,1,8,0:0:0:0:
256,64,158193,1,8,0:0:0:0:
256,64,158262,1,0,0:0:0:0:
256,96,158331,1,0,0:0:0:0:
256,64,158400,1,8,0:0:0:0:
256,64,158469,1,0,0:0:0:0:
256,96,158515,1,0,0:0:0:0:
256,96,158560,1,0,0:0:0:0:
256,96,158606,1,0,0:0:0:0:
256,96,158652,1,0,0:0:0:0:
256,96,158698,1,0,0:0:0:0:
256,96,158744,1,8,0:0:0:0:
256,96,159019,1,8,0:0:0:0:
256,96,159157,1,0,0:0:0:0:
256,96,159226,1,8,0:0:0:0:
256,96,159294,1,0,0:0:0:0:
256,96,159363,1,0,0:0:0:0:
256,96,159432,1,8,0:0:0:0:
256,96,159501,1,8,0:0:0:0:
256,96,159570,1,0,0:0:0:0:
256,96,159707,1,0,0:0:0:0:
224,96,159845,1,8,0:0:0:0:
224,96,159982,1,8,0:0:0:0:
256,96,160051,1,8,0:0:0:0:
256,96,160120,1,0,0:0:0:0:
256,96,160189,1,0,0:0:0:0:
256,96,160258,1,8,0:0:0:0:
224,96,160395,1,8,0:0:0:0:
224,96,160464,1,0,0:0:0:0:
224,96,160533,1,0,0:0:0:0:
224,96,160671,1,0,0:0:0:0:
256,96,160739,1,0,0:0:0:0:
224,96,160808,1,0,0:0:0:0:
224,96,160946,1,8,0:0:0:0:
224,96,161015,1,8,0:0:0:0:
224,96,161083,1,8,0:0:0:0:
224,96,161152,1,8,0:0:0:0:
224,96,161221,1,8,0:0:0:0:
224,64,161359,1,0,0:0:0:0:
224,64,161496,1,8,0:0:0:0:
224,64,161634,1,0,0:0:0:0:
224,64,161703,1,8,0:0:0:0:
224,64,161771,1,0,0:0:0:0:
224,64,161840,1,0,0:0:0:0:
224,64,161909,1,8,0:0:0:0:
224,64,162047,1,8,0:0:0:0:
224,64,162184,1,8,0:0:0:0:
224,64,162322,1,0,0:0:0:0:
224,64,162391,1,0,0:0:0:0:
224,64,162459,1,0,0:0:0:0:
224,64,162597,1,0,0:0:0:0:
224,64,162666,1,0,0:0:0:0:
224,64,162735,1,0,0:0:0:0:
224,64,162872,1,8,0:0:0:0:
224,64,163010,1,0,0:0:0:0:
224,64,163079,1,8,0:0:0:0:
224,64,163148,1,0,0:0:0:0:
224,64,163216,1,0,0:0:0:0:
224,64,163285,1,8,0:0:0:0:
224,64,163423,1,8,0:0:0:0:
224,64,163560,1,0,0:0:0:0:
224,64,163698,1,8,0:0:0:0:
224,64,163836,1,8,0:0:0:0:
224,64,163973,1,8,0:0:0:0:
224,64,164042,1,0,0:0:0:0:
224,64,164111,1,0,0:0:0:0:
224,64,164248,1,0,0:0:0:0:
224,64,164317,1,0,0:0:0:0:
224,64,164386,1,0,0:0:0:0:
224,64,164455,1,0,0:0:0:0:
224,64,164524,1,0,0:0:0:0:
224,64,164661,1,0,0:0:0:0:
224,64,164730,1,0,0:0:0:0:
224,64,164799,1,8,0:0:0:0:
224,64,164937,1,0,0:0:0:0:
224,64,165005,1,8,0:0:0:0:
224,64,165074,1,0,0:0:0:0:
224,64,165143,1,0,0:0:0:0:
224,64,165212,1,8,0:0:0:0:
224,64,165349,1,0,0:0:0:0:
224,64,165418,1,8,0:0:0:0:
224,64,165487,1,8,0:0:0:0:
224,64,165625,1,0,0:0:0:0:
224,64,165693,1,0,0:0:0:0:
224,64,165762,1,8,0:0:0:0:
224,64,165900,1,0,0:0:0:0:
224,64,166037,1,0,0:0:0:0:
224,64,166175,1,8,0:0:0:0:
224,64,166313,1,8,0:0:0:0:
256,64,166382,1,8,0:0:0:0:
224,64,166450,1,0,0:0:0:0:
224,64,166519,1,0,0:0:0:0:
224,64,166588,1,8,0:0:0:0:
224,64,166726,1,8,0:0:0:0:
224,64,166863,1,8,0:0:0:0:
224,64,167001,1,8,0:0:0:0:
256,64,167070,1,8,0:0:0:0:
256,64,167138,1,8,0:0:0:0:
256,64,167207,1,8,0:0:0:0:
256,64,167276,1,0,0:0:0:0:
256,64,167345,1,0,0:0:0:0:
256,64,167414,1,0,0:0:0:0:
256,64,167482,1,0,0:0:0:0:
256,64,167551,1,8,0:0:0:0:
288,96,167597,1,8,0:0:0:0:
256,96,167643,1,8,0:0:0:0:
256,96,167689,1,8,0:0:0:0:
256,96,167735,1,8,0:0:0:0:
256,96,167781,1,8,0:0:0:0:
256,96,167826,1,0,0:0:0:0:
256,128,167964,1,0,0:0:0:0:
256,128,168033,1,0,0:0:0:0:
288,96,168102,1,8,0:0:0:0:
288,96,168239,1,0,0:0:0:0:
288,96,168308,1,8,0:0:0:0:
288,96,168377,1,0,0:0:0:0:
288,96,168446,1,0,0:0:0:0:
288,96,168515,1,8,0:0:0:0:
288,96,168652,1,0,0:0:0:0:
288,96,168721,1,0,0:0:0:0:
288,96,168790,1,0,0:0:0:0:
288,96,168927,1,0,0:0:0:0:
288,96,168996,1,0,0:0:0:0:
288,96,169065,1,0,0:0:0:0:
288,96,169203,1,0,0:0:0:0:
288,96,169340,1,0,0:0:0:0:
288,96,169478,1,8,0:0:0:0:
288,96,169615,1,0,0:0:0:0:
288,96,169684,1,0,0:0:0:0:
288,96,169753,1,8,0:0:0:0:
288,96,169891,1,8,0:0:0:0:
288,96,169959,1,0,0:0:0:0:
288,96,170028,1,0,0:0:0:0:
288,96,170097,1,0,0:0:0:0:
288,96,170166,1,8,0:0:0:0:
288,96,170304,1,8,0:0:0:0:
288,96,170441,1,8,0:0:0:0:
288,96,170579,1,8,0:0:0:0:
288,96,170625,1,8,0:0:0:0:
288,96,170671,1,0,0:0:0:0:
288,96,170716,1,0,0:0:0:0:
320,96,170854,1,8,0:0:0:0:
320,96,170992,1,8,0:0:0:0:
320,96,171129,1,0,0:0:0:0:
320,96,171267,1,0,0:0:0:0:
320,96,171336,1,0,0:0:0:0:
320,96,171404,1,8,0:0:0:0:
320,96,171542,1,0,0:0:0:0:
320,96,171611,1,8,0:0:0:0:
320,96,171680,1,0,0:0:0:0:
320,96,171748,1,0,0:0:0:0:
320,96,171817,1,8,0:0:0:0:
320,96,171955,1,0,0:0:0:0:
320,96,172093,1,8,0:0:0:0:
320,96,172161,1,8,0:0:0:0:
320,96,172230,1,0,0:0:0:0:
320,96,172299,1,0,0:0:0:0:
320,96,172368,1,8,0:0:0:0:
320,96,172505,1,8,0:0:0:0:
320,96,172574,1,8,0:0:0:0:
320,96,172643,1,8,0:0:0:0:
320,96,172712,1,8,0:0:0:0:
320,96,172781,1,0,0:0:0:0:
288,128,172872,1,0,0:0:0:0:
288,128,172964,1,0,0:0:0:0:
320,96,173056,1,8,0:0:0:0:
320,64,173239,1,8,0:0:0:0:
320,64,173331,1,8,0:0:0:0:
320,96,173469,1,8,0:0:0:0:
320,96,173606,1,0,0:0:0:0:
320,96,173882,1,8,0:0:0:0:
320,96,174019,1,0,0:0:0:0:
320,96,174088,1,8,0:0:0:0:
320,96,174157,1,0,0:0:0:0:
320,96,174226,1,0,0:0:0:0:
320,96,174294,1,8,0:0:0:0:
256,160,174432,1,4,0:0:0:0:
256,128,174570,1,0,0:0:0:0:
256,128,174707,1,8,0:0:0:0:
256,128,174845,1,0,0:0:0:0:
256,128,174914,1,8,0:0:0:0:
256,128,174982,1,0,0:0:0:0:
256,128,175051,1,0,0:0:0:0:
256,128,175120,1,8,0:0:0:0:
256,128,175258,1,8,0:0:0:0:
256,128,175395,1,8,0:0:0:0:
256,128,175533,1,8,0:0:0:0:
288,96,175579,1,8,0:0:0:0:
256,128,175625,1,0,0:0:0:0:
256,128,175671,1,0,0:0:0:0:
288,128,175808,1,8,0:0:0:0:
288,128,175946,1,8,0:0:0:0:
288,128,176083,1,0,0:0:0:0:
288,128,176359,1,8,0:0:0:0:
288,96,176496,1,8,0:0:0:0:
256,96,176565,1,8,0:0:0:0:
256,96,176634,1,0,0:0:0:0:
256,96,176703,1,0,0:0:0:0:
256,96,176771,1,8,0:0:0:0:
256,96,176909,1,8,0:0:0:0:
256,96,177047,1,8,0:0:0:0:
256,96,177184,1,4,0:0:0:0:
256,96,177459,1,0,0:0:0:0:
256,96,177494,1,0,0:0:0:0:
224,96,177597,1,0,0:0:0:0:
256,96,177632,1,0,0:0:0:0:
256,96,177735,1,8,0:0:0:0:
256,96,177872,1,0,0:0:0:0:
256,96,177941,1,8,0:0:0:0:
256,96,178010,1,0,0:0:0:0:
256,96,178079,1,0,0:0:0:0:
256,96,178148,1,8,0:0:0:0:
256,96,178285,1,8,0:0:0:0:
256,96,178423,1,0,0:0:0:0:
256,96,178560,1,8,0:0:0:0:
256,96,178698,1,8,0:0:0:0:
256,96,178767,1,8,0:0:0:0:
256,96,178836,1,0,0:0:0:0:
256,96,179111,1,0,0:0:0:0:
256,96,179180,1,0,0:0:0:0:
256,96,179248,1,0,0:0:0:0:
256,96,179317,1,0,0:0:0:0:
256,96,179386,1,8,0:0:0:0:
256,96,179524,1,0,0:0:0:0:
256,96,179661,1,8,0:0:0:0:
256,96,179799,1,8,0:0:0:0:
256,96,179868,1,0,0:0:0:0:
256,96,179937,1,0,0:0:0:0:
256,96,180005,1,0,0:0:0:0:
256,96,180074,1,8,0:0:0:0:
256,96,180212,1,0,0:0:0:0:
256,96,180281,1,0,0:0:0:0:
256,96,180349,1,0,0:0:0:0:
256,96,180487,1,0,0:0:0:0:
256,96,180556,1,0,0:0:0:0:
256,96,180625,1,0,0:0:0:0:
256,96,180762,1,0,0:0:0:0:
256,96,180900,1,0,0:0:0:0:
256,96,181037,1,8,0:0:0:0:
256,96,181175,1,0,0:0:0:0:
256,96,181244,1,8,0:0:0:0:
256,96,181313,1,0,0:0:0:0:
256,96,181382,1,0,0:0:0:0:
256,96,181450,1,8,0:0:0:0:
256,96,181588,1,8,0:0:0:0:
256,96,181726,1,8,0:0:0:0:
256,96,181863,1,8,0:0:0:0:
256,96,181932,1,8,0:0:0:0:
256,96,182001,1,8,0:0:0:0:
256,96,182070,1,8,0:0:0:0:
256,96,182138,1,0,0:0:0:0:
256,96,182207,1,0,0:0:0:0:
256,96,182276,1,0,0:0:0:0:
256,96,182345,1,0,0:0:0:0:
256,96,182414,1,8,0:0:0:0:
256,96,182459,1,8,0:0:0:0:
256,96,182505,1,8,0:0:0:0:
256,96,182551,1,8,0:0:0:0:
256,96,182597,1,8,0:0:0:0:
256,96,182643,1,8,0:0:0:0:
288,96,182689,1,0,0:0:0:0:
288,96,182826,1,0,0:0:0:0:
288,96,182895,1,0,0:0:0:0:
288,96,182964,1,8,0:0:0:0:
288,96,183102,1,0,0:0:0:0:
288,96,183171,1,8,0:0:0:0:
288,96,183239,1,0,0:0:0:0:
288,96,183308,1,0,0:0:0:0:
288,96,183377,1,8,0:0:0:0:
288,96,183515,1,0,0:0:0:0:
288,96,183583,1,0,0:0:0:0:
288,96,183652,1,0,0:0:0:0:
288,96,183790,1,0,0:0:0:0:
288,96,183859,1,0,0:0:0:0:
288,96,183927,1,0,0:0:0:0:
288,96,184065,1,8,0:0:0:0:
256,96,184111,1,8,0:0:0:0:
256,96,184157,1,8,0:0:0:0:
288,96,184203,1,0,0:0:0:0:
288,96,184340,1,4,0:0:0:0:
288,96,184615,1,8,0:0:0:0:
288,96,184753,1,0,0:0:0:0:
288,96,184822,1,8,0:0:0:0:
288,96,184891,1,0,0:0:0:0:
288,96,184959,1,0,0:0:0:0:
288,96,185028,1,8,0:0:0:0:
288,96,185166,1,8,0:0:0:0:
288,96,185304,1,8,0:0:0:0:
288,96,185441,1,8,0:0:0:0:
288,96,185487,1,8,0:0:0:0:
288,96,185533,1,0,0:0:0:0:
288,96,185579,1,0,0:0:0:0:
320,96,185716,1,8,0:0:0:0:
320,96,185854,1,8,0:0:0:0:
320,96,185992,1,0,0:0:0:0:
320,96,186129,1,0,0:0:0:0:
320,96,186198,1,0,0:0:0:0:
320,96,186267,1,8,0:0:0:0:
320,96,186404,1,0,0:0:0:0:
320,96,186473,1,8,0:0:0:0:
320,96,186542,1,0,0:0:0:0:
320,96,186611,1,0,0:0:0:0:
320,96,186680,1,8,0:0:0:0:
320,96,186817,1,0,0:0:0:0:
320,96,186886,1,0,0:0:0:0:
320,96,186955,1,0,0:0:0:0:
320,96,187093,1,0,0:0:0:0:
320,96,187161,1,0,0:0:0:0:
320,96,187230,1,0,0:0:0:0:
320,96,187368,1,8,0:0:0:0:
320,96,187437,1,8,0:0:0:0:
320,96,187505,1,8,0:0:0:0:
320,96,187574,1,8,0:0:0:0:
320,96,187641,1,0,0:0:0:0:
288,96,187942,1,0,0:0:0:0:
288,96,188217,1,8,0:0:0:0:
288,96,188493,1,8,0:0:0:0:
288,96,188768,1,8,0:0:0:0:
288,96,189043,1,0,0:0:0:0:
288,96,189318,1,8,0:0:0:0:
288,96,189869,1,0,0:0:0:0:
288,96,190144,1,0,0:0:0:0:
288,96,190695,1,0,0:0:0:0:
288,96,190970,1,0,0:0:0:0:
288,96,191245,1,0,0:0:0:0:
288,96,191520,1,8,0:0:0:0:
288,96,191795,1,8,0:0:0:0:
288,96,192071,1,8,0:0:0:0:
288,96,192346,1,0,0:0:0:0:
288,96,192621,1,8,0:0:0:0:
288,96,193172,1,0,0:0:0:0:
288,96,193447,1,8,0:0:0:0:
288,96,194272,1,4,0:0:0:0:
288,96,194548,1,0,0:0:0:0:
288,96,194823,1,8,0:0:0:0:
288,96,195098,1,8,0:0:0:0:
288,96,195373,1,8,0:0:0:0:
288,96,195649,1,0,0:0:0:0:
288,96,195924,1,8,0:0:0:0:
288,64,196474,1,0,0:0:0:0:
288,96,196750,1,0,0:0:0:0:
288,96,197300,1,0,0:0:0:0:
288,96,197575,1,0,0:0:0:0:
288,96,197850,1,0,0:0:0:0:
288,96,198126,1,8,0:0:0:0:
288,96,198401,1,8,0:0:0:0:
288,96,198676,1,8,0:0:0:0:
288,96,198951,1,0,0:0:0:0:
288,96,199227,1,8,0:0:0:0:
288,96,199777,1,0,0:0:0:0:
288,96,200052,1,8,0:0:0:0:
288,96,200878,1,0,0:0:0:0:
288,96,201153,1,0,0:0:0:0:
288,96,201428,1,8,0:0:0:0:
288,96,201704,1,8,0:0:0:0:
288,96,201979,1,8,0:0:0:0:
288,96,202254,1,0,0:0:0:0:
288,96,202529,1,8,0:0:0:0:
288,96,203080,1,0,0:0:0:0:
288,96,203355,1,0,0:0:0:0:
288,96,203906,1,0,0:0:0:0:
288,96,204181,1,0,0:0:0:0:
288,96,204456,1,0,0:0:0:0:
288,96,204731,1,8,0:0:0:0:
288,96,205006,1,8,0:0:0:0:
288,96,205282,1,8,0:0:0:0:
288,96,205557,1,0,0:0:0:0:
288,96,205832,1,8,0:0:0:0:
288,96,206383,1,0,0:0:0:0:
288,96,206658,1,8,0:0:0:0:
288,96,207483,1,0,0:0:0:0:
288,96,207759,1,0,0:0:0:0:
288,96,208034,1,8,0:0:0:0:
288,96,208309,1,8,0:0:0:0:
288,64,208584,1,8,0:0:0:0:
288,64,208860,1,0,0:0:0:0:
256,128,209135,1,8,0:0:0:0:
256,128,209685,1,0,0:0:0:0:
256,128,209961,1,0,0:0:0:0:
256,128,210511,1,0,0:0:0:0:
256,128,210786,1,0,0:0:0:0:
256,128,211061,1,0,0:0:0:0:
256,128,211337,1,8,0:0:0:0:
256,128,211612,1,8,0:0:0:0:
256,128,211887,1,8,0:0:0:0:
256,128,212162,1,0,0:0:0:0:
256,128,212438,1,8,0:0:0:0:
256,128,212988,1,0,0:0:0:0:
256,128,213263,1,8,0:0:0:0:
256,192,214089,12,8,215603,0:0:0:0:
