osu file format v14

[General]
AudioFilename: audio.mp3
AudioLeadIn: 0
PreviewTime: 31629
Countdown: 1
SampleSet: Soft
StackLeniency: 0.7
Mode: 0
LetterboxInBreaks: 0
WidescreenStoryboard: 0

[Editor]
DistanceSpacing: 0.5
BeatDivisor: 4
GridSize: 8
TimelineZoom: 1.3

[Metadata]
Title:osu!memories 2
TitleUnicode:osu!memories 2
Artist:SakiZ feat. Beasttrollmc
ArtistUnicode:SakiZ feat. Beasttrollmc
Creator:LanExtremophile
Version:XD
Source:
Tags:
BeatmapID:1982032
BeatmapSetID:949161

[Difficulty]
HPDrainRate:4
CircleSize:4.5
OverallDifficulty:7
ApproachRate:9.2
SliderMultiplier:1.5
SliderTickRate:1

[Events]
//Background and Video events
Video,0,"osu!memories 2.mp4"
0,0,"maxresdefault (14).jpg",0,0
//Break Periods
//Storyboard Layer 0 (Background)
//Storyboard Layer 1 (Fail)
//Storyboard Layer 2 (Pass)
//Storyboard Layer 3 (Foreground)
//Storyboard Sound Samples

[TimingPoints]
95,375,4,2,0,100,1,0
10595,344.827586206897,4,2,0,100,1,0
32663,342.857142857143,4,2,0,100,1,0
33005,-66.6666666666667,4,2,0,100,0,0
42605,-50,4,2,0,100,0,0
43291,-66.6666666666667,4,2,0,100,0,0
43463,-100,4,2,0,100,0,0
43634,-133.333333333333,4,2,0,100,0,0
43977,-50,4,2,0,100,0,0
54948,-83.3333333333333,4,2,0,100,0,0
57691,-66.6666666666667,4,2,0,100,0,0

[HitObjects]
100,93,95,5,0,0:0:0:0:
100,93,470,1,0,0:0:0:0:
168,175,657,1,0,0:0:0:0:
203,186,751,1,0,0:0:0:0:
240,181,845,1,0,0:0:0:0:
270,159,938,1,0,0:0:0:0:
305,145,1032,2,0,P|347:141|390:159,1,75
439,215,1407,5,0,0:0:0:0:
439,215,1782,1,0,0:0:0:0:
350,274,2157,1,0,0:0:0:0:
313,283,2251,1,0,0:0:0:0:
276,273,2345,1,0,0:0:0:0:
251,244,2438,1,0,0:0:0:0:
249,206,2532,2,0,P|265:149|258:128,1,75
192,57,2907,5,0,0:0:0:0:
192,57,3282,1,0,0:0:0:0:
118,126,3657,5,0,0:0:0:0:
98,158,3751,1,0,0:0:0:0:
98,195,3845,2,0,P|105:227|121:246,1,37.5
142,244,4032,2,0,P|186:252|209:245,1,37.5
212,236,4220,5,0,0:0:0:0:
236,207,4313,1,0,0:0:0:0:
269,189,4407,1,0,0:0:0:0:
306,192,4501,1,0,0:0:0:0:
339,209,4595,1,0,0:0:0:0:
357,241,4688,1,0,0:0:0:0:
347,277,4782,2,0,P|320:302|296:310,1,37.5
141,214,5157,2,0,L|136:264,1,37.5
79,83,5532,5,0,0:0:0:0:
79,83,5907,1,0,0:0:0:0:
190,142,6282,1,0,0:0:0:0:
226,149,6376,1,0,0:0:0:0:
263,143,6470,2,0,P|319:117|335:91,1,75
404,45,6845,5,0,0:0:0:0:
404,45,7220,1,0,0:0:0:0:
375,128,7595,1,0,0:0:0:0:
365,164,7688,1,0,0:0:0:0:
356,200,7782,1,0,0:0:0:0:
347,236,7876,1,0,0:0:0:0:
333,271,7970,2,0,P|276:300|248:297,1,75
148,264,8345,5,0,0:0:0:0:
148,264,8532,1,0,0:0:0:0:
117,138,8720,1,0,0:0:0:0:
117,138,8907,1,0,0:0:0:0:
230,177,9095,1,0,0:0:0:0:
266,184,9188,1,0,0:0:0:0:
303,179,9282,2,0,P|369:144|383:125,1,75
225,79,9657,5,0,0:0:0:0:
200,107,9751,1,0,0:0:0:0:
190,143,9845,2,0,P|183:181|188:213,1,37.5
204,210,10032,1,0,0:0:0:0:
231,236,10126,1,0,0:0:0:0:
226,273,10220,2,0,P|192:313|168:318,1,75
44,243,10595,2,0,L|130:220,1,75
234,197,10939,6,0,P|275:152|283:111,1,75
166,59,11284,2,0,P|125:104|117:145,1,75
139,270,11629,5,0,0:0:0:0:
163,261,11715,1,0,0:0:0:0:
188,252,11801,1,0,0:0:0:0:
295,128,11974,5,0,0:0:0:0:
270,136,12060,1,0,0:0:0:0:
245,145,12146,1,0,0:0:0:0:
97,175,12319,6,0,P|107:139|131:110,1,75
247,69,12663,1,0,0:0:0:0:
247,69,12750,1,0,0:0:0:0:
247,69,12836,1,0,0:0:0:0:
306,233,13008,1,0,0:0:0:0:
280,160,13181,1,0,0:0:0:0:
354,376,13353,1,0,0:0:0:0:
328,303,13526,1,0,0:0:0:0:
280,160,13698,6,0,L|246:67,1,75
168,148,14043,2,0,P|109:146|77:125,1,75
37,191,14388,1,0,0:0:0:0:
23,118,14560,1,0,0:0:0:0:
64,1,14732,1,0,0:0:0:0:
78,74,14904,1,0,0:0:0:0:
108,235,15077,6,0,P|154:262|190:259,1,75
322,121,15422,2,0,P|276:94|240:97,1,75
203,187,15767,2,0,L|295:230,1,75
399,277,16112,5,0,0:0:0:0:
399,277,16198,1,0,0:0:0:0:
399,277,16284,2,0,L|428:201,1,75
465,102,16629,6,0,P|472:59|486:31,1,75
379,89,16974,2,0,L|291:115,1,75
210,133,17319,1,0,0:0:0:0:
98,48,17491,1,0,0:0:0:0:
67,174,17663,1,0,0:0:0:0:
144,286,17836,6,0,P|203:316|240:318,1,75
399,218,18181,2,0,P|340:188|303:186,1,75
206,197,18526,1,0,0:0:0:0:
81,227,18698,1,0,0:0:0:0:
133,105,18870,1,0,0:0:0:0:
177,315,19042,1,0,0:0:0:0:
177,315,19215,6,0,P|229:278|248:239,1,75
290,158,19560,1,0,0:0:0:0:
287,128,19646,1,0,0:0:0:0:
284,98,19732,1,0,0:0:0:0:
169,150,19905,1,0,0:0:0:0:
171,179,19991,1,0,0:0:0:0:
174,209,20077,1,0,0:0:0:0:
272,295,20250,2,0,P|296:322|329:340,1,75
413,328,20595,6,0,P|437:284|422:231,1,75
299,131,20939,2,0,P|275:175|290:228,1,75
355,273,21284,2,0,L|260:287,1,75
145,298,21629,1,0,0:0:0:0:
145,298,21715,1,0,0:0:0:0:
145,298,21801,2,0,L|130:220,1,75
111,104,22146,5,0,0:0:0:0:
111,104,22319,2,0,P|174:119|203:114,1,75
305,103,22663,1,0,0:0:0:0:
262,286,22836,1,0,0:0:0:0:
419,206,23008,1,0,0:0:0:0:
179,183,23181,2,0,P|141:184|106:197,1,75
43,287,23526,5,0,0:0:0:0:
74,120,23698,1,0,0:0:0:0:
74,120,23784,1,0,0:0:0:0:
74,120,23870,2,0,L|155:108,1,75
258,93,24215,5,0,0:0:0:0:
192,294,24388,1,0,0:0:0:0:
224,193,24560,1,0,0:0:0:0:
284,10,24732,2,0,P|334:51|341:91,1,75
439,204,25077,2,0,P|403:257|364:267,1,75
260,376,25422,1,0,0:0:0:0:
260,376,25508,1,0,0:0:0:0:
260,376,25595,2,0,P|214:348|201:311,1,75
223,153,25939,5,0,0:0:0:0:
314,242,26112,2,0,P|375:248|404:219,1,75
468,100,26457,2,0,P|407:94|378:123,1,75
246,226,26801,2,0,L|188:288,1,75
143,340,27146,1,0,0:0:0:0:
115,208,27319,1,0,0:0:0:0:
90,82,27491,6,0,L|166:95,1,75
369,223,27836,2,0,L|293:210,1,75
143,180,28181,1,0,0:0:0:0:
11,156,28353,1,0,0:0:0:0:
213,191,28526,1,0,0:0:0:0:
81,167,28698,1,0,0:0:0:0:
88,282,28870,6,0,P|155:298|191:289,1,75
283,249,29215,1,0,0:0:0:0:
299,223,29301,1,0,0:0:0:0:
316,198,29387,1,0,0:0:0:0:
272,85,29560,1,0,0:0:0:0:
255,110,29646,1,0,0:0:0:0:
238,135,29732,1,0,0:0:0:0:
197,198,29905,1,0,0:0:0:0:
360,136,30077,1,0,0:0:0:0:
374,273,30250,6,0,L|387:358,1,75
261,283,30595,2,0,P|196:276|160:258,1,75
116,203,30939,1,0,0:0:0:0:
155,67,31112,1,0,0:0:0:0:
66,120,31284,1,0,0:0:0:0:
205,149,31457,1,0,0:0:0:0:
332,171,31629,6,0,P|373:167|406:150,1,75
428,27,31974,2,0,P|387:31|354:48,1,75
238,188,32319,6,0,P|179:188|149:168,1,75
115,55,32663,2,0,P|174:55|204:75,1,75
283,116,33005,2,0,B|321:185|321:185|298:226|298:226|348:317,1,225.000008583069
346,312,33691,5,0,0:0:0:0:
215,286,33863,2,0,P|145:257|104:193,1,112.500004291535
364,211,34205,2,0,P|434:182|475:118,1,112.500004291535
291,31,34548,5,0,0:0:0:0:
285,149,34720,2,0,L|281:276,1,112.500004291535
282,343,35063,5,0,0:0:0:0:
418,75,35234,1,0,0:0:0:0:
136,212,35405,1,0,0:0:0:0:
451,254,35577,1,0,0:0:0:0:
221,41,35748,1,0,0:0:0:0:
376,325,35920,1,0,0:0:0:0:
333,28,36091,1,0,0:0:0:0:
181,302,36262,1,0,0:0:0:0:
463,155,36434,1,0,0:0:0:0:
152,113,36605,1,0,0:0:0:0:
302,240,36777,5,0,0:0:0:0:
302,240,36948,1,0,0:0:0:0:
233,51,37120,1,0,0:0:0:0:
133,315,37291,1,0,0:0:0:0:
133,315,37463,1,0,0:0:0:0:
133,315,37634,2,0,P|235:304|272:276,1,112.500004291535
377,190,37977,5,0,0:0:0:0:
257,98,38148,1,0,0:0:0:0:
234,232,38320,1,0,0:0:0:0:
85,349,38491,6,0,B|104:227|104:227|165:209|165:209|195:35,1,337.500012874604
190,60,39177,1,0,0:0:0:0:
190,60,39348,2,0,P|262:93|306:101,1,112.500004291535
467,196,39691,2,0,P|395:228|351:236,1,112.500004291535
167,264,40034,5,0,0:0:0:0:
356,30,40205,1,0,0:0:0:0:
346,344,40376,1,0,0:0:0:0:
179,73,40548,1,0,0:0:0:0:
467,196,40719,1,0,0:0:0:0:
144,170,40891,1,0,0:0:0:0:
433,88,41062,1,0,0:0:0:0:
245,339,41233,1,0,0:0:0:0:
265,22,41405,1,0,0:0:0:0:
429,288,41576,1,0,0:0:0:0:
48,140,41748,1,0,0:0:0:0:
468,151,41920,1,0,0:0:0:0:
120,368,42091,1,0,0:0:0:0:
285,0,42263,1,0,0:0:0:0:
388,367,42434,1,0,0:0:0:0:
252,257,42605,5,0,0:0:0:0:
252,257,42691,1,0,0:0:0:0:
252,257,42777,2,0,L|203:184,1,75
147,96,42948,2,0,L|253:110,1,75
397,116,43120,1,0,0:0:0:0:
371,227,43291,6,0,L|355:304,1,56.2500021457673
228,221,43463,2,0,L|176:232,1,37.5
130,120,43634,2,0,P|89:111|66:83,1,56.2500021457673
212,177,43977,6,0,B|246:6|246:6|321:159|321:159|293:120|293:120|215:128,1,450
405,122,44663,2,0,B|485:169|478:90|466:18|380:22|380:22|421:267,1,450
31,318,45348,2,0,B|44:143|44:143|144:191|123:255|57:256|57:256|143:330,1,450
205,149,46034,2,0,B|289:145|289:145|245:149|245:149|257:334|257:334|214:337|214:337|325:329,1,450
367,137,46720,2,0,B|384:350|384:350|473:340,1,300
34,264,47405,6,0,B|30:155|30:155|110:151|110:151|30:154|30:154|27:60|27:60|127:55,1,450
249,137,48091,2,0,P|233:239|262:148,1,300
324,141,48777,2,0,P|308:243|337:152,1,300
381,73,49463,2,0,B|378:291|378:291|466:292,1,300
305,107,50148,2,0,B|275:86|228:83|192:85|154:138|172:192|206:225|235:201|296:183|306:221|330:263|324:294|288:343|240:358|172:342,1,450
95,192,52205,6,0,L|257:225,1,150
377,247,52548,1,0,0:0:0:0:
239,131,52891,1,0,0:0:0:0:
175,172,53063,1,0,0:0:0:0:
152,244,53234,1,0,0:0:0:0:
187,309,53405,1,0,0:0:0:0:
235,234,53577,6,0,L|117:118,1,150
27,33,53920,1,0,0:0:0:0:
81,206,54263,1,0,0:0:0:0:
156,206,54435,1,0,0:0:0:0:
215,159,54606,1,0,0:0:0:0:
221,85,54777,1,0,0:0:0:0:
298,104,54948,6,0,P|315:153|356:159,1,89.9999972534181
348,231,55291,2,0,P|307:245|298:288,1,89.9999972534181
222,320,55634,2,0,L|144:230,1,89.9999972534181
163,132,55977,2,0,L|222:64,1,89.9999972534181
295,147,56320,6,0,P|368:149|407:129,1,89.9999972534181
434,86,56663,1,0,0:0:0:0:
217,237,57005,2,0,P|144:235|105:255,1,89.9999972534181
78,298,57348,1,0,0:0:0:0:
160,152,57691,6,0,B|216:128|216:128|216:56,1,112.500004291535
296,76,58034,2,0,B|296:128|296:128|352:152,1,112.500004291535
400,248,58377,2,0,P|328:280|280:272,1,112.500004291535
215,277,58720,2,0,P|160:276|112:248,1,112.500004291535
128,88,59063,6,0,L|224:160,1,112.500004291535
384,88,59405,2,0,L|288:160,1,112.500004291535
208,224,59748,2,0,L|117:291,1,112.500004291535
296,224,60090,2,0,L|386:291,1,112.500004291535
368,160,60434,6,0,P|336:96|288:72,1,112.500004291535
192,48,60777,2,0,L|192:176,1,112.500004291535
192,240,61120,2,0,L|192:368,1,112.500004291535
302,308,61463,2,0,P|347:275|368:224,1,112.500004291535
