osu file format v14

[General]
AudioFilename: audio.mp3
AudioLeadIn: 0
PreviewTime: -1
Countdown: 1
SampleSet: Normal
StackLeniency: 0.7
Mode: 0
LetterboxInBreaks: 0
WidescreenStoryboard: 0

[Editor]
DistanceSpacing: 1.1
BeatDivisor: 4
GridSize: 8
TimelineZoom: 1.492

[Metadata]
Title:osu!memories
TitleUnicode:osu!memories
Artist:SakiZ
ArtistUnicode:SakiZ
Creator:UltraKawaiiRita
Version:Throwback
Source:
Tags:
BeatmapID:1510891
BeatmapSetID:715062

[Difficulty]
HPDrainRate:10
CircleSize:5
OverallDifficulty:10
ApproachRate:10
SliderMultiplier:1.4
SliderTickRate:1

[Events]
//Background and Video events
0,0,"dLmgEhI.png",0,0
//Break Periods
2,158448,168465
2,169781,170465
2,172448,173131
2,175115,175798
2,179781,180465
2,182448,183131
2,190448,211131
2,222531,232465
2,339781,349798
2,411783,427133
//Storyboard Layer 0 (Background)
//Storyboard Layer 1 (Fail)
//Storyboard Layer 2 (Pass)
//Storyboard Layer 3 (Foreground)
//Storyboard Sound Samples

[TimingPoints]
0,-100,4,1,0,100,0,0
3582,333.333333333333,4,1,0,100,1,0
14249,-100,4,1,0,100,0,1
30249,-100,4,1,0,100,0,0
72915,-100,4,1,0,100,0,1
83581,-100,4,1,0,100,0,0
136915,-100,4,1,0,100,0,1
147581,-100,4,1,0,100,0,0
168915,-100,4,1,0,100,0,1
190248,-100,4,1,0,100,0,0
254248,-100,4,1,0,100,0,1
264915,-100,4,1,0,100,0,0
286248,-100,4,1,0,100,0,1
296915,-100,4,1,0,100,0,0
363583,250,4,1,0,100,1,1
379520,-100,4,1,0,100,0,0
379583,-100,4,1,0,100,0,1
395583,-100,4,1,0,100,0,0
427583,-100,4,1,0,100,0,1
463583,-100,4,1,0,100,0,0

[Colours]
Combo1 : 255,228,52
Combo2 : 255,0,0
Combo3 : 0,255,0
Combo4 : 0,0,255

[HitObjects]
256,192,0,12,0,1511,0:0:0:0:
96,192,3583,5,0,0:0:0:0:
160,80,3916,1,0,0:0:0:0:
192,224,4249,1,0,0:0:0:0:
256,96,4582,1,0,0:0:0:0:
320,240,4916,1,0,0:0:0:0:
384,96,5249,1,0,0:0:0:0:
448,240,5582,1,0,0:0:0:0:
480,96,5916,1,0,0:0:0:0:
128,304,6249,1,0,0:0:0:0:
288,112,6916,1,0,0:0:0:0:
400,304,7582,1,0,0:0:0:0:
128,160,8249,1,0,0:0:0:0:
416,112,8916,1,0,0:0:0:0:
144,288,9582,1,0,0:0:0:0:
256,96,10249,1,0,0:0:0:0:
320,304,10916,1,0,0:0:0:0:
176,352,11582,2,0,B|256:352|256:352|176:336|176:336|256:320|256:320|176:304|176:304|256:288|256:288|192:272|192:272|240:256|240:256|208:240|208:240|240:224|240:224|208:208|208:208|240:200|240:200|208:192|208:192|232:184|232:184|216:176|216:176|224:172|224:172|220:164|220:164|224:156|224:152|220:140|220:140|220:136|220:132|224:128|228:124|228:120|224:112|224:112|224:108|224:104|224:100|228:96|228:92|228:88|228:84|224:80|224:80|216:76|216:76|216:72|216:72|220:64|232:64|236:60|240:56|240:52|236:48|236:44|232:44|224:44|224:44|212:40|208:40|208:32|212:28|220:28|228:24|232:24|240:24|240:16|236:16|228:12|220:12|216:12|208:12|204:8|200:4|204:4|208:0|216:0|220:0|224:4|232:4|232:4|236:0|236:0|128:40,1,1120
88,200,14416,1,0,0:0:0:0:
408,112,14582,1,0,0:0:0:0:
408,112,14666,1,0,0:0:0:0:
408,112,14749,1,0,0:0:0:0:
408,112,14832,1,0,0:0:0:0:
408,112,14916,1,0,0:0:0:0:
336,232,15249,1,0,0:0:0:0:
200,112,15582,1,0,0:0:0:0:
200,112,15666,1,0,0:0:0:0:
200,112,15749,1,0,0:0:0:0:
200,112,15832,1,0,0:0:0:0:
200,112,15916,1,0,0:0:0:0:
264,248,16082,1,0,0:0:0:0:
312,128,16249,1,0,0:0:0:0:
312,128,16332,1,0,0:0:0:0:
312,128,16416,1,0,0:0:0:0:
312,128,16499,1,0,0:0:0:0:
312,128,16582,1,0,0:0:0:0:
312,128,16666,1,0,0:0:0:0:
224,288,16916,2,0,P|240:304|392:256,2,210
48,224,18249,1,0,0:0:0:0:
128,160,18416,1,0,0:0:0:0:
120,256,18582,1,0,0:0:0:0:
200,192,18749,1,0,0:0:0:0:
192,288,18916,1,0,0:0:0:0:
272,216,19082,1,0,0:0:0:0:
272,304,19249,1,0,0:0:0:0:
352,232,19416,1,0,0:0:0:0:
391,297,19582,1,0,0:0:0:0:
429,299,19666,1,0,0:0:0:0:
452,268,19749,1,0,0:0:0:0:
462,231,19832,1,0,0:0:0:0:
456,192,19916,1,0,0:0:0:0:
442,156,19999,1,0,0:0:0:0:
419,124,20082,1,0,0:0:0:0:
387,101,20166,1,0,0:0:0:0:
351,85,20249,1,0,0:0:0:0:
312,83,20332,1,0,0:0:0:0:
273,90,20416,1,0,0:0:0:0:
241,111,20499,1,0,0:0:0:0:
213,138,20582,1,0,0:0:0:0:
188,168,20666,1,0,0:0:0:0:
176,204,20749,1,0,0:0:0:0:
178,242,20832,1,0,0:0:0:0:
182,280,20916,1,0,0:0:0:0:
164,314,20999,1,0,0:0:0:0:
126,323,21082,1,0,0:0:0:0:
87,320,21166,1,0,0:0:0:0:
56,297,21249,1,0,0:0:0:0:
34,265,21332,1,0,0:0:0:0:
18,229,21416,1,0,0:0:0:0:
16,190,21499,1,0,0:0:0:0:
26,153,21582,1,0,0:0:0:0:
55,128,21666,1,0,0:0:0:0:
93,130,21749,1,0,0:0:0:0:
124,152,21832,1,0,0:0:0:0:
152,177,21916,1,0,0:0:0:0:
187,190,21999,1,0,0:0:0:0:
225,188,22082,1,0,0:0:0:0:
260,171,22166,1,0,0:0:0:0:
288,145,22249,1,0,0:0:0:0:
317,120,22332,1,0,0:0:0:0:
355,113,22416,1,0,0:0:0:0:
392,119,22499,1,0,0:0:0:0:
427,134,22582,1,0,0:0:0:0:
453,162,22666,1,0,0:0:0:0:
468,196,22749,1,0,0:0:0:0:
462,233,22832,1,0,0:0:0:0:
442,266,22916,1,0,0:0:0:0:
408,284,22999,1,0,0:0:0:0:
372,297,23082,1,0,0:0:0:0:
333,301,23166,1,0,0:0:0:0:
294,298,23249,1,0,0:0:0:0:
261,278,23332,1,0,0:0:0:0:
236,248,23416,1,0,0:0:0:0:
218,213,23499,1,0,0:0:0:0:
203,177,23582,1,0,0:0:0:0:
195,139,23666,1,0,0:0:0:0:
200,100,23749,1,0,0:0:0:0:
215,64,23832,1,0,0:0:0:0:
203,26,23916,1,0,0:0:0:0:
165,19,23999,1,0,0:0:0:0:
127,24,24082,1,0,0:0:0:0:
94,45,24166,1,0,0:0:0:0:
84,82,24249,1,0,0:0:0:0:
80,120,24332,1,0,0:0:0:0:
81,158,24416,1,0,0:0:0:0:
93,194,24499,1,0,0:0:0:0:
119,221,24582,1,0,0:0:0:0:
150,243,24666,1,0,0:0:0:0:
185,257,24749,1,0,0:0:0:0:
223,258,24832,1,0,0:0:0:0:
258,242,24916,2,0,P|310:201|281:139,1,140
208,131,25416,2,0,P|172:116|179:191,1,140
226,234,25916,2,0,B|283:219|310:204|332:212|346:235|359:267|385:289|414:284|430:263|435:239|430:207|423:192|413:175|409:158|417:135|430:129|448:131|459:137|471:153|482:179|487:209|487:235|485:258|477:285|468:304|443:328|426:335|391:340|376:340|349:336|306:328|285:321|264:315|187:325|186:325,1,700
206,323,27916,1,0,0:0:0:0:
25,179,28082,2,0,P|34:115|122:102,1,140
200,240,28582,2,0,P|238:280|183:182,1,700
163,203,30332,21,0,0:0:0:0:
135,230,30416,1,0,0:0:0:0:
100,246,30499,1,0,0:0:0:0:
61,241,30582,1,0,0:0:0:0:
31,215,30666,1,0,0:0:0:0:
11,247,30749,1,0,0:0:0:0:
16,284,30832,1,0,0:0:0:0:
40,314,30916,1,0,0:0:0:0:
74,331,30999,1,0,0:0:0:0:
112,329,31082,1,0,0:0:0:0:
146,312,31166,1,0,0:0:0:0:
167,280,31249,1,0,0:0:0:0:
176,242,31332,1,0,0:0:0:0:
170,203,31416,1,0,0:0:0:0:
144,174,31499,1,0,0:0:0:0:
181,182,31582,1,0,0:0:0:0:
219,179,31666,1,0,0:0:0:0:
252,160,31749,1,0,0:0:0:0:
271,127,31832,1,0,0:0:0:0:
263,88,31916,1,0,0:0:0:0:
243,55,31999,1,0,0:0:0:0:
209,36,32082,1,0,0:0:0:0:
170,40,32166,1,0,0:0:0:0:
147,70,32249,1,0,0:0:0:0:
142,108,32332,1,0,0:0:0:0:
159,142,32416,1,0,0:0:0:0:
190,163,32499,1,0,0:0:0:0:
219,179,32582,1,0,0:0:0:0:
250,201,32666,1,0,0:0:0:0:
273,231,32749,1,0,0:0:0:0:
278,268,32832,1,0,0:0:0:0:
263,304,32916,1,0,0:0:0:0:
229,322,32999,1,0,0:0:0:0:
190,322,33082,1,0,0:0:0:0:
155,304,33166,1,0,0:0:0:0:
138,269,33249,1,0,0:0:0:0:
136,230,33332,1,0,0:0:0:0:
150,194,33416,1,0,0:0:0:0:
190,163,33499,1,0,0:0:0:0:
227,169,33582,1,0,0:0:0:0:
254,196,33666,1,0,0:0:0:0:
270,230,33749,1,0,0:0:0:0:
273,268,33832,1,0,0:0:0:0:
259,304,33916,1,0,0:0:0:0:
227,326,33999,1,0,0:0:0:0:
188,324,34082,1,0,0:0:0:0:
155,304,34166,1,0,0:0:0:0:
138,269,34249,1,0,0:0:0:0:
136,230,34332,1,0,0:0:0:0:
150,194,34416,1,0,0:0:0:0:
190,163,34499,1,0,0:0:0:0:
222,142,34582,1,0,0:0:0:0:
248,113,34666,1,0,0:0:0:0:
252,74,34749,1,0,0:0:0:0:
235,39,34832,1,0,0:0:0:0:
202,17,34916,1,0,0:0:0:0:
164,22,34999,1,0,0:0:0:0:
134,46,35082,1,0,0:0:0:0:
137,84,35166,1,0,0:0:0:0:
156,116,35249,1,0,0:0:0:0:
187,138,35332,1,0,0:0:0:0:
222,142,35416,1,0,0:0:0:0:
252,118,35499,1,0,0:0:0:0:
259,80,35582,1,0,0:0:0:0:
248,42,35666,1,0,0:0:0:0:
202,17,35749,1,0,0:0:0:0:
164,22,35832,1,0,0:0:0:0:
134,46,35916,1,0,0:0:0:0:
137,84,35999,1,0,0:0:0:0:
156,116,36082,1,0,0:0:0:0:
178,147,36166,1,0,0:0:0:0:
195,181,36249,1,0,0:0:0:0:
205,217,36332,1,0,0:0:0:0:
216,254,36416,1,0,0:0:0:0:
240,283,36499,1,0,0:0:0:0:
277,291,36582,1,0,0:0:0:0:
313,278,36666,1,0,0:0:0:0:
340,250,36749,1,0,0:0:0:0:
355,214,36832,1,0,0:0:0:0:
363,176,36916,1,0,0:0:0:0:
387,205,36999,1,0,0:0:0:0:
421,222,37082,1,0,0:0:0:0:
454,202,37166,1,0,0:0:0:0:
456,163,37249,1,0,0:0:0:0:
438,129,37332,1,0,0:0:0:0:
404,108,37416,1,0,0:0:0:0:
365,104,37499,1,0,0:0:0:0:
330,120,37582,1,0,0:0:0:0:
301,146,37666,1,0,0:0:0:0:
274,173,37749,1,0,0:0:0:0:
236,167,37832,1,0,0:0:0:0:
207,140,37916,1,0,0:0:0:0:
193,103,37999,1,0,0:0:0:0:
196,64,38082,1,0,0:0:0:0:
221,34,38166,1,0,0:0:0:0:
336,39,38332,1,0,0:0:0:0:
323,192,38499,1,0,0:0:0:0:
180,250,38666,1,0,0:0:0:0:
111,111,38832,1,0,0:0:0:0:
258,66,38999,1,0,0:0:0:0:
286,217,39166,1,0,0:0:0:0:
187,157,39332,1,0,0:0:0:0:
187,157,39499,1,0,0:0:0:0:
187,157,39666,2,0,L|281:157,3,70
295,160,40249,1,0,0:0:0:0:
329,177,40332,1,0,0:0:0:0:
352,207,40416,1,0,0:0:0:0:
364,243,40499,1,0,0:0:0:0:
358,280,40582,1,0,0:0:0:0:
337,313,40666,1,0,0:0:0:0:
299,321,40749,1,0,0:0:0:0:
262,308,40832,1,0,0:0:0:0:
231,283,40916,1,0,0:0:0:0:
256,192,41249,1,0,0:0:0:0:
256,192,41916,1,0,0:0:0:0:
112,80,42249,1,0,0:0:0:0:
400,80,42416,1,0,0:0:0:0:
112,80,42582,1,0,0:0:0:0:
400,80,42749,1,0,0:0:0:0:
112,80,42916,1,0,0:0:0:0:
400,80,43083,1,0,0:0:0:0:
256,80,43249,1,0,0:0:0:0:
256,192,43915,1,0,0:0:0:0:
256,192,44581,1,0,0:0:0:0:
256,304,44915,1,0,0:0:0:0:
256,248,45081,1,0,0:0:0:0:
256,304,45248,1,0,0:0:0:0:
256,248,45414,1,0,0:0:0:0:
256,304,45581,1,0,0:0:0:0:
256,248,45747,1,0,0:0:0:0:
256,272,45915,1,0,0:0:0:0:
486,279,46415,1,0,0:0:0:0:
475,242,46498,1,0,0:0:0:0:
455,208,46581,1,0,0:0:0:0:
431,177,46665,1,0,0:0:0:0:
395,162,46748,1,0,0:0:0:0:
358,172,46831,1,0,0:0:0:0:
329,198,46915,1,0,0:0:0:0:
298,221,46998,1,0,0:0:0:0:
261,232,47081,1,0,0:0:0:0:
222,227,47165,1,0,0:0:0:0:
189,207,47248,1,0,0:0:0:0:
169,174,47331,1,0,0:0:0:0:
165,135,47415,1,0,0:0:0:0:
177,98,47498,1,0,0:0:0:0:
209,77,47581,1,0,0:0:0:0:
247,75,47665,1,0,0:0:0:0:
283,86,47748,1,0,0:0:0:0:
310,112,47831,1,0,0:0:0:0:
326,146,47915,1,0,0:0:0:0:
328,184,47998,1,0,0:0:0:0:
306,215,48081,1,0,0:0:0:0:
273,235,48165,1,0,0:0:0:0:
235,240,48248,1,0,0:0:0:0:
197,231,48331,1,0,0:0:0:0:
165,208,48415,1,0,0:0:0:0:
139,179,48498,1,0,0:0:0:0:
122,144,48581,1,0,0:0:0:0:
114,105,48665,1,0,0:0:0:0:
112,66,48748,1,0,0:0:0:0:
129,32,48831,1,0,0:0:0:0:
162,12,48915,1,0,0:0:0:0:
199,20,48998,1,0,0:0:0:0:
225,47,49081,1,0,0:0:0:0:
245,79,49165,1,0,0:0:0:0:
270,107,49248,1,0,0:0:0:0:
307,112,49331,1,0,0:0:0:0:
338,89,49415,1,0,0:0:0:0:
356,55,49498,1,0,0:0:0:0:
389,36,49581,1,0,0:0:0:0:
426,45,49665,1,0,0:0:0:0:
457,67,49748,1,0,0:0:0:0:
478,98,49831,1,0,0:0:0:0:
488,135,49915,1,0,0:0:0:0:
482,172,49998,1,0,0:0:0:0:
461,204,50081,1,0,0:0:0:0:
434,232,50165,1,0,0:0:0:0:
399,248,50248,1,0,0:0:0:0:
361,254,50331,1,0,0:0:0:0:
322,251,50415,1,0,0:0:0:0:
286,236,50498,1,0,0:0:0:0:
254,214,50581,1,0,0:0:0:0:
229,183,50665,1,0,0:0:0:0:
217,146,50748,1,0,0:0:0:0:
219,107,50831,1,0,0:0:0:0:
238,73,50915,1,0,0:0:0:0:
272,56,50998,1,0,0:0:0:0:
310,51,51081,1,0,0:0:0:0:
348,58,51165,1,0,0:0:0:0:
381,76,51248,1,0,0:0:0:0:
404,106,51331,1,0,0:0:0:0:
417,142,51415,1,0,0:0:0:0:
419,180,51498,1,0,0:0:0:0:
312,192,51748,1,0,0:0:0:0:
200,192,51915,1,0,0:0:0:0:
312,192,52081,1,0,0:0:0:0:
200,192,52248,1,0,0:0:0:0:
312,192,52415,1,0,0:0:0:0:
200,192,52582,1,0,0:0:0:0:
256,192,52748,1,0,0:0:0:0:
256,136,53081,1,0,0:0:0:0:
256,248,53248,1,0,0:0:0:0:
256,136,53415,1,0,0:0:0:0:
256,248,53582,1,0,0:0:0:0:
256,136,53748,1,0,0:0:0:0:
256,248,53915,1,0,0:0:0:0:
256,192,54081,1,0,0:0:0:0:
200,136,54415,1,0,0:0:0:0:
312,248,54581,1,0,0:0:0:0:
200,136,54748,1,0,0:0:0:0:
312,248,54914,1,0,0:0:0:0:
200,136,55081,1,0,0:0:0:0:
312,248,55247,1,0,0:0:0:0:
256,192,55415,1,0,0:0:0:0:
312,136,55748,1,0,0:0:0:0:
200,248,55915,1,0,0:0:0:0:
312,136,56081,1,0,0:0:0:0:
200,248,56248,1,0,0:0:0:0:
312,136,56415,1,0,0:0:0:0:
200,248,56582,1,0,0:0:0:0:
256,192,56748,1,0,0:0:0:0:
102,197,57081,1,0,0:0:0:0:
118,162,57165,1,0,0:0:0:0:
140,130,57248,1,0,0:0:0:0:
169,105,57331,1,0,0:0:0:0:
203,86,57415,1,0,0:0:0:0:
240,77,57498,1,0,0:0:0:0:
278,74,57581,1,0,0:0:0:0:
316,74,57665,1,0,0:0:0:0:
353,79,57748,1,0,0:0:0:0:
389,91,57831,1,0,0:0:0:0:
423,109,57915,1,0,0:0:0:0:
447,138,57998,1,0,0:0:0:0:
465,171,58081,1,0,0:0:0:0:
474,208,58165,1,0,0:0:0:0:
474,246,58248,1,0,0:0:0:0:
468,284,58331,1,0,0:0:0:0:
451,319,58415,1,0,0:0:0:0:
423,345,58498,1,0,0:0:0:0:
389,364,58581,1,0,0:0:0:0:
350,370,58665,1,0,0:0:0:0:
311,367,58748,1,0,0:0:0:0:
276,349,58831,1,0,0:0:0:0:
253,317,58915,1,0,0:0:0:0:
238,281,58998,1,0,0:0:0:0:
234,242,59081,1,0,0:0:0:0:
232,203,59165,1,0,0:0:0:0:
231,164,59248,1,0,0:0:0:0:
204,191,59331,1,0,0:0:0:0:
170,211,59415,1,0,0:0:0:0:
131,213,59498,1,0,0:0:0:0:
93,202,59581,1,0,0:0:0:0:
64,175,59665,1,0,0:0:0:0:
51,138,59748,1,0,0:0:0:0:
53,99,59831,1,0,0:0:0:0:
72,65,59915,1,0,0:0:0:0:
107,50,59998,1,0,0:0:0:0:
145,44,60081,1,0,0:0:0:0:
183,50,60165,1,0,0:0:0:0:
217,65,60248,1,0,0:0:0:0:
243,92,60331,1,0,0:0:0:0:
258,127,60415,1,0,0:0:0:0:
274,92,60498,1,0,0:0:0:0:
293,59,60581,1,0,0:0:0:0:
323,35,60665,1,0,0:0:0:0:
361,30,60748,1,0,0:0:0:0:
398,38,60831,1,0,0:0:0:0:
431,57,60915,1,0,0:0:0:0:
455,86,60998,1,0,0:0:0:0:
465,122,61081,1,0,0:0:0:0:
468,160,61165,1,0,0:0:0:0:
466,198,61248,1,0,0:0:0:0:
450,233,61331,1,0,0:0:0:0:
424,262,61415,1,0,0:0:0:0:
393,285,61498,1,0,0:0:0:0:
357,299,61581,1,0,0:0:0:0:
318,302,61665,1,0,0:0:0:0:
280,293,61748,1,0,0:0:0:0:
255,263,61831,1,0,0:0:0:0:
221,282,61915,1,0,0:0:0:0:
183,287,61998,1,0,0:0:0:0:
145,277,62081,1,0,0:0:0:0:
113,254,62165,1,0,0:0:0:0:
89,223,62248,1,0,0:0:0:0:
256,192,62415,2,0,P|296:176|240:48,2,210
256,192,63748,2,0,L|32:192,2,210
256,192,65081,2,0,P|296:192|224:296,2,280
256,192,66748,1,0,0:0:0:0:
256,192,66915,1,0,0:0:0:0:
256,192,67081,1,0,0:0:0:0:
256,192,67248,1,0,0:0:0:0:
256,192,67415,1,0,0:0:0:0:
256,192,67581,12,0,71915,0:0:0:0:
40,192,72915,6,0,P|80:160|152:200,1,140
170,230,73331,1,0,0:0:0:0:
200,254,73415,1,0,0:0:0:0:
235,267,73498,1,0,0:0:0:0:
272,273,73581,1,0,0:0:0:0:
310,270,73665,1,0,0:0:0:0:
343,250,73748,1,0,0:0:0:0:
370,223,73831,1,0,0:0:0:0:
388,188,73915,1,0,0:0:0:0:
395,150,73998,1,0,0:0:0:0:
395,111,74081,1,0,0:0:0:0:
388,72,74165,1,0,0:0:0:0:
367,39,74248,1,0,0:0:0:0:
333,20,74331,1,0,0:0:0:0:
330,58,74415,1,0,0:0:0:0:
311,91,74498,1,0,0:0:0:0:
280,114,74581,1,0,0:0:0:0:
244,128,74665,1,0,0:0:0:0:
205,132,74748,1,0,0:0:0:0:
173,110,74831,1,0,0:0:0:0:
149,78,74915,1,0,0:0:0:0:
139,40,74998,1,0,0:0:0:0:
135,1,75081,1,0,0:0:0:0:
117,35,75165,1,0,0:0:0:0:
94,66,75248,1,0,0:0:0:0:
62,87,75331,1,0,0:0:0:0:
28,105,75415,1,0,0:0:0:0:
56,130,75498,1,0,0:0:0:0:
78,161,75581,1,0,0:0:0:0:
91,197,75665,1,0,0:0:0:0:
91,235,75748,1,0,0:0:0:0:
119,209,75831,1,0,0:0:0:0:
147,182,75915,1,0,0:0:0:0:
183,170,75998,1,0,0:0:0:0:
221,173,76081,1,0,0:0:0:0:
255,190,76165,1,0,0:0:0:0:
281,217,76248,1,0,0:0:0:0:
289,254,76331,1,0,0:0:0:0:
295,292,76415,1,0,0:0:0:0:
316,323,76498,1,0,0:0:0:0:
350,339,76581,1,0,0:0:0:0:
388,341,76665,1,0,0:0:0:0:
424,328,76748,1,0,0:0:0:0:
449,299,76831,1,0,0:0:0:0:
455,260,76915,1,0,0:0:0:0:
450,221,76998,1,0,0:0:0:0:
437,184,77081,1,0,0:0:0:0:
404,162,77165,1,0,0:0:0:0:
365,162,77248,1,0,0:0:0:0:
334,185,77331,1,0,0:0:0:0:
309,215,77415,1,0,0:0:0:0:
292,249,77498,1,0,0:0:0:0:
267,278,77581,1,0,0:0:0:0:
235,300,77665,1,0,0:0:0:0:
197,308,77748,1,0,0:0:0:0:
162,290,77831,1,0,0:0:0:0:
142,256,77915,1,0,0:0:0:0:
133,218,77998,1,0,0:0:0:0:
134,179,78081,1,0,0:0:0:0:
158,148,78165,1,0,0:0:0:0:
193,133,78248,1,0,0:0:0:0:
229,143,78331,1,0,0:0:0:0:
262,161,78415,1,0,0:0:0:0:
295,179,78498,1,0,0:0:0:0:
331,190,78581,1,0,0:0:0:0:
369,195,78665,1,0,0:0:0:0:
407,192,78748,1,0,0:0:0:0:
443,180,78831,1,0,0:0:0:0:
472,154,78915,1,0,0:0:0:0:
477,116,78998,1,0,0:0:0:0:
473,77,79081,1,0,0:0:0:0:
444,50,79165,1,0,0:0:0:0:
408,36,79248,1,0,0:0:0:0:
369,36,79331,1,0,0:0:0:0:
333,51,79415,1,0,0:0:0:0:
312,83,79498,1,0,0:0:0:0:
316,121,79581,1,0,0:0:0:0:
336,153,79665,1,0,0:0:0:0:
367,175,79748,1,0,0:0:0:0:
403,187,79831,1,0,0:0:0:0:
441,187,79915,1,0,0:0:0:0:
479,187,79998,2,0,L|463:279,1,70
447,289,80248,1,0,0:0:0:0:
421,317,80331,1,0,0:0:0:0:
382,323,80415,1,0,0:0:0:0:
343,324,80498,1,0,0:0:0:0:
306,313,80581,1,0,0:0:0:0:
274,290,80665,1,0,0:0:0:0:
247,261,80748,1,0,0:0:0:0:
227,228,80831,1,0,0:0:0:0:
214,191,80915,1,0,0:0:0:0:
231,156,80998,2,0,P|262:123|296:140,1,70
306,156,81248,1,0,0:0:0:0:
333,183,81331,1,0,0:0:0:0:
370,193,81415,1,0,0:0:0:0:
408,190,81498,1,0,0:0:0:0:
440,169,81581,1,0,0:0:0:0:
456,133,81665,1,0,0:0:0:0:
440,97,81748,1,0,0:0:0:0:
411,70,81831,1,0,0:0:0:0:
373,58,81915,1,0,0:0:0:0:
334,60,81998,1,0,0:0:0:0:
298,75,82081,1,0,0:0:0:0:
263,92,82165,1,0,0:0:0:0:
228,108,82248,2,0,P|192:131|224:212,1,140
244,238,82665,1,0,0:0:0:0:
262,271,82748,1,0,0:0:0:0:
269,308,82831,1,0,0:0:0:0:
266,346,82915,1,0,0:0:0:0:
240,374,82998,1,0,0:0:0:0:
221,340,83081,1,0,0:0:0:0:
198,308,83165,1,0,0:0:0:0:
163,291,83248,1,0,0:0:0:0:
124,287,83331,1,0,0:0:0:0:
89,303,83415,1,0,0:0:0:0:
58,279,83498,1,0,0:0:0:0:
64,241,83581,6,0,B|69:204|83:193|92:184|89:165|68:149|39:136|35:125|46:101|76:88|99:94,1,175
120,97,84081,1,0,0:0:0:0:
157,105,84165,1,0,0:0:0:0:
194,113,84248,1,0,0:0:0:0:
232,116,84331,1,0,0:0:0:0:
270,114,84415,1,0,0:0:0:0:
307,108,84498,1,0,0:0:0:0:
344,99,84581,1,0,0:0:0:0:
380,86,84665,1,0,0:0:0:0:
415,70,84748,1,0,0:0:0:0:
447,50,84831,1,0,0:0:0:0:
476,24,84915,1,0,0:0:0:0:
495,57,84998,1,0,0:0:0:0:
499,95,85081,1,0,0:0:0:0:
499,133,85165,1,0,0:0:0:0:
494,171,85248,1,0,0:0:0:0:
484,208,85331,1,0,0:0:0:0:
459,238,85415,1,0,0:0:0:0:
428,261,85498,1,0,0:0:0:0:
394,279,85581,1,0,0:0:0:0:
355,281,85665,1,0,0:0:0:0:
317,274,85748,1,0,0:0:0:0:
280,261,85831,1,0,0:0:0:0:
255,230,85915,1,0,0:0:0:0:
255,191,85998,1,0,0:0:0:0:
229,220,86081,1,0,0:0:0:0:
199,244,86165,1,0,0:0:0:0:
162,255,86248,1,0,0:0:0:0:
123,253,86331,1,0,0:0:0:0:
86,239,86415,1,0,0:0:0:0:
60,210,86498,1,0,0:0:0:0:
49,173,86581,1,0,0:0:0:0:
47,134,86665,1,0,0:0:0:0:
60,98,86748,1,0,0:0:0:0:
85,69,86831,1,0,0:0:0:0:
118,50,86915,1,0,0:0:0:0:
155,42,86998,1,0,0:0:0:0:
192,49,87081,1,0,0:0:0:0:
224,70,87165,1,0,0:0:0:0:
252,96,87248,1,0,0:0:0:0:
275,126,87331,1,0,0:0:0:0:
281,164,87415,1,0,0:0:0:0:
281,202,87498,1,0,0:0:0:0:
315,185,87581,1,0,0:0:0:0:
350,169,87665,1,0,0:0:0:0:
388,167,87748,1,0,0:0:0:0:
423,180,87831,1,0,0:0:0:0:
445,211,87915,1,0,0:0:0:0:
460,246,87998,1,0,0:0:0:0:
462,284,88081,1,0,0:0:0:0:
452,321,88165,1,0,0:0:0:0:
424,347,88248,1,0,0:0:0:0:
387,359,88331,1,0,0:0:0:0:
348,359,88415,1,0,0:0:0:0:
310,352,88498,1,0,0:0:0:0:
278,330,88581,1,0,0:0:0:0:
254,299,88665,1,0,0:0:0:0:
237,264,88748,1,0,0:0:0:0:
231,226,88831,1,0,0:0:0:0:
237,187,88915,2,0,P|252:150|129:108,1,210
94,167,89581,1,0,0:0:0:0:
85,204,89665,1,0,0:0:0:0:
87,242,89748,1,0,0:0:0:0:
98,278,89831,1,0,0:0:0:0:
121,309,89915,1,0,0:0:0:0:
151,332,89998,1,0,0:0:0:0:
188,341,90081,1,0,0:0:0:0:
226,343,90165,1,0,0:0:0:0:
264,338,90248,1,0,0:0:0:0:
299,323,90331,1,0,0:0:0:0:
330,300,90415,1,0,0:0:0:0:
354,270,90498,1,0,0:0:0:0:
369,235,90581,1,0,0:0:0:0:
375,196,90665,1,0,0:0:0:0:
339,209,90748,1,0,0:0:0:0:
301,215,90831,1,0,0:0:0:0:
262,213,90915,1,0,0:0:0:0:
229,192,90998,1,0,0:0:0:0:
217,155,91081,1,0,0:0:0:0:
224,116,91165,1,0,0:0:0:0:
248,86,91248,1,0,0:0:0:0:
286,81,91331,1,0,0:0:0:0:
324,78,91415,1,0,0:0:0:0:
361,87,91498,1,0,0:0:0:0:
394,104,91581,1,0,0:0:0:0:
414,136,91665,1,0,0:0:0:0:
422,173,91748,1,0,0:0:0:0:
414,210,91831,1,0,0:0:0:0:
392,242,91915,1,0,0:0:0:0:
363,267,91998,1,0,0:0:0:0:
328,283,92081,1,0,0:0:0:0:
289,287,92165,1,0,0:0:0:0:
251,281,92248,1,0,0:0:0:0:
226,251,92331,1,0,0:0:0:0:
208,216,92415,1,0,0:0:0:0:
200,178,92498,1,0,0:0:0:0:
198,139,92581,1,0,0:0:0:0:
227,113,92665,1,0,0:0:0:0:
263,102,92748,1,0,0:0:0:0:
300,96,92831,1,0,0:0:0:0:
337,85,92915,1,0,0:0:0:0:
368,63,92998,1,0,0:0:0:0:
397,38,93081,1,0,0:0:0:0:
425,64,93165,1,0,0:0:0:0:
443,97,93248,1,0,0:0:0:0:
452,134,93331,1,0,0:0:0:0:
450,172,93415,1,0,0:0:0:0:
443,209,93498,1,0,0:0:0:0:
425,243,93581,1,0,0:0:0:0:
399,272,93665,1,0,0:0:0:0:
365,289,93748,1,0,0:0:0:0:
327,297,93831,1,0,0:0:0:0:
288,292,93915,1,0,0:0:0:0:
255,271,93998,1,0,0:0:0:0:
227,244,94081,1,0,0:0:0:0:
202,213,94165,1,0,0:0:0:0:
189,176,94248,22,0,L|242:114,1,70
310,135,94581,2,0,L|397:160,1,70
346,225,94915,2,0,L|308:299,1,70
243,255,95248,2,0,L|164:195,1,70
184,135,95581,1,0,0:0:0:0:
320,63,95915,1,0,0:0:0:0:
449,145,96248,1,0,0:0:0:0:
357,268,96581,1,0,0:0:0:0:
256,192,96915,1,0,0:0:0:0:
256,128,97081,1,0,0:0:0:0:
192,128,97248,1,0,0:0:0:0:
192,192,97415,1,0,0:0:0:0:
256,192,97581,1,0,0:0:0:0:
256,128,97747,1,0,0:0:0:0:
192,128,97914,1,0,0:0:0:0:
192,192,98081,1,0,0:0:0:0:
224,160,98248,1,0,0:0:0:0:
261,166,98331,1,0,0:0:0:0:
297,179,98415,1,0,0:0:0:0:
326,203,98498,1,0,0:0:0:0:
345,236,98581,1,0,0:0:0:0:
357,272,98665,1,0,0:0:0:0:
356,310,98748,1,0,0:0:0:0:
338,343,98831,1,0,0:0:0:0:
306,366,98915,1,0,0:0:0:0:
269,376,98998,1,0,0:0:0:0:
231,368,99081,1,0,0:0:0:0:
210,335,99165,1,0,0:0:0:0:
205,296,99248,1,0,0:0:0:0:
210,258,99331,1,0,0:0:0:0:
227,223,99415,1,0,0:0:0:0:
254,195,99498,1,0,0:0:0:0:
284,171,99581,1,0,0:0:0:0:
304,137,99665,1,0,0:0:0:0:
312,99,99748,1,0,0:0:0:0:
307,60,99831,1,0,0:0:0:0:
293,23,99915,1,0,0:0:0:0:
255,13,99998,1,0,0:0:0:0:
221,31,100081,1,0,0:0:0:0:
201,64,100165,1,0,0:0:0:0:
210,101,100248,1,0,0:0:0:0:
230,133,100331,1,0,0:0:0:0:
253,163,100415,1,0,0:0:0:0:
277,192,100498,1,0,0:0:0:0:
294,226,100581,1,0,0:0:0:0:
305,263,100665,1,0,0:0:0:0:
305,301,100748,1,0,0:0:0:0:
272,320,100831,1,0,0:0:0:0:
233,318,100915,1,0,0:0:0:0:
204,292,100998,1,0,0:0:0:0:
187,257,101081,1,0,0:0:0:0:
181,218,101165,1,0,0:0:0:0:
188,180,101248,1,0,0:0:0:0:
205,146,101331,1,0,0:0:0:0:
230,117,101415,1,0,0:0:0:0:
264,101,101498,1,0,0:0:0:0:
302,96,101581,1,0,0:0:0:0:
340,100,101665,1,0,0:0:0:0:
376,112,101748,1,0,0:0:0:0:
405,136,101831,1,0,0:0:0:0:
428,166,101915,1,0,0:0:0:0:
443,201,101998,1,0,0:0:0:0:
447,239,102081,1,0,0:0:0:0:
442,277,102165,1,0,0:0:0:0:
415,304,102248,1,0,0:0:0:0:
380,321,102331,1,0,0:0:0:0:
341,325,102415,1,0,0:0:0:0:
302,321,102498,1,0,0:0:0:0:
269,300,102581,1,0,0:0:0:0:
259,262,102665,1,0,0:0:0:0:
253,224,102748,1,0,0:0:0:0:
260,186,102831,1,0,0:0:0:0:
278,151,102915,1,0,0:0:0:0:
282,112,102998,1,0,0:0:0:0:
259,80,103081,1,0,0:0:0:0:
222,65,103165,1,0,0:0:0:0:
184,73,103248,1,0,0:0:0:0:
151,92,103331,1,0,0:0:0:0:
123,119,103415,1,0,0:0:0:0:
102,151,103498,1,0,0:0:0:0:
103,189,103581,1,0,0:0:0:0:
196,311,103915,1,0,0:0:0:0:
300,198,104248,1,0,0:0:0:0:
186,93,104581,1,0,0:0:0:0:
32,352,104915,102,0,L|32:272,1,70
96,352,105248,2,0,L|96:280,1,70
160,352,105581,2,0,L|160:272,1,70
224,352,105914,2,0,L|224:280,1,70
480,32,106248,2,0,L|480:120,1,70
416,32,106581,2,0,L|416:120,1,70
352,32,106915,2,0,L|352:120,1,70
288,32,107248,2,0,L|288:120,1,70
256,192,107581,2,0,L|200:136,1,70
256,192,107915,2,0,L|312:136,1,70
256,192,108248,2,0,L|200:248,1,70
256,192,108581,2,0,L|312:248,1,70
256,192,108915,2,0,L|256:264,1,70
256,192,109248,2,0,L|256:112,1,70
256,192,109581,2,0,L|168:192,1,70
256,192,109915,2,0,L|336:192,1,70
401,205,110248,1,0,0:0:0:0:
424,235,110331,1,0,0:0:0:0:
440,270,110415,1,0,0:0:0:0:
446,307,110498,1,0,0:0:0:0:
478,286,110581,1,0,0:0:0:0:
510,264,110665,1,0,0:0:0:0:
495,228,110748,1,0,0:0:0:0:
472,196,110831,1,0,0:0:0:0:
462,158,110915,1,0,0:0:0:0:
464,119,110998,1,0,0:0:0:0:
474,82,111081,1,0,0:0:0:0:
507,61,111165,1,0,0:0:0:0:
472,44,111248,1,0,0:0:0:0:
433,41,111331,1,0,0:0:0:0:
394,47,111415,1,0,0:0:0:0:
359,62,111498,1,0,0:0:0:0:
334,91,111581,1,0,0:0:0:0:
315,124,111665,1,0,0:0:0:0:
306,161,111748,1,0,0:0:0:0:
302,199,111831,1,0,0:0:0:0:
272,173,111915,1,0,0:0:0:0:
241,149,111998,1,0,0:0:0:0:
205,135,112081,1,0,0:0:0:0:
166,129,112165,1,0,0:0:0:0:
127,133,112248,1,0,0:0:0:0:
90,144,112331,1,0,0:0:0:0:
58,167,112415,1,0,0:0:0:0:
43,202,112498,1,0,0:0:0:0:
38,240,112581,1,0,0:0:0:0:
45,278,112665,1,0,0:0:0:0:
66,309,112748,1,0,0:0:0:0:
97,330,112831,1,0,0:0:0:0:
135,332,112915,1,0,0:0:0:0:
170,318,112998,1,0,0:0:0:0:
200,294,113081,1,0,0:0:0:0:
219,260,113165,1,0,0:0:0:0:
229,223,113248,1,0,0:0:0:0:
226,184,113331,1,0,0:0:0:0:
260,202,113415,1,0,0:0:0:0:
297,211,113498,1,0,0:0:0:0:
335,205,113581,1,0,0:0:0:0:
371,193,113665,1,0,0:0:0:0:
393,162,113748,1,0,0:0:0:0:
395,123,113831,1,0,0:0:0:0:
374,90,113915,1,0,0:0:0:0:
344,65,113998,1,0,0:0:0:0:
306,55,114081,1,0,0:0:0:0:
267,55,114165,1,0,0:0:0:0:
229,63,114248,1,0,0:0:0:0:
217,99,114331,1,0,0:0:0:0:
210,137,114415,1,0,0:0:0:0:
222,173,114498,1,0,0:0:0:0:
241,205,114581,1,0,0:0:0:0:
265,234,114665,1,0,0:0:0:0:
294,258,114748,1,0,0:0:0:0:
327,276,114831,1,0,0:0:0:0:
363,288,114915,1,0,0:0:0:0:
401,288,114998,1,0,0:0:0:0:
438,279,115081,1,0,0:0:0:0:
462,248,115165,1,0,0:0:0:0:
476,212,115248,1,0,0:0:0:0:
463,175,115331,1,0,0:0:0:0:
439,144,115415,1,0,0:0:0:0:
403,128,115498,1,0,0:0:0:0:
364,126,115581,5,0,0:0:0:0:
256,192,115915,1,0,0:0:0:0:
176,240,116248,1,0,0:0:0:0:
176,64,116581,1,0,0:0:0:0:
328,240,116915,1,0,0:0:0:0:
88,184,117248,1,0,0:0:0:0:
296,112,117581,1,0,0:0:0:0:
184,264,117915,1,0,0:0:0:0:
256,192,118248,1,0,0:0:0:0:
256,192,118581,1,0,0:0:0:0:
256,192,118915,1,0,0:0:0:0:
256,192,119248,1,0,0:0:0:0:
256,192,119581,1,0,0:0:0:0:
256,192,119748,1,0,0:0:0:0:
256,192,119915,1,0,0:0:0:0:
256,192,120081,1,0,0:0:0:0:
256,192,120248,1,0,0:0:0:0:
256,192,120415,1,0,0:0:0:0:
256,192,120581,1,0,0:0:0:0:
387,273,120915,1,0,0:0:0:0:
418,251,120998,1,0,0:0:0:0:
437,218,121081,1,0,0:0:0:0:
450,181,121165,1,0,0:0:0:0:
456,143,121248,1,0,0:0:0:0:
449,105,121331,1,0,0:0:0:0:
432,70,121415,1,0,0:0:0:0:
408,39,121498,1,0,0:0:0:0:
376,60,121581,1,0,0:0:0:0:
350,89,121665,1,0,0:0:0:0:
321,114,121748,1,0,0:0:0:0:
288,133,121831,1,0,0:0:0:0:
250,144,121915,1,0,0:0:0:0:
212,151,121998,1,0,0:0:0:0:
173,153,122081,1,0,0:0:0:0:
135,143,122165,1,0,0:0:0:0:
100,125,122248,1,0,0:0:0:0:
68,103,122331,1,0,0:0:0:0:
41,74,122415,1,0,0:0:0:0:
22,40,122498,1,0,0:0:0:0:
15,77,122581,1,0,0:0:0:0:
13,115,122665,1,0,0:0:0:0:
14,153,122748,1,0,0:0:0:0:
22,190,122831,1,0,0:0:0:0:
34,226,122915,1,0,0:0:0:0:
53,258,122998,1,0,0:0:0:0:
77,287,123081,1,0,0:0:0:0:
109,308,123165,1,0,0:0:0:0:
144,321,123248,1,0,0:0:0:0:
182,326,123331,1,0,0:0:0:0:
220,324,123415,1,0,0:0:0:0:
256,313,123498,1,0,0:0:0:0:
285,288,123581,1,0,0:0:0:0:
305,255,123665,1,0,0:0:0:0:
319,219,123748,1,0,0:0:0:0:
322,180,123831,1,0,0:0:0:0:
360,178,123915,1,0,0:0:0:0:
393,196,123998,1,0,0:0:0:0:
415,227,124081,1,0,0:0:0:0:
428,263,124165,1,0,0:0:0:0:
430,301,124248,1,0,0:0:0:0:
433,339,124331,1,0,0:0:0:0:
394,343,124415,1,0,0:0:0:0:
357,331,124498,1,0,0:0:0:0:
323,313,124581,1,0,0:0:0:0:
295,285,124665,1,0,0:0:0:0:
273,253,124748,1,0,0:0:0:0:
256,218,124831,1,0,0:0:0:0:
254,179,124915,1,0,0:0:0:0:
257,140,124998,1,0,0:0:0:0:
270,104,125081,1,0,0:0:0:0:
291,71,125165,1,0,0:0:0:0:
319,44,125248,1,0,0:0:0:0:
355,33,125331,1,0,0:0:0:0:
393,34,125415,1,0,0:0:0:0:
135,320,126248,21,0,0:0:0:0:
110,290,126331,1,0,0:0:0:0:
99,252,126415,1,0,0:0:0:0:
101,213,126498,1,0,0:0:0:0:
114,177,126581,1,0,0:0:0:0:
142,150,126665,1,0,0:0:0:0:
177,134,126748,1,0,0:0:0:0:
214,125,126831,1,0,0:0:0:0:
250,111,126915,1,0,0:0:0:0:
277,84,126998,1,0,0:0:0:0:
298,51,127081,1,0,0:0:0:0:
293,12,127165,1,0,0:0:0:0:
325,32,127248,1,0,0:0:0:0:
362,39,127331,1,0,0:0:0:0:
399,30,127415,1,0,0:0:0:0:
435,17,127498,1,0,0:0:0:0:
443,54,127581,1,0,0:0:0:0:
430,90,127665,1,0,0:0:0:0:
427,128,127748,1,0,0:0:0:0:
438,164,127831,1,0,0:0:0:0:
444,202,127915,1,0,0:0:0:0:
434,239,127998,1,0,0:0:0:0:
414,272,128081,1,0,0:0:0:0:
383,296,128165,1,0,0:0:0:0:
346,308,128248,1,0,0:0:0:0:
307,308,128331,1,0,0:0:0:0:
272,289,128415,1,0,0:0:0:0:
250,257,128498,1,0,0:0:0:0:
218,278,128581,1,0,0:0:0:0:
179,279,128665,1,0,0:0:0:0:
144,262,128748,1,0,0:0:0:0:
119,232,128831,1,0,0:0:0:0:
106,195,128915,1,0,0:0:0:0:
98,157,128998,1,0,0:0:0:0:
95,118,129081,1,0,0:0:0:0:
104,80,129165,1,0,0:0:0:0:
122,46,129248,1,0,0:0:0:0:
155,28,129331,1,0,0:0:0:0:
193,23,129415,1,0,0:0:0:0:
230,32,129498,1,0,0:0:0:0:
248,65,129581,1,0,0:0:0:0:
284,51,129665,1,0,0:0:0:0:
322,54,129748,1,0,0:0:0:0:
358,66,129831,1,0,0:0:0:0:
383,95,129915,1,0,0:0:0:0:
398,129,129998,1,0,0:0:0:0:
403,166,130081,1,0,0:0:0:0:
396,204,130165,1,0,0:0:0:0:
380,239,130248,1,0,0:0:0:0:
354,267,130331,1,0,0:0:0:0:
321,287,130415,1,0,0:0:0:0:
285,300,130498,1,0,0:0:0:0:
246,301,130581,1,0,0:0:0:0:
247,262,130665,1,0,0:0:0:0:
250,223,130748,1,0,0:0:0:0:
254,184,130831,1,0,0:0:0:0:
257,145,130915,1,0,0:0:0:0:
259,106,130998,1,0,0:0:0:0:
262,67,131081,1,0,0:0:0:0:
224,57,131165,1,0,0:0:0:0:
186,66,131248,1,0,0:0:0:0:
151,83,131331,1,0,0:0:0:0:
120,107,131415,1,0,0:0:0:0:
94,135,131498,1,0,0:0:0:0:
73,167,131581,1,0,0:0:0:0:
59,203,131665,1,0,0:0:0:0:
56,241,131748,1,0,0:0:0:0:
60,279,131831,1,0,0:0:0:0:
78,313,131915,1,0,0:0:0:0:
105,286,131998,1,0,0:0:0:0:
131,258,132081,1,0,0:0:0:0:
161,233,132165,1,0,0:0:0:0:
193,212,132248,1,0,0:0:0:0:
228,198,132331,1,0,0:0:0:0:
265,189,132415,1,0,0:0:0:0:
303,184,132498,1,0,0:0:0:0:
341,184,132581,1,0,0:0:0:0:
379,188,132665,1,0,0:0:0:0:
416,195,132748,1,0,0:0:0:0:
453,203,132831,1,0,0:0:0:0:
452,164,132915,1,0,0:0:0:0:
432,130,132998,1,0,0:0:0:0:
408,99,133081,1,0,0:0:0:0:
380,72,133165,1,0,0:0:0:0:
347,51,133248,1,0,0:0:0:0:
311,37,133331,1,0,0:0:0:0:
272,30,133415,1,0,0:0:0:0:
233,31,133498,1,0,0:0:0:0:
195,37,133581,1,0,0:0:0:0:
159,51,133665,1,0,0:0:0:0:
129,75,133748,1,0,0:0:0:0:
104,104,133831,1,0,0:0:0:0:
90,140,133915,1,0,0:0:0:0:
84,178,133998,1,0,0:0:0:0:
91,215,134081,1,0,0:0:0:0:
110,248,134165,1,0,0:0:0:0:
139,272,134248,1,0,0:0:0:0:
175,283,134331,1,0,0:0:0:0:
213,288,134415,1,0,0:0:0:0:
251,287,134498,1,0,0:0:0:0:
288,280,134581,1,0,0:0:0:0:
324,266,134665,1,0,0:0:0:0:
356,245,134748,1,0,0:0:0:0:
383,218,134831,1,0,0:0:0:0:
405,186,134915,1,0,0:0:0:0:
409,147,134998,1,0,0:0:0:0:
402,109,135081,1,0,0:0:0:0:
377,78,135165,1,0,0:0:0:0:
342,60,135248,1,0,0:0:0:0:
304,52,135331,1,0,0:0:0:0:
265,48,135415,1,0,0:0:0:0:
226,51,135498,1,0,0:0:0:0:
188,58,135581,1,0,0:0:0:0:
247,200,135915,1,0,0:0:0:0:
106,262,136248,1,0,0:0:0:0:
174,370,136581,1,0,0:0:0:0:
306,290,136915,21,0,0:0:0:0:
335,265,136998,1,0,0:0:0:0:
362,238,137081,1,0,0:0:0:0:
381,204,137165,1,0,0:0:0:0:
395,168,137248,1,0,0:0:0:0:
404,130,137331,1,0,0:0:0:0:
409,91,137415,1,0,0:0:0:0:
407,52,137498,1,0,0:0:0:0:
393,16,137581,1,0,0:0:0:0:
364,42,137665,1,0,0:0:0:0:
337,69,137748,1,0,0:0:0:0:
305,91,137831,1,0,0:0:0:0:
268,105,137915,1,0,0:0:0:0:
230,112,137998,1,0,0:0:0:0:
191,112,138081,1,0,0:0:0:0:
153,103,138165,1,0,0:0:0:0:
118,85,138248,1,0,0:0:0:0:
86,62,138331,1,0,0:0:0:0:
56,36,138415,1,0,0:0:0:0:
53,74,138498,1,0,0:0:0:0:
52,112,138581,1,0,0:0:0:0:
56,150,138665,1,0,0:0:0:0:
66,186,138748,1,0,0:0:0:0:
82,220,138831,1,0,0:0:0:0:
102,253,138915,1,0,0:0:0:0:
131,277,138998,1,0,0:0:0:0:
163,297,139081,1,0,0:0:0:0:
199,311,139165,1,0,0:0:0:0:
236,317,139248,1,0,0:0:0:0:
274,318,139331,1,0,0:0:0:0:
311,310,139415,1,0,0:0:0:0:
346,296,139498,1,0,0:0:0:0:
380,278,139581,1,0,0:0:0:0:
411,255,139665,1,0,0:0:0:0:
436,226,139748,1,0,0:0:0:0:
452,191,139831,1,0,0:0:0:0:
460,153,139915,1,0,0:0:0:0:
459,114,139998,1,0,0:0:0:0:
451,76,140081,1,0,0:0:0:0:
434,40,140165,1,0,0:0:0:0:
403,62,140248,1,0,0:0:0:0:
379,92,140331,1,0,0:0:0:0:
350,118,140415,1,0,0:0:0:0:
317,137,140498,1,0,0:0:0:0:
281,151,140581,1,0,0:0:0:0:
243,162,140665,1,0,0:0:0:0:
204,165,140748,1,0,0:0:0:0:
165,164,140831,1,0,0:0:0:0:
127,154,140915,1,0,0:0:0:0:
93,134,140998,1,0,0:0:0:0:
95,172,141081,1,0,0:0:0:0:
100,210,141165,1,0,0:0:0:0:
111,246,141248,1,0,0:0:0:0:
134,276,141331,1,0,0:0:0:0:
166,296,141415,1,0,0:0:0:0:
201,311,141498,1,0,0:0:0:0:
238,320,141581,1,0,0:0:0:0:
276,322,141665,1,0,0:0:0:0:
313,316,141748,1,0,0:0:0:0:
349,304,141831,1,0,0:0:0:0:
381,283,141915,1,0,0:0:0:0:
407,255,141998,1,0,0:0:0:0:
424,220,142081,1,0,0:0:0:0:
434,182,142165,1,0,0:0:0:0:
435,143,142248,1,0,0:0:0:0:
424,105,142331,1,0,0:0:0:0:
405,71,142415,1,0,0:0:0:0:
374,48,142498,1,0,0:0:0:0:
336,38,142581,1,0,0:0:0:0:
297,37,142665,1,0,0:0:0:0:
262,52,142748,1,0,0:0:0:0:
230,73,142831,1,0,0:0:0:0:
202,100,142915,1,0,0:0:0:0:
178,129,142998,1,0,0:0:0:0:
159,162,143081,1,0,0:0:0:0:
149,199,143165,1,0,0:0:0:0:
187,198,143248,1,0,0:0:0:0:
221,180,143331,1,0,0:0:0:0:
255,162,143415,1,0,0:0:0:0:
287,140,143498,1,0,0:0:0:0:
314,113,143581,1,0,0:0:0:0:
336,81,143665,1,0,0:0:0:0:
364,106,143748,1,0,0:0:0:0:
384,138,143831,1,0,0:0:0:0:
396,174,143915,1,0,0:0:0:0:
393,212,143998,1,0,0:0:0:0:
379,247,144081,1,0,0:0:0:0:
357,279,144165,1,0,0:0:0:0:
326,302,144248,1,0,0:0:0:0:
292,320,144331,1,0,0:0:0:0:
253,324,144415,1,0,0:0:0:0:
218,308,144498,1,0,0:0:0:0:
191,280,144581,1,0,0:0:0:0:
175,244,144665,1,0,0:0:0:0:
175,205,144748,1,0,0:0:0:0:
144,228,144831,1,0,0:0:0:0:
109,246,144915,1,0,0:0:0:0:
70,242,144998,1,0,0:0:0:0:
42,214,145081,1,0,0:0:0:0:
25,178,145165,1,0,0:0:0:0:
21,139,145248,1,0,0:0:0:0:
25,100,145331,1,0,0:0:0:0:
40,64,145415,1,0,0:0:0:0:
70,40,145498,1,0,0:0:0:0:
106,29,145581,1,0,0:0:0:0:
144,30,145665,1,0,0:0:0:0:
180,40,145748,1,0,0:0:0:0:
211,61,145831,1,0,0:0:0:0:
235,91,145915,1,0,0:0:0:0:
250,125,145998,1,0,0:0:0:0:
253,163,146081,1,0,0:0:0:0:
279,134,146165,1,0,0:0:0:0:
308,109,146248,1,0,0:0:0:0:
344,96,146331,1,0,0:0:0:0:
382,101,146415,1,0,0:0:0:0:
416,117,146498,1,0,0:0:0:0:
440,146,146581,1,0,0:0:0:0:
455,181,146665,1,0,0:0:0:0:
459,219,146748,1,0,0:0:0:0:
452,256,146831,1,0,0:0:0:0:
431,289,146915,1,0,0:0:0:0:
395,302,146998,1,0,0:0:0:0:
358,312,147081,1,0,0:0:0:0:
319,312,147165,1,0,0:0:0:0:
280,307,147248,1,0,0:0:0:0:
245,291,147331,1,0,0:0:0:0:
213,268,147415,1,0,0:0:0:0:
187,239,147498,1,0,0:0:0:0:
180,201,147581,5,0,0:0:0:0:
333,188,147915,1,0,0:0:0:0:
194,120,148248,1,0,0:0:0:0:
346,97,148581,1,0,0:0:0:0:
201,42,148915,1,0,0:0:0:0:
353,24,149248,1,0,0:0:0:0:
246,135,149581,1,0,0:0:0:0:
380,211,149915,1,0,0:0:0:0:
252,296,150248,1,0,0:0:0:0:
401,333,150581,1,0,0:0:0:0:
270,251,150915,1,0,0:0:0:0:
275,97,151248,1,0,0:0:0:0:
145,180,151581,1,0,0:0:0:0:
174,108,151748,1,0,0:0:0:0:
228,162,151915,1,0,0:0:0:0:
261,179,151998,1,0,0:0:0:0:
299,184,152081,1,0,0:0:0:0:
337,182,152165,1,0,0:0:0:0:
372,166,152248,1,0,0:0:0:0:
398,317,152581,1,0,0:0:0:0:
249,275,152915,1,0,0:0:0:0:
139,166,153248,1,0,0:0:0:0:
255,65,153581,1,0,0:0:0:0:
347,188,153915,1,0,0:0:0:0:
232,291,154248,1,0,0:0:0:0:
128,176,154581,1,0,0:0:0:0:
261,97,154915,1,0,0:0:0:0:
357,216,155248,1,0,0:0:0:0:
203,202,155581,1,0,0:0:0:0:
342,136,155915,1,0,0:0:0:0:
190,107,156248,1,0,0:0:0:0:
335,58,156581,1,0,0:0:0:0:
285,204,156915,1,0,0:0:0:0:
229,60,157248,1,0,0:0:0:0:
163,199,157581,1,0,0:0:0:0:
235,173,157748,1,0,0:0:0:0:
309,154,157915,1,0,0:0:0:0:
347,149,157998,1,0,0:0:0:0:
384,154,158081,1,0,0:0:0:0:
418,172,158165,1,0,0:0:0:0:
445,199,158248,1,0,0:0:0:0:
256,192,168915,37,0,0:0:0:0:
96,136,169581,1,0,0:0:0:0:
192,104,170915,6,0,P|272:96|296:136,2,105
344,272,171581,1,0,0:0:0:0:
120,248,172248,1,0,0:0:0:0:
424,184,173581,5,0,0:0:0:0:
232,288,174248,1,0,0:0:0:0:
272,64,174915,1,0,0:0:0:0:
272,248,176248,6,0,L|288:136,2,105
336,288,176915,1,0,0:0:0:0:
216,288,177581,1,0,0:0:0:0:
200,88,178581,2,0,P|184:136|232:96,3,140
256,192,180915,5,0,0:0:0:0:
256,192,181581,1,0,0:0:0:0:
256,192,182248,1,0,0:0:0:0:
256,192,183581,6,0,P|288:168|256:80,1,140
256,264,184248,2,0,P|208:280|144:264,2,105
256,192,184915,1,0,0:0:0:0:
352,288,185581,1,0,0:0:0:0:
56,184,186581,2,0,L|56:32,3,140
256,192,188248,1,0,0:0:0:0:
136,328,188915,1,0,0:0:0:0:
392,336,189581,1,0,0:0:0:0:
256,192,190248,1,0,0:0:0:0:
96,96,211581,6,0,P|136:80|304:112,2,210
216,192,212915,2,0,P|272:224|416:184,2,210
112,304,214248,1,0,0:0:0:0:
264,312,214581,1,0,0:0:0:0:
408,256,214915,1,0,0:0:0:0:
472,112,215248,1,0,0:0:0:0:
320,112,215581,2,0,L|264:144,2,35
360,176,215915,2,0,L|384:208,2,35
288,200,216248,2,0,L|256:224,2,35
336,264,216581,2,0,L|376:312,2,35
272,304,216915,2,0,P|216:328|136:224,2,210
280,152,218248,2,0,P|240:112|256:192,2,210
256,192,219581,12,0,222331,0:0:0:0:
256,192,232915,6,0,P|280:152|192:32,2,210
168,264,234248,2,0,P|208:280|368:256,2,210
96,168,235915,1,0,0:0:0:0:
184,160,236081,1,0,0:0:0:0:
280,176,236248,1,0,0:0:0:0:
416,152,236581,1,0,0:0:0:0:
256,56,236915,1,0,0:0:0:0:
248,272,237415,1,0,0:0:0:0:
424,160,237915,1,0,0:0:0:0:
256,160,238248,2,0,P|176:128|224:208,2,210
272,304,239581,2,0,P|320:272|456:312,2,210
256,192,240915,2,0,L|256:120,8,70
368,280,242748,1,0,0:0:0:0:
120,256,243248,1,0,0:0:0:0:
256,192,243581,6,0,P|280:152|192:32,2,210
168,264,244914,2,0,P|208:280|368:256,2,210
96,168,246581,1,0,0:0:0:0:
184,160,246747,1,0,0:0:0:0:
280,176,246914,1,0,0:0:0:0:
416,152,247247,1,0,0:0:0:0:
256,56,247581,1,0,0:0:0:0:
248,272,248081,1,0,0:0:0:0:
424,160,248581,1,0,0:0:0:0:
256,160,248914,2,0,P|176:128|224:208,2,210
272,304,250247,2,0,P|320:272|456:312,2,210
256,192,251581,12,0,252581,0:0:0:0:
104,152,252915,22,0,P|152:112|208:112,1,105
384,112,253248,2,0,L|304:224,1,105
232,240,253581,2,0,P|200:256|128:240,1,105
256,128,253915,2,0,L|384:168,1,105
342,195,254248,1,0,0:0:0:0:
314,222,254331,1,0,0:0:0:0:
276,232,254415,1,0,0:0:0:0:
238,240,254498,1,0,0:0:0:0:
200,230,254581,1,0,0:0:0:0:
163,216,254665,1,0,0:0:0:0:
130,195,254748,1,0,0:0:0:0:
120,157,254831,1,0,0:0:0:0:
118,118,254915,1,0,0:0:0:0:
119,79,254998,1,0,0:0:0:0:
124,41,255081,1,0,0:0:0:0:
156,62,255165,1,0,0:0:0:0:
184,87,255248,1,0,0:0:0:0:
217,105,255331,1,0,0:0:0:0:
254,116,255415,1,0,0:0:0:0:
292,120,255498,1,0,0:0:0:0:
328,108,255581,1,0,0:0:0:0:
345,142,255665,1,0,0:0:0:0:
345,180,255748,1,0,0:0:0:0:
340,218,255831,1,0,0:0:0:0:
313,246,255915,1,0,0:0:0:0:
282,268,255998,1,0,0:0:0:0:
245,280,256081,1,0,0:0:0:0:
206,285,256165,1,0,0:0:0:0:
167,282,256248,1,0,0:0:0:0:
130,269,256331,1,0,0:0:0:0:
97,247,256415,1,0,0:0:0:0:
71,218,256498,1,0,0:0:0:0:
59,181,256581,1,0,0:0:0:0:
59,142,256665,1,0,0:0:0:0:
73,106,256748,1,0,0:0:0:0:
100,79,256831,1,0,0:0:0:0:
138,78,256915,1,0,0:0:0:0:
139,116,256998,1,0,0:0:0:0:
151,152,257081,1,0,0:0:0:0:
179,177,257165,1,0,0:0:0:0:
216,186,257248,1,0,0:0:0:0:
254,185,257331,1,0,0:0:0:0:
288,166,257415,1,0,0:0:0:0:
311,135,257498,1,0,0:0:0:0:
318,97,257581,1,0,0:0:0:0:
323,58,257665,1,0,0:0:0:0:
345,89,257748,1,0,0:0:0:0:
367,119,257831,1,0,0:0:0:0:
384,153,257915,1,0,0:0:0:0:
393,190,257998,1,0,0:0:0:0:
393,228,258081,1,0,0:0:0:0:
379,264,258165,1,0,0:0:0:0:
353,292,258248,1,0,0:0:0:0:
318,307,258331,1,0,0:0:0:0:
279,312,258415,1,0,0:0:0:0:
240,310,258498,1,0,0:0:0:0:
202,300,258581,1,0,0:0:0:0:
169,279,258665,1,0,0:0:0:0:
144,249,258748,1,0,0:0:0:0:
122,217,258831,1,0,0:0:0:0:
111,179,258915,1,0,0:0:0:0:
121,141,258998,1,0,0:0:0:0:
137,106,259081,1,0,0:0:0:0:
168,83,259165,1,0,0:0:0:0:
205,73,259248,1,0,0:0:0:0:
242,66,259331,1,0,0:0:0:0:
280,67,259415,1,0,0:0:0:0:
316,79,259498,1,0,0:0:0:0:
347,101,259581,1,0,0:0:0:0:
313,120,259665,1,0,0:0:0:0:
278,137,259748,1,0,0:0:0:0:
245,157,259831,1,0,0:0:0:0:
216,183,259915,1,0,0:0:0:0:
194,214,259998,1,0,0:0:0:0:
177,248,260081,1,0,0:0:0:0:
167,285,260165,1,0,0:0:0:0:
176,322,260248,1,0,0:0:0:0:
196,354,260331,1,0,0:0:0:0:
230,372,260415,1,0,0:0:0:0:
267,380,260498,1,0,0:0:0:0:
305,376,260581,1,0,0:0:0:0:
342,364,260665,1,0,0:0:0:0:
371,339,260748,1,0,0:0:0:0:
396,310,260831,1,0,0:0:0:0:
416,277,260915,1,0,0:0:0:0:
428,240,260998,1,0,0:0:0:0:
433,202,261081,1,0,0:0:0:0:
438,163,261165,1,0,0:0:0:0:
430,125,261248,1,0,0:0:0:0:
419,88,261331,1,0,0:0:0:0:
396,56,261415,1,0,0:0:0:0:
366,31,261498,1,0,0:0:0:0:
331,13,261581,1,0,0:0:0:0:
292,8,261665,1,0,0:0:0:0:
253,8,261748,1,0,0:0:0:0:
215,17,261831,1,0,0:0:0:0:
179,32,261915,1,0,0:0:0:0:
150,57,261998,1,0,0:0:0:0:
127,87,262081,1,0,0:0:0:0:
109,121,262165,1,0,0:0:0:0:
101,158,262248,1,0,0:0:0:0:
97,196,262331,1,0,0:0:0:0:
100,234,262415,1,0,0:0:0:0:
109,271,262498,1,0,0:0:0:0:
128,304,262581,1,0,0:0:0:0:
156,330,262665,1,0,0:0:0:0:
190,345,262748,1,0,0:0:0:0:
228,348,262831,1,0,0:0:0:0:
266,343,262915,1,0,0:0:0:0:
297,321,262998,1,0,0:0:0:0:
310,284,263081,1,0,0:0:0:0:
309,245,263165,1,0,0:0:0:0:
299,207,263248,1,0,0:0:0:0:
279,173,263331,1,0,0:0:0:0:
255,142,263415,1,0,0:0:0:0:
250,103,263498,1,0,0:0:0:0:
226,72,263581,1,0,0:0:0:0:
187,72,263665,1,0,0:0:0:0:
150,82,263748,1,0,0:0:0:0:
115,98,263831,1,0,0:0:0:0:
94,130,263915,1,0,0:0:0:0:
90,168,263998,1,0,0:0:0:0:
95,205,264081,1,0,0:0:0:0:
111,240,264165,1,0,0:0:0:0:
142,262,264248,1,0,0:0:0:0:
178,250,264331,1,0,0:0:0:0:
215,241,264415,1,0,0:0:0:0:
253,243,264498,1,0,0:0:0:0:
281,217,264581,1,0,0:0:0:0:
317,229,264665,1,0,0:0:0:0:
348,207,264748,1,0,0:0:0:0:
352,168,264831,1,0,0:0:0:0:
344,128,264915,5,0,0:0:0:0:
192,96,265248,1,0,0:0:0:0:
216,248,265581,1,0,0:0:0:0:
296,240,265748,1,0,0:0:0:0:
368,224,265915,1,0,0:0:0:0:
400,208,265998,1,0,0:0:0:0:
424,176,266081,1,0,0:0:0:0:
440,144,266165,1,0,0:0:0:0:
440,104,266248,1,0,0:0:0:0:
296,48,266581,1,0,0:0:0:0:
224,184,266915,1,0,0:0:0:0:
296,216,267081,1,0,0:0:0:0:
368,232,267248,1,0,0:0:0:0:
408,224,267331,1,0,0:0:0:0:
440,208,267415,1,0,0:0:0:0:
464,176,267498,1,0,0:0:0:0:
472,136,267581,1,0,0:0:0:0:
320,96,267915,1,0,0:0:0:0:
232,224,268248,1,0,0:0:0:0:
160,240,268415,1,0,0:0:0:0:
136,168,268581,1,0,0:0:0:0:
144,128,268665,1,0,0:0:0:0:
168,96,268748,1,0,0:0:0:0:
192,64,268831,1,0,0:0:0:0:
224,48,268915,1,0,0:0:0:0:
368,96,269248,1,0,0:0:0:0:
368,248,269581,1,0,0:0:0:0:
216,256,269915,1,0,0:0:0:0:
256,192,270081,1,0,0:0:0:0:
288,120,270248,1,0,0:0:0:0:
272,88,270331,1,0,0:0:0:0:
248,56,270415,1,0,0:0:0:0:
208,40,270498,1,0,0:0:0:0:
168,56,270581,1,0,0:0:0:0:
184,208,270915,1,0,0:0:0:0:
336,200,271248,1,0,0:0:0:0:
376,56,271581,1,0,0:0:0:0:
232,112,271915,1,0,0:0:0:0:
296,256,272248,1,0,0:0:0:0:
360,120,272581,1,0,0:0:0:0:
224,192,272915,1,0,0:0:0:0:
192,208,272998,1,0,0:0:0:0:
152,208,273081,1,0,0:0:0:0:
112,192,273165,1,0,0:0:0:0:
80,176,273248,1,0,0:0:0:0:
64,144,273331,1,0,0:0:0:0:
56,104,273415,1,0,0:0:0:0:
56,64,273498,1,0,0:0:0:0:
72,32,273581,1,0,0:0:0:0:
104,48,273665,1,0,0:0:0:0:
136,72,273748,1,0,0:0:0:0:
168,88,273831,1,0,0:0:0:0:
200,104,273915,1,0,0:0:0:0:
240,112,273998,1,0,0:0:0:0:
280,120,274081,1,0,0:0:0:0:
320,120,274165,1,0,0:0:0:0:
360,112,274248,1,0,0:0:0:0:
392,88,274331,1,0,0:0:0:0:
424,64,274415,1,0,0:0:0:0:
432,104,274498,1,0,0:0:0:0:
432,144,274581,1,0,0:0:0:0:
424,184,274665,1,0,0:0:0:0:
416,224,274748,1,0,0:0:0:0:
400,256,274831,1,0,0:0:0:0:
384,288,274915,1,0,0:0:0:0:
360,320,274998,1,0,0:0:0:0:
336,352,275081,1,0,0:0:0:0:
304,376,275165,1,0,0:0:0:0:
264,384,275248,1,0,0:0:0:0:
280,352,275331,1,0,0:0:0:0:
288,312,275415,1,0,0:0:0:0:
288,272,275498,1,0,0:0:0:0:
288,232,275581,5,0,0:0:0:0:
280,192,275665,1,0,0:0:0:0:
272,152,275748,1,0,0:0:0:0:
256,112,275831,1,0,0:0:0:0:
240,80,275915,1,0,0:0:0:0:
216,48,275998,1,0,0:0:0:0:
184,24,276081,1,0,0:0:0:0:
144,16,276165,1,0,0:0:0:0:
136,56,276248,1,0,0:0:0:0:
144,96,276331,1,0,0:0:0:0:
160,128,276415,1,0,0:0:0:0:
184,160,276498,1,0,0:0:0:0:
216,184,276581,1,0,0:0:0:0:
248,200,276665,1,0,0:0:0:0:
288,208,276748,1,0,0:0:0:0:
328,200,276831,1,0,0:0:0:0:
360,184,276915,1,0,0:0:0:0:
392,160,276998,1,0,0:0:0:0:
416,136,277081,1,0,0:0:0:0:
432,104,277165,1,0,0:0:0:0:
440,64,277248,1,0,0:0:0:0:
464,88,277331,1,0,0:0:0:0:
488,120,277415,1,0,0:0:0:0:
496,160,277498,1,0,0:0:0:0:
504,200,277581,1,0,0:0:0:0:
504,240,277665,1,0,0:0:0:0:
496,280,277748,1,0,0:0:0:0:
488,320,277831,1,0,0:0:0:0:
472,352,277915,1,0,0:0:0:0:
448,320,277998,1,0,0:0:0:0:
416,296,278081,1,0,0:0:0:0:
384,280,278165,1,0,0:0:0:0:
352,264,278248,1,0,0:0:0:0:
312,256,278331,1,0,0:0:0:0:
272,248,278415,1,0,0:0:0:0:
232,248,278498,1,0,0:0:0:0:
192,256,278581,1,0,0:0:0:0:
152,264,278665,1,0,0:0:0:0:
112,272,278748,1,0,0:0:0:0:
80,288,278831,1,0,0:0:0:0:
48,312,278915,1,0,0:0:0:0:
32,280,278998,1,0,0:0:0:0:
24,240,279081,1,0,0:0:0:0:
24,200,279165,1,0,0:0:0:0:
24,160,279248,1,0,0:0:0:0:
40,120,279331,1,0,0:0:0:0:
64,88,279415,1,0,0:0:0:0:
96,64,279498,1,0,0:0:0:0:
128,48,279581,1,0,0:0:0:0:
128,88,279665,1,0,0:0:0:0:
136,128,279748,1,0,0:0:0:0:
152,160,279831,1,0,0:0:0:0:
176,192,279915,1,0,0:0:0:0:
208,216,279998,1,0,0:0:0:0:
240,232,280081,1,0,0:0:0:0:
280,248,280165,1,0,0:0:0:0:
320,256,280248,1,0,0:0:0:0:
360,256,280331,1,0,0:0:0:0:
400,248,280415,1,0,0:0:0:0:
432,232,280498,1,0,0:0:0:0:
456,208,280581,1,0,0:0:0:0:
480,176,280665,1,0,0:0:0:0:
496,136,280748,1,0,0:0:0:0:
496,96,280831,1,0,0:0:0:0:
488,56,280915,1,0,0:0:0:0:
448,64,280998,1,0,0:0:0:0:
424,88,281081,1,0,0:0:0:0:
400,120,281165,1,0,0:0:0:0:
376,152,281248,1,0,0:0:0:0:
360,192,281331,1,0,0:0:0:0:
360,232,281415,1,0,0:0:0:0:
376,264,281498,1,0,0:0:0:0:
400,296,281581,1,0,0:0:0:0:
432,320,281665,1,0,0:0:0:0:
464,336,281748,1,0,0:0:0:0:
472,296,281831,1,0,0:0:0:0:
464,256,281915,1,0,0:0:0:0:
456,216,281998,1,0,0:0:0:0:
440,184,282081,1,0,0:0:0:0:
416,152,282165,1,0,0:0:0:0:
392,128,282248,1,0,0:0:0:0:
360,112,282331,1,0,0:0:0:0:
320,104,282415,1,0,0:0:0:0:
280,104,282498,1,0,0:0:0:0:
240,112,282581,1,0,0:0:0:0:
200,120,282665,1,0,0:0:0:0:
168,136,282748,1,0,0:0:0:0:
136,152,282831,1,0,0:0:0:0:
104,176,282915,1,0,0:0:0:0:
80,208,282998,1,0,0:0:0:0:
64,240,283081,1,0,0:0:0:0:
64,280,283165,1,0,0:0:0:0:
72,320,283248,1,0,0:0:0:0:
104,344,283331,1,0,0:0:0:0:
144,352,283415,1,0,0:0:0:0:
184,344,283498,1,0,0:0:0:0:
216,328,283581,1,0,0:0:0:0:
248,304,283665,1,0,0:0:0:0:
272,272,283748,1,0,0:0:0:0:
288,232,283831,1,0,0:0:0:0:
288,192,283915,1,0,0:0:0:0:
328,184,283998,1,0,0:0:0:0:
368,184,284081,1,0,0:0:0:0:
408,184,284165,1,0,0:0:0:0:
448,168,284248,1,0,0:0:0:0:
464,136,284331,1,0,0:0:0:0:
456,96,284415,1,0,0:0:0:0:
432,72,284498,1,0,0:0:0:0:
392,64,284581,1,0,0:0:0:0:
352,64,284665,1,0,0:0:0:0:
312,72,284748,1,0,0:0:0:0:
280,88,284831,1,0,0:0:0:0:
264,120,284915,1,0,0:0:0:0:
224,112,284998,1,0,0:0:0:0:
192,128,285081,1,0,0:0:0:0:
160,152,285165,1,0,0:0:0:0:
160,192,285248,1,0,0:0:0:0:
168,232,285331,1,0,0:0:0:0:
184,272,285415,1,0,0:0:0:0:
208,304,285498,1,0,0:0:0:0:
240,328,285581,1,0,0:0:0:0:
280,336,285665,1,0,0:0:0:0:
320,344,285748,1,0,0:0:0:0:
360,344,285831,1,0,0:0:0:0:
400,336,285915,1,0,0:0:0:0:
432,320,285998,1,0,0:0:0:0:
464,296,286081,1,0,0:0:0:0:
480,256,286165,1,0,0:0:0:0:
472,216,286248,6,0,P|456:176|408:184,1,70
352,176,286581,2,0,L|272:160,1,70
208,192,286915,2,0,P|160:224|128:208,1,70
120,152,287248,2,0,L|136:72,1,70
208,80,287581,2,0,L|256:136,1,70
296,200,287915,2,0,P|328:224|352:208,1,70
376,136,288248,2,0,P|416:120|440:152,1,70
432,208,288581,2,0,P|440:256|408:272,1,70
352,272,288915,2,0,L|280:272,1,70
208,240,289248,2,0,P|176:200|176:176,1,70
192,104,289581,2,0,P|216:64|256:64,1,70
296,112,289915,2,0,P|320:160|304:184,1,70
280,240,290248,2,0,L|264:312,1,70
192,296,290581,2,0,P|160:272|160:232,1,70
192,176,290915,2,0,L|224:104,1,70
288,144,291248,2,0,L|336:224,1,70
284,270,291581,1,0,0:0:0:0:
256,297,291665,1,0,0:0:0:0:
220,312,291748,1,0,0:0:0:0:
182,318,291831,1,0,0:0:0:0:
143,315,291915,1,0,0:0:0:0:
108,298,291998,1,0,0:0:0:0:
82,269,292081,1,0,0:0:0:0:
66,233,292165,1,0,0:0:0:0:
60,195,292248,1,0,0:0:0:0:
64,156,292331,1,0,0:0:0:0:
75,118,292415,1,0,0:0:0:0:
97,87,292498,1,0,0:0:0:0:
128,65,292581,1,0,0:0:0:0:
163,50,292665,1,0,0:0:0:0:
201,46,292748,1,0,0:0:0:0:
239,50,292831,1,0,0:0:0:0:
273,67,292915,1,0,0:0:0:0:
302,91,292998,1,0,0:0:0:0:
328,118,293081,1,0,0:0:0:0:
350,149,293165,1,0,0:0:0:0:
367,183,293248,1,0,0:0:0:0:
379,219,293331,1,0,0:0:0:0:
380,257,293415,1,0,0:0:0:0:
367,293,293498,1,0,0:0:0:0:
339,320,293581,1,0,0:0:0:0:
301,329,293665,1,0,0:0:0:0:
262,330,293748,1,0,0:0:0:0:
224,321,293831,1,0,0:0:0:0:
188,304,293915,1,0,0:0:0:0:
155,283,293998,1,0,0:0:0:0:
128,255,294081,1,0,0:0:0:0:
111,220,294165,1,0,0:0:0:0:
104,182,294248,1,0,0:0:0:0:
114,145,294331,1,0,0:0:0:0:
134,112,294415,1,0,0:0:0:0:
167,93,294498,1,0,0:0:0:0:
204,86,294581,1,0,0:0:0:0:
241,94,294665,1,0,0:0:0:0:
275,109,294748,1,0,0:0:0:0:
298,139,294831,1,0,0:0:0:0:
321,170,294915,1,0,0:0:0:0:
324,208,294998,1,0,0:0:0:0:
322,246,295081,1,0,0:0:0:0:
314,284,295165,1,0,0:0:0:0:
281,304,295248,1,0,0:0:0:0:
243,312,295331,1,0,0:0:0:0:
204,312,295415,1,0,0:0:0:0:
168,297,295498,1,0,0:0:0:0:
137,273,295581,1,0,0:0:0:0:
117,239,295665,1,0,0:0:0:0:
107,201,295748,1,0,0:0:0:0:
108,162,295831,1,0,0:0:0:0:
115,123,295915,1,0,0:0:0:0:
141,95,295998,1,0,0:0:0:0:
171,72,296081,1,0,0:0:0:0:
208,61,296165,1,0,0:0:0:0:
245,54,296248,1,0,0:0:0:0:
283,51,296331,1,0,0:0:0:0:
321,53,296415,1,0,0:0:0:0:
357,63,296498,1,0,0:0:0:0:
391,79,296581,1,0,0:0:0:0:
422,101,296665,1,0,0:0:0:0:
445,131,296748,1,0,0:0:0:0:
456,167,296831,1,0,0:0:0:0:
456,200,296915,22,0,L|456:344,1,140
456,200,297415,1,0,0:0:0:0:
456,200,297581,1,0,0:0:0:0:
256,192,297915,1,0,0:0:0:0:
256,272,298248,2,0,P|224:288|112:264,3,140
120,216,299748,1,0,0:0:0:0:
176,168,299915,1,0,0:0:0:0:
96,104,300081,1,0,0:0:0:0:
224,72,300248,1,0,0:0:0:0:
312,192,300415,1,0,0:0:0:0:
232,280,300581,1,0,0:0:0:0:
104,256,300748,1,0,0:0:0:0:
392,304,300915,1,0,0:0:0:0:
240,144,301081,1,0,0:0:0:0:
144,304,301248,1,0,0:0:0:0:
376,192,301415,1,0,0:0:0:0:
176,168,301581,1,0,0:0:0:0:
384,264,301748,1,0,0:0:0:0:
256,264,301915,1,0,0:0:0:0:
284,238,301998,1,0,0:0:0:0:
302,204,302081,1,0,0:0:0:0:
308,165,302165,1,0,0:0:0:0:
301,127,302248,1,0,0:0:0:0:
224,132,302415,1,0,0:0:0:0:
156,270,302748,1,0,0:0:0:0:
136,237,302831,1,0,0:0:0:0:
315,307,303248,1,0,0:0:0:0:
281,156,303581,2,0,L|144:112,3,140
80,153,305081,1,0,0:0:0:0:
97,187,305165,1,0,0:0:0:0:
120,217,305248,1,0,0:0:0:0:
149,241,305331,1,0,0:0:0:0:
183,258,305415,1,0,0:0:0:0:
219,269,305498,1,0,0:0:0:0:
256,276,305581,1,0,0:0:0:0:
294,278,305665,1,0,0:0:0:0:
332,278,305748,1,0,0:0:0:0:
366,262,305831,1,0,0:0:0:0:
398,240,305915,1,0,0:0:0:0:
423,210,305998,1,0,0:0:0:0:
430,172,306081,1,0,0:0:0:0:
424,133,306165,1,0,0:0:0:0:
399,103,306248,1,0,0:0:0:0:
367,81,306331,1,0,0:0:0:0:
331,65,306415,1,0,0:0:0:0:
293,57,306498,1,0,0:0:0:0:
254,60,306581,1,0,0:0:0:0:
218,74,306665,1,0,0:0:0:0:
186,96,306748,1,0,0:0:0:0:
162,126,306831,1,0,0:0:0:0:
146,161,306915,1,0,0:0:0:0:
149,199,306998,1,0,0:0:0:0:
162,234,307081,1,0,0:0:0:0:
180,268,307165,1,0,0:0:0:0:
204,297,307248,1,0,0:0:0:0:
239,311,307331,1,0,0:0:0:0:
277,315,307415,1,0,0:0:0:0:
315,314,307498,1,0,0:0:0:0:
351,302,307581,37,0,0:0:0:0:
237,100,308081,2,0,L|280:170,1,70
141,238,308581,1,0,0:0:0:0:
281,174,308915,2,0,L|426:113,1,140
394,195,309415,2,0,L|380:268,1,70
245,189,309915,1,0,0:0:0:0:
349,301,310248,1,0,0:0:0:0:
196,318,310581,1,0,0:0:0:0:
61,241,310915,1,0,0:0:0:0:
133,105,311248,1,0,0:0:0:0:
273,168,311581,1,0,0:0:0:0:
385,273,311915,1,0,0:0:0:0:
233,299,312248,1,0,0:0:0:0:
177,245,312415,1,0,0:0:0:0:
185,168,312581,1,0,0:0:0:0:
193,130,312665,1,0,0:0:0:0:
209,95,312748,1,0,0:0:0:0:
239,71,312831,1,0,0:0:0:0:
277,64,312915,1,0,0:0:0:0:
377,180,313248,1,0,0:0:0:0:
258,278,313581,1,0,0:0:0:0:
124,199,313915,1,0,0:0:0:0:
259,125,314248,1,0,0:0:0:0:
359,241,314581,1,0,0:0:0:0:
257,357,314915,1,0,0:0:0:0:
150,246,315248,1,0,0:0:0:0:
210,104,315581,1,0,0:0:0:0:
241,81,315665,1,0,0:0:0:0:
279,76,315748,1,0,0:0:0:0:
317,76,315831,1,0,0:0:0:0:
353,88,315915,1,0,0:0:0:0:
385,108,315998,1,0,0:0:0:0:
414,132,316081,1,0,0:0:0:0:
437,162,316165,1,0,0:0:0:0:
456,194,316248,1,0,0:0:0:0:
463,231,316331,1,0,0:0:0:0:
463,269,316415,1,0,0:0:0:0:
452,305,316498,1,0,0:0:0:0:
426,333,316581,1,0,0:0:0:0:
389,347,316665,1,0,0:0:0:0:
351,354,316748,1,0,0:0:0:0:
312,356,316831,1,0,0:0:0:0:
273,353,316915,1,0,0:0:0:0:
236,340,316998,1,0,0:0:0:0:
202,320,317081,1,0,0:0:0:0:
172,295,317165,1,0,0:0:0:0:
148,264,317248,1,0,0:0:0:0:
132,229,317331,1,0,0:0:0:0:
117,193,317415,1,0,0:0:0:0:
105,156,317498,1,0,0:0:0:0:
96,118,317581,1,0,0:0:0:0:
96,79,317665,1,0,0:0:0:0:
100,40,317748,1,0,0:0:0:0:
115,4,317831,1,0,0:0:0:0:
134,37,317915,1,0,0:0:0:0:
157,66,317998,1,0,0:0:0:0:
185,91,318081,1,0,0:0:0:0:
217,112,318165,1,0,0:0:0:0:
252,125,318248,21,0,0:0:0:0:
320,200,318581,2,0,P|296:232|248:240,1,70
176,296,319081,2,0,L|152:144,1,140
296,272,319581,1,0,0:0:0:0:
368,216,319748,1,0,0:0:0:0:
272,208,319915,1,0,0:0:0:0:
344,152,320081,1,0,0:0:0:0:
248,144,320248,1,0,0:0:0:0:
320,88,320415,1,0,0:0:0:0:
216,80,320581,1,0,0:0:0:0:
288,24,320748,1,0,0:0:0:0:
364,30,320915,1,0,0:0:0:0:
399,44,320998,1,0,0:0:0:0:
424,72,321081,1,0,0:0:0:0:
438,108,321165,1,0,0:0:0:0:
444,145,321248,1,0,0:0:0:0:
445,183,321331,1,0,0:0:0:0:
440,221,321415,1,0,0:0:0:0:
426,256,321498,1,0,0:0:0:0:
405,288,321581,1,0,0:0:0:0:
369,302,321665,1,0,0:0:0:0:
332,313,321748,1,0,0:0:0:0:
293,317,321831,1,0,0:0:0:0:
254,314,321915,1,0,0:0:0:0:
274,281,321998,1,0,0:0:0:0:
301,253,322081,1,0,0:0:0:0:
322,220,322165,1,0,0:0:0:0:
322,181,322248,1,0,0:0:0:0:
308,145,322331,1,0,0:0:0:0:
278,119,322415,1,0,0:0:0:0:
244,100,322498,1,0,0:0:0:0:
208,86,322581,1,0,0:0:0:0:
169,87,322665,1,0,0:0:0:0:
134,102,322748,1,0,0:0:0:0:
101,121,322831,1,0,0:0:0:0:
81,154,322915,1,0,0:0:0:0:
68,190,322998,1,0,0:0:0:0:
58,227,323081,1,0,0:0:0:0:
57,265,323165,1,0,0:0:0:0:
73,299,323248,1,0,0:0:0:0:
98,327,323331,1,0,0:0:0:0:
133,343,323415,1,0,0:0:0:0:
171,346,323498,1,0,0:0:0:0:
209,343,323581,1,0,0:0:0:0:
244,326,323665,1,0,0:0:0:0:
273,302,323748,1,0,0:0:0:0:
299,274,323831,1,0,0:0:0:0:
315,238,323915,1,0,0:0:0:0:
323,200,323998,1,0,0:0:0:0:
312,163,324081,1,0,0:0:0:0:
348,175,324165,1,0,0:0:0:0:
386,177,324248,1,0,0:0:0:0:
422,165,324331,1,0,0:0:0:0:
453,142,324415,1,0,0:0:0:0:
476,111,324498,1,0,0:0:0:0:
486,74,324581,1,0,0:0:0:0:
487,35,324665,1,0,0:0:0:0:
457,59,324748,1,0,0:0:0:0:
423,76,324831,1,0,0:0:0:0:
386,89,324915,1,0,0:0:0:0:
348,94,324998,1,0,0:0:0:0:
309,96,325081,1,0,0:0:0:0:
270,90,325165,1,0,0:0:0:0:
232,82,325248,1,0,0:0:0:0:
234,120,325331,1,0,0:0:0:0:
236,158,325415,1,0,0:0:0:0:
231,196,325498,1,0,0:0:0:0:
216,231,325581,1,0,0:0:0:0:
194,263,325665,1,0,0:0:0:0:
164,287,325748,1,0,0:0:0:0:
129,303,325831,1,0,0:0:0:0:
92,315,325915,1,0,0:0:0:0:
54,320,325998,1,0,0:0:0:0:
74,287,326081,1,0,0:0:0:0:
92,252,326165,1,0,0:0:0:0:
106,216,326248,1,0,0:0:0:0:
386,87,326915,1,0,0:0:0:0:
320,335,327581,1,0,0:0:0:0:
176,277,327915,1,0,0:0:0:0:
294,178,328248,1,0,0:0:0:0:
320,335,328581,1,0,0:0:0:0:
176,277,328915,5,0,0:0:0:0:
83,65,329415,2,0,L|150:128,1,70
360,159,330081,2,0,L|276:163,1,70
90,280,330748,2,0,L|161:223,5,70
180,222,331665,1,0,0:0:0:0:
217,214,331748,1,0,0:0:0:0:
254,207,331831,1,0,0:0:0:0:
292,204,331915,1,0,0:0:0:0:
330,207,331998,1,0,0:0:0:0:
367,214,332081,1,0,0:0:0:0:
404,225,332165,1,0,0:0:0:0:
439,239,332248,1,0,0:0:0:0:
472,258,332331,1,0,0:0:0:0:
485,221,332415,1,0,0:0:0:0:
485,182,332498,1,0,0:0:0:0:
477,144,332581,1,0,0:0:0:0:
462,108,332665,1,0,0:0:0:0:
441,75,332748,1,0,0:0:0:0:
413,47,332831,1,0,0:0:0:0:
377,32,332915,1,0,0:0:0:0:
339,26,332998,1,0,0:0:0:0:
300,27,333081,1,0,0:0:0:0:
261,34,333165,1,0,0:0:0:0:
225,48,333248,1,0,0:0:0:0:
192,67,333331,1,0,0:0:0:0:
164,93,333415,1,0,0:0:0:0:
147,127,333498,1,0,0:0:0:0:
137,164,333581,1,0,0:0:0:0:
134,202,333665,1,0,0:0:0:0:
139,239,333748,1,0,0:0:0:0:
152,274,333831,1,0,0:0:0:0:
172,307,333915,1,0,0:0:0:0:
200,332,333998,1,0,0:0:0:0:
233,350,334081,1,0,0:0:0:0:
270,360,334165,1,0,0:0:0:0:
308,364,334248,1,0,0:0:0:0:
212,153,334748,2,0,L|291:148,1,70
508,197,335415,2,0,L|433:184,1,70
131,175,336248,2,0,L|202:174,4,70
100,199,336998,1,0,0:0:0:0:
89,235,337081,1,0,0:0:0:0:
97,272,337165,1,0,0:0:0:0:
117,304,337248,1,0,0:0:0:0:
149,324,337331,1,0,0:0:0:0:
187,326,337415,1,0,0:0:0:0:
224,317,337498,1,0,0:0:0:0:
251,290,337581,1,0,0:0:0:0:
256,251,337665,1,0,0:0:0:0:
256,212,337748,1,0,0:0:0:0:
287,234,337831,1,0,0:0:0:0:
323,248,337915,1,0,0:0:0:0:
359,260,337998,1,0,0:0:0:0:
397,257,338081,1,0,0:0:0:0:
432,240,338165,1,0,0:0:0:0:
457,211,338248,1,0,0:0:0:0:
468,174,338331,1,0,0:0:0:0:
471,135,338415,1,0,0:0:0:0:
464,97,338498,1,0,0:0:0:0:
446,62,338581,1,0,0:0:0:0:
418,34,338665,1,0,0:0:0:0:
381,22,338748,1,0,0:0:0:0:
342,21,338831,1,0,0:0:0:0:
305,33,338915,1,0,0:0:0:0:
273,54,338998,1,0,0:0:0:0:
245,80,339081,1,0,0:0:0:0:
223,112,339165,1,0,0:0:0:0:
209,148,339248,1,0,0:0:0:0:
204,186,339331,1,0,0:0:0:0:
220,221,339415,1,0,0:0:0:0:
246,249,339498,1,0,0:0:0:0:
279,267,339581,1,0,0:0:0:0:
32,32,350248,5,0,0:0:0:0:
256,32,350581,1,0,0:0:0:0:
256,192,350915,1,0,0:0:0:0:
32,192,351248,1,0,0:0:0:0:
32,352,351581,1,0,0:0:0:0:
256,352,351915,1,0,0:0:0:0:
480,352,352248,1,0,0:0:0:0:
480,192,352581,1,0,0:0:0:0:
480,192,352748,1,0,0:0:0:0:
480,192,352915,1,0,0:0:0:0:
480,32,353248,1,0,0:0:0:0:
256,32,353581,1,0,0:0:0:0:
256,192,353915,1,0,0:0:0:0:
480,192,354248,1,0,0:0:0:0:
480,32,354581,1,0,0:0:0:0:
256,32,354915,1,0,0:0:0:0:
256,192,355248,1,0,0:0:0:0:
256,192,355415,1,0,0:0:0:0:
256,192,355582,1,0,0:0:0:0:
480,192,355915,1,0,0:0:0:0:
480,352,356248,1,0,0:0:0:0:
256,352,356582,1,0,0:0:0:0:
24,352,356915,1,0,0:0:0:0:
24,192,357248,1,0,0:0:0:0:
256,192,357582,1,0,0:0:0:0:
480,192,357915,1,0,0:0:0:0:
480,32,358248,1,0,0:0:0:0:
480,32,358414,1,0,0:0:0:0:
480,32,358581,1,0,0:0:0:0:
480,32,358915,1,0,0:0:0:0:
480,32,359081,1,0,0:0:0:0:
480,32,359248,1,0,0:0:0:0:
256,192,359581,12,0,362915,0:0:0:0:
33,347,363583,5,0,0:0:0:0:
70,339,363645,1,0,0:0:0:0:
107,330,363708,1,0,0:0:0:0:
142,316,363770,1,0,0:0:0:0:
176,297,363833,1,0,0:0:0:0:
206,273,363895,1,0,0:0:0:0:
232,244,363958,1,0,0:0:0:0:
251,211,364020,1,0,0:0:0:0:
267,175,364083,1,0,0:0:0:0:
299,195,364145,1,0,0:0:0:0:
335,208,364208,1,0,0:0:0:0:
373,210,364270,1,0,0:0:0:0:
410,200,364333,1,0,0:0:0:0:
441,178,364395,1,0,0:0:0:0:
464,147,364458,1,0,0:0:0:0:
474,110,364520,1,0,0:0:0:0:
478,71,364583,1,0,0:0:0:0:
475,32,364645,1,0,0:0:0:0:
443,55,364708,1,0,0:0:0:0:
414,80,364770,1,0,0:0:0:0:
376,90,364833,1,0,0:0:0:0:
338,94,364895,1,0,0:0:0:0:
299,91,364958,1,0,0:0:0:0:
261,83,365020,1,0,0:0:0:0:
224,71,365083,1,0,0:0:0:0:
190,53,365145,1,0,0:0:0:0:
158,30,365208,1,0,0:0:0:0:
138,62,365270,1,0,0:0:0:0:
130,100,365333,1,0,0:0:0:0:
129,138,365395,1,0,0:0:0:0:
137,175,365458,1,0,0:0:0:0:
153,209,365520,1,0,0:0:0:0:
177,239,365583,1,0,0:0:0:0:
204,265,365645,1,0,0:0:0:0:
236,285,365708,1,0,0:0:0:0:
271,299,365770,1,0,0:0:0:0:
309,304,365833,1,0,0:0:0:0:
347,301,365895,1,0,0:0:0:0:
384,291,365958,1,0,0:0:0:0:
418,274,366020,1,0,0:0:0:0:
449,251,366083,1,0,0:0:0:0:
472,221,366145,1,0,0:0:0:0:
482,183,366208,1,0,0:0:0:0:
446,197,366270,1,0,0:0:0:0:
407,203,366333,1,0,0:0:0:0:
368,203,366395,1,0,0:0:0:0:
329,196,366458,1,0,0:0:0:0:
293,183,366520,1,0,0:0:0:0:
261,159,366583,1,0,0:0:0:0:
239,127,366645,1,0,0:0:0:0:
228,89,366708,1,0,0:0:0:0:
226,50,366770,1,0,0:0:0:0:
196,75,366833,1,0,0:0:0:0:
168,101,366895,1,0,0:0:0:0:
135,121,366958,1,0,0:0:0:0:
98,131,367020,1,0,0:0:0:0:
59,137,367083,1,0,0:0:0:0:
67,174,367145,1,0,0:0:0:0:
85,208,367208,1,0,0:0:0:0:
110,236,367270,1,0,0:0:0:0:
139,260,367333,1,0,0:0:0:0:
172,277,367395,1,0,0:0:0:0:
209,287,367458,1,0,0:0:0:0:
246,291,367520,1,0,0:0:0:0:
239,252,367583,1,0,0:0:0:0:
232,214,367645,1,0,0:0:0:0:
228,175,367708,1,0,0:0:0:0:
230,136,367770,1,0,0:0:0:0:
236,97,367833,1,0,0:0:0:0:
267,118,367895,1,0,0:0:0:0:
298,140,367958,1,0,0:0:0:0:
332,157,368020,1,0,0:0:0:0:
369,165,368083,1,0,0:0:0:0:
406,170,368145,1,0,0:0:0:0:
444,163,368208,1,0,0:0:0:0:
477,145,368270,1,0,0:0:0:0:
476,183,368333,1,0,0:0:0:0:
471,220,368395,1,0,0:0:0:0:
460,257,368458,1,0,0:0:0:0:
440,289,368520,1,0,0:0:0:0:
414,318,368583,1,0,0:0:0:0:
376,325,368645,1,0,0:0:0:0:
337,325,368708,1,0,0:0:0:0:
300,313,368770,1,0,0:0:0:0:
264,296,368833,1,0,0:0:0:0:
231,276,368895,1,0,0:0:0:0:
200,251,368958,1,0,0:0:0:0:
172,224,369020,1,0,0:0:0:0:
147,194,369083,1,0,0:0:0:0:
126,161,369145,1,0,0:0:0:0:
109,125,369208,1,0,0:0:0:0:
98,88,369270,1,0,0:0:0:0:
88,50,369333,1,0,0:0:0:0:
122,66,369395,1,0,0:0:0:0:
157,81,369458,1,0,0:0:0:0:
193,91,369520,1,0,0:0:0:0:
231,98,369583,1,0,0:0:0:0:
269,100,369645,1,0,0:0:0:0:
307,99,369708,1,0,0:0:0:0:
344,91,369770,1,0,0:0:0:0:
380,78,369833,1,0,0:0:0:0:
392,113,369895,1,0,0:0:0:0:
399,151,369958,1,0,0:0:0:0:
399,189,370020,1,0,0:0:0:0:
392,227,370083,1,0,0:0:0:0:
378,262,370145,1,0,0:0:0:0:
360,296,370208,1,0,0:0:0:0:
338,327,370270,1,0,0:0:0:0:
306,349,370333,1,0,0:0:0:0:
269,359,370395,1,0,0:0:0:0:
230,359,370458,1,0,0:0:0:0:
192,350,370520,1,0,0:0:0:0:
159,328,370583,1,0,0:0:0:0:
141,294,370645,1,0,0:0:0:0:
130,256,370708,1,0,0:0:0:0:
122,218,370770,1,0,0:0:0:0:
121,179,370833,1,0,0:0:0:0:
124,140,370895,1,0,0:0:0:0:
131,101,370958,1,0,0:0:0:0:
141,64,371020,1,0,0:0:0:0:
157,28,371083,1,0,0:0:0:0:
182,56,371145,1,0,0:0:0:0:
209,83,371208,1,0,0:0:0:0:
239,105,371270,1,0,0:0:0:0:
273,123,371333,1,0,0:0:0:0:
308,137,371395,1,0,0:0:0:0:
344,149,371458,1,0,0:0:0:0:
380,158,371520,1,0,0:0:0:0:
418,165,371583,1,0,0:0:0:0:
406,201,371645,1,0,0:0:0:0:
387,235,371708,1,0,0:0:0:0:
361,263,371770,1,0,0:0:0:0:
330,286,371833,1,0,0:0:0:0:
297,306,371895,1,0,0:0:0:0:
262,323,371958,1,0,0:0:0:0:
226,337,372020,1,0,0:0:0:0:
188,346,372083,1,0,0:0:0:0:
150,352,372145,1,0,0:0:0:0:
111,351,372208,1,0,0:0:0:0:
73,342,372270,1,0,0:0:0:0:
40,320,372333,1,0,0:0:0:0:
17,289,372395,1,0,0:0:0:0:
55,282,372458,1,0,0:0:0:0:
92,275,372520,1,0,0:0:0:0:
129,265,372583,1,0,0:0:0:0:
160,243,372645,1,0,0:0:0:0:
188,216,372708,1,0,0:0:0:0:
209,184,372770,1,0,0:0:0:0:
222,147,372833,1,0,0:0:0:0:
229,109,372895,1,0,0:0:0:0:
231,70,372958,1,0,0:0:0:0:
226,32,373020,1,0,0:0:0:0:
249,62,373083,1,0,0:0:0:0:
274,90,373145,1,0,0:0:0:0:
304,114,373208,1,0,0:0:0:0:
336,133,373270,1,0,0:0:0:0:
370,150,373333,1,0,0:0:0:0:
405,163,373395,1,0,0:0:0:0:
442,174,373458,1,0,0:0:0:0:
479,182,373520,1,0,0:0:0:0:
463,217,373583,1,0,0:0:0:0:
442,249,373645,1,0,0:0:0:0:
415,277,373708,1,0,0:0:0:0:
385,300,373770,1,0,0:0:0:0:
350,317,373833,1,0,0:0:0:0:
313,328,373895,1,0,0:0:0:0:
274,333,373958,1,0,0:0:0:0:
235,329,374020,1,0,0:0:0:0:
204,304,374083,1,0,0:0:0:0:
176,277,374145,1,0,0:0:0:0:
176,238,374208,1,0,0:0:0:0:
177,199,374270,1,0,0:0:0:0:
197,166,374333,1,0,0:0:0:0:
233,156,374395,1,0,0:0:0:0:
271,153,374458,1,0,0:0:0:0:
309,151,374520,1,0,0:0:0:0:
347,146,374583,1,0,0:0:0:0:
382,132,374645,1,0,0:0:0:0:
413,108,374708,1,0,0:0:0:0:
434,76,374770,1,0,0:0:0:0:
440,37,374833,1,0,0:0:0:0:
471,58,374895,1,0,0:0:0:0:
487,93,374958,1,0,0:0:0:0:
487,131,375020,1,0,0:0:0:0:
479,169,375083,1,0,0:0:0:0:
469,206,375145,1,0,0:0:0:0:
451,240,375208,1,0,0:0:0:0:
430,272,375270,1,0,0:0:0:0:
403,300,375333,1,0,0:0:0:0:
371,321,375395,1,0,0:0:0:0:
333,329,375458,1,0,0:0:0:0:
294,329,375520,1,0,0:0:0:0:
257,316,375583,1,0,0:0:0:0:
224,295,375645,1,0,0:0:0:0:
196,267,375708,1,0,0:0:0:0:
175,234,375770,1,0,0:0:0:0:
158,198,375833,1,0,0:0:0:0:
146,161,375895,1,0,0:0:0:0:
140,122,375958,1,0,0:0:0:0:
140,83,376020,1,0,0:0:0:0:
167,110,376083,1,0,0:0:0:0:
195,135,376145,1,0,0:0:0:0:
227,156,376208,1,0,0:0:0:0:
262,171,376270,1,0,0:0:0:0:
299,182,376333,1,0,0:0:0:0:
337,182,376395,1,0,0:0:0:0:
374,171,376458,1,0,0:0:0:0:
407,152,376520,1,0,0:0:0:0:
433,124,376583,1,0,0:0:0:0:
450,90,376645,1,0,0:0:0:0:
460,127,376708,1,0,0:0:0:0:
466,164,376770,1,0,0:0:0:0:
468,202,376833,1,0,0:0:0:0:
468,240,376895,1,0,0:0:0:0:
462,278,376958,1,0,0:0:0:0:
449,314,377020,1,0,0:0:0:0:
422,342,377083,1,0,0:0:0:0:
386,355,377145,1,0,0:0:0:0:
347,357,377208,1,0,0:0:0:0:
309,351,377270,1,0,0:0:0:0:
272,337,377333,1,0,0:0:0:0:
239,316,377395,1,0,0:0:0:0:
211,288,377458,1,0,0:0:0:0:
189,256,377520,1,0,0:0:0:0:
174,220,377583,1,0,0:0:0:0:
166,182,377645,1,0,0:0:0:0:
162,143,377708,1,0,0:0:0:0:
169,105,377770,1,0,0:0:0:0:
181,68,377833,1,0,0:0:0:0:
213,47,377895,1,0,0:0:0:0:
251,39,377958,1,0,0:0:0:0:
289,41,378020,1,0,0:0:0:0:
326,49,378083,1,0,0:0:0:0:
359,67,378145,1,0,0:0:0:0:
386,94,378208,1,0,0:0:0:0:
403,127,378270,1,0,0:0:0:0:
415,163,378333,1,0,0:0:0:0:
422,200,378395,1,0,0:0:0:0:
423,238,378458,1,0,0:0:0:0:
418,275,378520,1,0,0:0:0:0:
408,312,378583,1,0,0:0:0:0:
393,347,378645,1,0,0:0:0:0:
362,370,378708,1,0,0:0:0:0:
328,352,378770,1,0,0:0:0:0:
296,329,378833,1,0,0:0:0:0:
269,301,378895,1,0,0:0:0:0:
251,266,378958,1,0,0:0:0:0:
239,229,379020,1,0,0:0:0:0:
233,190,379083,1,0,0:0:0:0:
234,151,379145,1,0,0:0:0:0:
243,113,379208,1,0,0:0:0:0:
262,80,379270,1,0,0:0:0:0:
292,56,379333,1,0,0:0:0:0:
327,42,379395,1,0,0:0:0:0:
365,35,379458,1,0,0:0:0:0:
402,40,379520,1,0,0:0:0:0:
436,56,379583,37,0,0:0:0:0:
457,87,379645,1,0,0:0:0:0:
463,125,379708,1,0,0:0:0:0:
462,163,379770,1,0,0:0:0:0:
458,201,379833,1,0,0:0:0:0:
446,237,379895,1,0,0:0:0:0:
429,272,379958,1,0,0:0:0:0:
409,304,380020,1,0,0:0:0:0:
387,336,380083,1,0,0:0:0:0:
356,358,380145,1,0,0:0:0:0:
355,319,380208,1,0,0:0:0:0:
350,281,380270,1,0,0:0:0:0:
331,247,380333,1,0,0:0:0:0:
308,216,380395,1,0,0:0:0:0:
278,191,380458,1,0,0:0:0:0:
244,172,380520,1,0,0:0:0:0:
206,161,380583,1,0,0:0:0:0:
167,157,380645,1,0,0:0:0:0:
128,158,380708,1,0,0:0:0:0:
90,163,380770,1,0,0:0:0:0:
53,176,380833,1,0,0:0:0:0:
39,140,380895,1,0,0:0:0:0:
33,101,380958,1,0,0:0:0:0:
41,63,381020,1,0,0:0:0:0:
52,25,381083,1,0,0:0:0:0:
87,38,381145,1,0,0:0:0:0:
114,65,381208,1,0,0:0:0:0:
145,86,381270,1,0,0:0:0:0:
181,98,381333,1,0,0:0:0:0:
219,98,381395,1,0,0:0:0:0:
257,90,381458,1,0,0:0:0:0:
289,69,381520,1,0,0:0:0:0:
317,43,381583,1,0,0:0:0:0:
343,70,381645,1,0,0:0:0:0:
356,106,381708,1,0,0:0:0:0:
365,142,381770,1,0,0:0:0:0:
361,180,381833,1,0,0:0:0:0:
351,217,381895,1,0,0:0:0:0:
333,251,381958,1,0,0:0:0:0:
304,275,382020,1,0,0:0:0:0:
269,292,382083,1,0,0:0:0:0:
231,301,382145,1,0,0:0:0:0:
192,297,382208,1,0,0:0:0:0:
158,279,382270,1,0,0:0:0:0:
129,252,382333,1,0,0:0:0:0:
107,220,382395,1,0,0:0:0:0:
99,181,382458,1,0,0:0:0:0:
95,142,382520,1,0,0:0:0:0:
95,103,382583,1,0,0:0:0:0:
102,65,382645,1,0,0:0:0:0:
132,41,382708,1,0,0:0:0:0:
167,26,382770,1,0,0:0:0:0:
205,24,382833,1,0,0:0:0:0:
240,37,382895,1,0,0:0:0:0:
269,62,382958,1,0,0:0:0:0:
245,91,383020,1,0,0:0:0:0:
232,127,383083,1,0,0:0:0:0:
236,164,383145,1,0,0:0:0:0:
248,200,383208,1,0,0:0:0:0:
272,229,383270,1,0,0:0:0:0:
306,247,383333,1,0,0:0:0:0:
343,253,383395,1,0,0:0:0:0:
381,252,383458,1,0,0:0:0:0:
415,234,383520,1,0,0:0:0:0:
442,206,383583,1,0,0:0:0:0:
460,172,383645,1,0,0:0:0:0:
466,133,383708,1,0,0:0:0:0:
466,94,383770,1,0,0:0:0:0:
430,109,383833,1,0,0:0:0:0:
400,133,383895,1,0,0:0:0:0:
365,150,383958,1,0,0:0:0:0:
328,162,384020,1,0,0:0:0:0:
289,169,384083,1,0,0:0:0:0:
250,169,384145,1,0,0:0:0:0:
211,167,384208,1,0,0:0:0:0:
176,149,384270,1,0,0:0:0:0:
143,128,384333,1,0,0:0:0:0:
117,99,384395,1,0,0:0:0:0:
84,119,384458,1,0,0:0:0:0:
80,157,384520,1,0,0:0:0:0:
90,194,384583,1,0,0:0:0:0:
103,229,384645,1,0,0:0:0:0:
126,260,384708,1,0,0:0:0:0:
153,286,384770,1,0,0:0:0:0:
184,308,384833,1,0,0:0:0:0:
218,323,384895,1,0,0:0:0:0:
255,332,384958,1,0,0:0:0:0:
292,335,385020,1,0,0:0:0:0:
330,330,385083,1,0,0:0:0:0:
366,317,385145,1,0,0:0:0:0:
398,296,385208,1,0,0:0:0:0:
424,268,385270,1,0,0:0:0:0:
441,233,385333,1,0,0:0:0:0:
451,196,385395,1,0,0:0:0:0:
451,157,385458,1,0,0:0:0:0:
445,119,385520,1,0,0:0:0:0:
425,85,385583,1,0,0:0:0:0:
397,57,385645,1,0,0:0:0:0:
360,42,385708,1,0,0:0:0:0:
321,42,385770,1,0,0:0:0:0:
330,79,385833,1,0,0:0:0:0:
334,116,385895,1,0,0:0:0:0:
334,154,385958,1,0,0:0:0:0:
328,191,386020,1,0,0:0:0:0:
318,228,386083,1,0,0:0:0:0:
303,263,386145,1,0,0:0:0:0:
278,293,386208,1,0,0:0:0:0:
247,316,386270,1,0,0:0:0:0:
210,329,386333,1,0,0:0:0:0:
171,329,386395,1,0,0:0:0:0:
132,321,386458,1,0,0:0:0:0:
98,303,386520,1,0,0:0:0:0:
75,271,386583,1,0,0:0:0:0:
67,233,386645,1,0,0:0:0:0:
62,194,386708,1,0,0:0:0:0:
62,155,386770,1,0,0:0:0:0:
67,116,386833,1,0,0:0:0:0:
75,78,386895,1,0,0:0:0:0:
102,105,386958,1,0,0:0:0:0:
130,130,387020,1,0,0:0:0:0:
161,152,387083,1,0,0:0:0:0:
195,168,387145,1,0,0:0:0:0:
232,176,387208,1,0,0:0:0:0:
270,177,387270,1,0,0:0:0:0:
308,172,387333,1,0,0:0:0:0:
344,160,387395,1,0,0:0:0:0:
375,137,387458,1,0,0:0:0:0:
395,104,387520,1,0,0:0:0:0:
414,137,387583,1,0,0:0:0:0:
422,174,387645,1,0,0:0:0:0:
415,212,387708,1,0,0:0:0:0:
403,248,387770,1,0,0:0:0:0:
377,277,387833,1,0,0:0:0:0:
348,302,387895,1,0,0:0:0:0:
312,317,387958,1,0,0:0:0:0:
274,324,388020,1,0,0:0:0:0:
235,323,388083,1,0,0:0:0:0:
197,318,388145,1,0,0:0:0:0:
162,300,388208,1,0,0:0:0:0:
133,274,388270,1,0,0:0:0:0:
112,241,388333,1,0,0:0:0:0:
97,205,388395,1,0,0:0:0:0:
134,215,388458,1,0,0:0:0:0:
170,224,388520,1,0,0:0:0:0:
208,229,388583,1,0,0:0:0:0:
246,231,388645,1,0,0:0:0:0:
284,230,388708,1,0,0:0:0:0:
321,224,388770,1,0,0:0:0:0:
358,212,388833,1,0,0:0:0:0:
328,188,388895,1,0,0:0:0:0:
293,170,388958,1,0,0:0:0:0:
260,149,389020,1,0,0:0:0:0:
223,135,389083,1,0,0:0:0:0:
185,129,389145,1,0,0:0:0:0:
146,135,389208,1,0,0:0:0:0:
108,139,389270,1,0,0:0:0:0:
132,168,389333,1,0,0:0:0:0:
156,197,389395,1,0,0:0:0:0:
166,234,389458,1,0,0:0:0:0:
172,271,389520,1,0,0:0:0:0:
170,309,389583,1,0,0:0:0:0:
203,290,389645,1,0,0:0:0:0:
237,273,389708,1,0,0:0:0:0:
274,266,389770,1,0,0:0:0:0:
312,264,389833,1,0,0:0:0:0:
349,269,389895,1,0,0:0:0:0:
386,280,389958,1,0,0:0:0:0:
379,242,390020,1,0,0:0:0:0:
369,204,390083,1,0,0:0:0:0:
352,169,390145,1,0,0:0:0:0:
331,135,390208,1,0,0:0:0:0:
303,107,390270,1,0,0:0:0:0:
270,85,390333,1,0,0:0:0:0:
235,69,390395,1,0,0:0:0:0:
196,61,390458,1,0,0:0:0:0:
157,58,390520,1,0,0:0:0:0:
118,60,390583,1,0,0:0:0:0:
143,88,390645,1,0,0:0:0:0:
167,118,390708,1,0,0:0:0:0:
185,151,390770,1,0,0:0:0:0:
199,187,390833,1,0,0:0:0:0:
201,225,390895,1,0,0:0:0:0:
198,263,390958,1,0,0:0:0:0:
183,298,391020,1,0,0:0:0:0:
218,281,391083,1,0,0:0:0:0:
249,258,391145,1,0,0:0:0:0:
282,238,391208,1,0,0:0:0:0:
318,225,391270,1,0,0:0:0:0:
355,217,391333,1,0,0:0:0:0:
393,218,391395,1,0,0:0:0:0:
431,225,391458,1,0,0:0:0:0:
421,188,391520,1,0,0:0:0:0:
405,152,391583,1,0,0:0:0:0:
388,117,391645,1,0,0:0:0:0:
365,85,391708,1,0,0:0:0:0:
332,64,391770,1,0,0:0:0:0:
295,50,391833,1,0,0:0:0:0:
256,47,391895,1,0,0:0:0:0:
217,52,391958,1,0,0:0:0:0:
182,67,392020,1,0,0:0:0:0:
153,93,392083,1,0,0:0:0:0:
138,128,392145,1,0,0:0:0:0:
141,166,392208,1,0,0:0:0:0:
158,199,392270,1,0,0:0:0:0:
183,228,392333,1,0,0:0:0:0:
213,251,392395,1,0,0:0:0:0:
231,216,392458,1,0,0:0:0:0:
249,182,392520,1,0,0:0:0:0:
273,151,392583,1,0,0:0:0:0:
304,129,392645,1,0,0:0:0:0:
339,112,392708,1,0,0:0:0:0:
376,105,392770,1,0,0:0:0:0:
414,107,392833,1,0,0:0:0:0:
449,121,392895,1,0,0:0:0:0:
424,151,392958,1,0,0:0:0:0:
410,186,393020,1,0,0:0:0:0:
406,224,393083,1,0,0:0:0:0:
410,261,393145,1,0,0:0:0:0:
418,298,393208,1,0,0:0:0:0:
382,285,393270,1,0,0:0:0:0:
345,271,393333,1,0,0:0:0:0:
307,264,393395,1,0,0:0:0:0:
268,262,393458,1,0,0:0:0:0:
229,262,393520,1,0,0:0:0:0:
191,271,393583,1,0,0:0:0:0:
154,281,393645,1,0,0:0:0:0:
117,295,393708,1,0,0:0:0:0:
80,305,393770,1,0,0:0:0:0:
42,315,393833,1,0,0:0:0:0:
47,277,393895,1,0,0:0:0:0:
56,239,393958,1,0,0:0:0:0:
67,202,394020,1,0,0:0:0:0:
83,166,394083,1,0,0:0:0:0:
101,132,394145,1,0,0:0:0:0:
124,101,394208,1,0,0:0:0:0:
152,75,394270,1,0,0:0:0:0:
186,58,394333,1,0,0:0:0:0:
223,50,394395,1,0,0:0:0:0:
261,49,394458,1,0,0:0:0:0:
297,61,394520,1,0,0:0:0:0:
331,78,394583,1,0,0:0:0:0:
357,105,394645,1,0,0:0:0:0:
373,139,394708,1,0,0:0:0:0:
384,175,394770,1,0,0:0:0:0:
387,213,394833,1,0,0:0:0:0:
379,250,394895,1,0,0:0:0:0:
356,281,394958,1,0,0:0:0:0:
324,302,395020,1,0,0:0:0:0:
287,315,395083,1,0,0:0:0:0:
249,319,395145,1,0,0:0:0:0:
210,314,395208,1,0,0:0:0:0:
175,298,395270,1,0,0:0:0:0:
147,270,395333,1,0,0:0:0:0:
127,237,395395,1,0,0:0:0:0:
116,199,395458,1,0,0:0:0:0:
117,160,395520,1,0,0:0:0:0:
126,122,395583,5,0,0:0:0:0:
279,137,395833,1,0,0:0:0:0:
189,262,396083,1,0,0:0:0:0:
126,122,396333,1,0,0:0:0:0:
279,137,396583,1,0,0:0:0:0:
189,262,396833,1,0,0:0:0:0:
126,122,397083,1,0,0:0:0:0:
279,137,397333,1,0,0:0:0:0:
417,204,397583,1,0,0:0:0:0:
390,231,397645,1,0,0:0:0:0:
362,258,397708,1,0,0:0:0:0:
325,270,397770,1,0,0:0:0:0:
286,277,397833,1,0,0:0:0:0:
247,277,397895,1,0,0:0:0:0:
208,270,397958,1,0,0:0:0:0:
174,252,398020,1,0,0:0:0:0:
145,225,398083,1,0,0:0:0:0:
182,216,398145,1,0,0:0:0:0:
218,203,398208,1,0,0:0:0:0:
251,184,398270,1,0,0:0:0:0:
283,162,398333,1,0,0:0:0:0:
309,134,398395,1,0,0:0:0:0:
331,102,398458,1,0,0:0:0:0:
340,64,398520,1,0,0:0:0:0:
343,25,398583,1,0,0:0:0:0:
375,45,398645,1,0,0:0:0:0:
401,73,398708,1,0,0:0:0:0:
418,106,398770,1,0,0:0:0:0:
430,142,398833,1,0,0:0:0:0:
438,179,398895,1,0,0:0:0:0:
438,217,398958,1,0,0:0:0:0:
435,255,399020,1,0,0:0:0:0:
420,290,399083,1,0,0:0:0:0:
402,323,399145,1,0,0:0:0:0:
375,351,399208,1,0,0:0:0:0:
338,361,399270,1,0,0:0:0:0:
299,354,399333,1,0,0:0:0:0:
266,334,399395,1,0,0:0:0:0:
242,302,399458,1,0,0:0:0:0:
233,264,399520,1,0,0:0:0:0:
230,225,399583,1,0,0:0:0:0:
383,220,399833,1,0,0:0:0:0:
230,225,400083,1,0,0:0:0:0:
383,220,400333,1,0,0:0:0:0:
230,225,400583,1,0,0:0:0:0:
383,219,400833,1,0,0:0:0:0:
230,225,401083,1,0,0:0:0:0:
383,220,401333,1,0,0:0:0:0:
247,293,401583,1,0,0:0:0:0:
209,301,401645,1,0,0:0:0:0:
170,302,401708,1,0,0:0:0:0:
133,290,401770,1,0,0:0:0:0:
100,269,401833,1,0,0:0:0:0:
80,236,401895,1,0,0:0:0:0:
64,200,401958,1,0,0:0:0:0:
57,162,402020,1,0,0:0:0:0:
55,123,402083,1,0,0:0:0:0:
60,85,402145,1,0,0:0:0:0:
80,52,402208,1,0,0:0:0:0:
114,34,402270,1,0,0:0:0:0:
152,27,402333,1,0,0:0:0:0:
190,26,402395,1,0,0:0:0:0:
228,32,402458,1,0,0:0:0:0:
262,47,402520,1,0,0:0:0:0:
290,72,402583,1,0,0:0:0:0:
314,101,402645,1,0,0:0:0:0:
336,132,402708,1,0,0:0:0:0:
355,164,402770,1,0,0:0:0:0:
379,193,402833,1,0,0:0:0:0:
409,216,402895,1,0,0:0:0:0:
443,234,402958,1,0,0:0:0:0:
424,267,403020,1,0,0:0:0:0:
391,288,403083,1,0,0:0:0:0:
354,298,403145,1,0,0:0:0:0:
315,300,403208,1,0,0:0:0:0:
276,297,403270,1,0,0:0:0:0:
237,289,403333,1,0,0:0:0:0:
201,274,403395,1,0,0:0:0:0:
167,254,403458,1,0,0:0:0:0:
138,228,403520,1,0,0:0:0:0:
115,196,403583,1,0,0:0:0:0:
115,42,403833,1,0,0:0:0:0:
119,195,404083,1,0,0:0:0:0:
115,42,404333,1,0,0:0:0:0:
119,195,404583,1,0,0:0:0:0:
115,42,404833,1,0,0:0:0:0:
119,195,405083,1,0,0:0:0:0:
115,42,405333,1,0,0:0:0:0:
119,195,405583,1,0,0:0:0:0:
156,186,405645,1,0,0:0:0:0:
192,173,405708,1,0,0:0:0:0:
229,164,405770,1,0,0:0:0:0:
267,162,405833,1,0,0:0:0:0:
304,167,405895,1,0,0:0:0:0:
339,181,405958,1,0,0:0:0:0:
369,204,406020,1,0,0:0:0:0:
389,237,406083,1,0,0:0:0:0:
395,274,406145,1,0,0:0:0:0:
387,312,406208,1,0,0:0:0:0:
363,341,406270,1,0,0:0:0:0:
328,359,406333,1,0,0:0:0:0:
290,367,406395,1,0,0:0:0:0:
251,364,406458,1,0,0:0:0:0:
213,354,406520,1,0,0:0:0:0:
180,333,406583,1,0,0:0:0:0:
161,299,406645,1,0,0:0:0:0:
155,260,406708,1,0,0:0:0:0:
160,222,406770,1,0,0:0:0:0:
178,187,406833,1,0,0:0:0:0:
207,162,406895,1,0,0:0:0:0:
234,134,406958,1,0,0:0:0:0:
251,100,407020,1,0,0:0:0:0:
251,61,407083,1,0,0:0:0:0:
231,27,407145,1,0,0:0:0:0:
193,16,407208,1,0,0:0:0:0:
156,26,407270,1,0,0:0:0:0:
127,52,407333,1,0,0:0:0:0:
118,89,407395,1,0,0:0:0:0:
116,127,407458,1,0,0:0:0:0:
120,164,407520,1,0,0:0:0:0:
136,199,407583,1,0,0:0:0:0:
283,244,407833,1,0,0:0:0:0:
136,199,408083,1,0,0:0:0:0:
283,244,408333,1,0,0:0:0:0:
136,199,408583,1,0,0:0:0:0:
283,244,408833,1,0,0:0:0:0:
136,199,409083,1,0,0:0:0:0:
283,244,409333,1,0,0:0:0:0:
147,316,409583,1,0,0:0:0:0:
108,314,409645,1,0,0:0:0:0:
71,300,409708,1,0,0:0:0:0:
44,272,409770,1,0,0:0:0:0:
33,234,409833,1,0,0:0:0:0:
32,195,409895,1,0,0:0:0:0:
63,217,409958,1,0,0:0:0:0:
98,229,410020,1,0,0:0:0:0:
136,233,410083,1,0,0:0:0:0:
174,230,410145,1,0,0:0:0:0:
211,220,410208,1,0,0:0:0:0:
244,202,410270,1,0,0:0:0:0:
270,230,410333,1,0,0:0:0:0:
304,245,410395,1,0,0:0:0:0:
342,249,410458,1,0,0:0:0:0:
377,235,410520,1,0,0:0:0:0:
408,212,410583,1,0,0:0:0:0:
432,182,410645,1,0,0:0:0:0:
437,143,410708,1,0,0:0:0:0:
424,106,410770,1,0,0:0:0:0:
396,78,410833,1,0,0:0:0:0:
360,63,410895,1,0,0:0:0:0:
322,54,410958,1,0,0:0:0:0:
283,54,411020,1,0,0:0:0:0:
245,64,411083,1,0,0:0:0:0:
214,86,411145,1,0,0:0:0:0:
189,115,411208,1,0,0:0:0:0:
174,150,411270,1,0,0:0:0:0:
171,188,411333,1,0,0:0:0:0:
183,224,411395,1,0,0:0:0:0:
205,255,411458,1,0,0:0:0:0:
234,279,411520,1,0,0:0:0:0:
271,290,411583,1,0,0:0:0:0:
67,85,427583,5,0,0:0:0:0:
103,74,427645,1,0,0:0:0:0:
141,66,427708,1,0,0:0:0:0:
179,64,427770,1,0,0:0:0:0:
216,73,427833,1,0,0:0:0:0:
251,87,427895,1,0,0:0:0:0:
287,100,427958,1,0,0:0:0:0:
324,108,428020,1,0,0:0:0:0:
362,110,428083,1,0,0:0:0:0:
399,104,428145,1,0,0:0:0:0:
434,87,428208,1,0,0:0:0:0:
465,65,428270,1,0,0:0:0:0:
478,101,428333,1,0,0:0:0:0:
481,139,428395,1,0,0:0:0:0:
482,177,428458,1,0,0:0:0:0:
476,214,428520,1,0,0:0:0:0:
467,251,428583,1,0,0:0:0:0:
454,287,428645,1,0,0:0:0:0:
430,317,428708,1,0,0:0:0:0:
402,343,428770,1,0,0:0:0:0:
367,360,428833,1,0,0:0:0:0:
329,369,428895,1,0,0:0:0:0:
290,371,428958,1,0,0:0:0:0:
251,369,429020,1,0,0:0:0:0:
213,360,429083,1,0,0:0:0:0:
177,346,429145,1,0,0:0:0:0:
144,325,429208,1,0,0:0:0:0:
116,297,429270,1,0,0:0:0:0:
96,263,429333,1,0,0:0:0:0:
85,226,429395,1,0,0:0:0:0:
80,187,429458,1,0,0:0:0:0:
78,148,429520,1,0,0:0:0:0:
83,109,429583,1,0,0:0:0:0:
94,72,429645,1,0,0:0:0:0:
114,38,429708,1,0,0:0:0:0:
148,22,429770,1,0,0:0:0:0:
185,13,429833,1,0,0:0:0:0:
223,10,429895,1,0,0:0:0:0:
261,16,429958,1,0,0:0:0:0:
295,33,430020,1,0,0:0:0:0:
269,62,430083,1,0,0:0:0:0:
250,95,430145,1,0,0:0:0:0:
240,132,430208,1,0,0:0:0:0:
238,170,430270,1,0,0:0:0:0:
247,207,430333,1,0,0:0:0:0:
262,241,430395,1,0,0:0:0:0:
287,270,430458,1,0,0:0:0:0:
321,286,430520,1,0,0:0:0:0:
359,293,430583,1,0,0:0:0:0:
397,290,430645,1,0,0:0:0:0:
433,276,430708,1,0,0:0:0:0:
463,253,430770,1,0,0:0:0:0:
479,218,430833,1,0,0:0:0:0:
487,180,430895,1,0,0:0:0:0:
486,141,430958,1,0,0:0:0:0:
472,105,431020,1,0,0:0:0:0:
448,74,431083,1,0,0:0:0:0:
413,58,431145,1,0,0:0:0:0:
374,53,431208,1,0,0:0:0:0:
335,54,431270,1,0,0:0:0:0:
297,64,431333,1,0,0:0:0:0:
267,88,431395,1,0,0:0:0:0:
241,117,431458,1,0,0:0:0:0:
217,147,431520,1,0,0:0:0:0:
197,180,431583,1,0,0:0:0:0:
176,212,431645,1,0,0:0:0:0:
151,241,431708,1,0,0:0:0:0:
120,264,431770,1,0,0:0:0:0:
81,271,431833,1,0,0:0:0:0:
47,251,431895,1,0,0:0:0:0:
33,214,431958,1,0,0:0:0:0:
33,175,432020,1,0,0:0:0:0:
37,136,432083,1,0,0:0:0:0:
48,99,432145,1,0,0:0:0:0:
69,66,432208,1,0,0:0:0:0:
99,43,432270,1,0,0:0:0:0:
135,31,432333,1,0,0:0:0:0:
173,29,432395,1,0,0:0:0:0:
210,39,432458,1,0,0:0:0:0:
244,55,432520,1,0,0:0:0:0:
276,76,432583,1,0,0:0:0:0:
304,101,432645,1,0,0:0:0:0:
328,131,432708,1,0,0:0:0:0:
343,165,432770,1,0,0:0:0:0:
351,202,432833,1,0,0:0:0:0:
314,190,432895,1,0,0:0:0:0:
279,172,432958,1,0,0:0:0:0:
243,159,433020,1,0,0:0:0:0:
204,152,433083,1,0,0:0:0:0:
165,154,433145,1,0,0:0:0:0:
131,173,433208,1,0,0:0:0:0:
104,200,433270,1,0,0:0:0:0:
89,236,433333,1,0,0:0:0:0:
90,274,433395,1,0,0:0:0:0:
114,304,433458,1,0,0:0:0:0:
146,323,433520,1,0,0:0:0:0:
182,334,433583,1,0,0:0:0:0:
219,337,433645,1,0,0:0:0:0:
256,326,433708,1,0,0:0:0:0:
285,301,433770,1,0,0:0:0:0:
302,266,433833,1,0,0:0:0:0:
305,227,433895,1,0,0:0:0:0:
296,189,433958,1,0,0:0:0:0:
274,157,434020,1,0,0:0:0:0:
244,131,434083,1,0,0:0:0:0:
212,109,434145,1,0,0:0:0:0:
192,75,434208,1,0,0:0:0:0:
200,37,434270,1,0,0:0:0:0:
235,53,434333,1,0,0:0:0:0:
268,71,434395,1,0,0:0:0:0:
303,87,434458,1,0,0:0:0:0:
340,94,434520,1,0,0:0:0:0:
378,97,434583,1,0,0:0:0:0:
416,93,434645,1,0,0:0:0:0:
453,85,434708,1,0,0:0:0:0:
486,66,434770,1,0,0:0:0:0:
480,104,434833,1,0,0:0:0:0:
467,140,434895,1,0,0:0:0:0:
446,173,434958,1,0,0:0:0:0:
427,206,435020,1,0,0:0:0:0:
402,236,435083,1,0,0:0:0:0:
373,261,435145,1,0,0:0:0:0:
340,281,435208,1,0,0:0:0:0:
303,292,435270,1,0,0:0:0:0:
264,293,435333,1,0,0:0:0:0:
226,286,435395,1,0,0:0:0:0:
189,272,435458,1,0,0:0:0:0:
157,250,435520,1,0,0:0:0:0:
130,221,435583,1,0,0:0:0:0:
108,189,435645,1,0,0:0:0:0:
90,154,435708,1,0,0:0:0:0:
80,116,435770,1,0,0:0:0:0:
75,77,435833,1,0,0:0:0:0:
74,38,435895,1,0,0:0:0:0:
107,57,435958,1,0,0:0:0:0:
140,76,436020,1,0,0:0:0:0:
176,89,436083,1,0,0:0:0:0:
213,94,436145,1,0,0:0:0:0:
251,96,436208,1,0,0:0:0:0:
289,94,436270,1,0,0:0:0:0:
327,87,436333,1,0,0:0:0:0:
363,75,436395,1,0,0:0:0:0:
398,60,436458,1,0,0:0:0:0:
432,43,436520,1,0,0:0:0:0:
457,13,436583,1,0,0:0:0:0:
471,48,436645,1,0,0:0:0:0:
477,86,436708,1,0,0:0:0:0:
475,124,436770,1,0,0:0:0:0:
467,162,436833,1,0,0:0:0:0:
456,198,436895,1,0,0:0:0:0:
443,234,436958,1,0,0:0:0:0:
427,268,437020,1,0,0:0:0:0:
403,298,437083,1,0,0:0:0:0:
372,321,437145,1,0,0:0:0:0:
336,335,437208,1,0,0:0:0:0:
299,344,437270,1,0,0:0:0:0:
260,336,437333,1,0,0:0:0:0:
223,324,437395,1,0,0:0:0:0:
190,302,437458,1,0,0:0:0:0:
165,272,437520,1,0,0:0:0:0:
203,278,437583,1,0,0:0:0:0:
236,260,437645,1,0,0:0:0:0:
268,239,437708,1,0,0:0:0:0:
296,213,437770,1,0,0:0:0:0:
319,182,437833,1,0,0:0:0:0:
337,148,437895,1,0,0:0:0:0:
348,110,437958,1,0,0:0:0:0:
351,71,438020,1,0,0:0:0:0:
335,35,438083,1,0,0:0:0:0:
312,65,438145,1,0,0:0:0:0:
284,91,438208,1,0,0:0:0:0:
252,113,438270,1,0,0:0:0:0:
219,134,438333,1,0,0:0:0:0:
182,145,438395,1,0,0:0:0:0:
143,149,438458,1,0,0:0:0:0:
104,152,438520,1,0,0:0:0:0:
65,148,438583,1,0,0:0:0:0:
30,131,438645,1,0,0:0:0:0:
11,97,438708,1,0,0:0:0:0:
48,105,438770,1,0,0:0:0:0:
86,110,438833,1,0,0:0:0:0:
124,106,438895,1,0,0:0:0:0:
162,98,438958,1,0,0:0:0:0:
198,87,439020,1,0,0:0:0:0:
235,76,439083,1,0,0:0:0:0:
272,70,439145,1,0,0:0:0:0:
310,70,439208,1,0,0:0:0:0:
346,80,439270,1,0,0:0:0:0:
381,94,439333,1,0,0:0:0:0:
350,117,439395,1,0,0:0:0:0:
323,145,439458,1,0,0:0:0:0:
302,177,439520,1,0,0:0:0:0:
286,212,439583,1,0,0:0:0:0:
276,248,439645,1,0,0:0:0:0:
275,286,439708,1,0,0:0:0:0:
282,323,439770,1,0,0:0:0:0:
302,355,439833,1,0,0:0:0:0:
334,374,439895,1,0,0:0:0:0:
372,379,439958,1,0,0:0:0:0:
356,344,440020,1,0,0:0:0:0:
336,310,440083,1,0,0:0:0:0:
322,274,440145,1,0,0:0:0:0:
317,235,440208,1,0,0:0:0:0:
311,197,440270,1,0,0:0:0:0:
292,162,440333,1,0,0:0:0:0:
259,141,440395,1,0,0:0:0:0:
225,122,440458,1,0,0:0:0:0:
187,114,440520,1,0,0:0:0:0:
148,114,440583,1,0,0:0:0:0:
167,146,440645,1,0,0:0:0:0:
177,183,440708,1,0,0:0:0:0:
177,221,440770,1,0,0:0:0:0:
173,259,440833,1,0,0:0:0:0:
162,295,440895,1,0,0:0:0:0:
136,324,440958,1,0,0:0:0:0:
106,348,441020,1,0,0:0:0:0:
67,341,441083,1,0,0:0:0:0:
36,317,441145,1,0,0:0:0:0:
21,281,441208,1,0,0:0:0:0:
17,242,441270,1,0,0:0:0:0:
22,203,441333,1,0,0:0:0:0:
30,165,441395,1,0,0:0:0:0:
45,129,441458,1,0,0:0:0:0:
65,97,441520,1,0,0:0:0:0:
94,72,441583,1,0,0:0:0:0:
126,52,441645,1,0,0:0:0:0:
163,42,441708,1,0,0:0:0:0:
201,38,441770,1,0,0:0:0:0:
239,40,441833,1,0,0:0:0:0:
211,66,441895,1,0,0:0:0:0:
194,101,441958,1,0,0:0:0:0:
188,138,442020,1,0,0:0:0:0:
188,176,442083,1,0,0:0:0:0:
194,213,442145,1,0,0:0:0:0:
212,247,442208,1,0,0:0:0:0:
235,277,442270,1,0,0:0:0:0:
263,303,442333,1,0,0:0:0:0:
297,318,442395,1,0,0:0:0:0:
334,326,442458,1,0,0:0:0:0:
371,318,442520,1,0,0:0:0:0:
401,294,442583,1,0,0:0:0:0:
426,265,442645,1,0,0:0:0:0:
439,228,442708,1,0,0:0:0:0:
443,190,442770,1,0,0:0:0:0:
437,151,442833,1,0,0:0:0:0:
422,115,442895,1,0,0:0:0:0:
399,83,442958,1,0,0:0:0:0:
369,59,443020,1,0,0:0:0:0:
331,48,443083,1,0,0:0:0:0:
293,43,443145,1,0,0:0:0:0:
313,76,443208,1,0,0:0:0:0:
322,112,443270,1,0,0:0:0:0:
322,150,443333,1,0,0:0:0:0:
318,188,443395,1,0,0:0:0:0:
310,226,443458,1,0,0:0:0:0:
296,261,443520,1,0,0:0:0:0:
275,294,443583,1,0,0:0:0:0:
249,322,443645,1,0,0:0:0:0:
216,343,443708,1,0,0:0:0:0:
178,348,443770,1,0,0:0:0:0:
192,311,443833,1,0,0:0:0:0:
204,274,443895,1,0,0:0:0:0:
212,236,443958,1,0,0:0:0:0:
215,197,444020,1,0,0:0:0:0:
213,158,444083,1,0,0:0:0:0:
207,120,444145,1,0,0:0:0:0:
192,83,444208,1,0,0:0:0:0:
172,49,444270,1,0,0:0:0:0:
142,23,444333,1,0,0:0:0:0:
180,24,444395,1,0,0:0:0:0:
217,35,444458,1,0,0:0:0:0:
251,51,444520,1,0,0:0:0:0:
282,73,444583,1,0,0:0:0:0:
309,98,444645,1,0,0:0:0:0:
332,129,444708,1,0,0:0:0:0:
351,162,444770,1,0,0:0:0:0:
367,197,444833,1,0,0:0:0:0:
380,232,444895,1,0,0:0:0:0:
390,269,444958,1,0,0:0:0:0:
391,307,445020,1,0,0:0:0:0:
361,281,445083,1,0,0:0:0:0:
332,255,445145,1,0,0:0:0:0:
298,234,445208,1,0,0:0:0:0:
264,215,445270,1,0,0:0:0:0:
226,203,445333,1,0,0:0:0:0:
188,195,445395,1,0,0:0:0:0:
149,192,445458,1,0,0:0:0:0:
110,192,445520,1,0,0:0:0:0:
71,199,445583,1,0,0:0:0:0:
35,212,445645,1,0,0:0:0:0:
24,174,445708,1,0,0:0:0:0:
36,137,445770,1,0,0:0:0:0:
52,101,445833,1,0,0:0:0:0:
78,73,445895,1,0,0:0:0:0:
110,52,445958,1,0,0:0:0:0:
146,40,446020,1,0,0:0:0:0:
184,40,446083,1,0,0:0:0:0:
221,47,446145,1,0,0:0:0:0:
255,65,446208,1,0,0:0:0:0:
223,86,446270,1,0,0:0:0:0:
209,122,446333,1,0,0:0:0:0:
202,159,446395,1,0,0:0:0:0:
200,197,446458,1,0,0:0:0:0:
212,233,446520,1,0,0:0:0:0:
229,267,446583,1,0,0:0:0:0:
255,294,446645,1,0,0:0:0:0:
288,312,446708,1,0,0:0:0:0:
324,323,446770,1,0,0:0:0:0:
362,325,446833,1,0,0:0:0:0:
343,291,446895,1,0,0:0:0:0:
323,257,446958,1,0,0:0:0:0:
308,221,447020,1,0,0:0:0:0:
298,183,447083,1,0,0:0:0:0:
295,144,447145,1,0,0:0:0:0:
301,105,447208,1,0,0:0:0:0:
312,68,447270,1,0,0:0:0:0:
336,38,447333,1,0,0:0:0:0:
370,20,447395,1,0,0:0:0:0:
408,18,447458,1,0,0:0:0:0:
390,51,447520,1,0,0:0:0:0:
390,89,447583,1,0,0:0:0:0:
396,126,447645,1,0,0:0:0:0:
403,164,447708,1,0,0:0:0:0:
406,202,447770,1,0,0:0:0:0:
402,240,447833,1,0,0:0:0:0:
389,276,447895,1,0,0:0:0:0:
365,307,447958,1,0,0:0:0:0:
333,328,448020,1,0,0:0:0:0:
294,334,448083,1,0,0:0:0:0:
256,328,448145,1,0,0:0:0:0:
220,312,448208,1,0,0:0:0:0:
191,286,448270,1,0,0:0:0:0:
173,251,448333,1,0,0:0:0:0:
159,215,448395,1,0,0:0:0:0:
149,177,448458,1,0,0:0:0:0:
143,139,448520,1,0,0:0:0:0:
140,100,448583,1,0,0:0:0:0:
171,120,448645,1,0,0:0:0:0:
201,144,448708,1,0,0:0:0:0:
234,162,448770,1,0,0:0:0:0:
270,175,448833,1,0,0:0:0:0:
307,179,448895,1,0,0:0:0:0:
345,175,448958,1,0,0:0:0:0:
380,160,449020,1,0,0:0:0:0:
413,139,449083,1,0,0:0:0:0:
442,114,449145,1,0,0:0:0:0:
458,79,449208,1,0,0:0:0:0:
458,40,449270,1,0,0:0:0:0:
435,8,449333,1,0,0:0:0:0:
415,40,449395,1,0,0:0:0:0:
391,71,449458,1,0,0:0:0:0:
360,93,449520,1,0,0:0:0:0:
325,111,449583,1,0,0:0:0:0:
288,120,449645,1,0,0:0:0:0:
249,125,449708,1,0,0:0:0:0:
210,123,449770,1,0,0:0:0:0:
172,113,449833,1,0,0:0:0:0:
136,99,449895,1,0,0:0:0:0:
104,76,449958,1,0,0:0:0:0:
74,51,450020,1,0,0:0:0:0:
71,89,450083,1,0,0:0:0:0:
71,127,450145,1,0,0:0:0:0:
77,165,450208,1,0,0:0:0:0:
89,201,450270,1,0,0:0:0:0:
106,235,450333,1,0,0:0:0:0:
129,265,450395,1,0,0:0:0:0:
161,286,450458,1,0,0:0:0:0:
196,300,450520,1,0,0:0:0:0:
234,307,450583,1,0,0:0:0:0:
216,272,450645,1,0,0:0:0:0:
210,233,450708,1,0,0:0:0:0:
210,194,450770,1,0,0:0:0:0:
218,156,450833,1,0,0:0:0:0:
231,120,450895,1,0,0:0:0:0:
253,88,450958,1,0,0:0:0:0:
280,60,451020,1,0,0:0:0:0:
317,51,451083,1,0,0:0:0:0:
354,45,451145,1,0,0:0:0:0:
392,48,451208,1,0,0:0:0:0:
366,76,451270,1,0,0:0:0:0:
359,114,451333,1,0,0:0:0:0:
355,152,451395,1,0,0:0:0:0:
357,190,451458,1,0,0:0:0:0:
368,226,451520,1,0,0:0:0:0:
387,259,451583,1,0,0:0:0:0:
411,287,451645,1,0,0:0:0:0:
432,319,451708,1,0,0:0:0:0:
423,356,451770,1,0,0:0:0:0:
393,381,451833,1,0,0:0:0:0:
382,344,451895,1,0,0:0:0:0:
354,316,451958,1,0,0:0:0:0:
324,291,452020,1,0,0:0:0:0:
291,270,452083,1,0,0:0:0:0:
254,258,452145,1,0,0:0:0:0:
215,250,452208,1,0,0:0:0:0:
176,252,452270,1,0,0:0:0:0:
137,256,452333,1,0,0:0:0:0:
102,271,452395,1,0,0:0:0:0:
66,287,452458,1,0,0:0:0:0:
42,316,452520,1,0,0:0:0:0:
27,279,452583,1,0,0:0:0:0:
26,240,452645,1,0,0:0:0:0:
28,201,452708,1,0,0:0:0:0:
36,163,452770,1,0,0:0:0:0:
53,128,452833,1,0,0:0:0:0:
78,99,452895,1,0,0:0:0:0:
114,84,452958,1,0,0:0:0:0:
150,72,453020,1,0,0:0:0:0:
188,64,453083,1,0,0:0:0:0:
226,62,453145,1,0,0:0:0:0:
264,67,453208,1,0,0:0:0:0:
300,77,453270,1,0,0:0:0:0:
334,95,453333,1,0,0:0:0:0:
361,121,453395,1,0,0:0:0:0:
383,152,453458,1,0,0:0:0:0:
396,187,453520,1,0,0:0:0:0:
400,225,453583,1,0,0:0:0:0:
387,260,453645,1,0,0:0:0:0:
362,290,453708,1,0,0:0:0:0:
332,313,453770,1,0,0:0:0:0:
297,330,453833,1,0,0:0:0:0:
259,334,453895,1,0,0:0:0:0:
222,321,453958,1,0,0:0:0:0:
188,301,454020,1,0,0:0:0:0:
159,274,454083,1,0,0:0:0:0:
138,242,454145,1,0,0:0:0:0:
125,205,454208,1,0,0:0:0:0:
123,166,454270,1,0,0:0:0:0:
129,127,454333,1,0,0:0:0:0:
147,93,454395,1,0,0:0:0:0:
176,67,454458,1,0,0:0:0:0:
211,54,454520,1,0,0:0:0:0:
249,54,454583,1,0,0:0:0:0:
286,58,454645,1,0,0:0:0:0:
322,70,454708,1,0,0:0:0:0:
351,94,454770,1,0,0:0:0:0:
372,126,454833,1,0,0:0:0:0:
387,161,454895,1,0,0:0:0:0:
394,199,454958,1,0,0:0:0:0:
392,237,455020,1,0,0:0:0:0:
378,273,455083,1,0,0:0:0:0:
354,242,455145,1,0,0:0:0:0:
324,217,455208,1,0,0:0:0:0:
289,201,455270,1,0,0:0:0:0:
250,197,455333,1,0,0:0:0:0:
213,206,455395,1,0,0:0:0:0:
178,224,455458,1,0,0:0:0:0:
174,185,455520,1,0,0:0:0:0:
177,146,455583,1,0,0:0:0:0:
191,110,455645,1,0,0:0:0:0:
213,78,455708,1,0,0:0:0:0:
240,51,455770,1,0,0:0:0:0:
273,30,455833,1,0,0:0:0:0:
310,22,455895,1,0,0:0:0:0:
348,25,455958,1,0,0:0:0:0:
384,35,456020,1,0,0:0:0:0:
414,59,456083,1,0,0:0:0:0:
439,87,456145,1,0,0:0:0:0:
452,123,456208,1,0,0:0:0:0:
414,114,456270,1,0,0:0:0:0:
375,109,456333,1,0,0:0:0:0:
339,122,456395,1,0,0:0:0:0:
305,141,456458,1,0,0:0:0:0:
281,170,456520,1,0,0:0:0:0:
253,196,456583,1,0,0:0:0:0:
231,227,456645,1,0,0:0:0:0:
202,253,456708,1,0,0:0:0:0:
167,269,456770,1,0,0:0:0:0:
128,276,456833,1,0,0:0:0:0:
147,242,456895,1,0,0:0:0:0:
146,203,456958,1,0,0:0:0:0:
152,165,457020,1,0,0:0:0:0:
174,133,457083,1,0,0:0:0:0:
198,103,457145,1,0,0:0:0:0:
231,82,457208,1,0,0:0:0:0:
265,65,457270,1,0,0:0:0:0:
303,57,457333,1,0,0:0:0:0:
341,57,457395,1,0,0:0:0:0:
379,62,457458,1,0,0:0:0:0:
415,72,457520,1,0,0:0:0:0:
392,103,457583,1,0,0:0:0:0:
382,140,457645,1,0,0:0:0:0:
380,178,457708,1,0,0:0:0:0:
382,216,457770,1,0,0:0:0:0:
394,252,457833,1,0,0:0:0:0:
403,289,457895,1,0,0:0:0:0:
398,327,457958,1,0,0:0:0:0:
372,355,458020,1,0,0:0:0:0:
335,366,458083,1,0,0:0:0:0:
298,356,458145,1,0,0:0:0:0:
325,328,458208,1,0,0:0:0:0:
325,289,458270,1,0,0:0:0:0:
317,250,458333,1,0,0:0:0:0:
302,214,458395,1,0,0:0:0:0:
283,179,458458,1,0,0:0:0:0:
261,147,458520,1,0,0:0:0:0:
229,124,458583,1,0,0:0:0:0:
223,161,458645,1,0,0:0:0:0:
203,194,458708,1,0,0:0:0:0:
173,218,458770,1,0,0:0:0:0:
141,240,458833,1,0,0:0:0:0:
108,259,458895,1,0,0:0:0:0:
70,269,458958,1,0,0:0:0:0:
31,267,459020,1,0,0:0:0:0:
49,232,459083,1,0,0:0:0:0:
58,195,459145,1,0,0:0:0:0:
73,159,459208,1,0,0:0:0:0:
95,128,459270,1,0,0:0:0:0:
123,101,459333,1,0,0:0:0:0:
156,82,459395,1,0,0:0:0:0:
192,68,459458,1,0,0:0:0:0:
229,63,459520,1,0,0:0:0:0:
267,70,459583,1,0,0:0:0:0:
360,192,459833,1,0,0:0:0:0:
206,192,460083,1,0,0:0:0:0:
344,124,460333,1,0,0:0:0:0:
298,271,460583,1,0,0:0:0:0:
223,136,460833,1,0,0:0:0:0:
375,154,461083,1,0,0:0:0:0:
249,243,461333,1,0,0:0:0:0:
99,205,461583,1,0,0:0:0:0:
84,169,461645,1,0,0:0:0:0:
80,130,461708,1,0,0:0:0:0:
86,92,461770,1,0,0:0:0:0:
101,56,461833,1,0,0:0:0:0:
135,38,461895,1,0,0:0:0:0:
173,36,461958,1,0,0:0:0:0:
209,47,462020,1,0,0:0:0:0:
240,69,462083,1,0,0:0:0:0:
257,102,462145,1,0,0:0:0:0:
267,139,462208,1,0,0:0:0:0:
275,176,462270,1,0,0:0:0:0:
291,210,462333,1,0,0:0:0:0:
323,230,462395,1,0,0:0:0:0:
360,239,462458,1,0,0:0:0:0:
396,226,462520,1,0,0:0:0:0:
422,197,462583,1,0,0:0:0:0:
440,163,462645,1,0,0:0:0:0:
449,125,462708,1,0,0:0:0:0:
442,87,462770,1,0,0:0:0:0:
423,52,462833,1,0,0:0:0:0:
388,34,462895,1,0,0:0:0:0:
349,34,462958,1,0,0:0:0:0:
315,52,463020,1,0,0:0:0:0:
307,90,463083,1,0,0:0:0:0:
290,124,463145,1,0,0:0:0:0:
263,152,463208,1,0,0:0:0:0:
234,177,463270,1,0,0:0:0:0:
198,193,463333,1,0,0:0:0:0:
160,197,463395,1,0,0:0:0:0:
122,189,463458,1,0,0:0:0:0:
85,176,463520,1,0,0:0:0:0:
256,192,463583,12,0,467520,0:0:0:0:
