osu file format v14

[General]
AudioFilename: audio.mp3
AudioLeadIn: 0
PreviewTime: 252947
Countdown: 0
SampleSet: Soft
StackLeniency: 0.7
Mode: 0
LetterboxInBreaks: 0
EpilepsyWarning: 1
WidescreenStoryboard: 1

[Editor]
Bookmarks: 3580,14247,30247,51580,72913,83580,94247,104913,115580,126247,136913,147580,168913,190247,219580,254246,264912,275579,286246,296912,307578,318245,328911,339578,363578,379578,395578,411578,427588,443588,459588,463588
DistanceSpacing: 1
BeatDivisor: 4
GridSize: 4
TimelineZoom: 2.3

[Metadata]
Title:osu!memories
TitleUnicode:osu!memories
Artist:SakiZ
ArtistUnicode:SakiZ
Creator:Shmiklak
Version:Kuron and guys' TATOE
Source:
Tags:marvollo m_a_r_v_o_l_l_o mark101 fcl wajinshu yellowmanul slayed lowcombofc deppyforce fanteer _DT3 Shortthu Kuron-kun Tarrasky Kalindraz Ataraxia marathon osumemories osu memories lcfc ignite diamond no title pensamento tipico de esquerda caviar miiro toumei elegy super nuko world reizouko mitara pudding ga nai can't defeat airman hanairo biyori cirno's perfect math class calamity fortune blue zenith my love genryuu kaiko brain power jojo sono chi no kioku end of the world masterpiece united laos remix the big black remote control best friends magic girl kuchizuke diamond furioso melodia cry thunder image material version 0 everything will freeze atama no taisou highscore freedom dive
BeatmapID:1200757
BeatmapSetID:530986

[Difficulty]
HPDrainRate:2.5
CircleSize:4
OverallDifficulty:8
ApproachRate:9.7
SliderMultiplier:1.6
SliderTickRate:1

[Events]
//Background and Video events
0,0,"bg.jpg",0,0
//Break Periods
2,190457,219095
2,411788,419093
//Storyboard Layer 0 (Background)
//Storyboard Layer 1 (Fail)
//Storyboard Layer 2 (Pass)
//Storyboard Layer 3 (Foreground)
Sprite,Foreground,Centre,"SB\White.png",320,308 F,0,192590,192923,0,0.8 C,0,192923,,0,0,0 V,0,192923,,0.65,0.36 V,1,195590,195923,0.65,0.36,0.65,0.15 F,0,198257,198590,0.8,0
Sprite,Foreground,Centre,"SB\credits\Untitled-1_0001_Difficulty-by_.png",320,240 S,0,192923,,0.8 C,0,192923,,128,128,255 M,1,192923,193090,133.7379,258.4581,160.2207,258.4581 F,0,192923,193090,0,1 F,0,195590,195757,0.9638554,0
Sprite,Foreground,Centre,"SB\credits\Untitled-1_0000_namess.png",320,240 S,0,192923,,0.7 M,1,192923,193090,348.9032,346,307.6129,346 F,0,192923,193090,0,1 F,0,195590,195757,0.9759036,0
Sprite,Foreground,Centre,"SB\credits\SB_0007_Storyboard-by_.png",320,240 S,0,195923,,0.7 C,0,195923,,128,128,255 M,1,195923,196257,161,312,175,312 F,0,195923,196257,0,1 F,0,198257,198590,1,0
Sprite,Foreground,Centre,"SB\credits\SB_0009_Shortthu.png",320,240 S,0,195923,,0.7 M,1,195923,196257,500.9654,308,486.8413,308 F,0,195923,196257,0,1 F,0,198257,198590,1,0
Sprite,Foreground,Centre,"sb\names\ataraxia.png",320,240 S,0,3519,,0.3 F,0,3519,4186,0,1 M,0,3519,13852,550,443 F,0,13519,13852,1,0 S,0,72852,,0.3 F,0,72852,73186,0,1 M,0,72852,104519,550,443 F,0,82852,83186,1,0 S,0,104852,,0.3 F,0,104852,105186,0,1 M,0,104852,115519,550,443 F,0,114852,115186,1,0 S,0,147519,,0.3 F,0,147519,147852,0,1 M,0,147519,168852,550,443 F,0,168186,168519,1,0 S,0,219519,,0.3 F,0,219519,220186,0,1 M,0,219519,252851,550,443 F,0,252518,252851,1,0 S,0,328850,,0.3 F,0,328850,329184,0,1 M,0,328850,339184,550,443 F,0,338850,339184,1,0 S,0,419517,,0.3 F,0,419517,419767,0,1 M,0,419517,427267,550,443 F,0,427017,427267,1,0
Sprite,Foreground,Centre,"sb\names\kalindraz",320,240 S,0,14186,,0.3 F,0,14186,14519,0,1 M,0,14186,30186,550,443 F,0,29159,30186,1,0 S,0,83519,,0.3 F,0,83519,83852,0,1 M,0,83519,104519,550,443 F,0,104186,104519,1,0 S,0,136852,,0.3 F,0,136852,137186,0,1 M,0,136852,147519,550,443 F,0,146852,147186,1,0 S,0,168852,,0.3 F,0,168852,169519,0,1 M,0,168852,190186,550,443 F,0,189519,190186,1,0 S,0,363517,,0.3 F,0,363517,363767,0,1 M,0,363517,379267,550,443 F,0,379017,379267,1,0 S,0,427517,,0.3 F,0,427517,427767,0,1 M,0,427517,443267,550,443 F,0,443017,443267,1,0
Sprite,Foreground,Centre,"sb\names\tarrasky.png",320,240 S,0,30186,,0.3 F,0,30186,30519,0,1 M,0,30186,51186,550,443 F,0,50852,51186,1,0 S,0,126186,,0.3 F,0,126186,126519,0,1 M,0,126186,136852,550,443 F,0,136186,136519,1,0 S,0,254185,,0.3 F,0,254185,254518,0,1 M,0,254185,263518,550,443 F,0,263185,263518,1,0 S,0,275518,,0.3 F,0,275518,275851,0,1 M,0,275518,285851,550,443 F,0,285518,285851,1,0 S,0,318184,,0.3 F,0,318184,318517,0,1 M,0,318184,328517,550,443 F,0,328184,328517,1,0 S,0,379517,,0.3 F,0,379517,379767,0,1 M,0,379517,395017,550,443 F,0,395017,395267,1,0 S,0,459517,,0.3 F,0,459517,459767,0,1 M,0,459517,464517,550,443 F,0,463517,464517,1,0
Sprite,Foreground,Centre,"sb\names\kuron.png",320,240 S,0,51519,,0.3 F,0,51519,51852,0,1 M,0,51519,72519,550,443 F,0,72186,72852,1,0 S,0,115519,,0.3 F,0,115519,115852,0,1 M,0,115519,126186,550,443 F,0,125519,125852,1,0 S,0,264851,,0.3 F,0,264851,265185,0,1 M,0,264851,275185,550,443 F,0,274851,275185,1,0 S,0,286185,,0.3 F,0,286185,286518,0,1 M,0,286185,317851,550,443 F,0,317517,317851,1,0 S,0,339517,,0.3 F,0,339517,340184,0,1 M,0,339517,360184,550,443 F,0,359517,360184,1,0 S,0,395517,,0.3 F,0,395517,395767,0,1 M,0,395517,411267,550,443 F,0,411017,411267,1,0 S,0,443517,,0.3 F,0,443517,443676,0,1 M,0,443517,459267,550,443 F,0,459017,459267,1,0
Sprite,Foreground,Centre,"sb\highlight.png",200,160 C,0,393650,,227,221,196 F,2,393650,393850,1,0 S,2,393650,393850,1,0.2 P,0,393650,393850,A
Sprite,Foreground,Centre,"sb\highlight.png",204,176 C,0,393713,,227,221,196 F,2,393713,393913,1,0 S,2,393713,393913,1,0.2 P,0,393713,393913,A
Sprite,Foreground,Centre,"sb\highlight.png",208,188 C,0,393775,,227,221,196 F,2,393775,393975,1,0 S,2,393775,393975,1,0.2 P,0,393775,393975,A
Sprite,Foreground,Centre,"sb\highlight.png",212,204 C,0,393838,,227,221,196 F,2,393838,394038,1,0 S,2,393838,394038,1,0.2 P,0,393838,394038,A
Sprite,Foreground,Centre,"sb\highlight.png",216,216 C,0,393900,,227,221,196 F,2,393900,394100,1,0 S,2,393900,394100,1,0.2 P,0,393900,394100,A
Sprite,Foreground,Centre,"sb\highlight.png",220,232 C,0,393963,,227,221,196 F,2,393963,394163,1,0 S,2,393963,394163,1,0.2 P,0,393963,394163,A
Sprite,Foreground,Centre,"sb\highlight.png",224,244 C,0,394025,,227,221,196 F,2,394025,394225,1,0 S,2,394025,394225,1,0.2 P,0,394025,394225,A
Sprite,Foreground,Centre,"sb\highlight.png",228,260 C,0,394088,,227,221,196 M,0,394088,394119,228,260,251.9586,261.4093 F,2,394088,394475,1,0 S,2,394088,394475,1,0.2 P,0,394088,394475,A M,0,394119,394150,251.9586,261.4093,275.9172,262.8187 M,0,394150,394181,275.9172,262.8187,251.9586,261.4093 M,0,394181,394213,251.9586,261.4093,228,260 M,0,394213,394244,228,260,251.9586,261.4093 M,0,394244,394275,251.9586,261.4093,275.9172,262.8187
Sprite,Foreground,Centre,"sb\highlight.png",244,356 C,0,394338,,248,173,185 F,2,394338,394538,1,0 S,2,394338,394538,1,0.2 P,0,394338,394538,A
Sprite,Foreground,Centre,"sb\highlight.png",296,376 C,0,394400,,248,173,185 F,2,394400,394600,1,0 S,2,394400,394600,1,0.2 P,0,394400,394600,A
Sprite,Foreground,Centre,"sb\highlight.png",352,376 C,0,394463,,248,173,185 F,2,394463,394663,1,0 S,2,394463,394663,1,0.2 P,0,394463,394663,A
Sprite,Foreground,Centre,"sb\highlight.png",400,356 C,0,394525,,248,173,185 F,2,394525,394725,1,0 S,2,394525,394725,1,0.2 P,0,394525,394725,A
Sprite,Foreground,Centre,"sb\highlight.png",435,320 C,0,394588,,227,221,196 M,0,394588,394619,435,320,450.7431,301.933 F,2,394588,395162,1,0 S,2,394588,395162,1,0.2 P,0,394588,395162,A M,0,394619,394650,450.7431,301.933,463.785,281.8477 M,0,394650,394681,463.785,281.8477,473.6974,260.0473 M,0,394681,394713,473.6974,260.0473,480.26,237.016 M,0,394713,394744,480.26,237.016,483.3274,213.2651 M,0,394744,394775,483.3274,213.2651,482.8312,189.3222 M,0,394775,394806,482.8312,189.3222,478.7825,165.7188 M,0,394806,394838,478.7825,165.7188,471.2713,142.9791 M,0,394838,394869,471.2713,142.9791,460.4643,121.6081 M,0,394869,394900,460.4643,121.6081,446.6015,102.0803 M,0,394900,394931,446.6015,102.0803,429.9908,84.82944 M,0,394931,394962,429.9908,84.82944,411.1081,70.0747
Sprite,Foreground,Centre,"sb\highlight.png",212,308 C,0,385650,,248,173,185 F,2,385650,385850,1,0 S,2,385650,385850,1,0.2 P,0,385650,385850,A
Sprite,Foreground,Centre,"sb\highlight.png",196,298 C,0,385713,,248,173,185 F,2,385713,385913,1,0 S,2,385713,385913,1,0.2 P,0,385713,385913,A
Sprite,Foreground,Centre,"sb\highlight.png",183,283 C,0,385775,,248,173,185 F,2,385775,385975,1,0 S,2,385775,385975,1,0.2 P,0,385775,385975,A
Sprite,Foreground,Centre,"sb\highlight.png",176,265 C,0,385838,,248,173,185 F,2,385838,386038,1,0 S,2,385838,386038,1,0.2 P,0,385838,386038,A
Sprite,Foreground,Centre,"sb\highlight.png",176,246 C,0,385900,,248,173,185 F,2,385900,386100,1,0 S,2,385900,386100,1,0.2 P,0,385900,386100,A
Sprite,Foreground,Centre,"sb\highlight.png",183,227 C,0,385963,,248,173,185 F,2,385963,386163,1,0 S,2,385963,386163,1,0.2 P,0,385963,386163,A
Sprite,Foreground,Centre,"sb\highlight.png",196,213 C,0,386025,,248,173,185 F,2,386025,386225,1,0 S,2,386025,386225,1,0.2 P,0,386025,386225,A
Sprite,Foreground,Centre,"sb\highlight.png",212,200 C,0,386088,,248,173,185 M,0,386088,386119,212,200,235.8068,203.0392 F,2,386088,386475,1,0 S,2,386088,386475,1,0.2 P,0,386088,386475,A M,0,386119,386150,235.8068,203.0392,259,206 M,0,386150,386181,259,206,235.8068,203.0392 M,0,386181,386213,235.8068,203.0392,212,200 M,0,386213,386244,212,200,235.8068,203.0392 M,0,386244,386275,235.8068,203.0392,259,206
Sprite,Foreground,Centre,"sb\highlight.png",288,136 C,0,386338,,248,173,185 M,0,386338,386369,288,136,311.7382,132.4645 F,2,386338,386725,1,0 S,2,386338,386725,1,0.2 P,0,386338,386725,A M,0,386369,386400,311.7382,132.4645,335,129 M,0,386400,386431,335,129,311.7382,132.4645 M,0,386431,386463,311.7382,132.4645,288,136 M,0,386463,386494,288,136,311.7382,132.4645 M,0,386494,386525,311.7382,132.4645,335,129
Sprite,Foreground,Centre,"sb\highlight.png",412,112 C,0,386588,,227,221,196 F,2,386588,386788,1,0 S,2,386588,386788,1,0.2 P,0,386588,386788,A
Sprite,Foreground,Centre,"sb\highlight.png",416,132 C,0,386650,,227,221,196 F,2,386650,386850,1,0 S,2,386650,386850,1,0.2 P,0,386650,386850,A
Sprite,Foreground,Centre,"sb\highlight.png",420,152 C,0,386713,,227,221,196 F,2,386713,386913,1,0 S,2,386713,386913,1,0.2 P,0,386713,386913,A
Sprite,Foreground,Centre,"sb\highlight.png",424,172 C,0,386775,,227,221,196 F,2,386775,386975,1,0 S,2,386775,386975,1,0.2 P,0,386775,386975,A
Sprite,Foreground,Centre,"sb\highlight.png",428,192 C,0,386838,,227,221,196 F,2,386838,387038,1,0 S,2,386838,387038,1,0.2 P,0,386838,387038,A
Sprite,Foreground,Centre,"sb\highlight.png",432,212 C,0,386900,,227,221,196 F,2,386900,387100,1,0 S,2,386900,387100,1,0.2 P,0,386900,387100,A
Sprite,Foreground,Centre,"sb\highlight.png",436,232 C,0,386963,,227,221,196 F,2,386963,387163,1,0 S,2,386963,387163,1,0.2 P,0,386963,387163,A
Sprite,Foreground,Centre,"sb\highlight.png",440,252 C,0,387025,,227,221,196 F,2,387025,387225,1,0 S,2,387025,387225,1,0.2 P,0,387025,387225,A
Sprite,Foreground,Centre,"sb\highlight.png",444,272 C,0,387088,,227,221,196 M,0,387088,387119,444,272,442.2901,295.939 F,2,387088,387475,1,0 S,2,387088,387475,1,0.2 P,0,387088,387475,A M,0,387119,387150,442.2901,295.939,440.5801,319.878 M,0,387150,387181,440.5801,319.878,442.2901,295.939 M,0,387181,387213,442.2901,295.939,444,272 M,0,387213,387244,444,272,442.2901,295.939 M,0,387244,387275,442.2901,295.939,440.5801,319.878
Sprite,Foreground,Centre,"sb\highlight.png",492,380 C,0,387338,,227,221,196 F,2,387338,387538,1,0 S,2,387338,387538,1,0.2 P,0,387338,387538,A
Sprite,Foreground,Centre,"sb\highlight.png",196,384 C,0,387588,,248,173,185 F,2,387588,387788,1,0 S,2,387588,387788,1,0.2 P,0,387588,387788,A
Sprite,Foreground,Centre,"sb\highlight.png",332,256 C,0,126423,,227,221,196 F,2,126423,126623,1,0 S,2,126423,126623,1,0.2 P,0,126423,126623,A
Sprite,Foreground,Centre,"sb\highlight.png",332,256 C,0,126507,,227,221,196 F,2,126507,126707,1,0 S,2,126507,126707,1,0.2 P,0,126507,126707,A
Sprite,Foreground,Centre,"sb\highlight.png",332,256 C,0,126590,,227,221,196 F,2,126590,126790,1,0 S,2,126590,126790,1,0.2 P,0,126590,126790,A
Sprite,Foreground,Centre,"sb\highlight.png",500,148 C,0,126757,,227,221,196 F,2,126757,126957,1,0 S,2,126757,126957,1,0.2 P,0,126757,126957,A
Sprite,Foreground,Centre,"sb\highlight.png",500,148 C,0,126840,,227,221,196 F,2,126840,127040,1,0 S,2,126840,127040,1,0.2 P,0,126840,127040,A
Sprite,Foreground,Centre,"sb\highlight.png",500,148 C,0,126923,,248,173,185 F,2,126923,127123,1,0 S,2,126923,127123,1,0.2 P,0,126923,127123,A
Sprite,Foreground,Centre,"sb\highlight.png",288,108 C,0,127090,,248,173,185 F,2,127090,127290,1,0 S,2,127090,127290,1,0.2 P,0,127090,127290,A
Sprite,Foreground,Centre,"sb\highlight.png",364,344 C,0,127257,,248,173,185 F,2,127257,127457,1,0 S,2,127257,127457,1,0.2 P,0,127257,127457,A
Sprite,Foreground,Centre,"sb\highlight.png",432,84 C,0,127423,,248,173,185 F,2,127423,127623,1,0 S,2,127423,127623,1,0.2 P,0,127423,127623,A
Sprite,Foreground,Centre,"sb\highlight.png",188,200 C,0,127590,,227,221,196 F,2,127590,127790,1,0 S,2,127590,127790,1,0.2 P,0,127590,127790,A
Sprite,Foreground,Centre,"sb\highlight.png",448,292 C,0,127757,,227,221,196 F,2,127757,127957,1,0 S,2,127757,127957,1,0.2 P,0,127757,127957,A
Sprite,Foreground,Centre,"sb\highlight.png",288,108 C,0,127923,,227,221,196 F,2,127923,128123,1,0 S,2,127923,128123,1,0.2 P,0,127923,128123,A
Sprite,Foreground,Centre,"sb\highlight.png",208,336 C,0,128090,,227,221,196 M,0,128090,128131,208,336,208.9991,359.9792 F,2,128090,128456,1,0 S,2,128090,128456,1,0.2 P,0,128090,128456,A M,0,128131,128173,208.9991,359.9792,209.9983,383.9584 M,0,128173,128215,209.9983,383.9584,210.9974,407.9376 M,0,128215,128256,210.9974,407.9376,211.9965,431.9168
Sprite,Foreground,Centre,"sb\highlight.png",516,340 C,0,128423,,248,173,185 M,0,128423,128464,516,340,525.2755,317.9979 F,2,128423,128789,1,0 S,2,128423,128789,1,0.2 P,0,128423,128789,A M,0,128464,128506,525.2755,317.9979,528.6299,294.4109 M,0,128506,128548,528.6299,294.4109,525.499,270.7929 M,0,128548,128589,525.499,270.7929,516.3979,248.7199
Sprite,Foreground,Centre,"sb\highlight.png",312,308 C,0,128757,,248,173,185 F,2,128757,128957,1,0 S,2,128757,128957,1,0.2 P,0,128757,128957,A
Sprite,Foreground,Centre,"sb\highlight.png",456,172 C,0,128923,,227,221,196 M,0,128923,128964,456,172,476.5982,159.8867 F,2,128923,129289,1,0 S,2,128923,129289,1,0.2 P,0,128923,129289,A M,0,128964,129006,476.5982,159.8867,499.4035,152.9009 M,0,129006,129048,499.4035,152.9009,523.2288,151.7466 M,0,129048,129089,523.2288,151.7466,546.6918,156.2654
Sprite,Foreground,Centre,"sb\highlight.png",516,340 C,0,129257,,227,221,196 F,2,129257,129457,1,0 S,2,129257,129457,1,0.2 P,0,129257,129457,A
Sprite,Foreground,Centre,"sb\highlight.png",312,308 C,0,129423,,227,221,196 F,2,129423,129623,1,0 S,2,129423,129623,1,0.2 P,0,129423,129623,A
Sprite,Foreground,Centre,"sb\highlight.png",312,308 C,0,129507,,227,221,196 F,2,129507,129707,1,0 S,2,129507,129707,1,0.2 P,0,129507,129707,A
Sprite,Foreground,Centre,"sb\highlight.png",312,308 C,0,129590,,248,173,185 F,2,129590,129790,1,0 S,2,129590,129790,1,0.2 P,0,129590,129790,A
Sprite,Foreground,Centre,"sb\highlight.png",368,128 C,0,129757,,248,173,185 F,2,129757,129957,1,0 S,2,129757,129957,1,0.2 P,0,129757,129957,A
Sprite,Foreground,Centre,"sb\highlight.png",384,364 C,0,129923,,248,173,185 F,2,129923,130123,1,0 S,2,129923,130123,1,0.2 P,0,129923,130123,A
Sprite,Foreground,Centre,"sb\highlight.png",268,176 C,0,130090,,248,173,185 F,2,130090,130290,1,0 S,2,130090,130290,1,0.2 P,0,130090,130290,A
Sprite,Foreground,Centre,"sb\highlight.png",168,368 C,0,130257,,227,221,196 F,2,130257,130457,1,0 S,2,130257,130457,1,0.2 P,0,130257,130457,A
Sprite,Foreground,Centre,"sb\highlight.png",144,336 C,0,130340,,227,221,196 F,2,130340,130540,1,0 S,2,130340,130540,1,0.2 P,0,130340,130540,A
Sprite,Foreground,Centre,"sb\highlight.png",140,296 C,0,130423,,227,221,196 F,2,130423,130623,1,0 S,2,130423,130623,1,0.2 P,0,130423,130623,A
Sprite,Foreground,Centre,"sb\highlight.png",152,260 C,0,130507,,227,221,196 F,2,130507,130707,1,0 S,2,130507,130707,1,0.2 P,0,130507,130707,A
Sprite,Foreground,Centre,"sb\highlight.png",172,228 C,0,130590,,248,173,185 F,2,130590,130790,1,0 S,2,130590,130790,1,0.2 P,0,130590,130790,A
Sprite,Foreground,Centre,"sb\highlight.png",184,192 C,0,130673,,248,173,185 F,2,130673,130873,1,0 S,2,130673,130873,1,0.2 P,0,130673,130873,A
Sprite,Foreground,Centre,"sb\highlight.png",180,152 C,0,130757,,248,173,185 F,2,130757,130957,1,0 S,2,130757,130957,1,0.2 P,0,130757,130957,A
Sprite,Foreground,Centre,"sb\highlight.png",156,120 C,0,130840,,248,173,185 F,2,130840,131040,1,0 S,2,130840,131040,1,0.2 P,0,130840,131040,A
Sprite,Foreground,Centre,"sb\highlight.png",124,104 C,0,130923,,227,221,196 M,0,130923,130964,124,104,147.3419,98.41824 F,2,130923,131206,1,0 S,2,130923,131206,1,0.2 P,0,130923,131206,A M,0,130964,131006,147.3419,98.41824,170,93
Sprite,Foreground,Centre,"sb\highlight.png",340,108 C,0,131090,,227,221,196 M,0,131090,131131,340,108,316.5255,112.9946 F,2,131090,131373,1,0 S,2,131090,131373,1,0.2 P,0,131090,131373,A M,0,131131,131173,316.5255,112.9946,293.0509,117.9892
Sprite,Foreground,Centre,"sb\highlight.png",152,260 C,0,131257,,248,173,185 M,0,131257,131298,152,260,175.3419,254.4182 F,2,131257,131540,1,0 S,2,131257,131540,1,0.2 P,0,131257,131540,A M,0,131298,131340,175.3419,254.4182,198,249
Sprite,Foreground,Centre,"sb\highlight.png",372,264 C,0,131423,,248,173,185 M,0,131423,131464,372,264,348.5255,268.9946 F,2,131423,131706,1,0 S,2,131423,131706,1,0.2 P,0,131423,131706,A M,0,131464,131506,348.5255,268.9946,325.0509,273.9892
Sprite,Foreground,Centre,"sb\highlight.png",244,404 C,0,131590,,227,221,196 F,2,131590,131790,1,0 S,2,131590,131790,1,0.2 P,0,131590,131790,A
Sprite,Foreground,Centre,"sb\highlight.png",456,316 C,0,131757,,227,221,196 F,2,131757,131957,1,0 S,2,131757,131957,1,0.2 P,0,131757,131957,A
Sprite,Foreground,Centre,"sb\highlight.png",456,316 C,0,131840,,227,221,196 F,2,131840,132040,1,0 S,2,131840,132040,1,0.2 P,0,131840,132040,A
Sprite,Foreground,Centre,"sb\highlight.png",456,316 C,0,131923,,227,221,196 F,2,131923,132123,1,0 S,2,131923,132123,1,0.2 P,0,131923,132123,A
Sprite,Foreground,Centre,"sb\highlight.png",268,216 C,0,132090,,227,221,196 F,2,132090,132290,1,0 S,2,132090,132290,1,0.2 P,0,132090,132290,A
Sprite,Foreground,Centre,"sb\highlight.png",268,216 C,0,132173,,227,221,196 F,2,132173,132373,1,0 S,2,132173,132373,1,0.2 P,0,132173,132373,A
Sprite,Foreground,Centre,"sb\highlight.png",268,216 C,0,132257,,248,173,185 F,2,132257,132457,1,0 S,2,132257,132457,1,0.2 P,0,132257,132457,A
Sprite,Foreground,Centre,"sb\highlight.png",352,424 C,0,132423,,248,173,185 F,2,132423,132623,1,0 S,2,132423,132623,1,0.2 P,0,132423,132623,A
Sprite,Foreground,Centre,"sb\highlight.png",456,160 C,0,132590,,248,173,185 F,2,132590,132790,1,0 S,2,132590,132790,1,0.2 P,0,132590,132790,A
Sprite,Foreground,Centre,"sb\highlight.png",175,201 C,0,132757,,248,173,185 F,2,132757,132957,1,0 S,2,132757,132957,1,0.2 P,0,132757,132957,A
Sprite,Foreground,Centre,"sb\highlight.png",448,404 C,0,132923,,227,221,196 F,2,132923,133123,1,0 S,2,132923,133123,1,0.2 P,0,132923,133123,A
Sprite,Foreground,Centre,"sb\highlight.png",360,104 C,0,133090,,227,221,196 F,2,133090,133290,1,0 S,2,133090,133290,1,0.2 P,0,133090,133290,A
Sprite,Foreground,Centre,"sb\highlight.png",220,308 C,0,133257,,227,221,196 M,0,133257,133298,220,308,220.8883,331.9836 F,2,133257,133623,1,0 S,2,133257,133623,1,0.2 P,0,133257,133623,A M,0,133298,133340,220.8883,331.9836,221.7766,355.9671 M,0,133340,133381,221.7766,355.9671,222.6648,379.9507 M,0,133381,133423,222.6648,379.9507,223.5531,403.9342
Sprite,Foreground,Centre,"sb\highlight.png",416,403 C,0,133590,,227,221,196 M,0,133590,133631,416,403,416.9991,379.0208 F,2,133590,133873,1,0 S,2,133590,133873,1,0.2 P,0,133590,133873,A M,0,133631,133673,416.9991,379.0208,417.9983,355.0416
Sprite,Foreground,Centre,"sb\highlight.png",424,248 C,0,133757,,248,173,185 F,2,133757,133957,1,0 S,2,133757,133957,1,0.2 P,0,133757,133957,A
Sprite,Foreground,Centre,"sb\highlight.png",175,201 C,0,133923,,248,173,185 F,2,133923,134123,1,0 S,2,133923,134123,1,0.2 P,0,133923,134123,A
Sprite,Foreground,Centre,"sb\highlight.png",360,104 C,0,134090,,248,173,185 F,2,134090,134290,1,0 S,2,134090,134290,1,0.2 P,0,134090,134290,A
Sprite,Foreground,Centre,"sb\highlight.png",220,308 C,0,134257,,227,221,196 F,2,134257,134457,1,0 S,2,134257,134457,1,0.2 P,0,134257,134457,A
Sprite,Foreground,Centre,"sb\highlight.png",268,92 C,0,134423,,227,221,196 F,2,134423,134623,1,0 S,2,134423,134623,1,0.2 P,0,134423,134623,A
Sprite,Foreground,Centre,"sb\highlight.png",424,248 C,0,134590,,227,221,196 F,2,134590,134790,1,0 S,2,134590,134790,1,0.2 P,0,134590,134790,A
Sprite,Foreground,Centre,"sb\highlight.png",175,201 C,0,134757,,227,221,196 F,2,134757,134957,1,0 S,2,134757,134957,1,0.2 P,0,134757,134957,A
Sprite,Foreground,Centre,"sb\highlight.png",484,168 C,0,134923,,248,173,185 M,0,134923,134964,484,168,483.0009,144.0208 F,2,134923,135289,1,0 S,2,134923,135289,1,0.2 P,0,134923,135289,A M,0,134964,135006,483.0009,144.0208,482.0017,120.0416 M,0,135006,135047,482.0017,120.0416,481.0026,96.06242 M,0,135047,135089,481.0026,96.06242,480.0035,72.08323
Sprite,Foreground,Centre,"sb\highlight.png",220,308 C,0,135257,,248,173,185 F,2,135257,135457,1,0 S,2,135257,135457,1,0.2 P,0,135257,135457,A
Sprite,Foreground,Centre,"sb\highlight.png",532,264 C,0,135423,,248,173,185 F,2,135423,135623,1,0 S,2,135423,135623,1,0.2 P,0,135423,135623,A
Sprite,Foreground,Centre,"sb\highlight.png",175,201 C,0,135590,,248,173,185 F,2,135590,135790,1,0 S,2,135590,135790,1,0.2 P,0,135590,135790,A
Sprite,Foreground,Centre,"sb\highlight.png",139,215 C,0,135673,,248,173,185 F,2,135673,135873,1,0 S,2,135673,135873,1,0.2 P,0,135673,135873,A
Sprite,Foreground,Centre,"sb\highlight.png",112,241 C,0,135757,,248,173,185 F,2,135757,135957,1,0 S,2,135757,135957,1,0.2 P,0,135757,135957,A
Sprite,Foreground,Centre,"sb\highlight.png",95,276 C,0,135840,,248,173,185 F,2,135840,136040,1,0 S,2,135840,136040,1,0.2 P,0,135840,136040,A
Sprite,Foreground,Centre,"sb\highlight.png",93,314 C,0,135923,,248,173,185 F,2,135923,136123,1,0 S,2,135923,136123,1,0.2 P,0,135923,136123,A
Sprite,Foreground,Centre,"sb\highlight.png",105,350 C,0,136007,,248,173,185 F,2,136007,136207,1,0 S,2,136007,136207,1,0.2 P,0,136007,136207,A
Sprite,Foreground,Centre,"sb\highlight.png",129,380 C,0,136090,,248,173,185 F,2,136090,136290,1,0 S,2,136090,136290,1,0.2 P,0,136090,136290,A
Sprite,Foreground,Centre,"sb\highlight.png",162,398 C,0,136173,,248,173,185 F,2,136173,136373,1,0 S,2,136173,136373,1,0.2 P,0,136173,136373,A
Sprite,Foreground,Centre,"sb\highlight.png",204,404 C,0,136257,,227,221,196 M,0,136257,136298,204,404,227.3419,398.4182 F,2,136257,136540,1,0 S,2,136257,136540,1,0.2 P,0,136257,136540,A M,0,136298,136340,227.3419,398.4182,250,393
Sprite,Foreground,Centre,"sb\highlight.png",420,316 C,0,136423,,227,221,196 M,0,136423,136464,420,316,396.5255,320.9946 F,2,136423,136706,1,0 S,2,136423,136706,1,0.2 P,0,136423,136706,A M,0,136464,136506,396.5255,320.9946,373.0509,325.9892
Sprite,Foreground,Centre,"sb\highlight.png",208,240 C,0,136590,,248,173,185 M,0,136590,136631,208,240,231.3419,234.4182 F,2,136590,136873,1,0 S,2,136590,136873,1,0.2 P,0,136590,136873,A M,0,136631,136673,231.3419,234.4182,254,229
Sprite,Foreground,Centre,"sb\highlight.png",385,298 C,0,286422,,227,221,196 M,0,286422,286432,385,298,394.8466,299.745 F,2,286422,286705,1,0 S,2,286422,286705,1,0.2 P,0,286422,286705,A M,0,286432,286442,394.8466,299.745,404.6931,301.4899 M,0,286442,286453,404.6931,301.4899,414.5397,303.2349 M,0,286453,286463,414.5397,303.2349,424.3863,304.9799 M,0,286463,286474,424.3863,304.9799,434.2329,306.7248 M,0,286474,286484,434.2329,306.7248,444.0795,308.4698 M,0,286484,286494,444.0795,308.4698,453.9261,310.2147 M,0,286494,286505,453.9261,310.2147,463.7726,311.9597
Sprite,Foreground,Centre,"sb\highlight.png",464,184 C,0,286589,,227,221,196 M,0,286589,286599,464,184,454.136,185.644 F,2,286589,286872,1,0 S,2,286589,286872,1,0.2 P,0,286589,286872,A M,0,286599,286609,454.136,185.644,444.2721,187.288 M,0,286609,286620,444.2721,187.288,434.4082,188.932 M,0,286620,286630,434.4082,188.932,424.5443,190.576 M,0,286630,286641,424.5443,190.576,414.6803,192.22 M,0,286641,286651,414.6803,192.22,404.8164,193.8639 M,0,286651,286661,404.8164,193.8639,394.9524,195.5079 M,0,286661,286672,394.9524,195.5079,385.0885,197.1519
Sprite,Foreground,Centre,"sb\highlight.png",254,298 C,0,286755,,227,221,196 M,0,286755,286765,254,298,244.1573,299.7667 F,2,286755,287038,1,0 S,2,286755,287038,1,0.2 P,0,286755,287038,A M,0,286765,286775,244.1573,299.7667,234.3146,301.5333 M,0,286775,286786,234.3146,301.5333,224.4719,303.2999 M,0,286786,286796,224.4719,303.2999,214.6292,305.0666 M,0,286796,286807,214.6292,305.0666,204.7864,306.8332 M,0,286807,286817,204.7864,306.8332,194.9437,308.5999 M,0,286817,286827,194.9437,308.5999,185.101,310.3665 M,0,286827,286838,185.101,310.3665,176,312
Sprite,Foreground,Centre,"sb\highlight.png",161,178 C,0,286922,,248,173,185 M,0,286922,286932,161,178,170.8738,179.5835 F,2,286922,287205,1,0 S,2,286922,287205,1,0.2 P,0,286922,287205,A M,0,286932,286942,170.8738,179.5835,180.7477,181.1671 M,0,286942,286953,180.7477,181.1671,190.6215,182.7506 M,0,286953,286963,190.6215,182.7506,200.4953,184.3342 M,0,286963,286974,200.4953,184.3342,210.3691,185.9177 M,0,286974,286984,210.3691,185.9177,220.243,187.5012 M,0,286984,286994,220.243,187.5012,230.1168,189.0848 M,0,286994,287005,230.1168,189.0848,239.9906,190.6683
Sprite,Foreground,Centre,"sb\highlight.png",396,304 C,0,287089,,248,173,185 M,0,287089,287099,396,304,405.8466,305.745 F,2,287089,287372,1,0 S,2,287089,287372,1,0.2 P,0,287089,287372,A M,0,287099,287109,405.8466,305.745,415.6931,307.4899 M,0,287109,287120,415.6931,307.4899,425.5397,309.2349 M,0,287120,287130,425.5397,309.2349,435.3863,310.9799 M,0,287130,287141,435.3863,310.9799,445.2329,312.7248 M,0,287141,287151,445.2329,312.7248,455.0795,314.4698 M,0,287151,287161,455.0795,314.4698,464.9261,316.2148 M,0,287161,287172,464.9261,316.2148,474.7726,317.9597
Sprite,Foreground,Centre,"sb\highlight.png",478,178 C,0,287255,,248,173,185 M,0,287255,287265,478,178,468.1262,179.5835 F,2,287255,287538,1,0 S,2,287255,287538,1,0.2 P,0,287255,287538,A M,0,287265,287275,468.1262,179.5835,458.2523,181.1671 M,0,287275,287286,458.2523,181.1671,448.3785,182.7506 M,0,287286,287296,448.3785,182.7506,438.5047,184.3342 M,0,287296,287307,438.5047,184.3342,428.6309,185.9177 M,0,287307,287317,428.6309,185.9177,418.757,187.5012 M,0,287317,287327,418.757,187.5012,408.8832,189.0848 M,0,287327,287338,408.8832,189.0848,399.0094,190.6683
Sprite,Foreground,Centre,"sb\highlight.png",244,304 C,0,287422,,248,173,185 M,0,287422,287432,244,304,234.1361,305.644 F,2,287422,287705,1,0 S,2,287422,287705,1,0.2 P,0,287422,287705,A M,0,287432,287442,234.1361,305.644,224.2721,307.288 M,0,287442,287453,224.2721,307.288,214.4082,308.932 M,0,287453,287463,214.4082,308.932,204.5443,310.576 M,0,287463,287474,204.5443,310.576,194.6803,312.2199 M,0,287474,287484,194.6803,312.2199,184.8164,313.864 M,0,287484,287494,184.8164,313.864,174.9524,315.5079 M,0,287494,287505,174.9524,315.5079,165.0885,317.1519
Sprite,Foreground,Centre,"sb\highlight.png",145,171 C,0,287589,,227,221,196 M,0,287589,287599,145,171,154.8546,172.6991 F,2,287589,287872,1,0 S,2,287589,287872,1,0.2 P,0,287589,287872,A M,0,287599,287609,154.8546,172.6991,164.7092,174.3981 M,0,287609,287620,164.7092,174.3981,174.5638,176.0972 M,0,287620,287630,174.5638,176.0972,184.4184,177.7963 M,0,287630,287641,184.4184,177.7963,194.273,179.4953 M,0,287641,287651,194.273,179.4953,204.1276,181.1944 M,0,287651,287661,204.1276,181.1944,213.9822,182.8935 M,0,287661,287672,213.9822,182.8935,223.8368,184.5926
Sprite,Foreground,Centre,"sb\highlight.png",408,308 C,0,287755,,227,221,196 M,0,287755,287765,408,308,417.864,309.644 F,2,287755,288038,1,0 S,2,287755,288038,1,0.2 P,0,287755,288038,A M,0,287765,287775,417.864,309.644,427.7279,311.288 M,0,287775,287786,427.7279,311.288,437.5918,312.932 M,0,287786,287796,437.5918,312.932,447.4557,314.576 M,0,287796,287807,447.4557,314.576,457.3197,316.2199 M,0,287807,287817,457.3197,316.2199,467.1836,317.864 M,0,287817,287827,467.1836,317.864,477.0476,319.5079 M,0,287827,287838,477.0476,319.5079,486.9115,321.1519
Sprite,Foreground,Centre,"sb\highlight.png",494,171 C,0,287922,,227,221,196 M,0,287922,287932,494,171,484.1454,172.6991 F,2,287922,288205,1,0 S,2,287922,288205,1,0.2 P,0,287922,288205,A M,0,287932,287942,484.1454,172.6991,474.2908,174.3981 M,0,287942,287953,474.2908,174.3981,464.4362,176.0972 M,0,287953,287963,464.4362,176.0972,454.5816,177.7963 M,0,287963,287974,454.5816,177.7963,444.727,179.4953 M,0,287974,287984,444.727,179.4953,434.8724,181.1944 M,0,287984,287994,434.8724,181.1944,425.0178,182.8935 M,0,287994,288005,425.0178,182.8935,415.1632,184.5926
Sprite,Foreground,Centre,"sb\highlight.png",232,312 C,0,288088,,227,221,196 M,0,288088,288098,232,312,222.1361,313.644 F,2,288088,288371,1,0 S,2,288088,288371,1,0.2 P,0,288088,288371,A M,0,288098,288108,222.1361,313.644,212.2721,315.288 M,0,288108,288119,212.2721,315.288,202.4082,316.932 M,0,288119,288129,202.4082,316.932,192.5443,318.576 M,0,288129,288140,192.5443,318.576,182.6803,320.2199 M,0,288140,288150,182.6803,320.2199,172.8164,321.864 M,0,288150,288160,172.8164,321.864,162.9524,323.5079 M,0,288160,288171,162.9524,323.5079,153.0885,325.1519
Sprite,Foreground,Centre,"sb\highlight.png",128,164 C,0,288256,,248,173,185 M,0,288256,288266,128,164,137.8546,165.6991 F,2,288256,288539,1,0 S,2,288256,288539,1,0.2 P,0,288256,288539,A M,0,288266,288276,137.8546,165.6991,147.7092,167.3981 M,0,288276,288287,147.7092,167.3981,157.5638,169.0972 M,0,288287,288297,157.5638,169.0972,167.4184,170.7963 M,0,288297,288308,167.4184,170.7963,177.273,172.4953 M,0,288308,288318,177.273,172.4953,187.1276,174.1944 M,0,288318,288328,187.1276,174.1944,196.9822,175.8935 M,0,288328,288339,196.9822,175.8935,206.8368,177.5926
Sprite,Foreground,Centre,"sb\highlight.png",424,312 C,0,288422,,248,173,185 M,0,288422,288432,424,312,433.8562,313.6896 F,2,288422,288705,1,0 S,2,288422,288705,1,0.2 P,0,288422,288705,A M,0,288432,288442,433.8562,313.6896,443.7124,315.3793 M,0,288442,288453,443.7124,315.3793,453.5687,317.0689 M,0,288453,288463,453.5687,317.0689,463.4249,318.7585 M,0,288463,288474,463.4249,318.7585,473.2811,320.4482 M,0,288474,288484,473.2811,320.4482,483.1373,322.1378 M,0,288484,288494,483.1373,322.1378,492.9936,323.8275 M,0,288494,288505,492.9936,323.8275,502.8498,325.5171
Sprite,Foreground,Centre,"sb\highlight.png",320,104 C,0,288589,,227,221,196 M,0,288589,288599,320,104,317.2997,113.5922 F,2,288589,289039,1,0 S,2,288589,289039,1,0.2 P,0,288589,289039,A M,0,288599,288609,317.2997,113.5922,316.0201,123.4571 M,0,288609,288620,316.0201,123.4571,316.184,133.3907 M,0,288620,288630,316.184,133.3907,317.7854,143.1881 M,0,288630,288641,317.7854,143.1881,316.184,133.3907 M,0,288641,288651,316.184,133.3907,316.0201,123.4571 M,0,288651,288661,316.0201,123.4571,317.2997,113.5922 M,0,288661,288672,317.2997,113.5922,320,104 M,0,288672,288682,320,104,317.2997,113.5922 M,0,288682,288693,317.2997,113.5922,316.0201,123.4571 M,0,288693,288703,316.0201,123.4571,316.184,133.3907 M,0,288703,288714,316.184,133.3907,317.7854,143.1881 M,0,288714,288724,317.7854,143.1881,316.184,133.3907 M,0,288724,288734,316.184,133.3907,316.0201,123.4571 M,0,288734,288745,316.0201,123.4571,317.2997,113.5922 M,0,288745,288755,317.2997,113.5922,320,104 M,0,288755,288766,320,104,317.2997,113.5922 M,0,288766,288776,317.2997,113.5922,316.0201,123.4571 M,0,288776,288786,316.0201,123.4571,316.184,133.3907 M,0,288786,288797,316.184,133.3907,317.7854,143.1881 M,0,288797,288807,317.7854,143.1881,316.184,133.3907 M,0,288807,288818,316.184,133.3907,316.0201,123.4571 M,0,288818,288828,316.0201,123.4571,317.2997,113.5922 M,0,288828,288839,317.2997,113.5922,320,104
Sprite,Foreground,Centre,"sb\highlight.png",320,336 C,0,288922,,248,173,185 M,0,288922,288932,320,336,320.995,345.9504 F,2,288922,289205,1,0 S,2,288922,289205,1,0.2 P,0,288922,289205,A M,0,288932,288942,320.995,345.9504,321.9901,355.9008 M,0,288942,288953,321.9901,355.9008,322.9851,365.8511 M,0,288953,288963,322.9851,365.8511,323.9802,375.8015 M,0,288963,288974,323.9802,375.8015,323.1127,385.7603 M,0,288974,288984,323.1127,385.7603,322.2073,395.7192 M,0,288984,288994,322.2073,395.7192,321.302,405.6781 M,0,288994,289005,321.302,405.6781,320.3966,415.6371
Sprite,Foreground,Centre,"sb\highlight.png",232,248 C,0,289089,,248,173,185 M,0,289089,289099,232,248,222.0496,248.995 F,2,289089,289372,1,0 S,2,289089,289372,1,0.2 P,0,289089,289372,A M,0,289099,289109,222.0496,248.995,212.0993,249.9901 M,0,289109,289120,212.0993,249.9901,202.1489,250.9851 M,0,289120,289130,202.1489,250.9851,192.1985,251.9801 M,0,289130,289141,192.1985,251.9801,182.2397,251.1127 M,0,289141,289151,182.2397,251.1127,172.2808,250.2074 M,0,289151,289161,172.2808,250.2074,162.3219,249.302 M,0,289161,289172,162.3219,249.302,152.3629,248.3966
Sprite,Foreground,Centre,"sb\highlight.png",320,160 C,0,289256,,248,173,185 M,0,289256,289266,320,160,319.0049,150.0496 F,2,289256,289539,1,0 S,2,289256,289539,1,0.2 P,0,289256,289539,A M,0,289266,289276,319.0049,150.0496,318.0099,140.0993 M,0,289276,289287,318.0099,140.0993,317.0149,130.1489 M,0,289287,289297,317.0149,130.1489,316.0198,120.1985 M,0,289297,289308,316.0198,120.1985,316.8873,110.2397 M,0,289308,289318,316.8873,110.2397,317.7927,100.2808 M,0,289318,289328,317.7927,100.2808,318.698,90.32188 M,0,289328,289339,318.698,90.32188,319.6034,80.36295
Sprite,Foreground,Centre,"sb\highlight.png",408,248 C,0,289422,,248,173,185 M,0,289422,289432,408,248,417.9504,247.005 F,2,289422,289705,1,0 S,2,289422,289705,1,0.2 P,0,289422,289705,A M,0,289432,289442,417.9504,247.005,427.9008,246.0099 M,0,289442,289453,427.9008,246.0099,437.8511,245.0149 M,0,289453,289463,437.8511,245.0149,447.8015,244.0199 M,0,289463,289474,447.8015,244.0199,457.7603,244.8873 M,0,289474,289484,457.7603,244.8873,467.7192,245.7926 M,0,289484,289494,467.7192,245.7926,477.6781,246.698 M,0,289494,289505,477.6781,246.698,487.6371,247.6034
Sprite,Foreground,Centre,"sb\highlight.png",257,310 C,0,289589,,227,221,196 M,0,289589,289599,257,310,250.7225,317.7841 F,2,289589,289872,1,0 S,2,289589,289872,1,0.2 P,0,289589,289872,A M,0,289599,289609,250.7225,317.7841,244.4449,325.5683 M,0,289609,289620,244.4449,325.5683,238.1674,333.3524 M,0,289620,289630,238.1674,333.3524,231.8646,341.1115 M,0,289630,289641,231.8646,341.1115,224.1453,347.4686 M,0,289641,289651,224.1453,347.4686,216.426,353.8257 M,0,289651,289661,216.426,353.8257,208.7067,360.1827 M,0,289661,289672,208.7067,360.1827,200.9874,366.5398
Sprite,Foreground,Centre,"sb\highlight.png",257,185 C,0,289756,,227,221,196 M,0,289756,289766,257,185,249.2159,178.7225 F,2,289756,290039,1,0 S,2,289756,290039,1,0.2 P,0,289756,290039,A M,0,289766,289776,249.2159,178.7225,241.4317,172.4449 M,0,289776,289787,241.4317,172.4449,233.6476,166.1674 M,0,289787,289797,233.6476,166.1674,225.8885,159.8646 M,0,289797,289808,225.8885,159.8646,219.5314,152.1453 M,0,289808,289818,219.5314,152.1453,213.1744,144.426 M,0,289818,289828,213.1744,144.426,206.8173,136.7067 M,0,289828,289839,206.8173,136.7067,200.4602,128.9874
Sprite,Foreground,Centre,"sb\highlight.png",382,185 C,0,289923,,227,221,196 M,0,289923,289933,382,185,388.2775,177.2159 F,2,289923,290206,1,0 S,2,289923,290206,1,0.2 P,0,289923,290206,A M,0,289933,289943,388.2775,177.2159,394.5551,169.4317 M,0,289943,289954,394.5551,169.4317,400.8326,161.6476 M,0,289954,289964,400.8326,161.6476,407.1354,153.8885 M,0,289964,289975,407.1354,153.8885,414.8547,147.5314 M,0,289975,289985,414.8547,147.5314,422.574,141.1744 M,0,289985,289995,422.574,141.1744,430.2933,134.8173 M,0,289995,290006,430.2933,134.8173,438.0126,128.4602
Sprite,Foreground,Centre,"sb\highlight.png",382,310 C,0,290089,,227,221,196 M,0,290089,290099,382,310,389.7841,316.2775 F,2,290089,290372,1,0 S,2,290089,290372,1,0.2 P,0,290089,290372,A M,0,290099,290109,389.7841,316.2775,397.5683,322.5551 M,0,290109,290120,397.5683,322.5551,405.3524,328.8326 M,0,290120,290130,405.3524,328.8326,413.1101,335.1365 M,0,290130,290141,413.1101,335.1365,419.3876,342.9207 M,0,290141,290151,419.3876,342.9207,425.6652,350.7048 M,0,290151,290161,425.6652,350.7048,431.9427,358.4889 M,0,290161,290172,431.9427,358.4889,438,366
Sprite,Foreground,Centre,"sb\highlight.png",201,366 C,0,290256,,248,173,185 M,0,290256,290266,201,366,208.7841,359.7225 F,2,290256,290539,1,0 S,2,290256,290539,1,0.2 P,0,290256,290539,A M,0,290266,290276,208.7841,359.7225,216.5683,353.4449 M,0,290276,290287,216.5683,353.4449,224.3524,347.1674 M,0,290287,290297,224.3524,347.1674,232.1101,340.8635 M,0,290297,290308,232.1101,340.8635,238.3876,333.0793 M,0,290308,290318,238.3876,333.0793,244.6651,325.2952 M,0,290318,290328,244.6651,325.2952,250.9427,317.5111 M,0,290328,290339,250.9427,317.5111,257,310
Sprite,Foreground,Centre,"sb\highlight.png",201,129 C,0,290423,,248,173,185 M,0,290423,290433,201,129,207.2775,136.7841 F,2,290423,290706,1,0 S,2,290423,290706,1,0.2 P,0,290423,290706,A M,0,290433,290443,207.2775,136.7841,213.5551,144.5683 M,0,290443,290454,213.5551,144.5683,219.8326,152.3524 M,0,290454,290464,219.8326,152.3524,226.1365,160.1101 M,0,290464,290475,226.1365,160.1101,233.9207,166.3876 M,0,290475,290485,233.9207,166.3876,241.7048,172.6651 M,0,290485,290495,241.7048,172.6651,249.4889,178.9427 M,0,290495,290506,249.4889,178.9427,257,185
Sprite,Foreground,Centre,"sb\highlight.png",438,129 C,0,290590,,248,173,185 M,0,290590,290600,438,129,430.2159,135.2775 F,2,290590,290873,1,0 S,2,290590,290873,1,0.2 P,0,290590,290873,A M,0,290600,290610,430.2159,135.2775,422.4317,141.5551 M,0,290610,290621,422.4317,141.5551,414.6476,147.8326 M,0,290621,290631,414.6476,147.8326,406.8899,154.1365 M,0,290631,290642,406.8899,154.1365,400.6124,161.9207 M,0,290642,290652,400.6124,161.9207,394.3348,169.7048 M,0,290652,290662,394.3348,169.7048,388.0573,177.4889 M,0,290662,290673,388.0573,177.4889,382,185
Sprite,Foreground,Centre,"sb\highlight.png",438,366 C,0,290756,,248,173,185 M,0,290756,290766,438,366,431.7225,358.2159 F,2,290756,291039,1,0 S,2,290756,291039,1,0.2 P,0,290756,291039,A M,0,290766,290776,431.7225,358.2159,425.4449,350.4317 M,0,290776,290787,425.4449,350.4317,419.1674,342.6476 M,0,290787,290797,419.1674,342.6476,412.8635,334.8899 M,0,290797,290808,412.8635,334.8899,405.0793,328.6124 M,0,290808,290818,405.0793,328.6124,397.2952,322.3348 M,0,290818,290828,397.2952,322.3348,389.5111,316.0573 M,0,290828,290839,389.5111,316.0573,382,310
Sprite,Foreground,Centre,"sb\highlight.png",158,291 C,0,290922,,227,221,196 M,0,290922,290932,158,291,167.8427,289.2333 F,2,290922,291205,1,0 S,2,290922,291205,1,0.2 P,0,290922,291205,A M,0,290932,290942,167.8427,289.2333,177.6854,287.4667 M,0,290942,290953,177.6854,287.4667,187.5281,285.7001 M,0,290953,290963,187.5281,285.7001,197.3524,283.8667 M,0,290963,290974,197.3524,283.8667,206.7053,280.3278 M,0,290974,290984,206.7053,280.3278,216.0581,276.7888 M,0,290984,290994,216.0581,276.7888,225.411,273.2499 M,0,290994,291005,225.411,273.2499,234,270
Sprite,Foreground,Centre,"sb\highlight.png",363,85 C,0,291089,,227,221,196 M,0,291089,291099,363,85,359.5429,94.38343 F,2,291089,291372,1,0 S,2,291089,291372,1,0.2 P,0,291089,291372,A M,0,291099,291109,359.5429,94.38343,356.0859,103.7669 M,0,291109,291120,356.0859,103.7669,352.6288,113.1503 M,0,291120,291130,352.6288,113.1503,349.1718,122.5337 M,0,291130,291141,349.1718,122.5337,347.3211,132.3536 M,0,291141,291151,347.3211,132.3536,345.5545,142.1963 M,0,291151,291161,345.5545,142.1963,343.7879,152.039 M,0,291161,291172,343.7879,152.039,342.0212,161.8817
Sprite,Foreground,Centre,"sb\highlight.png",438,366 C,0,291256,,227,221,196 M,0,291256,291266,438,366,431.7225,358.2159 F,2,291256,291539,1,0 S,2,291256,291539,1,0.2 P,0,291256,291539,A M,0,291266,291276,431.7225,358.2159,425.4449,350.4317 M,0,291276,291287,425.4449,350.4317,419.1674,342.6476 M,0,291287,291297,419.1674,342.6476,412.8635,334.8899 M,0,291297,291308,412.8635,334.8899,405.0793,328.6124 M,0,291308,291318,405.0793,328.6124,397.2952,322.3348 M,0,291318,291328,397.2952,322.3348,389.5111,316.0573 M,0,291328,291339,389.5111,316.0573,382,310
Sprite,Foreground,Centre,"sb\highlight.png",201,129 C,0,291422,,227,221,196 M,0,291422,291432,201,129,208.7841,135.2775 F,2,291422,291705,1,0 S,2,291422,291705,1,0.2 P,0,291422,291705,A M,0,291432,291442,208.7841,135.2775,216.5683,141.5551 M,0,291442,291453,216.5683,141.5551,224.3524,147.8326 M,0,291453,291463,224.3524,147.8326,232.1101,154.1365 M,0,291463,291474,232.1101,154.1365,238.3876,161.9207 M,0,291474,291484,238.3876,161.9207,244.6651,169.7048 M,0,291484,291494,244.6651,169.7048,250.9427,177.4889 M,0,291494,291505,250.9427,177.4889,257,185
Sprite,Foreground,Centre,"sb\highlight.png",276,409 C,0,291589,,248,173,185 M,0,291589,291599,276,409,277.7667,399.1573 F,2,291589,291872,1,0 S,2,291589,291872,1,0.2 P,0,291589,291872,A M,0,291599,291609,277.7667,399.1573,279.5333,389.3146 M,0,291609,291620,279.5333,389.3146,281.2999,379.4719 M,0,291620,291630,281.2999,379.4719,283.1333,369.6476 M,0,291630,291641,283.1333,369.6476,286.6722,360.2947 M,0,291641,291651,286.6722,360.2947,290.2112,350.9419 M,0,291651,291661,290.2112,350.9419,293.7501,341.589 M,0,291661,291672,293.7501,341.589,297,333
Sprite,Foreground,Centre,"sb\highlight.png",363,86 C,0,291756,,248,173,185 M,0,291756,291766,363,86,361.2334,95.84271 F,2,291756,292039,1,0 S,2,291756,292039,1,0.2 P,0,291756,292039,A M,0,291766,291776,361.2334,95.84271,359.4667,105.6854 M,0,291776,291787,359.4667,105.6854,357.7001,115.5281 M,0,291787,291797,357.7001,115.5281,355.8667,125.3524 M,0,291797,291808,355.8667,125.3524,352.3277,134.7053 M,0,291808,291818,352.3277,134.7053,348.7888,144.0581 M,0,291818,291828,348.7888,144.0581,345.2499,153.411 M,0,291828,291839,345.2499,153.411,342,162
Sprite,Foreground,Centre,"sb\highlight.png",319,415 C,0,291922,,248,173,185 M,0,291922,291932,319,415,317.9797,405.0522 F,2,291922,292205,1,0 S,2,291922,292205,1,0.2 P,0,291922,292205,A M,0,291932,291942,317.9797,405.0522,316.9594,395.1044 M,0,291942,291953,316.9594,395.1044,315.9391,385.1566 M,0,291953,291963,315.9391,385.1566,315.0987,375.2107 M,0,291963,291974,315.0987,375.2107,316.339,365.288 M,0,291974,291984,316.339,365.288,317.5793,355.3652 M,0,291984,291994,317.5793,355.3652,318.8197,345.4424 M,0,291994,292005,318.8197,345.4424,320,336
Sprite,Foreground,Centre,"sb\highlight.png",320,80 C,0,292089,,248,173,185 M,0,292089,292099,320,80,320.995,89.95037 F,2,292089,292372,1,0 S,2,292089,292372,1,0.2 P,0,292089,292372,A M,0,292099,292109,320.995,89.95037,321.9901,99.90074 M,0,292109,292120,321.9901,99.90074,322.9851,109.8511 M,0,292120,292130,322.9851,109.8511,323.9802,119.8015 M,0,292130,292141,323.9802,119.8015,322.7844,129.7248 M,0,292141,292151,322.7844,129.7248,321.544,139.6476 M,0,292151,292161,321.544,139.6476,320.3037,149.5704 M,0,292161,292172,320.3037,149.5704,319.0634,159.4932
Sprite,Foreground,Centre,"sb\highlight.png",363,410 C,0,292256,,248,173,185 M,0,292256,292266,363,410,359.5429,400.6166 F,2,292256,292539,1,0 S,2,292256,292539,1,0.2 P,0,292256,292539,A M,0,292266,292276,359.5429,400.6166,356.0859,391.2331 M,0,292276,292287,356.0859,391.2331,352.6288,381.8497 M,0,292287,292297,352.6288,381.8497,349.1718,372.4663 M,0,292297,292308,349.1718,372.4663,347.3211,362.6464 M,0,292308,292318,347.3211,362.6464,345.5545,352.8037 M,0,292318,292328,345.5545,352.8037,343.7879,342.961 M,0,292328,292339,343.7879,342.961,342.0212,333.1183
Sprite,Foreground,Centre,"sb\highlight.png",276,85 C,0,292423,,248,173,185 M,0,292423,292433,276,85,279.457,94.38343 F,2,292423,292706,1,0 S,2,292423,292706,1,0.2 P,0,292423,292706,A M,0,292433,292443,279.457,94.38343,282.9141,103.7669 M,0,292443,292454,282.9141,103.7669,286.3712,113.1503 M,0,292454,292464,286.3712,113.1503,289.8282,122.5337 M,0,292464,292475,289.8282,122.5337,291.6788,132.3536 M,0,292475,292485,291.6788,132.3536,293.4455,142.1963 M,0,292485,292495,293.4455,142.1963,295.2121,152.039 M,0,292495,292506,295.2121,152.039,296.9788,161.8817
Sprite,Foreground,Centre,"sb\highlight.png",403,393 C,0,292589,,248,173,185 M,0,292589,292599,403,393,397.2821,384.796 F,2,292589,292872,1,0 S,2,292589,292872,1,0.2 P,0,292589,292872,A M,0,292599,292609,397.2821,384.796,391.5641,376.592 M,0,292609,292620,391.5641,376.592,385.8462,368.3881 M,0,292620,292630,385.8462,368.3881,380.1283,360.1841 M,0,292630,292641,380.1283,360.1841,376.0298,351.0669 M,0,292641,292651,376.0298,351.0669,371.9684,341.9288 M,0,292651,292661,371.9684,341.9288,367.907,332.7907 M,0,292661,292672,367.907,332.7907,364,324
Sprite,Foreground,Centre,"sb\highlight.png",236,102 C,0,292756,,248,173,185 M,0,292756,292766,236,102,241.7179,110.204 F,2,292756,293039,1,0 S,2,292756,293039,1,0.2 P,0,292756,293039,A M,0,292766,292776,241.7179,110.204,247.4359,118.408 M,0,292776,292787,247.4359,118.408,253.1538,126.6119 M,0,292787,292797,253.1538,126.6119,258.8717,134.8159 M,0,292797,292808,258.8717,134.8159,262.9703,143.9331 M,0,292808,292818,262.9703,143.9331,267.0316,153.0712 M,0,292818,292828,267.0316,153.0712,271.093,162.2093 M,0,292828,292839,271.093,162.2093,275,171
Sprite,Foreground,Centre,"sb\highlight.png",382,310 C,0,292922,,227,221,196 M,0,292922,292932,382,310,388.2775,317.7841 F,2,292922,293205,1,0 S,2,292922,293205,1,0.2 P,0,292922,293205,A M,0,292932,292942,388.2775,317.7841,394.5551,325.5683 M,0,292942,292953,394.5551,325.5683,400.8326,333.3524 M,0,292953,292963,400.8326,333.3524,407.1365,341.1101 M,0,292963,292974,407.1365,341.1101,414.9207,347.3876 M,0,292974,292984,414.9207,347.3876,422.7048,353.6652 M,0,292984,292994,422.7048,353.6652,430.4889,359.9427 M,0,292994,293005,430.4889,359.9427,438,366
Sprite,Foreground,Centre,"sb\highlight.png",257,185 C,0,293089,,227,221,196 M,0,293089,293099,257,185,250.7225,177.2159 F,2,293089,293372,1,0 S,2,293089,293372,1,0.2 P,0,293089,293372,A M,0,293099,293109,250.7225,177.2159,244.4449,169.4317 M,0,293109,293120,244.4449,169.4317,238.1674,161.6476 M,0,293120,293130,238.1674,161.6476,231.8635,153.8899 M,0,293130,293141,231.8635,153.8899,224.0793,147.6124 M,0,293141,293151,224.0793,147.6124,216.2952,141.3349 M,0,293151,293161,216.2952,141.3349,208.5111,135.0573 M,0,293161,293172,208.5111,135.0573,201,129
Sprite,Foreground,Centre,"sb\highlight.png",396,292 C,0,293256,,227,221,196 M,0,293256,293266,396,292,404.1201,297.8364 F,2,293256,293539,1,0 S,2,293256,293539,1,0.2 P,0,293256,293539,A M,0,293266,293276,404.1201,297.8364,412.2403,303.6727 M,0,293276,293287,412.2403,303.6727,420.3605,309.5091 M,0,293287,293297,420.3605,309.5091,428.5352,315.2527 M,0,293297,293308,428.5352,315.2527,437.5777,319.5228 M,0,293308,293318,437.5777,319.5228,446.6202,323.7929 M,0,293318,293328,446.6202,323.7929,455.6627,328.0629 M,0,293328,293339,455.6627,328.0629,464,332
Sprite,Foreground,Centre,"sb\highlight.png",243,204 C,0,293423,,227,221,196 M,0,293423,293433,243,204,235,198 F,2,293423,293706,1,0 S,2,293423,293706,1,0.2 P,0,293423,293706,A M,0,293433,293443,235,198,227,192 M,0,293443,293454,227,192,219,186 M,0,293454,293464,219,186,211,180 M,0,293464,293475,211,180,201.9575,175.7299 M,0,293475,293485,201.9575,175.7299,192.915,171.4599 M,0,293485,293495,192.915,171.4599,183.8725,167.1898 M,0,293495,293506,183.8725,167.1898,175,163
Sprite,Foreground,Centre,"sb\highlight.png",405,270 C,0,293589,,227,221,196 M,0,293589,293599,405,270,414.3529,273.5389 F,2,293589,293872,1,0 S,2,293589,293872,1,0.2 P,0,293589,293872,A M,0,293599,293609,414.3529,273.5389,423.7057,277.0778 M,0,293609,293620,423.7057,277.0778,433.0586,280.6168 M,0,293620,293630,433.0586,280.6168,442.433,284.0777 M,0,293630,293641,442.433,284.0777,452.2757,285.8444 M,0,293641,293651,452.2757,285.8444,462.1184,287.611 M,0,293651,293661,462.1184,287.611,471.9611,289.3776 M,0,293661,293672,471.9611,289.3776,481,291
Sprite,Foreground,Centre,"sb\highlight.png",234,225 C,0,293756,,227,221,196 M,0,293756,293766,234,225,224.6471,221.4611 F,2,293756,294039,1,0 S,2,293756,294039,1,0.2 P,0,293756,294039,A M,0,293766,293776,224.6471,221.4611,215.2943,217.9222 M,0,293776,293787,215.2943,217.9222,205.9414,214.3832 M,0,293787,293797,205.9414,214.3832,196.567,210.9223 M,0,293797,293808,196.567,210.9223,186.7243,209.1556 M,0,293808,293818,186.7243,209.1556,176.8816,207.389 M,0,293818,293828,176.8816,207.389,167.0389,205.6224 M,0,293828,293839,167.0389,205.6224,158,204
Sprite,Foreground,Centre,"sb\highlight.png",505,181 C,0,293922,,248,173,185 M,0,293922,293932,505,181,495.2986,183.4254 F,2,293922,294372,1,0 S,2,293922,294372,1,0.2 P,0,293922,294372,A M,0,293932,293942,495.2986,183.4254,485.5971,185.8507 M,0,293942,293953,485.5971,185.8507,475.8957,188.2761 M,0,293953,293963,475.8957,188.2761,466.1943,190.7014 M,0,293963,293974,466.1943,190.7014,475.8957,188.2761 M,0,293974,293984,475.8957,188.2761,485.5971,185.8507 M,0,293984,293994,485.5971,185.8507,495.2986,183.4254 M,0,293994,294005,495.2986,183.4254,505,181 M,0,294005,294015,505,181,495.2986,183.4254 M,0,294015,294026,495.2986,183.4254,485.5971,185.8507 M,0,294026,294036,485.5971,185.8507,475.8957,188.2761 M,0,294036,294047,475.8957,188.2761,466.1943,190.7014 M,0,294047,294057,466.1943,190.7014,475.8957,188.2761 M,0,294057,294067,475.8957,188.2761,485.5971,185.8507 M,0,294067,294078,485.5971,185.8507,495.2986,183.4254 M,0,294078,294088,495.2986,183.4254,505,181 M,0,294088,294099,505,181,495.2986,183.4254 M,0,294099,294109,495.2986,183.4254,485.5971,185.8507 M,0,294109,294119,485.5971,185.8507,475.8957,188.2761 M,0,294119,294130,475.8957,188.2761,466.1943,190.7014 M,0,294130,294140,466.1943,190.7014,475.8957,188.2761 M,0,294140,294151,475.8957,188.2761,485.5971,185.8507 M,0,294151,294161,485.5971,185.8507,495.2986,183.4254 M,0,294161,294172,495.2986,183.4254,505,181
Sprite,Foreground,Centre,"sb\highlight.png",384,104 C,0,294256,,227,221,196 M,0,294256,294266,384,104,393.9504,104.995 F,2,294256,294539,1,0 S,2,294256,294539,1,0.2 P,0,294256,294539,A M,0,294266,294276,393.9504,104.995,403.9008,105.9901 M,0,294276,294287,403.9008,105.9901,413.8511,106.9851 M,0,294287,294297,413.8511,106.9851,423.8015,107.9801 M,0,294297,294308,423.8015,107.9801,433.7519,108.9752 M,0,294308,294318,433.7519,108.9752,443.7022,109.9702 M,0,294318,294328,443.7022,109.9702,453.6526,110.9653 M,0,294328,294339,453.6526,110.9653,463.603,111.9603
Sprite,Foreground,Centre,"sb\highlight.png",256,392 C,0,294422,,227,221,196 M,0,294422,294432,256,392,246.0496,391.005 F,2,294422,294705,1,0 S,2,294422,294705,1,0.2 P,0,294422,294705,A M,0,294432,294442,246.0496,391.005,236.0993,390.0099 M,0,294442,294453,236.0993,390.0099,226.1489,389.0149 M,0,294453,294463,226.1489,389.0149,216.1985,388.0198 M,0,294463,294474,216.1985,388.0198,206.2481,387.0248 M,0,294474,294484,206.2481,387.0248,196.2978,386.0298 M,0,294484,294494,196.2978,386.0298,186.3474,385.0347 M,0,294494,294505,186.3474,385.0347,176.397,384.0397
Sprite,Foreground,Centre,"sb\highlight.png",467,191 C,0,294589,,227,221,196 M,0,294589,294599,467,191,473.2775,198.7841 F,2,294589,294872,1,0 S,2,294589,294872,1,0.2 P,0,294589,294872,A M,0,294599,294609,473.2775,198.7841,479.5551,206.5683 M,0,294609,294620,479.5551,206.5683,485.8326,214.3524 M,0,294620,294630,485.8326,214.3524,492.1101,222.1365 M,0,294630,294641,492.1101,222.1365,498.3876,229.9207 M,0,294641,294651,498.3876,229.9207,504.6652,237.7048 M,0,294651,294661,504.6652,237.7048,510.9427,245.4889 M,0,294661,294672,510.9427,245.4889,517,253
Sprite,Foreground,Centre,"sb\highlight.png",172,304 C,0,294755,,227,221,196 M,0,294755,294765,172,304,165.7225,296.2159 F,2,294755,295038,1,0 S,2,294755,295038,1,0.2 P,0,294755,295038,A M,0,294765,294775,165.7225,296.2159,159.4449,288.4317 M,0,294775,294786,159.4449,288.4317,153.1674,280.6476 M,0,294786,294796,153.1674,280.6476,146.8899,272.8635 M,0,294796,294807,146.8899,272.8635,140.6124,265.0793 M,0,294807,294817,140.6124,265.0793,134.3349,257.2952 M,0,294817,294827,134.3349,257.2952,128.0573,249.5111 M,0,294827,294838,128.0573,249.5111,122,242
Sprite,Foreground,Centre,"sb\highlight.png",464,311 C,0,294922,,227,221,196 M,0,294922,294932,464,311,463.0171,320.9516 F,2,294922,295205,1,0 S,2,294922,295205,1,0.2 P,0,294922,295205,A M,0,294932,294942,463.0171,320.9516,462.0342,330.9032 M,0,294942,294953,462.0342,330.9032,461.0514,340.8547 M,0,294953,294963,461.0514,340.8547,460.0685,350.8063 M,0,294963,294974,460.0685,350.8063,459.0856,360.7579 M,0,294974,294984,459.0856,360.7579,458.1028,370.7095 M,0,294984,294994,458.1028,370.7095,457.1199,380.6611 M,0,294994,295005,457.1199,380.6611,456.137,390.6126
Sprite,Foreground,Centre,"sb\highlight.png",176,183 C,0,295088,,227,221,196 M,0,295088,295098,176,183,177.0075,173.0509 F,2,295088,295371,1,0 S,2,295088,295371,1,0.2 P,0,295088,295371,A M,0,295098,295108,177.0075,173.0509,178.015,163.1018 M,0,295108,295119,178.015,163.1018,179.0225,153.1526 M,0,295119,295129,179.0225,153.1526,180.03,143.2035 M,0,295129,295140,180.03,143.2035,181.0375,133.2544 M,0,295140,295150,181.0375,133.2544,182.045,123.3053 M,0,295150,295160,182.045,123.3053,183.0525,113.3562 M,0,295160,295171,183.0525,113.3562,184,104
Sprite,Foreground,Centre,"sb\highlight.png",376,395 C,0,295256,,227,221,196 M,0,295256,295266,376,395,368.2159,401.2775 F,2,295256,295539,1,0 S,2,295256,295539,1,0.2 P,0,295256,295539,A M,0,295266,295276,368.2159,401.2775,360.4317,407.5551 M,0,295276,295287,360.4317,407.5551,352.6476,413.8326 M,0,295287,295297,352.6476,413.8326,344.8635,420.1101 M,0,295297,295308,344.8635,420.1101,337.0793,426.3876 M,0,295308,295318,337.0793,426.3876,329.2952,432.6652 M,0,295318,295328,329.2952,432.6652,321.5111,438.9427 M,0,295328,295339,321.5111,438.9427,314,445
Sprite,Foreground,Centre,"sb\highlight.png",263,100 C,0,295422,,227,221,196 M,0,295422,295432,263,100,270.8456,93.79945 F,2,295422,295705,1,0 S,2,295422,295705,1,0.2 P,0,295422,295705,A M,0,295432,295442,270.8456,93.79945,278.6912,87.59891 M,0,295442,295453,278.6912,87.59891,286.5367,81.39836 M,0,295453,295463,286.5367,81.39836,294.3824,75.19782 M,0,295463,295474,294.3824,75.19782,302.2279,68.99728 M,0,295474,295484,302.2279,68.99728,310.0735,62.79673 M,0,295484,295494,310.0735,62.79673,317.9191,56.59618 M,0,295494,295505,317.9191,56.59618,325,51
Sprite,Foreground,Centre,"sb\highlight.png",256,392 C,0,295589,,248,173,185 M,0,295589,295599,256,392,246.0496,391.005 F,2,295589,295872,1,0 S,2,295589,295872,1,0.2 P,0,295589,295872,A M,0,295599,295609,246.0496,391.005,236.0993,390.0099 M,0,295609,295620,236.0993,390.0099,226.1489,389.0149 M,0,295620,295630,226.1489,389.0149,216.1985,388.0198 M,0,295630,295641,216.1985,388.0198,206.2481,387.0248 M,0,295641,295651,206.2481,387.0248,196.2978,386.0298 M,0,295651,295661,196.2978,386.0298,186.3474,385.0347 M,0,295661,295672,186.3474,385.0347,176.397,384.0397
Sprite,Foreground,Centre,"sb\highlight.png",384,104 C,0,295755,,248,173,185 M,0,295755,295765,384,104,393.9504,104.995 F,2,295755,296038,1,0 S,2,295755,296038,1,0.2 P,0,295755,296038,A M,0,295765,295775,393.9504,104.995,403.9008,105.9901 M,0,295775,295786,403.9008,105.9901,413.8511,106.9851 M,0,295786,295796,413.8511,106.9851,423.8015,107.9801 M,0,295796,295807,423.8015,107.9801,433.7519,108.9752 M,0,295807,295817,433.7519,108.9752,443.7022,109.9702 M,0,295817,295827,443.7022,109.9702,453.6526,110.9653 M,0,295827,295838,453.6526,110.9653,463.603,111.9603
Sprite,Foreground,Centre,"sb\highlight.png",240,400 C,0,295922,,248,173,185 M,0,295922,295932,240,400,230.0484,399.0171 F,2,295922,296205,1,0 S,2,295922,296205,1,0.2 P,0,295922,296205,A M,0,295932,295942,230.0484,399.0171,220.0968,398.0342 M,0,295942,295953,220.0968,398.0342,210.1453,397.0514 M,0,295953,295963,210.1453,397.0514,200.1937,396.0685 M,0,295963,295974,200.1937,396.0685,190.2421,395.0856 M,0,295974,295984,190.2421,395.0856,180.2905,394.1028 M,0,295984,295994,180.2905,394.1028,170.3389,393.1199 M,0,295994,296005,170.3389,393.1199,160.3874,392.137
Sprite,Foreground,Centre,"sb\highlight.png",400,96 C,0,296089,,248,173,185 M,0,296089,296099,400,96,409.9504,96.99504 F,2,296089,296372,1,0 S,2,296089,296372,1,0.2 P,0,296089,296372,A M,0,296099,296109,409.9504,96.99504,419.9008,97.99007 M,0,296109,296120,419.9008,97.99007,429.8511,98.98511 M,0,296120,296130,429.8511,98.98511,439.8015,99.98015 M,0,296130,296141,439.8015,99.98015,449.7519,100.9752 M,0,296141,296151,449.7519,100.9752,459.7022,101.9702 M,0,296151,296161,459.7022,101.9702,469.6526,102.9653 M,0,296161,296172,469.6526,102.9653,479.603,103.9603
Sprite,Foreground,Centre,"sb\highlight.png",96,336 C,0,296256,,227,221,196 F,2,296256,296456,1,0 S,2,296256,296456,1,0.2 P,0,296256,296456,A
Sprite,Foreground,Centre,"sb\highlight.png",148,288 C,0,296339,,227,221,196 F,2,296339,296539,1,0 S,2,296339,296539,1,0.2 P,0,296339,296539,A
Sprite,Foreground,Centre,"sb\highlight.png",218,281 C,0,296422,,227,221,196 F,2,296422,296622,1,0 S,2,296422,296622,1,0.2 P,0,296422,296622,A
Sprite,Foreground,Centre,"sb\highlight.png",288,304 C,0,296506,,227,221,196 F,2,296506,296706,1,0 S,2,296506,296706,1,0.2 P,0,296506,296706,A
Sprite,Foreground,Centre,"sb\highlight.png",336,376 C,0,296589,,248,173,185 F,2,296589,296789,1,0 S,2,296589,296789,1,0.2 P,0,296589,296789,A
Sprite,Foreground,Centre,"sb\highlight.png",448,208 C,0,254422,,227,221,196 F,2,254422,254622,1,0 S,2,254422,254622,1,0.2 P,0,254422,254622,A
Sprite,Foreground,Centre,"sb\highlight.png",452,192 C,0,254506,,227,221,196 F,2,254506,254706,1,0 S,2,254506,254706,1,0.2 P,0,254506,254706,A
Sprite,Foreground,Centre,"sb\highlight.png",456,176 C,0,254589,,227,221,196 F,2,254589,254789,1,0 S,2,254589,254789,1,0.2 P,0,254589,254789,A
Sprite,Foreground,Centre,"sb\highlight.png",460,160 C,0,254672,,227,221,196 F,2,254672,254872,1,0 S,2,254672,254872,1,0.2 P,0,254672,254872,A
Sprite,Foreground,Centre,"sb\highlight.png",464,144 C,0,254756,,227,221,196 F,2,254756,254956,1,0 S,2,254756,254956,1,0.2 P,0,254756,254956,A
Sprite,Foreground,Centre,"sb\highlight.png",468,128 C,0,254839,,227,221,196 F,2,254839,255039,1,0 S,2,254839,255039,1,0.2 P,0,254839,255039,A
Sprite,Foreground,Centre,"sb\highlight.png",472,112 C,0,254922,,248,173,185 M,0,254922,254963,472,112,432.7197,119.5539 F,2,254922,255205,1,0 S,2,254922,255205,1,0.2 P,0,254922,255205,A M,0,254963,255005,432.7197,119.5539,393.4395,127.1078
Sprite,Foreground,Centre,"sb\highlight.png",312,272 C,0,255089,,248,173,185 F,2,255089,255289,1,0 S,2,255089,255289,1,0.2 P,0,255089,255289,A
Sprite,Foreground,Centre,"sb\highlight.png",296,268 C,0,255172,,248,173,185 F,2,255172,255372,1,0 S,2,255172,255372,1,0.2 P,0,255172,255372,A
Sprite,Foreground,Centre,"sb\highlight.png",280,260 C,0,255256,,248,173,185 F,2,255256,255456,1,0 S,2,255256,255456,1,0.2 P,0,255256,255456,A
Sprite,Foreground,Centre,"sb\highlight.png",268,248 C,0,255339,,248,173,185 F,2,255339,255539,1,0 S,2,255339,255539,1,0.2 P,0,255339,255539,A
Sprite,Foreground,Centre,"sb\highlight.png",260,236 C,0,255422,,248,173,185 F,2,255422,255622,1,0 S,2,255422,255622,1,0.2 P,0,255422,255622,A
Sprite,Foreground,Centre,"sb\highlight.png",252,220 C,0,255506,,248,173,185 F,2,255506,255706,1,0 S,2,255506,255706,1,0.2 P,0,255506,255706,A
Sprite,Foreground,Centre,"sb\highlight.png",248,204 C,0,255589,,227,221,196 M,0,255589,255630,248,204,251.6214,164.1643 F,2,255589,255872,1,0 S,2,255589,255872,1,0.2 P,0,255589,255872,A M,0,255630,255672,251.6214,164.1643,255.2429,124.3285
Sprite,Foreground,Centre,"sb\highlight.png",120,232 C,0,255756,,227,221,196 F,2,255756,255956,1,0 S,2,255756,255956,1,0.2 P,0,255756,255956,A
Sprite,Foreground,Centre,"sb\highlight.png",116,256 C,0,255839,,227,221,196 F,2,255839,256039,1,0 S,2,255839,256039,1,0.2 P,0,255839,256039,A
Sprite,Foreground,Centre,"sb\highlight.png",116,280 C,0,255922,,248,173,185 M,0,255922,255963,116,280,128.6841,317.5745 F,2,255922,256205,1,0 S,2,255922,256205,1,0.2 P,0,255922,256205,A M,0,255963,256005,128.6841,317.5745,154,347
Sprite,Foreground,Centre,"sb\highlight.png",240,392 C,0,256089,,248,173,185 M,0,256089,256130,240,392,278.8907,399.6829 F,2,256089,256372,1,0 S,2,256089,256372,1,0.2 P,0,256089,256372,A M,0,256130,256172,278.8907,399.6829,317,392
Sprite,Foreground,Centre,"sb\highlight.png",407,153 C,0,256256,,227,221,196 M,0,256256,256297,407,153,368.3307,144.3492 F,2,256256,256539,1,0 S,2,256256,256539,1,0.2 P,0,256256,256539,A M,0,256297,256339,368.3307,144.3492,329.4216,151.8348
Sprite,Foreground,Centre,"sb\highlight.png",248,204 C,0,256423,,227,221,196 M,0,256423,256464,248,204,221.2442,233.2485 F,2,256423,256706,1,0 S,2,256423,256706,1,0.2 P,0,256423,256706,A M,0,256464,256506,221.2442,233.2485,208.0598,270.6298
Sprite,Foreground,Centre,"sb\highlight.png",315,311 C,0,256589,,248,173,185 M,0,256589,256630,315,311,316.0123,350.9872 F,2,256589,256872,1,0 S,2,256589,256872,1,0.2 P,0,256589,256872,A M,0,256630,256672,316.0123,350.9872,317,390
Sprite,Foreground,Centre,"sb\highlight.png",152,427 C,0,256756,,248,173,185 M,0,256756,256797,152,427,152.9997,387.0125 F,2,256756,257039,1,0 S,2,256756,257039,1,0.2 P,0,256756,257039,A M,0,256797,256839,152.9997,387.0125,153.9994,347.025
Sprite,Foreground,Centre,"sb\highlight.png",136,160 C,0,256922,,227,221,196 M,0,256922,256963,136,160,137.5987,120.032 F,2,256922,257205,1,0 S,2,256922,257205,1,0.2 P,0,256922,257205,A M,0,256963,257005,137.5987,120.032,139.1974,80.06393
Sprite,Foreground,Centre,"sb\highlight.png",232,200 C,0,257089,,227,221,196 F,2,257089,257289,1,0 S,2,257089,257289,1,0.2 P,0,257089,257289,A
Sprite,Foreground,Centre,"sb\highlight.png",248,192 C,0,257172,,227,221,196 F,2,257172,257372,1,0 S,2,257172,257372,1,0.2 P,0,257172,257372,A
Sprite,Foreground,Centre,"sb\highlight.png",264,184 C,0,257256,,227,221,196 F,2,257256,257456,1,0 S,2,257256,257456,1,0.2 P,0,257256,257456,A
Sprite,Foreground,Centre,"sb\highlight.png",280,176 C,0,257339,,227,221,196 F,2,257339,257539,1,0 S,2,257339,257539,1,0.2 P,0,257339,257539,A
Sprite,Foreground,Centre,"sb\highlight.png",296,168 C,0,257422,,227,221,196 F,2,257422,257622,1,0 S,2,257422,257622,1,0.2 P,0,257422,257622,A
Sprite,Foreground,Centre,"sb\highlight.png",312,160 C,0,257506,,227,221,196 F,2,257506,257706,1,0 S,2,257506,257706,1,0.2 P,0,257506,257706,A
Sprite,Foreground,Centre,"sb\highlight.png",328,152 C,0,257589,,248,173,185 M,0,257589,257630,328,152,329.5179,191.9712 F,2,257589,257872,1,0 S,2,257589,257872,1,0.2 P,0,257589,257872,A M,0,257630,257672,329.5179,191.9712,331,231
Sprite,Foreground,Centre,"sb\highlight.png",412,316 C,0,257756,,248,173,185 F,2,257756,257956,1,0 S,2,257756,257956,1,0.2 P,0,257756,257956,A
Sprite,Foreground,Centre,"sb\highlight.png",428,324 C,0,257839,,248,173,185 F,2,257839,258039,1,0 S,2,257839,258039,1,0.2 P,0,257839,258039,A
Sprite,Foreground,Centre,"sb\highlight.png",444,328 C,0,257922,,248,173,185 F,2,257922,258122,1,0 S,2,257922,258122,1,0.2 P,0,257922,258122,A
Sprite,Foreground,Centre,"sb\highlight.png",460,328 C,0,258006,,248,173,185 F,2,258006,258206,1,0 S,2,258006,258206,1,0.2 P,0,258006,258206,A
Sprite,Foreground,Centre,"sb\highlight.png",476,324 C,0,258089,,248,173,185 F,2,258089,258289,1,0 S,2,258089,258289,1,0.2 P,0,258089,258289,A
Sprite,Foreground,Centre,"sb\highlight.png",492,316 C,0,258172,,248,173,185 F,2,258172,258372,1,0 S,2,258172,258372,1,0.2 P,0,258172,258372,A
Sprite,Foreground,Centre,"sb\highlight.png",504,304 C,0,258256,,227,221,196 M,0,258256,258297,504,304,514.8076,265.5389 F,2,258256,258539,1,0 S,2,258256,258539,1,0.2 P,0,258256,258539,A M,0,258297,258339,514.8076,265.5389,519.7852,225.9063
Sprite,Foreground,Centre,"sb\highlight.png",432,112 C,0,258422,,227,221,196 F,2,258422,258622,1,0 S,2,258422,258622,1,0.2 P,0,258422,258622,A
Sprite,Foreground,Centre,"sb\highlight.png",260,164 C,0,258589,,248,173,185 F,2,258589,258789,1,0 S,2,258589,258789,1,0.2 P,0,258589,258789,A
Sprite,Foreground,Centre,"sb\highlight.png",412,316 C,0,258756,,248,173,185 F,2,258756,258956,1,0 S,2,258756,258956,1,0.2 P,0,258756,258956,A
Sprite,Foreground,Centre,"sb\highlight.png",196,98 C,0,258922,,227,221,196 M,0,258922,258963,196,98,175.0521,131.6974 F,2,258922,259205,1,0 S,2,258922,259205,1,0.2 P,0,258922,259205,A M,0,258963,259005,175.0521,131.6974,168,170
Sprite,Foreground,Centre,"sb\highlight.png",112,256 C,0,259089,,227,221,196 M,0,259089,259130,112,256,130.4754,291.0879 F,2,259089,259372,1,0 S,2,259089,259372,1,0.2 P,0,259089,259372,A M,0,259130,259172,130.4754,291.0879,160,316
Sprite,Foreground,Centre,"sb\highlight.png",252,360 C,0,259256,,248,173,185 F,2,259256,259456,1,0 S,2,259256,259456,1,0.2 P,0,259256,259456,A
Sprite,Foreground,Centre,"sb\highlight.png",260,164 C,0,259422,,248,173,185 M,0,259422,259463,260,164,261.6652,203.9653 F,2,259422,259705,1,0 S,2,259422,259705,1,0.2 P,0,259422,259705,A M,0,259463,259505,261.6652,203.9653,263.3304,243.9306
Sprite,Foreground,Centre,"sb\highlight.png",420,416 C,0,259589,,227,221,196 M,0,259589,259630,420,416,424.585,376.2636 F,2,259589,259872,1,0 S,2,259589,259872,1,0.2 P,0,259589,259872,A M,0,259630,259672,424.585,376.2636,429.1699,336.5273
Sprite,Foreground,Centre,"sb\highlight.png",364,256 C,0,259756,,227,221,196 F,2,259756,259956,1,0 S,2,259756,259956,1,0.2 P,0,259756,259956,A
Sprite,Foreground,Centre,"sb\highlight.png",360,240 C,0,259839,,227,221,196 F,2,259839,260039,1,0 S,2,259839,260039,1,0.2 P,0,259839,260039,A
Sprite,Foreground,Centre,"sb\highlight.png",356,224 C,0,259922,,227,221,196 F,2,259922,260122,1,0 S,2,259922,260122,1,0.2 P,0,259922,260122,A
Sprite,Foreground,Centre,"sb\highlight.png",352,208 C,0,260006,,227,221,196 F,2,260006,260206,1,0 S,2,260006,260206,1,0.2 P,0,260006,260206,A
Sprite,Foreground,Centre,"sb\highlight.png",348,192 C,0,260089,,227,221,196 F,2,260089,260289,1,0 S,2,260089,260289,1,0.2 P,0,260089,260289,A
Sprite,Foreground,Centre,"sb\highlight.png",344,176 C,0,260172,,227,221,196 F,2,260172,260372,1,0 S,2,260172,260372,1,0.2 P,0,260172,260372,A
Sprite,Foreground,Centre,"sb\highlight.png",340,160 C,0,260256,,248,173,185 M,0,260256,260297,340,160,300.0347,161.6652 F,2,260256,260539,1,0 S,2,260256,260539,1,0.2 P,0,260256,260539,A M,0,260297,260339,300.0347,161.6652,260.0693,163.3304
Sprite,Foreground,Centre,"sb\highlight.png",176,256 C,0,260422,,248,173,185 F,2,260422,260622,1,0 S,2,260422,260622,1,0.2 P,0,260422,260622,A
Sprite,Foreground,Centre,"sb\highlight.png",172,272 C,0,260506,,248,173,185 F,2,260506,260706,1,0 S,2,260506,260706,1,0.2 P,0,260506,260706,A
Sprite,Foreground,Centre,"sb\highlight.png",172,288 C,0,260589,,248,173,185 F,2,260589,260789,1,0 S,2,260589,260789,1,0.2 P,0,260589,260789,A
Sprite,Foreground,Centre,"sb\highlight.png",176,304 C,0,260672,,248,173,185 F,2,260672,260872,1,0 S,2,260672,260872,1,0.2 P,0,260672,260872,A
Sprite,Foreground,Centre,"sb\highlight.png",184,320 C,0,260756,,248,173,185 F,2,260756,260956,1,0 S,2,260756,260956,1,0.2 P,0,260756,260956,A
Sprite,Foreground,Centre,"sb\highlight.png",196,332 C,0,260839,,248,173,185 F,2,260839,261039,1,0 S,2,260839,261039,1,0.2 P,0,260839,261039,A
Sprite,Foreground,Centre,"sb\highlight.png",208,344 C,0,260922,,227,221,196 M,0,260922,260963,208,344,247.8618,340.6782 F,2,260922,261205,1,0 S,2,260922,261205,1,0.2 P,0,260922,261205,A M,0,260963,261005,247.8618,340.6782,287.7237,337.3564
Sprite,Foreground,Centre,"sb\highlight.png",376,376 C,0,261089,,227,221,196 F,2,261089,261289,1,0 S,2,261089,261289,1,0.2 P,0,261089,261289,A
Sprite,Foreground,Centre,"sb\highlight.png",392,380 C,0,261172,,227,221,196 F,2,261172,261372,1,0 S,2,261172,261372,1,0.2 P,0,261172,261372,A
Sprite,Foreground,Centre,"sb\highlight.png",408,382 C,0,261256,,248,173,185 M,0,261256,261297,408,382,440.0176,358.5459 F,2,261256,261539,1,0 S,2,261256,261539,1,0.2 P,0,261256,261539,A M,0,261297,261339,440.0176,358.5459,461,326
Sprite,Foreground,Centre,"sb\highlight.png",464,220 C,0,261422,,248,173,185 M,0,261422,261463,464,220,458.8861,180.5826 F,2,261422,261705,1,0 S,2,261422,261705,1,0.2 P,0,261422,261705,A M,0,261463,261505,458.8861,180.5826,441.0451,145.0641
Sprite,Foreground,Centre,"sb\highlight.png",192,128 C,0,261589,,227,221,196 M,0,261589,261630,192,128,196.4402,167.4532 F,2,261589,261872,1,0 S,2,261589,261872,1,0.2 P,0,261589,261872,A M,0,261630,261672,196.4402,167.4532,214,202
Sprite,Foreground,Centre,"sb\highlight.png",305,257 C,0,261755,,227,221,196 M,0,261755,261796,305,257,341.4302,272.8206 F,2,261755,262038,1,0 S,2,261755,262038,1,0.2 P,0,261755,262038,A M,0,261796,261838,341.4302,272.8206,381,275
Sprite,Foreground,Centre,"sb\highlight.png",536,88 C,0,261922,,248,173,185 M,0,261922,261963,536,88,499.8669,71.53186 F,2,261922,262205,1,0 S,2,261922,262205,1,0.2 P,0,261922,262205,A M,0,261963,262005,499.8669,71.53186,460.2518,68.87346
Sprite,Foreground,Centre,"sb\highlight.png",364,92 C,0,262088,,248,173,185 M,0,262088,262129,364,92,331.561,114.8411 F,2,262088,262371,1,0 S,2,262088,262371,1,0.2 P,0,262088,262371,A M,0,262129,262171,331.561,114.8411,310,148
Sprite,Foreground,Centre,"sb\highlight.png",464,220 C,0,262256,,227,221,196 M,0,262256,262297,464,220,503.9712,221.5179 F,2,262256,262539,1,0 S,2,262256,262539,1,0.2 P,0,262256,262539,A M,0,262297,262339,503.9712,221.5179,543,223
Sprite,Foreground,Centre,"sb\highlight.png",396,332 C,0,262422,,227,221,196 F,2,262422,262622,1,0 S,2,262422,262622,1,0.2 P,0,262422,262622,A
Sprite,Foreground,Centre,"sb\highlight.png",380,336 C,0,262506,,227,221,196 F,2,262506,262706,1,0 S,2,262506,262706,1,0.2 P,0,262506,262706,A
Sprite,Foreground,Centre,"sb\highlight.png",364,340 C,0,262589,,227,221,196 F,2,262589,262789,1,0 S,2,262589,262789,1,0.2 P,0,262589,262789,A
Sprite,Foreground,Centre,"sb\highlight.png",348,344 C,0,262672,,227,221,196 F,2,262672,262872,1,0 S,2,262672,262872,1,0.2 P,0,262672,262872,A
Sprite,Foreground,Centre,"sb\highlight.png",332,348 C,0,262756,,227,221,196 F,2,262756,262956,1,0 S,2,262756,262956,1,0.2 P,0,262756,262956,A
Sprite,Foreground,Centre,"sb\highlight.png",316,352 C,0,262839,,227,221,196 F,2,262839,263039,1,0 S,2,262839,263039,1,0.2 P,0,262839,263039,A
Sprite,Foreground,Centre,"sb\highlight.png",300,356 C,0,262922,,248,173,185 M,0,262922,262963,300,356,260.0347,357.6652 F,2,262922,263205,1,0 S,2,262922,263205,1,0.2 P,0,262922,263205,A M,0,262963,263005,260.0347,357.6652,220.0694,359.3304
Sprite,Foreground,Centre,"sb\highlight.png",192,204 C,0,263089,,248,173,185 F,2,263089,263289,1,0 S,2,263089,263289,1,0.2 P,0,263089,263289,A
Sprite,Foreground,Centre,"sb\highlight.png",200,220 C,0,263172,,248,173,185 F,2,263172,263372,1,0 S,2,263172,263372,1,0.2 P,0,263172,263372,A
Sprite,Foreground,Centre,"sb\highlight.png",208,236 C,0,263256,,248,173,185 F,2,263256,263456,1,0 S,2,263256,263456,1,0.2 P,0,263256,263456,A
Sprite,Foreground,Centre,"sb\highlight.png",216,248 C,0,263339,,248,173,185 F,2,263339,263539,1,0 S,2,263339,263539,1,0.2 P,0,263339,263539,A
Sprite,Foreground,Centre,"sb\highlight.png",224,260 C,0,263422,,248,173,185 F,2,263422,263622,1,0 S,2,263422,263622,1,0.2 P,0,263422,263622,A
Sprite,Foreground,Centre,"sb\highlight.png",232,276 C,0,263506,,248,173,185 F,2,263506,263706,1,0 S,2,263506,263706,1,0.2 P,0,263506,263706,A
Sprite,Foreground,Centre,"sb\highlight.png",524,216 C,0,166340,,227,221,196 F,2,166340,166540,1,0 S,2,166340,166540,1,0.2 P,0,166340,166540,A
Sprite,Foreground,Centre,"sb\highlight.png",532,248 C,0,166423,,227,221,196 F,2,166423,166623,1,0 S,2,166423,166623,1,0.2 P,0,166423,166623,A
Sprite,Foreground,Centre,"sb\highlight.png",532,280 C,0,166507,,227,221,196 F,2,166507,166707,1,0 S,2,166507,166707,1,0.2 P,0,166507,166707,A
Sprite,Foreground,Centre,"sb\highlight.png",516,308 C,0,166590,,227,221,196 F,2,166590,166790,1,0 S,2,166590,166790,1,0.2 P,0,166590,166790,A
Sprite,Foreground,Centre,"sb\highlight.png",488,324 C,0,166673,,227,221,196 F,2,166673,166873,1,0 S,2,166673,166873,1,0.2 P,0,166673,166873,A
Sprite,Foreground,Centre,"sb\highlight.png",456,328 C,0,166757,,227,221,196 F,2,166757,166957,1,0 S,2,166757,166957,1,0.2 P,0,166757,166957,A
Sprite,Foreground,Centre,"sb\highlight.png",428,308 C,0,166840,,227,221,196 F,2,166840,167040,1,0 S,2,166840,167040,1,0.2 P,0,166840,167040,A
Sprite,Foreground,Centre,"sb\highlight.png",396,300 C,0,166923,,227,221,196 F,2,166923,167123,1,0 S,2,166923,167123,1,0.2 P,0,166923,167123,A
Sprite,Foreground,Centre,"sb\highlight.png",364,304 C,0,167007,,227,221,196 F,2,167007,167207,1,0 S,2,167007,167207,1,0.2 P,0,167007,167207,A
Sprite,Foreground,Centre,"sb\highlight.png",336,320 C,0,167090,,227,221,196 F,2,167090,167290,1,0 S,2,167090,167290,1,0.2 P,0,167090,167290,A
Sprite,Foreground,Centre,"sb\highlight.png",316,344 C,0,167173,,227,221,196 F,2,167173,167373,1,0 S,2,167173,167373,1,0.2 P,0,167173,167373,A
Sprite,Foreground,Centre,"sb\highlight.png",288,360 C,0,167257,,227,221,196 F,2,167257,167457,1,0 S,2,167257,167457,1,0.2 P,0,167257,167457,A
Sprite,Foreground,Centre,"sb\highlight.png",256,364 C,0,167340,,227,221,196 F,2,167340,167540,1,0 S,2,167340,167540,1,0.2 P,0,167340,167540,A
Sprite,Foreground,Centre,"sb\highlight.png",224,360 C,0,167423,,227,221,196 F,2,167423,167623,1,0 S,2,167423,167623,1,0.2 P,0,167423,167623,A
Sprite,Foreground,Centre,"sb\highlight.png",192,344 C,0,167507,,227,221,196 F,2,167507,167707,1,0 S,2,167507,167707,1,0.2 P,0,167507,167707,A
Sprite,Foreground,Centre,"sb\highlight.png",168,320 C,0,167590,,248,173,185 M,0,167590,167631,168,320,154.5921,295.4189 F,2,167590,168039,1,0 S,2,167590,168039,1,0.2 P,0,167590,168039,A M,0,167631,167673,154.5921,295.4189,168,320 M,0,167673,167714,168,320,154.5921,295.4189 M,0,167714,167756,154.5921,295.4189,168,320 M,0,167756,167798,168,320,154.5921,295.4189 M,0,167798,167839,154.5921,295.4189,168,320
Sprite,Foreground,Centre,"sb\highlight.png",212,218 C,0,167923,,248,173,185 M,0,167923,167964,212,218,213,245 F,2,167923,168372,1,0 S,2,167923,168372,1,0.2 P,0,167923,168372,A M,0,167964,168006,213,245,212,218 M,0,168006,168047,212,218,213,245 M,0,168047,168089,213,245,212,218 M,0,168089,168131,212,218,213,245 M,0,168131,168172,213,245,212,218
Sprite,Foreground,Centre,"sb\highlight.png",290,173 C,0,168257,,248,173,185 M,0,168257,168298,290,173,284.1332,200.3785 F,2,168257,168748,1,0 S,2,168257,168748,1,0.2 P,0,168257,168748,A M,0,168298,168340,284.1332,200.3785,290,173 M,0,168340,168381,290,173,284.1332,200.3785 M,0,168381,168423,284.1332,200.3785,290,173 M,0,168423,168465,290,173,284.1332,200.3785 M,0,168465,168506,284.1332,200.3785,290,173 M,0,168506,168548,290,173,284.1332,200.3785
Sprite,Foreground,Centre,"sb\highlight.png",371,104 C,0,168590,,227,221,196 M,0,168590,168631,371,104,380.1196,130.4677 F,2,168590,169039,1,0 S,2,168590,169039,1,0.2 P,0,168590,169039,A M,0,168631,168673,380.1196,130.4677,387.754,157.3999 M,0,168673,168714,387.754,157.3999,393.9086,184.7083 M,0,168714,168756,393.9086,184.7083,398.4506,212.3311 M,0,168756,168798,398.4506,212.3311,401.4991,240.1587 M,0,168798,168839,401.4991,240.1587,402.8905,268.1183
Sprite,Foreground,Centre,"sb\highlight.png",412,364 C,0,168923,,248,173,185 M,0,168923,168964,412,364,425.8095,366.3016 F,2,168923,169789,1,0 S,2,168923,169789,1,0.2 P,0,168923,169789,A M,0,168964,169006,425.8095,366.3016,439.619,368.6032 M,0,169006,169047,439.619,368.6032,453.4286,370.9048 M,0,169047,169089,453.4286,370.9048,467.2381,373.2063 M,0,169089,169131,467.2381,373.2063,481.0476,375.5079 M,0,169131,169172,481.0476,375.5079,494.8571,377.8095 M,0,169172,169214,494.8571,377.8095,508.6666,380.1111 M,0,169214,169256,508.6666,380.1111,522.4761,382.4127 M,0,169256,169297,522.4761,382.4127,535.6528,381.6514 M,0,169297,169339,535.6528,381.6514,545.4983,371.7862 M,0,169339,169381,545.4983,371.7862,551.8624,359.3739 M,0,169381,169422,551.8624,359.3739,554.5123,345.6722 M,0,169422,169464,554.5123,345.6722,553.3345,331.7686 M,0,169464,169506,553.3345,331.7686,548.1799,318.8128 M,0,169506,169547,548.1799,318.8128,539.2064,308.1497 M,0,169547,169589,539.2064,308.1497,527.3499,300.8037
Sprite,Foreground,Centre,"sb\highlight.png",404,264 C,0,427838,,248,173,185 M,0,427838,427869,404,264,409.8209,287.2834 F,2,427838,428100,1,0 S,2,427838,428100,1,0.2 P,0,427838,428100,A M,0,427869,427900,409.8209,287.2834,415.6417,310.5668
Sprite,Foreground,Centre,"sb\highlight.png",539,250 C,0,427963,,248,173,185 M,0,427963,427994,539,250,533.0628,226.746 F,2,427963,428225,1,0 S,2,427963,428225,1,0.2 P,0,427963,428225,A M,0,427994,428025,533.0628,226.746,527.1256,203.4919
Sprite,Foreground,Centre,"sb\highlight.png",388,108 C,0,428088,,227,221,196 F,2,428088,428288,1,0 S,2,428088,428288,1,0.2 P,0,428088,428288,A
Sprite,Foreground,Centre,"sb\highlight.png",504,340 C,0,428213,,227,221,196 F,2,428213,428413,1,0 S,2,428213,428413,1,0.2 P,0,428213,428413,A
Sprite,Foreground,Centre,"sb\highlight.png",483,119 C,0,428338,,227,221,196 M,0,428338,428369,483,119,459.1582,116.249 F,2,428338,428662,1,0 S,2,428338,428662,1,0.2 P,0,428338,428662,A M,0,428369,428400,459.1582,116.249,435.3164,113.498 M,0,428400,428431,435.3164,113.498,411.4745,110.7471 M,0,428431,428462,411.4745,110.7471,387.6328,107.9961
Sprite,Foreground,Centre,"sb\highlight.png",232,296 C,0,428588,,248,173,185 M,0,428588,428619,232,296,223.3845,318.4003 F,2,428588,428975,1,0 S,2,428588,428975,1,0.2 P,0,428588,428975,A M,0,428619,428650,223.3845,318.4003,214.769,340.8006 M,0,428650,428681,214.769,340.8006,216.1111,363.759 M,0,428681,428713,216.1111,363.759,222.1692,386.9819 M,0,428713,428744,222.1692,386.9819,228.2273,410.2047 M,0,428744,428775,228.2273,410.2047,234.2854,433.4275
Sprite,Foreground,Centre,"sb\highlight.png",326,357 C,0,428838,,248,173,185 M,0,428838,428869,326,357,334.6155,334.5997 F,2,428838,429225,1,0 S,2,428838,429225,1,0.2 P,0,428838,429225,A M,0,428869,428900,334.6155,334.5997,343.231,312.1994 M,0,428900,428931,343.231,312.1994,341.8889,289.241 M,0,428931,428963,341.8889,289.241,335.8308,266.0181 M,0,428963,428994,335.8308,266.0181,329.7727,242.7953 M,0,428994,429025,329.7727,242.7953,323.7146,219.5725
Sprite,Foreground,Centre,"sb\highlight.png",232,296 C,0,429088,,227,221,196 M,0,429088,429119,232,296,208.1644,298.8042 F,2,429088,429350,1,0 S,2,429088,429350,1,0.2 P,0,429088,429350,A M,0,429119,429150,208.1644,298.8042,184.3288,301.6084
Sprite,Foreground,Centre,"sb\highlight.png",64,201 C,0,429213,,227,221,196 M,0,429213,429244,64,201,87.87084,198.5135 F,2,429213,429475,1,0 S,2,429213,429475,1,0.2 P,0,429213,429475,A M,0,429244,429275,87.87084,198.5135,111.7417,196.0269
Sprite,Foreground,Centre,"sb\highlight.png",248,176 C,0,429338,,248,173,185 M,0,429338,429369,248,176,224.1644,178.8042 F,2,429338,429600,1,0 S,2,429338,429600,1,0.2 P,0,429338,429600,A M,0,429369,429400,224.1644,178.8042,200.3288,181.6084
Sprite,Foreground,Centre,"sb\highlight.png",80,81 C,0,429463,,248,173,185 M,0,429463,429494,80,81,103.8068,77.96083 F,2,429463,429725,1,0 S,2,429463,429725,1,0.2 P,0,429463,429725,A M,0,429494,429525,103.8068,77.96083,127,75
Sprite,Foreground,Centre,"sb\highlight.png",248,92 C,0,429588,,227,221,196 M,0,429588,429619,248,92,271.0766,98.59331 F,2,429588,429975,1,0 S,2,429588,429975,1,0.2 P,0,429588,429975,A M,0,429619,429650,271.0766,98.59331,294.1531,105.1866 M,0,429650,429681,294.1531,105.1866,317.6436,106.2204 M,0,429681,429713,317.6436,106.2204,341.442,103.1163 M,0,429713,429744,341.442,103.1163,365.2404,100.0121 M,0,429744,429775,365.2404,100.0121,389.0388,96.90799
Sprite,Foreground,Centre,"sb\highlight.png",468,84 C,0,429838,,227,221,196 F,2,429838,430038,1,0 S,2,429838,430038,1,0.2 P,0,429838,430038,A
Sprite,Foreground,Centre,"sb\highlight.png",323,219 C,0,429963,,227,221,196 F,2,429963,430163,1,0 S,2,429963,430163,1,0.2 P,0,429963,430163,A
Sprite,Foreground,Centre,"sb\highlight.png",536,176 C,0,430088,,248,173,185 M,0,430088,430119,536,176,556.8378,164.0927 F,2,430088,430475,1,0 S,2,430088,430475,1,0.2 P,0,430088,430475,A M,0,430119,430150,556.8378,164.0927,561.7725,175.5927 M,0,430150,430181,561.7725,175.5927,558.3784,199.3515 M,0,430181,430213,558.3784,199.3515,554.9843,223.1102 M,0,430213,430244,554.9843,223.1102,551.5901,246.869 M,0,430244,430275,551.5901,246.869,548.196,270.6278
Sprite,Foreground,Centre,"sb\highlight.png",536,348 C,0,430338,,248,173,185 F,2,430338,430538,1,0 S,2,430338,430538,1,0.2 P,0,430338,430538,A
Sprite,Foreground,Centre,"sb\highlight.png",436,216 C,0,430463,,248,173,185 F,2,430463,430663,1,0 S,2,430463,430663,1,0.2 P,0,430463,430663,A
Sprite,Foreground,Centre,"sb\highlight.png",400,368 C,0,430588,,227,221,196 M,0,430588,430619,400,368,376.1274,370.4696 F,2,430588,430912,1,0 S,2,430588,430912,1,0.2 P,0,430588,430912,A M,0,430619,430650,376.1274,370.4696,352.2548,372.9391 M,0,430650,430681,352.2548,372.9391,328.3822,375.4088 M,0,430681,430712,328.3822,375.4088,304.5096,377.8783
Sprite,Foreground,Centre,"sb\highlight.png",280,384 C,0,430775,,227,221,196 F,2,430775,430975,1,0 S,2,430775,430975,1,0.2 P,0,430775,430975,A
Sprite,Foreground,Centre,"sb\highlight.png",256,388 C,0,430838,,227,221,196 F,2,430838,431038,1,0 S,2,430838,431038,1,0.2 P,0,430838,431038,A
Sprite,Foreground,Centre,"sb\highlight.png",104,328 C,0,430963,,227,221,196 F,2,430963,431163,1,0 S,2,430963,431163,1,0.2 P,0,430963,431163,A
Sprite,Foreground,Centre,"sb\highlight.png",64,176 C,0,431088,,248,173,185 M,0,431088,431119,64,176,63.1393,152.0606 F,2,431088,431350,1,0 S,2,431088,431350,1,0.2 P,0,431088,431350,A M,0,431119,431150,63.1393,152.0606,65.77104,128.2517
Sprite,Foreground,Centre,"sb\highlight.png",180,156 C,0,431213,,248,173,185 M,0,431213,431244,180,156,190.4427,134.5009 F,2,431213,431475,1,0 S,2,431213,431475,1,0.2 P,0,431213,431475,A M,0,431244,431275,190.4427,134.5009,205.2656,115.7539
Sprite,Foreground,Centre,"sb\highlight.png",296,192 C,0,431338,,248,173,185 M,0,431338,431369,296,192,315.9853,178.8783 F,2,431338,431600,1,0 S,2,431338,431600,1,0.2 P,0,431338,431600,A M,0,431369,431400,315.9853,178.8783,338.2637,170.2066
Sprite,Foreground,Centre,"sb\highlight.png",371,282 C,0,431463,,248,173,185 M,0,431463,431494,371,282,394.8361,280.2875 F,2,431463,431725,1,0 S,2,431463,431725,1,0.2 P,0,431463,431725,A M,0,431494,431525,394.8361,280.2875,418.4636,283.8621
Sprite,Foreground,Centre,"sb\highlight.png",508,416 C,0,431588,,227,221,196 M,0,431588,431619,508,416,501.8161,392.8104 F,2,431588,431912,1,0 S,2,431588,431912,1,0.2 P,0,431588,431912,A M,0,431619,431650,501.8161,392.8104,495.6322,369.6207 M,0,431650,431681,495.6322,369.6207,493.9422,346.289 M,0,431681,431712,493.9422,346.289,498.649,322.7551
Sprite,Foreground,Centre,"sb\highlight.png",520,248 C,0,431775,,227,221,196 F,2,431775,431975,1,0 S,2,431775,431975,1,0.2 P,0,431775,431975,A
Sprite,Foreground,Centre,"sb\highlight.png",545,173 C,0,431838,,227,221,196 M,0,431838,431869,545,173,549.1708,149.3652 F,2,431838,432162,1,0 S,2,431838,432162,1,0.2 P,0,431838,432162,A M,0,431869,431900,549.1708,149.3652,547.5281,125.9803 M,0,431900,431931,547.5281,125.9803,541.3442,102.7907 M,0,431931,431962,541.3442,102.7907,535.1603,79.60105
Sprite,Foreground,Centre,"sb\highlight.png",420,76 C,0,432088,,248,173,185 M,0,432088,432119,420,76,396.0764,74.08611 F,2,432088,432412,1,0 S,2,432088,432412,1,0.2 P,0,432088,432412,A M,0,432119,432150,396.0764,74.08611,372.1529,72.17223 M,0,432150,432181,372.1529,72.17223,348.2293,70.25835 M,0,432181,432212,348.2293,70.25835,324.3057,68.34446
Sprite,Foreground,Centre,"sb\highlight.png",80,248 C,0,432338,,248,173,185 M,0,432338,432369,80,248,103.9236,246.0861 F,2,432338,432662,1,0 S,2,432338,432662,1,0.2 P,0,432338,432662,A M,0,432369,432400,103.9236,246.0861,127.8471,244.1722 M,0,432400,432431,127.8471,244.1722,151.7707,242.2583 M,0,432431,432462,151.7707,242.2583,175.6943,240.3445
Sprite,Foreground,Centre,"sb\highlight.png",284,264 C,0,432588,,227,221,196 F,2,432588,432788,1,0 S,2,432588,432788,1,0.2 P,0,432588,432788,A
Sprite,Foreground,Centre,"sb\highlight.png",256,384 C,0,432713,,227,221,196 F,2,432713,432913,1,0 S,2,432713,432913,1,0.2 P,0,432713,432913,A
Sprite,Foreground,Centre,"sb\highlight.png",348,188 C,0,432838,,248,173,185 F,2,432838,433038,1,0 S,2,432838,433038,1,0.2 P,0,432838,433038,A
Sprite,Foreground,Centre,"sb\highlight.png",372,348 C,0,432963,,248,173,185 F,2,432963,433163,1,0 S,2,432963,433163,1,0.2 P,0,432963,433163,A
Sprite,Foreground,Centre,"sb\highlight.png",332,104 C,0,433088,,227,221,196 F,2,433088,433288,1,0 S,2,433088,433288,1,0.2 P,0,433088,433288,A
Sprite,Foreground,Centre,"sb\highlight.png",472,264 C,0,433213,,227,221,196 F,2,433213,433413,1,0 S,2,433213,433413,1,0.2 P,0,433213,433413,A
Sprite,Foreground,Centre,"sb\highlight.png",252,56 C,0,433338,,248,173,185 F,2,433338,433538,1,0 S,2,433338,433538,1,0.2 P,0,433338,433538,A
Sprite,Foreground,Centre,"sb\highlight.png",524,136 C,0,433463,,248,173,185 F,2,433463,433663,1,0 S,2,433463,433663,1,0.2 P,0,433463,433663,A
Sprite,Foreground,Centre,"sb\highlight.png",172,112 C,0,433588,,227,221,196 M,0,433588,433619,172,112,169.249,135.8418 F,2,433588,433912,1,0 S,2,433588,433912,1,0.2 P,0,433588,433912,A M,0,433619,433650,169.249,135.8418,166.498,159.6836 M,0,433650,433681,166.498,159.6836,163.7471,183.5255 M,0,433681,433712,163.7471,183.5255,160.9961,207.3672
Sprite,Foreground,Centre,"sb\highlight.png",283,423 C,0,433838,,227,221,196 M,0,433838,433869,283,423,280.2395,399.1593 F,2,433838,434162,1,0 S,2,433838,434162,1,0.2 P,0,433838,434162,A M,0,433869,433900,280.2395,399.1593,277.479,375.3186 M,0,433900,433931,277.479,375.3186,274.7185,351.4778 M,0,433931,433962,274.7185,351.4778,272,328
Sprite,Foreground,Centre,"sb\highlight.png",428,104 C,0,434088,,248,173,185 M,0,434088,434119,428,104,425.249,127.8418 F,2,434088,434412,1,0 S,2,434088,434412,1,0.2 P,0,434088,434412,A M,0,434119,434150,425.249,127.8418,422.498,151.6836 M,0,434150,434181,422.498,151.6836,419.7471,175.5255 M,0,434181,434212,419.7471,175.5255,416.9961,199.3672
Sprite,Foreground,Centre,"sb\highlight.png",539,415 C,0,434338,,248,173,185 M,0,434338,434369,539,415,536.0232,391.1853 F,2,434338,434662,1,0 S,2,434338,434662,1,0.2 P,0,434338,434662,A M,0,434369,434400,536.0232,391.1853,533.0463,367.3707 M,0,434400,434431,533.0463,367.3707,530.0695,343.556 M,0,434431,434462,530.0695,343.556,527.0927,319.7413
Sprite,Foreground,Centre,"sb\highlight.png",428,104 C,0,434588,,227,221,196 M,0,434588,434619,428,104,404.5606,98.94424 F,2,434588,434912,1,0 S,2,434588,434912,1,0.2 P,0,434588,434912,A M,0,434619,434650,404.5606,98.94424,380.7305,96.36224 M,0,434650,434681,380.7305,96.36224,356.7592,96.44485 M,0,434681,434712,356.7592,96.44485,332.93,99.12605
Sprite,Foreground,Centre,"sb\highlight.png",184,184 C,0,434838,,248,173,185 M,0,434838,434869,184,184,178.1791,207.2834 F,2,434838,435100,1,0 S,2,434838,435100,1,0.2 P,0,434838,435100,A M,0,434869,434900,178.1791,207.2834,172.3583,230.5668
Sprite,Foreground,Centre,"sb\highlight.png",144,344 C,0,434963,,248,173,185 F,2,434963,435163,1,0 S,2,434963,435163,1,0.2 P,0,434963,435163,A
Sprite,Foreground,Centre,"sb\highlight.png",260,164 C,0,435088,,227,221,196 M,0,435088,435119,260,164,260,188 F,2,435088,435350,1,0 S,2,435088,435350,1,0.2 P,0,435088,435350,A M,0,435119,435150,260,188,260,212
Sprite,Foreground,Centre,"sb\highlight.png",260,368 C,0,435213,,227,221,196 F,2,435213,435413,1,0 S,2,435213,435413,1,0.2 P,0,435213,435413,A
Sprite,Foreground,Centre,"sb\highlight.png",328,120 C,0,435338,,248,173,185 M,0,435338,435369,328,120,331.6494,143.7209 F,2,435338,435600,1,0 S,2,435338,435600,1,0.2 P,0,435338,435600,A M,0,435369,435400,331.6494,143.7209,335.2987,167.4418
Sprite,Foreground,Centre,"sb\highlight.png",376,388 C,0,435463,,248,173,185 F,2,435463,435663,1,0 S,2,435463,435663,1,0.2 P,0,435463,435663,A
Sprite,Foreground,Centre,"sb\highlight.png",392,68 C,0,435588,,227,221,196 M,0,435588,435619,392,68,415.9883,67.25037 F,2,435588,435912,1,0 S,2,435588,435912,1,0.2 P,0,435588,435912,A M,0,435619,435650,415.9883,67.25037,439.9766,66.50073 M,0,435650,435681,439.9766,66.50073,463.9649,65.7511 M,0,435681,435712,463.9649,65.7511,487.9532,65.00146
Sprite,Foreground,Centre,"sb\highlight.png",575,229 C,0,435838,,227,221,196 M,0,435838,435869,575,229,551.012,229.7575 F,2,435838,436162,1,0 S,2,435838,436162,1,0.2 P,0,435838,436162,A M,0,435869,435900,551.012,229.7575,527.0239,230.515 M,0,435900,435931,527.0239,230.515,503.0359,231.2726 M,0,435931,435962,503.0359,231.2726,480,232
Sprite,Foreground,Centre,"sb\highlight.png",359,261 C,0,436088,,248,173,185 M,0,436088,436119,359,261,351.4105,283.7684 F,2,436088,436350,1,0 S,2,436088,436350,1,0.2 P,0,436088,436350,A M,0,436119,436150,351.4105,283.7684,343.8211,306.5368
Sprite,Foreground,Centre,"sb\highlight.png",275,413 C,0,436213,,248,173,185 M,0,436213,436244,275,413,267.4105,390.2316 F,2,436213,436475,1,0 S,2,436213,436475,1,0.2 P,0,436213,436475,A M,0,436244,436275,267.4105,390.2316,259.8211,367.4632
Sprite,Foreground,Centre,"sb\highlight.png",231,217 C,0,436338,,227,221,196 M,0,436338,436369,231,217,223.4105,239.7684 F,2,436338,436600,1,0 S,2,436338,436600,1,0.2 P,0,436338,436600,A M,0,436369,436400,223.4105,239.7684,215.8211,262.5368
Sprite,Foreground,Centre,"sb\highlight.png",147,369 C,0,436463,,227,221,196 M,0,436463,436494,147,369,139.4105,346.2316 F,2,436463,436725,1,0 S,2,436463,436725,1,0.2 P,0,436463,436725,A M,0,436494,436525,139.4105,346.2316,131.8211,323.4632
Sprite,Foreground,Centre,"sb\highlight.png",112,208 C,0,436588,,248,173,185 M,0,436588,436619,112,208,102.5978,186.078 F,2,436588,436954,1,0 S,2,436588,436954,1,0.2 P,0,436588,436954,A M,0,436619,436650,102.5978,186.078,99.51118,162.4875 M,0,436650,436681,99.51118,162.4875,100.0281,154.5469 M,0,436681,436713,100.0281,154.5469,100.8023,178.3282 M,0,436713,436744,100.8023,178.3282,108.403,200.8698 M,0,436744,436754,108.403,200.8698,112,208
Sprite,Foreground,Centre,"sb\highlight.png",180,136 C,0,436838,,227,221,196 M,0,436838,436869,180,136,203.6734,132.0544 F,2,436838,437162,1,0 S,2,436838,437162,1,0.2 P,0,436838,437162,A M,0,436869,436900,203.6734,132.0544,227.3469,128.1089 M,0,436900,436931,227.3469,128.1089,251.0204,131.8367 M,0,436931,436962,251.0204,131.8367,274.6938,135.7823
Sprite,Foreground,Centre,"sb\highlight.png",295,434 C,0,437088,,227,221,196 M,0,437088,437119,295,434,279.829,415.4032 F,2,437088,437412,1,0 S,2,437088,437412,1,0.2 P,0,437088,437412,A M,0,437119,437150,279.829,415.4032,264.6579,396.8065 M,0,437150,437181,264.6579,396.8065,256.0412,374.4644 M,0,437181,437212,256.0412,374.4644,247.7216,351.9525
Sprite,Foreground,Centre,"sb\highlight.png",496,185 C,0,437338,,227,221,196 M,0,437338,437369,496,185,487.0866,207.2834 F,2,437338,437662,1,0 S,2,437338,437662,1,0.2 P,0,437338,437662,A M,0,437369,437400,487.0866,207.2834,478.1732,229.5669 M,0,437400,437431,478.1732,229.5669,463.4176,248.4711 M,0,437431,437462,463.4176,248.4711,448.5461,267.3082
Sprite,Foreground,Centre,"sb\highlight.png",346,325 C,0,437588,,248,173,185 F,2,437588,437788,1,0 S,2,437588,437788,1,0.2 P,0,437588,437788,A
Sprite,Foreground,Centre,"sb\highlight.png",505,371 C,0,437713,,248,173,185 F,2,437713,437913,1,0 S,2,437713,437913,1,0.2 P,0,437713,437913,A
Sprite,Foreground,Centre,"sb\highlight.png",448,267 C,0,437838,,248,173,185 F,2,437838,438038,1,0 S,2,437838,438038,1,0.2 P,0,437838,438038,A
Sprite,Foreground,Centre,"sb\highlight.png",400,424 C,0,437963,,248,173,185 F,2,437963,438163,1,0 S,2,437963,438163,1,0.2 P,0,437963,438163,A
Sprite,Foreground,Centre,"sb\highlight.png",260,324 C,0,438088,,227,221,196 F,2,438088,438288,1,0 S,2,438088,438288,1,0.2 P,0,438088,438288,A
Sprite,Foreground,Centre,"sb\highlight.png",101,370 C,0,438213,,227,221,196 F,2,438213,438413,1,0 S,2,438213,438413,1,0.2 P,0,438213,438413,A
Sprite,Foreground,Centre,"sb\highlight.png",158,266 C,0,438338,,227,221,196 F,2,438338,438538,1,0 S,2,438338,438538,1,0.2 P,0,438338,438538,A
Sprite,Foreground,Centre,"sb\highlight.png",205,427 C,0,438463,,227,221,196 F,2,438463,438663,1,0 S,2,438463,438663,1,0.2 P,0,438463,438663,A
Sprite,Foreground,Centre,"sb\highlight.png",244,220 C,0,438588,,248,173,185 M,0,438588,438619,244,220,228.4402,201.896 F,2,438588,438954,1,0 S,2,438588,438954,1,0.2 P,0,438588,438954,A M,0,438619,438650,228.4402,201.896,208.8093,188.4098 M,0,438650,438681,208.8093,188.4098,201.5344,185.1739 M,0,438681,438713,201.5344,185.1739,222.3189,196.8062 M,0,438713,438744,222.3189,196.8062,239.1596,213.6456 M,0,438744,438754,239.1596,213.6456,244,220
Sprite,Foreground,Centre,"sb\highlight.png",328,240 C,0,438838,,227,221,196 M,0,438838,438869,328,240,332.2893,216.4395 F,2,438838,439162,1,0 S,2,438838,439162,1,0.2 P,0,438838,439162,A M,0,438869,438900,332.2893,216.4395,332.6497,192.5167 M,0,438900,438931,332.6497,192.5167,328.8294,168.8965 M,0,438931,438962,328.8294,168.8965,320.9447,146.303
Sprite,Foreground,Centre,"sb\highlight.png",244,80 C,0,439088,,227,221,196 F,2,439088,439288,1,0 S,2,439088,439288,1,0.2 P,0,439088,439288,A
Sprite,Foreground,Centre,"sb\highlight.png",428,152 C,0,439213,,227,221,196 F,2,439213,439413,1,0 S,2,439213,439413,1,0.2 P,0,439213,439413,A
Sprite,Foreground,Centre,"sb\highlight.png",244,220 C,0,439338,,227,221,196 F,2,439338,439538,1,0 S,2,439338,439538,1,0.2 P,0,439338,439538,A
Sprite,Foreground,Centre,"sb\highlight.png",428,292 C,0,439463,,227,221,196 F,2,439463,439663,1,0 S,2,439463,439663,1,0.2 P,0,439463,439663,A
Sprite,Foreground,Centre,"sb\highlight.png",344,376 C,0,439588,,248,173,185 M,0,439588,439619,344,376,330.2369,395.6616 F,2,439588,439975,1,0 S,2,439588,439975,1,0.2 P,0,439588,439975,A M,0,439619,439650,330.2369,395.6616,316.4738,415.3231 M,0,439650,439681,316.4738,415.3231,330.2369,395.6616 M,0,439681,439713,330.2369,395.6616,344,376 M,0,439713,439744,344,376,330.2369,395.6616 M,0,439744,439775,330.2369,395.6616,316.4738,415.3231
Sprite,Foreground,Centre,"sb\highlight.png",440,388 C,0,439838,,248,173,185 F,2,439838,440038,1,0 S,2,439838,440038,1,0.2 P,0,439838,440038,A
Sprite,Foreground,Centre,"sb\highlight.png",336,280 C,0,439963,,248,173,185 F,2,439963,440163,1,0 S,2,439963,440163,1,0.2 P,0,439963,440163,A
Sprite,Foreground,Centre,"sb\highlight.png",236,368 C,0,440088,,248,173,185 M,0,440088,440119,236,368,212.1582,370.751 F,2,440088,440412,1,0 S,2,440088,440412,1,0.2 P,0,440088,440412,A M,0,440119,440150,212.1582,370.751,188.3164,373.502 M,0,440150,440181,188.3164,373.502,164.4745,376.2529 M,0,440181,440212,164.4745,376.2529,140.6328,379.0039
Sprite,Foreground,Centre,"sb\highlight.png",64,216 C,0,440338,,248,173,185 M,0,440338,440369,64,216,87.81079,212.9923 F,2,440338,440662,1,0 S,2,440338,440662,1,0.2 P,0,440338,440662,A M,0,440369,440400,87.81079,212.9923,111.6216,209.9846 M,0,440400,440431,111.6216,209.9846,135.4324,206.977 M,0,440431,440462,135.4324,206.977,159,204
Sprite,Foreground,Centre,"sb\highlight.png",280,196 C,0,440588,,227,221,196 M,0,440588,440619,280,196,283.6494,172.2791 F,2,440588,440975,1,0 S,2,440588,440975,1,0.2 P,0,440588,440975,A M,0,440619,440650,283.6494,172.2791,287.2988,148.5582 M,0,440650,440681,287.2988,148.5582,270.0553,136.659 M,0,440681,440713,270.0553,136.659,247.8422,127.5718 M,0,440713,440744,247.8422,127.5718,225.629,118.4846 M,0,440744,440775,225.629,118.4846,203.4159,109.3974
Sprite,Foreground,Centre,"sb\highlight.png",132,80 C,0,440838,,227,221,196 F,2,440838,441038,1,0 S,2,440838,441038,1,0.2 P,0,440838,441038,A
Sprite,Foreground,Centre,"sb\highlight.png",228,260 C,0,440963,,227,221,196 F,2,440963,441163,1,0 S,2,440963,441163,1,0.2 P,0,440963,441163,A
Sprite,Foreground,Centre,"sb\highlight.png",360,184 C,0,441088,,248,173,185 M,0,441088,441119,360,184,383.9293,182.1593 F,2,441088,441475,1,0 S,2,441088,441475,1,0.2 P,0,441088,441475,A M,0,441119,441150,383.9293,182.1593,407.8586,180.3186 M,0,441150,441181,407.8586,180.3186,431.7879,178.4778 M,0,441181,441213,431.7879,178.4778,455.7172,176.6371 M,0,441213,441244,455.7172,176.6371,479.6465,174.7964 M,0,441244,441275,479.6465,174.7964,503.5758,172.9557
Sprite,Foreground,Centre,"sb\highlight.png",576,168 C,0,441338,,248,173,185 F,2,441338,441538,1,0 S,2,441338,441538,1,0.2 P,0,441338,441538,A
Sprite,Foreground,Centre,"sb\highlight.png",440,80 C,0,441463,,248,173,185 F,2,441463,441663,1,0 S,2,441463,441663,1,0.2 P,0,441463,441663,A
Sprite,Foreground,Centre,"sb\highlight.png",468,280 C,0,441588,,227,221,196 F,2,441588,441788,1,0 S,2,441588,441788,1,0.2 P,0,441588,441788,A
Sprite,Foreground,Centre,"sb\highlight.png",484,316 C,0,441650,,227,221,196 F,2,441650,441850,1,0 S,2,441650,441850,1,0.2 P,0,441650,441850,A
Sprite,Foreground,Centre,"sb\highlight.png",480,356 C,0,441713,,227,221,196 F,2,441713,441913,1,0 S,2,441713,441913,1,0.2 P,0,441713,441913,A
Sprite,Foreground,Centre,"sb\highlight.png",456,388 C,0,441775,,227,221,196 F,2,441775,441975,1,0 S,2,441775,441975,1,0.2 P,0,441775,441975,A
Sprite,Foreground,Centre,"sb\highlight.png",420,400 C,0,441838,,227,221,196 F,2,441838,442038,1,0 S,2,441838,442038,1,0.2 P,0,441838,442038,A
Sprite,Foreground,Centre,"sb\highlight.png",384,392 C,0,441900,,227,221,196 F,2,441900,442100,1,0 S,2,441900,442100,1,0.2 P,0,441900,442100,A
Sprite,Foreground,Centre,"sb\highlight.png",356,364 C,0,441963,,227,221,196 F,2,441963,442163,1,0 S,2,441963,442163,1,0.2 P,0,441963,442163,A
Sprite,Foreground,Centre,"sb\highlight.png",324,344 C,0,442025,,227,221,196 F,2,442025,442225,1,0 S,2,442025,442225,1,0.2 P,0,442025,442225,A
Sprite,Foreground,Centre,"sb\highlight.png",284,340 C,0,442088,,248,173,185 F,2,442088,442288,1,0 S,2,442088,442288,1,0.2 P,0,442088,442288,A
Sprite,Foreground,Centre,"sb\highlight.png",244,364 C,0,442150,,248,173,185 F,2,442150,442350,1,0 S,2,442150,442350,1,0.2 P,0,442150,442350,A
Sprite,Foreground,Centre,"sb\highlight.png",196,368 C,0,442213,,248,173,185 F,2,442213,442413,1,0 S,2,442213,442413,1,0.2 P,0,442213,442413,A
Sprite,Foreground,Centre,"sb\highlight.png",156,340 C,0,442275,,248,173,185 F,2,442275,442475,1,0 S,2,442275,442475,1,0.2 P,0,442275,442475,A
Sprite,Foreground,Centre,"sb\highlight.png",140,296 C,0,442338,,227,221,196 F,2,442338,442538,1,0 S,2,442338,442538,1,0.2 P,0,442338,442538,A
Sprite,Foreground,Centre,"sb\highlight.png",152,240 C,0,442400,,227,221,196 F,2,442400,442600,1,0 S,2,442400,442600,1,0.2 P,0,442400,442600,A
Sprite,Foreground,Centre,"sb\highlight.png",200,208 C,0,442463,,227,221,196 F,2,442463,442663,1,0 S,2,442463,442663,1,0.2 P,0,442463,442663,A
Sprite,Foreground,Centre,"sb\highlight.png",256,212 C,0,442525,,227,221,196 F,2,442525,442725,1,0 S,2,442525,442725,1,0.2 P,0,442525,442725,A
Sprite,Foreground,Centre,"sb\highlight.png",300,248 C,0,442588,,248,173,185 M,0,442588,442619,300,248,319.9309,246.3391 F,2,442588,442913,1,0 S,2,442588,442913,1,0.2 P,0,442588,442913,A M,0,442619,442650,319.9309,246.3391,339.8618,244.6782 M,0,442650,442681,339.8618,244.6782,359.7928,243.0173 M,0,442681,442713,359.7928,243.0173,379.7237,241.3564
Sprite,Foreground,Centre,"sb\highlight.png",504,224 C,0,442838,,227,221,196 F,2,442838,443038,1,0 S,2,442838,443038,1,0.2 P,0,442838,443038,A
Sprite,Foreground,Centre,"sb\highlight.png",324,160 C,0,442963,,227,221,196 F,2,442963,443163,1,0 S,2,442963,443163,1,0.2 P,0,442963,443163,A
Sprite,Foreground,Centre,"sb\highlight.png",528,64 C,0,443088,,248,173,185 F,2,443088,443288,1,0 S,2,443088,443288,1,0.2 P,0,443088,443288,A
Sprite,Foreground,Centre,"sb\highlight.png",276,56 C,0,443213,,248,173,185 F,2,443213,443413,1,0 S,2,443213,443413,1,0.2 P,0,443213,443413,A
Sprite,Foreground,Centre,"sb\highlight.png",556,148 C,0,443338,,227,221,196 M,0,443338,443369,556,148,575.8456,150.4807 F,2,443338,443600,1,0 S,2,443338,443600,1,0.2 P,0,443338,443600,A M,0,443369,443400,575.8456,150.4807,556,148
Sprite,Foreground,Centre,"sb\highlight.png",236,132 C,0,443463,,227,221,196 M,0,443463,443494,236,132,216.1223,134.2086 F,2,443463,443725,1,0 S,2,443463,443725,1,0.2 P,0,443463,443725,A M,0,443494,443525,216.1223,134.2086,236,132
Sprite,Foreground,Centre,"sb\highlight.png",504,224 C,0,443588,,248,173,185 F,2,443588,443788,1,0 S,2,443588,443788,1,0.2 P,0,443588,443788,A
Sprite,Foreground,Centre,"sb\highlight.png",512,270 C,0,443650,,248,173,185 F,2,443650,443850,1,0 S,2,443650,443850,1,0.2 P,0,443650,443850,A
Sprite,Foreground,Centre,"sb\highlight.png",492,313 C,0,443713,,248,173,185 F,2,443713,443913,1,0 S,2,443713,443913,1,0.2 P,0,443713,443913,A
Sprite,Foreground,Centre,"sb\highlight.png",452,339 C,0,443775,,248,173,185 F,2,443775,443975,1,0 S,2,443775,443975,1,0.2 P,0,443775,443975,A
Sprite,Foreground,Centre,"sb\highlight.png",405,337 C,0,443838,,248,173,185 M,0,443838,443869,405,337,381.881,330.557 F,2,443838,444100,1,0 S,2,443838,444100,1,0.2 P,0,443838,444100,A M,0,443869,443900,381.881,330.557,358.762,324.114
Sprite,Foreground,Centre,"sb\highlight.png",457,210 C,0,443963,,248,173,185 M,0,443963,443994,457,210,480.0954,216.527 F,2,443963,444225,1,0 S,2,443963,444225,1,0.2 P,0,443963,444225,A M,0,443994,444025,480.0954,216.527,503,223
Sprite,Foreground,Centre,"sb\highlight.png",316,384 C,0,444088,,248,173,185 M,0,444088,444119,316,384,300.3481,366.0371 F,2,444088,444475,1,0 S,2,444088,444475,1,0.2 P,0,444088,444475,A M,0,444119,444150,300.3481,366.0371,290.7845,344.2968 M,0,444150,444181,290.7845,344.2968,288.5743,320.6436 M,0,444181,444213,288.5743,320.6436,293.9477,297.4946 M,0,444213,444244,293.9477,297.4946,306.3617,277.2173 M,0,444244,444275,306.3617,277.2173,324.554,261.8888
Sprite,Foreground,Centre,"sb\highlight.png",356,232 C,0,444338,,248,173,185 M,0,444338,444369,356,232,360.5045,208.4344 F,2,444338,444662,1,0 S,2,444338,444662,1,0.2 P,0,444338,444662,A M,0,444369,444400,360.5045,208.4344,363.512,184.6348 M,0,444400,444431,363.512,184.6348,364.9133,160.6863 M,0,444431,444462,364.9133,160.6863,364.7019,136.6971
Sprite,Foreground,Centre,"sb\highlight.png",224,164 C,0,444588,,227,221,196 F,2,444588,444788,1,0 S,2,444588,444788,1,0.2 P,0,444588,444788,A
Sprite,Foreground,Centre,"sb\highlight.png",178,150 C,0,444650,,227,221,196 F,2,444650,444850,1,0 S,2,444650,444850,1,0.2 P,0,444650,444850,A
Sprite,Foreground,Centre,"sb\highlight.png",134,166 C,0,444713,,227,221,196 F,2,444713,444913,1,0 S,2,444713,444913,1,0.2 P,0,444713,444913,A
Sprite,Foreground,Centre,"sb\highlight.png",110,206 C,0,444775,,227,221,196 F,2,444775,444975,1,0 S,2,444775,444975,1,0.2 P,0,444775,444975,A
Sprite,Foreground,Centre,"sb\highlight.png",124,252 C,0,444838,,227,221,196 F,2,444838,445038,1,0 S,2,444838,445038,1,0.2 P,0,444838,445038,A
Sprite,Foreground,Centre,"sb\highlight.png",167,271 C,0,444900,,227,221,196 F,2,444900,445100,1,0 S,2,444900,445100,1,0.2 P,0,444900,445100,A
Sprite,Foreground,Centre,"sb\highlight.png",194,310 C,0,444963,,227,221,196 F,2,444963,445163,1,0 S,2,444963,445163,1,0.2 P,0,444963,445163,A
Sprite,Foreground,Centre,"sb\highlight.png",200,356 C,0,445025,,227,221,196 F,2,445025,445225,1,0 S,2,445025,445225,1,0.2 P,0,445025,445225,A
Sprite,Foreground,Centre,"sb\highlight.png",179,396 C,0,445088,,227,221,196 M,0,445088,445119,179,396,199.5609,383.7282 F,2,445088,445475,1,0 S,2,445088,445475,1,0.2 P,0,445088,445475,A M,0,445119,445150,199.5609,383.7282,221.9085,375.1967 M,0,445150,445181,221.9085,375.1967,245.4387,370.8912 M,0,445181,445213,245.4387,370.8912,269.3594,370.9565 M,0,445213,445244,269.3594,370.9565,292.8658,375.3904 M,0,445244,445275,292.8658,375.3904,315.1669,384.0437
Sprite,Foreground,Centre,"sb\highlight.png",348,412 C,0,445338,,227,221,196 M,0,445338,445369,348,412,371.8762,410.138 F,2,445338,445600,1,0 S,2,445338,445600,1,0.2 P,0,445338,445600,A M,0,445369,445400,371.8762,410.138,395.1605,404.6029
Sprite,Foreground,Centre,"sb\highlight.png",552,328 C,0,445463,,227,221,196 M,0,445463,445494,552,328,528.1432,325.8015 F,2,445463,445725,1,0 S,2,445463,445725,1,0.2 P,0,445463,445725,A M,0,445494,445525,528.1432,325.8015,504.836,320.2586
Sprite,Foreground,Centre,"sb\highlight.png",364,240 C,0,445588,,248,173,185 F,2,445588,445788,1,0 S,2,445588,445788,1,0.2 P,0,445588,445788,A
Sprite,Foreground,Centre,"sb\highlight.png",364,192 C,0,445650,,248,173,185 F,2,445650,445850,1,0 S,2,445650,445850,1,0.2 P,0,445650,445850,A
Sprite,Foreground,Centre,"sb\highlight.png",394,156 C,0,445713,,248,173,185 F,2,445713,445913,1,0 S,2,445713,445913,1,0.2 P,0,445713,445913,A
Sprite,Foreground,Centre,"sb\highlight.png",440,147 C,0,445775,,248,173,185 F,2,445775,445975,1,0 S,2,445775,445975,1,0.2 P,0,445775,445975,A
Sprite,Foreground,Centre,"sb\highlight.png",481,169 C,0,445838,,248,173,185 M,0,445838,445869,481,169,502.2961,179.9752 F,2,445838,446162,1,0 S,2,445838,446162,1,0.2 P,0,445838,446162,A M,0,445869,445900,502.2961,179.9752,524.9595,187.6885 M,0,445900,445931,524.9595,187.6885,548.5526,191.759 M,0,445931,445962,548.5526,191.759,572.5061,192.2154
Sprite,Foreground,Centre,"sb\highlight.png",336,76 C,0,446088,,248,173,185 M,0,446088,446119,336,76,312.4799,72.12532 F,2,446088,446475,1,0 S,2,446088,446475,1,0.2 P,0,446088,446475,A M,0,446119,446150,312.4799,72.12532,288.924,75.28244 M,0,446150,446181,288.924,75.28244,267.4969,85.56663 M,0,446181,446213,267.4969,85.56663,250.2975,101.9712 M,0,446213,446244,250.2975,101.9712,239.0107,122.89 M,0,446244,446275,239.0107,122.89,234.7425,146.2747
Sprite,Foreground,Centre,"sb\highlight.png",240,188 C,0,446338,,248,173,185 M,0,446338,446369,240,188,245.7061,211.2753 F,2,446338,446662,1,0 S,2,446338,446662,1,0.2 P,0,446338,446662,A M,0,446369,446400,245.7061,211.2753,248.166,235.0978 M,0,446400,446431,248.166,235.0978,247.1362,259.0252 M,0,446431,446462,247.1362,259.0252,242.6385,282.5491
Sprite,Foreground,Centre,"sb\highlight.png",120,372 C,0,446588,,227,221,196 M,0,446588,446619,120,372,143.8739,369.8404 F,2,446588,446975,1,0 S,2,446588,446975,1,0.2 P,0,446588,446975,A M,0,446619,446650,143.8739,369.8404,167.8214,370.5916 M,0,446650,446681,167.8214,370.5916,191.4732,374.4257 M,0,446681,446713,191.4732,374.4257,214.435,381.2792 M,0,446713,446744,214.435,381.2792,236.3234,391.0385 M,0,446744,446775,236.3234,391.0385,256.773,403.5414
Sprite,Foreground,Centre,"sb\highlight.png",296,424 C,0,446838,,227,221,196 F,2,446838,447038,1,0 S,2,446838,447038,1,0.2 P,0,446838,447038,A
Sprite,Foreground,Centre,"sb\highlight.png",343,427 C,0,446900,,227,221,196 F,2,446900,447100,1,0 S,2,446900,447100,1,0.2 P,0,446900,447100,A
Sprite,Foreground,Centre,"sb\highlight.png",387,410 C,0,446963,,227,221,196 F,2,446963,447163,1,0 S,2,446963,447163,1,0.2 P,0,446963,447163,A
Sprite,Foreground,Centre,"sb\highlight.png",420,375 C,0,447025,,227,221,196 F,2,447025,447225,1,0 S,2,447025,447225,1,0.2 P,0,447025,447225,A
Sprite,Foreground,Centre,"sb\highlight.png",434,330 C,0,447088,,227,221,196 F,2,447088,447288,1,0 S,2,447088,447288,1,0.2 P,0,447088,447288,A
Sprite,Foreground,Centre,"sb\highlight.png",386,100 C,0,447213,,227,221,196 F,2,447213,447413,1,0 S,2,447213,447413,1,0.2 P,0,447213,447413,A
Sprite,Foreground,Centre,"sb\highlight.png",198,137 C,0,447338,,227,221,196 F,2,447338,447538,1,0 S,2,447338,447538,1,0.2 P,0,447338,447538,A
Sprite,Foreground,Centre,"sb\highlight.png",174,327 C,0,447463,,227,221,196 F,2,447463,447663,1,0 S,2,447463,447663,1,0.2 P,0,447463,447663,A
Sprite,Foreground,Centre,"sb\highlight.png",479,268 C,0,447588,,248,173,185 F,2,447588,447788,1,0 S,2,447588,447788,1,0.2 P,0,447588,447788,A
Sprite,Foreground,Centre,"sb\highlight.png",444,236 C,0,447650,,248,173,185 F,2,447650,447850,1,0 S,2,447650,447850,1,0.2 P,0,447650,447850,A
Sprite,Foreground,Centre,"sb\highlight.png",396,228 C,0,447713,,248,173,185 F,2,447713,447913,1,0 S,2,447713,447913,1,0.2 P,0,447713,447913,A
Sprite,Foreground,Centre,"sb\highlight.png",348,240 C,0,447775,,248,173,185 F,2,447775,447975,1,0 S,2,447775,447975,1,0.2 P,0,447775,447975,A
Sprite,Foreground,Centre,"sb\highlight.png",316,276 C,0,447838,,248,173,185 F,2,447838,448038,1,0 S,2,447838,448038,1,0.2 P,0,447838,448038,A
Sprite,Foreground,Centre,"sb\highlight.png",320,440 C,0,447963,,248,173,185 F,2,447963,448163,1,0 S,2,447963,448163,1,0.2 P,0,447963,448163,A
Sprite,Foreground,Centre,"sb\highlight.png",480,219 C,0,448088,,248,173,185 M,0,448088,448119,480,219,479.7338,195.0151 F,2,448088,448412,1,0 S,2,448088,448412,1,0.2 P,0,448088,448412,A M,0,448119,448150,479.7338,195.0151,477.4903,171.1393 M,0,448150,448181,477.4903,171.1393,473.1545,147.552 M,0,448181,448212,473.1545,147.552,466.8004,124.4214
Sprite,Foreground,Centre,"sb\highlight.png",172,176 C,0,448338,,248,173,185 M,0,448338,448369,172,176,165.5672,199.108 F,2,448338,448662,1,0 S,2,448338,448662,1,0.2 P,0,448338,448662,A M,0,448369,448400,165.5672,199.108,161.0095,222.6529 M,0,448400,448431,161.0095,222.6529,158.4898,246.5052 M,0,448431,448462,158.4898,246.5052,158,270
Sprite,Foreground,Centre,"sb\highlight.png",396,392 C,0,448588,,227,221,196 F,2,448588,448788,1,0 S,2,448588,448788,1,0.2 P,0,448588,448788,A
Sprite,Foreground,Centre,"sb\highlight.png",342,86 C,0,448713,,227,221,196 F,2,448713,448913,1,0 S,2,448713,448913,1,0.2 P,0,448713,448913,A
Sprite,Foreground,Centre,"sb\highlight.png",206,365 C,0,448838,,227,221,196 F,2,448838,449038,1,0 S,2,448838,449038,1,0.2 P,0,448838,449038,A
Sprite,Foreground,Centre,"sb\highlight.png",480,219 C,0,448963,,227,221,196 F,2,448963,449163,1,0 S,2,448963,449163,1,0.2 P,0,448963,449163,A
Sprite,Foreground,Centre,"sb\highlight.png",173,176 C,0,449088,,227,221,196 F,2,449088,449288,1,0 S,2,449088,449288,1,0.2 P,0,449088,449288,A
Sprite,Foreground,Centre,"sb\highlight.png",297,409 C,0,449213,,227,221,196 F,2,449213,449413,1,0 S,2,449213,449413,1,0.2 P,0,449213,449413,A
Sprite,Foreground,Centre,"sb\highlight.png",243,103 C,0,449338,,227,221,196 F,2,449338,449538,1,0 S,2,449338,449538,1,0.2 P,0,449338,449538,A
Sprite,Foreground,Centre,"sb\highlight.png",466,319 C,0,449463,,227,221,196 F,2,449463,449663,1,0 S,2,449463,449663,1,0.2 P,0,449463,449663,A
Sprite,Foreground,Centre,"sb\highlight.png",154,270 C,0,449588,,248,173,185 F,2,449588,449788,1,0 S,2,449588,449788,1,0.2 P,0,449588,449788,A
Sprite,Foreground,Centre,"sb\highlight.png",435,127 C,0,449713,,248,173,185 F,2,449713,449913,1,0 S,2,449713,449913,1,0.2 P,0,449713,449913,A
Sprite,Foreground,Centre,"sb\highlight.png",397,394 C,0,449838,,248,173,185 F,2,449838,450038,1,0 S,2,449838,450038,1,0.2 P,0,449838,450038,A
Sprite,Foreground,Centre,"sb\highlight.png",241,101 C,0,449963,,248,173,185 F,2,449963,450163,1,0 S,2,449963,450163,1,0.2 P,0,449963,450163,A
Sprite,Foreground,Centre,"sb\highlight.png",295,410 C,0,450088,,248,173,185 F,2,450088,450288,1,0 S,2,450088,450288,1,0.2 P,0,450088,450288,A
Sprite,Foreground,Centre,"sb\highlight.png",341,83 C,0,450213,,248,173,185 F,2,450213,450413,1,0 S,2,450213,450413,1,0.2 P,0,450213,450413,A
Sprite,Foreground,Centre,"sb\highlight.png",203,365 C,0,450338,,248,173,185 F,2,450338,450538,1,0 S,2,450338,450538,1,0.2 P,0,450338,450538,A
Sprite,Foreground,Centre,"sb\highlight.png",435,127 C,0,450463,,248,173,185 F,2,450463,450663,1,0 S,2,450463,450663,1,0.2 P,0,450463,450663,A
Sprite,Foreground,Centre,"sb\highlight.png",435,127 C,0,450525,,248,173,185 F,2,450525,450725,1,0 S,2,450525,450725,1,0.2 P,0,450525,450725,A
Sprite,Foreground,Centre,"sb\highlight.png",435,127 C,0,450588,,227,221,196 M,0,450588,450619,435,127,458.2868,132.7463 F,2,450588,450912,1,0 S,2,450588,450912,1,0.2 P,0,450588,450912,A M,0,450619,450650,458.2868,132.7463,481.9749,136.4727 M,0,450650,450681,481.9749,136.4727,505.9062,138.016 M,0,450681,450712,505.9062,138.016,529.8807,137.363
Sprite,Foreground,Centre,"sb\highlight.png",203,365 C,0,450838,,227,221,196 M,0,450838,450869,203,365,179.7394,359.1352 F,2,450838,451162,1,0 S,2,450838,451162,1,0.2 P,0,450838,451162,A M,0,450869,450900,179.7394,359.1352,156.0935,355.1248 M,0,450900,450931,156.0935,355.1248,132.1951,353.1039 M,0,450931,450962,132.1951,353.1039,108.2115,353.0869
Sprite,Foreground,Centre,"sb\highlight.png",396,392 C,0,451088,,227,221,196 F,2,451088,451288,1,0 S,2,451088,451288,1,0.2 P,0,451088,451288,A
Sprite,Foreground,Centre,"sb\highlight.png",395,344 C,0,451150,,227,221,196 F,2,451150,451350,1,0 S,2,451150,451350,1,0.2 P,0,451150,451350,A
Sprite,Foreground,Centre,"sb\highlight.png",370,303 C,0,451213,,227,221,196 F,2,451213,451413,1,0 S,2,451213,451413,1,0.2 P,0,451213,451413,A
Sprite,Foreground,Centre,"sb\highlight.png",329,281 C,0,451275,,227,221,196 F,2,451275,451475,1,0 S,2,451275,451475,1,0.2 P,0,451275,451475,A
Sprite,Foreground,Centre,"sb\highlight.png",281,282 C,0,451338,,227,221,196 F,2,451338,451538,1,0 S,2,451338,451538,1,0.2 P,0,451338,451538,A
Sprite,Foreground,Centre,"sb\highlight.png",238,262 C,0,451400,,227,221,196 F,2,451400,451600,1,0 S,2,451400,451600,1,0.2 P,0,451400,451600,A
Sprite,Foreground,Centre,"sb\highlight.png",209,224 C,0,451463,,227,221,196 F,2,451463,451663,1,0 S,2,451463,451663,1,0.2 P,0,451463,451663,A
Sprite,Foreground,Centre,"sb\highlight.png",202,177 C,0,451525,,227,221,196 F,2,451525,451725,1,0 S,2,451525,451725,1,0.2 P,0,451525,451725,A
Sprite,Foreground,Centre,"sb\highlight.png",216,132 C,0,451588,,248,173,185 M,0,451588,451619,216,132,234.7777,117.1946 F,2,451588,452037,1,0 S,2,451588,452037,1,0.2 P,0,451588,452037,A M,0,451619,451650,234.7777,117.1946,256.2377,106.7311 M,0,451650,451681,256.2377,106.7311,279.5068,101.3749 M,0,451681,451713,279.5068,101.3749,303.3884,101.4031 M,0,451713,451744,303.3884,101.4031,326.6539,106.8164 M,0,451744,451775,326.6539,106.8164,348.1057,117.3389 M,0,451775,451806,348.1057,117.3389,366.6387,132.4325 M,0,451806,451837,366.6387,132.4325,381.2968,151.3236
Sprite,Foreground,Centre,"sb\highlight.png",452,220 C,0,451963,,248,173,185 F,2,451963,452163,1,0 S,2,451963,452163,1,0.2 P,0,451963,452163,A
Sprite,Foreground,Centre,"sb\highlight.png",296,364 C,0,452088,,248,173,185 M,0,452088,452119,296,364,272.0851,364.1537 F,2,452088,452412,1,0 S,2,452088,452412,1,0.2 P,0,452088,452412,A M,0,452119,452150,272.0851,364.1537,248.7159,359.2468 M,0,452150,452181,248.7159,359.2468,227.0425,349.2231 M,0,452181,452212,227.0425,349.2231,208.1691,334.5932
Sprite,Foreground,Centre,"sb\highlight.png",452,220 C,0,452338,,248,173,185 M,0,452338,452369,452,220,475.9099,219.6198 F,2,452338,452662,1,0 S,2,452338,452662,1,0.2 P,0,452338,452662,A M,0,452369,452400,475.9099,219.6198,499.2974,224.4218 M,0,452400,452431,499.2974,224.4218,520.962,234.4556 M,0,452431,452462,520.962,234.4556,539.9667,248.9694
Sprite,Foreground,Centre,"sb\highlight.png",296,364 C,0,452588,,227,221,196 M,0,452588,452619,296,364,293.7488,340.1797 F,2,452588,452954,1,0 S,2,452588,452954,1,0.2 P,0,452588,452954,A M,0,452619,452650,293.7488,340.1797,296.2059,316.4116 M,0,452650,452681,296.2059,316.4116,298.1225,308.6672 M,0,452681,452713,298.1225,308.6672,294.0137,332.2063 M,0,452713,452744,294.0137,332.2063,294.8878,356.0846 M,0,452744,452754,294.8878,356.0846,296,364
Sprite,Foreground,Centre,"sb\highlight.png",356,424 C,0,452838,,248,173,185 M,0,452838,452869,356,424,379.8705,424.2822 F,2,452838,453225,1,0 S,2,452838,453225,1,0.2 P,0,452838,453225,A M,0,452869,452900,379.8705,424.2822,402.933,418.335 M,0,452900,452931,402.933,418.335,423.4567,406.2508 M,0,452931,452963,423.4567,406.2508,439.8457,388.9693 M,0,452963,452994,439.8457,388.9693,450.8258,367.8341 M,0,452994,453025,450.8258,367.8341,455.5429,344.4887
Sprite,Foreground,Centre,"sb\highlight.png",459,267 C,0,453088,,248,173,185 M,0,453088,453119,459,267,455.0544,243.3265 F,2,453088,453350,1,0 S,2,453088,453350,1,0.2 P,0,453088,453350,A M,0,453119,453150,455.0544,243.3265,451.1089,219.6531
Sprite,Foreground,Centre,"sb\highlight.png",266,118 C,0,453213,,248,173,185 M,0,453213,453244,266,118,247.3579,133.1152 F,2,453213,453475,1,0 S,2,453213,453475,1,0.2 P,0,453213,453475,A M,0,453244,453275,247.3579,133.1152,229,148
Sprite,Foreground,Centre,"sb\highlight.png",405,137 C,0,453338,,248,173,185 M,0,453338,453369,405,137,382.6129,128.3504 F,2,453338,453600,1,0 S,2,453338,453600,1,0.2 P,0,453338,453600,A M,0,453369,453400,382.6129,128.3504,361,120
Sprite,Foreground,Centre,"sb\highlight.png",181,229 C,0,453463,,248,173,185 M,0,453463,453494,181,229,184.9456,252.6735 F,2,453463,453725,1,0 S,2,453463,453725,1,0.2 P,0,453463,453725,A M,0,453494,453525,184.9456,252.6735,188.8911,276.3469
Sprite,Foreground,Centre,"sb\highlight.png",234,358 C,0,453588,,227,221,196 M,0,453588,453619,234,358,256.5957,366.0454 F,2,453588,453975,1,0 S,2,453588,453975,1,0.2 P,0,453588,453975,A M,0,453619,453650,256.5957,366.0454,279.8129,372.0413 M,0,453650,453681,279.8129,372.0413,303.4928,375.8159 M,0,453681,453713,303.4928,375.8159,327.4236,377.3357 M,0,453713,453744,327.4236,377.3357,351.3909,376.5869 M,0,453744,453775,351.3909,376.5869,375.1801,373.5761
Sprite,Foreground,Centre,"sb\highlight.png",455,344 C,0,453838,,227,221,196 F,2,453838,454038,1,0 S,2,453838,454038,1,0.2 P,0,453838,454038,A
Sprite,Foreground,Centre,"sb\highlight.png",552,408 C,0,453963,,227,221,196 F,2,453963,454163,1,0 S,2,453963,454163,1,0.2 P,0,453963,454163,A
Sprite,Foreground,Centre,"sb\highlight.png",459,267 C,0,454088,,227,221,196 F,2,454088,454288,1,0 S,2,454088,454288,1,0.2 P,0,454088,454288,A
Sprite,Foreground,Centre,"sb\highlight.png",575,273 C,0,454213,,227,221,196 F,2,454213,454413,1,0 S,2,454213,454413,1,0.2 P,0,454213,454413,A
Sprite,Foreground,Centre,"sb\highlight.png",436,196 C,0,454338,,227,221,196 F,2,454338,454538,1,0 S,2,454338,454538,1,0.2 P,0,454338,454538,A
Sprite,Foreground,Centre,"sb\highlight.png",539,143 C,0,454463,,227,221,196 F,2,454463,454663,1,0 S,2,454463,454663,1,0.2 P,0,454463,454663,A
Sprite,Foreground,Centre,"sb\highlight.png",400,124 C,0,454588,,248,173,185 M,0,454588,454619,400,124,376.3955,119.7079 F,2,454588,454975,1,0 S,2,454588,454975,1,0.2 P,0,454588,454975,A M,0,454619,454650,376.3955,119.7079,352.5622,116.9886 M,0,454650,454681,352.5622,116.9886,328.5963,115.9539 M,0,454681,454713,328.5963,115.9539,304.6165,116.6093 M,0,454713,454744,304.6165,116.6093,280.7416,118.9514 M,0,454744,454775,280.7416,118.9514,257.0819,122.9321
Sprite,Foreground,Centre,"sb\highlight.png",156,76 C,0,454838,,248,173,185 M,0,454838,454869,156,76,164.1474,98.56597 F,2,454838,455225,1,0 S,2,454838,455225,1,0.2 P,0,454838,455225,A M,0,454869,454900,164.1474,98.56597,173.7544,120.5464 M,0,454900,454931,173.7544,120.5464,184.8695,141.8044 M,0,454931,454963,184.8695,141.8044,197.4387,162.2369 M,0,454963,454994,197.4387,162.2369,211.4011,181.7446 M,0,454994,455025,211.4011,181.7446,226.6601,200.2593
Sprite,Foreground,Centre,"sb\highlight.png",240,312 C,0,455088,,248,173,185 M,0,455088,455119,240,312,255.0833,293.3405 F,2,455088,455475,1,0 S,2,455088,455475,1,0.2 P,0,455088,455475,A M,0,455119,455150,255.0833,293.3405,269.0517,273.8358 M,0,455150,455181,269.0517,273.8358,281.784,253.5022 M,0,455181,455213,281.784,253.5022,293.2313,232.4179 M,0,455213,455244,293.2313,232.4179,303.3494,210.6638 M,0,455244,455275,303.3494,210.6638,312.1266,188.3327
Sprite,Foreground,Centre,"sb\highlight.png",393,76 C,0,455338,,248,173,185 M,0,455338,455369,393,76,396.3941,99.75879 F,2,455338,455600,1,0 S,2,455338,455600,1,0.2 P,0,455338,455600,A M,0,455369,455400,396.3941,99.75879,399.7882,123.5176
Sprite,Foreground,Centre,"sb\highlight.png",428,328 C,0,455463,,248,173,185 M,0,455463,455494,428,328,424.5366,304.2512 F,2,455463,455725,1,0 S,2,455463,455725,1,0.2 P,0,455463,455725,A M,0,455494,455525,424.5366,304.2512,421.0733,280.5024
Sprite,Foreground,Centre,"sb\highlight.png",312,188 C,0,455588,,227,221,196 F,2,455588,455788,1,0 S,2,455588,455788,1,0.2 P,0,455588,455788,A
Sprite,Foreground,Centre,"sb\highlight.png",271,162 C,0,455650,,227,221,196 F,2,455650,455850,1,0 S,2,455650,455850,1,0.2 P,0,455650,455850,A
Sprite,Foreground,Centre,"sb\highlight.png",224,154 C,0,455713,,227,221,196 F,2,455713,455913,1,0 S,2,455713,455913,1,0.2 P,0,455713,455913,A
Sprite,Foreground,Centre,"sb\highlight.png",178,167 C,0,455775,,227,221,196 F,2,455775,455975,1,0 S,2,455775,455975,1,0.2 P,0,455775,455975,A
Sprite,Foreground,Centre,"sb\highlight.png",141,197 C,0,455838,,227,221,196 M,0,455838,455869,141,197,143.1378,220.9046 F,2,455838,456162,1,0 S,2,455838,456162,1,0.2 P,0,455838,456162,A M,0,455869,455900,143.1378,220.9046,145.2756,244.8092 M,0,455900,455931,145.2756,244.8092,147.4134,268.7138 M,0,455931,455962,147.4134,268.7138,149.5512,292.6184
Sprite,Foreground,Centre,"sb\highlight.png",301,425 C,0,456088,,227,221,196 F,2,456088,456288,1,0 S,2,456088,456288,1,0.2 P,0,456088,456288,A
Sprite,Foreground,Centre,"sb\highlight.png",348,430 C,0,456150,,227,221,196 F,2,456150,456350,1,0 S,2,456150,456350,1,0.2 P,0,456150,456350,A
Sprite,Foreground,Centre,"sb\highlight.png",391,411 C,0,456213,,227,221,196 F,2,456213,456413,1,0 S,2,456213,456413,1,0.2 P,0,456213,456413,A
Sprite,Foreground,Centre,"sb\highlight.png",420,374 C,0,456275,,227,221,196 F,2,456275,456475,1,0 S,2,456275,456475,1,0.2 P,0,456275,456475,A
Sprite,Foreground,Centre,"sb\highlight.png",428,328 C,0,456338,,227,221,196 M,0,456338,456369,428,328,424.5366,304.2512 F,2,456338,456600,1,0 S,2,456338,456600,1,0.2 P,0,456338,456600,A M,0,456369,456400,424.5366,304.2512,421.0733,280.5024
Sprite,Foreground,Centre,"sb\highlight.png",393,76 C,0,456463,,227,221,196 M,0,456463,456494,393,76,396.3941,99.75879 F,2,456463,456725,1,0 S,2,456463,456725,1,0.2 P,0,456463,456725,A M,0,456494,456525,396.3941,99.75879,399.7882,123.5176
Sprite,Foreground,Centre,"sb\highlight.png",336,336 C,0,456588,,248,173,185 F,2,456588,456788,1,0 S,2,456588,456788,1,0.2 P,0,456588,456788,A
Sprite,Foreground,Centre,"sb\highlight.png",516,220 C,0,456713,,248,173,185 F,2,456713,456913,1,0 S,2,456713,456913,1,0.2 P,0,456713,456913,A
Sprite,Foreground,Centre,"sb\highlight.png",312,188 C,0,456838,,248,173,185 F,2,456838,457038,1,0 S,2,456838,457038,1,0.2 P,0,456838,457038,A
Sprite,Foreground,Centre,"sb\highlight.png",312,188 C,0,456900,,248,173,185 F,2,456900,457100,1,0 S,2,456900,457100,1,0.2 P,0,456900,457100,A
Sprite,Foreground,Centre,"sb\highlight.png",312,188 C,0,456963,,248,173,185 F,2,456963,457163,1,0 S,2,456963,457163,1,0.2 P,0,456963,457163,A
Sprite,Foreground,Centre,"sb\highlight.png",515,124 C,0,457088,,248,173,185 M,0,457088,457119,515,124,518.5109,147.7257 F,2,457088,457412,1,0 S,2,457088,457412,1,0.2 P,0,457088,457412,A M,0,457119,457150,518.5109,147.7257,519.8658,171.6647 M,0,457150,457181,519.8658,171.6647,518.9144,195.6242 M,0,457181,457212,518.9144,195.6242,515.6653,219.383
Sprite,Foreground,Centre,"sb\highlight.png",275,265 C,0,457338,,248,173,185 M,0,457338,457369,275,265,269.4732,241.6627 F,2,457338,457662,1,0 S,2,457338,457662,1,0.2 P,0,457338,457662,A M,0,457369,457400,269.4732,241.6627,266.2148,217.9098 M,0,457400,457431,266.2148,217.9098,265.3918,193.9485 M,0,457431,457462,265.3918,193.9485,266.8924,170.0129
Sprite,Foreground,Centre,"sb\highlight.png",554,313 C,0,457588,,227,221,196 F,2,457588,457788,1,0 S,2,457588,457788,1,0.2 P,0,457588,457788,A
Sprite,Foreground,Centre,"sb\highlight.png",517,343 C,0,457650,,227,221,196 F,2,457650,457850,1,0 S,2,457650,457850,1,0.2 P,0,457650,457850,A
Sprite,Foreground,Centre,"sb\highlight.png",470,349 C,0,457713,,227,221,196 F,2,457713,457913,1,0 S,2,457713,457913,1,0.2 P,0,457713,457913,A
Sprite,Foreground,Centre,"sb\highlight.png",428,328 C,0,457775,,227,221,196 F,2,457775,457975,1,0 S,2,457775,457975,1,0.2 P,0,457775,457975,A
Sprite,Foreground,Centre,"sb\highlight.png",403,288 C,0,457838,,227,221,196 F,2,457838,458038,1,0 S,2,457838,458038,1,0.2 P,0,457838,458038,A
Sprite,Foreground,Centre,"sb\highlight.png",366,257 C,0,457900,,227,221,196 F,2,457900,458100,1,0 S,2,457900,458100,1,0.2 P,0,457900,458100,A
Sprite,Foreground,Centre,"sb\highlight.png",320,249 C,0,457963,,227,221,196 F,2,457963,458163,1,0 S,2,457963,458163,1,0.2 P,0,457963,458163,A
Sprite,Foreground,Centre,"sb\highlight.png",275,265 C,0,458025,,227,221,196 F,2,458025,458225,1,0 S,2,458025,458225,1,0.2 P,0,458025,458225,A
Sprite,Foreground,Centre,"sb\highlight.png",245,302 C,0,458088,,227,221,196 F,2,458088,458288,1,0 S,2,458088,458288,1,0.2 P,0,458088,458288,A
Sprite,Foreground,Centre,"sb\highlight.png",198,299 C,0,458150,,227,221,196 F,2,458150,458350,1,0 S,2,458150,458350,1,0.2 P,0,458150,458350,A
Sprite,Foreground,Centre,"sb\highlight.png",157,274 C,0,458213,,227,221,196 F,2,458213,458413,1,0 S,2,458213,458413,1,0.2 P,0,458213,458413,A
Sprite,Foreground,Centre,"sb\highlight.png",134,233 C,0,458275,,227,221,196 F,2,458275,458475,1,0 S,2,458275,458475,1,0.2 P,0,458275,458475,A
Sprite,Foreground,Centre,"sb\highlight.png",133,186 C,0,458338,,227,221,196 F,2,458338,458538,1,0 S,2,458338,458538,1,0.2 P,0,458338,458538,A
Sprite,Foreground,Centre,"sb\highlight.png",388,148 C,0,458463,,227,221,196 F,2,458463,458663,1,0 S,2,458463,458663,1,0.2 P,0,458463,458663,A
Sprite,Foreground,Centre,"sb\highlight.png",140,92 C,0,458588,,248,173,185 M,0,458588,458619,140,92,120.5122,87.50281 F,2,458588,458913,1,0 S,2,458588,458913,1,0.2 P,0,458588,458913,A M,0,458619,458650,120.5122,87.50281,101.0244,83.00562 M,0,458650,458681,101.0244,83.00562,120.5122,87.50281 M,0,458681,458713,120.5122,87.50281,140,92
Sprite,Foreground,Centre,"sb\highlight.png",388,148 C,0,458838,,248,173,185 M,0,458838,458869,388,148,407.4878,143.5028 F,2,458838,459163,1,0 S,2,458838,459163,1,0.2 P,0,458838,459163,A M,0,458869,458900,407.4878,143.5028,426.9756,139.0056 M,0,458900,458931,426.9756,139.0056,407.4878,143.5028 M,0,458931,458963,407.4878,143.5028,388,148
Sprite,Foreground,Centre,"sb\highlight.png",133,186 C,0,459088,,248,173,185 M,0,459088,459119,133,186,113.5122,181.5028 F,2,459088,459413,1,0 S,2,459088,459413,1,0.2 P,0,459088,459413,A M,0,459119,459150,113.5122,181.5028,94.02435,177.0056 M,0,459150,459181,94.02435,177.0056,113.5122,181.5028 M,0,459181,459213,113.5122,181.5028,133,186
Sprite,Foreground,Centre,"sb\highlight.png",381,242 C,0,459338,,248,173,185 M,0,459338,459369,381,242,400.4878,237.5028 F,2,459338,459663,1,0 S,2,459338,459663,1,0.2 P,0,459338,459663,A M,0,459369,459400,400.4878,237.5028,419.9756,233.0056 M,0,459400,459431,419.9756,233.0056,400.4878,237.5028 M,0,459431,459463,400.4878,237.5028,381,242
Sprite,Foreground,Centre,"sb\highlight.png",144,360 C,0,459588,,227,221,196 F,2,459588,459788,1,0 S,2,459588,459788,1,0.2 P,0,459588,459788,A
Sprite,Foreground,Centre,"sb\highlight.png",177,382 C,0,459650,,227,221,196 F,2,459650,459850,1,0 S,2,459650,459850,1,0.2 P,0,459650,459850,A
Sprite,Foreground,Centre,"sb\highlight.png",215,393 C,0,459713,,227,221,196 F,2,459713,459913,1,0 S,2,459713,459913,1,0.2 P,0,459713,459913,A
Sprite,Foreground,Centre,"sb\highlight.png",255,391 C,0,459775,,227,221,196 F,2,459775,459975,1,0 S,2,459775,459975,1,0.2 P,0,459775,459975,A
Sprite,Foreground,Centre,"sb\highlight.png",292,377 C,0,459838,,227,221,196 F,2,459838,460038,1,0 S,2,459838,460038,1,0.2 P,0,459838,460038,A
Sprite,Foreground,Centre,"sb\highlight.png",324,356 C,0,459900,,227,221,196 F,2,459900,460100,1,0 S,2,459900,460100,1,0.2 P,0,459900,460100,A
Sprite,Foreground,Centre,"sb\highlight.png",357,335 C,0,459962,,227,221,196 F,2,459962,460162,1,0 S,2,459962,460162,1,0.2 P,0,459962,460162,A
Sprite,Foreground,Centre,"sb\highlight.png",397,331 C,0,460025,,227,221,196 F,2,460025,460225,1,0 S,2,460025,460225,1,0.2 P,0,460025,460225,A
Sprite,Foreground,Centre,"sb\highlight.png",432,340 C,0,460088,,227,221,196 M,0,460088,460119,432,340,451.9856,340.7589 F,2,460088,460413,1,0 S,2,460088,460413,1,0.2 P,0,460088,460413,A M,0,460119,460150,451.9856,340.7589,471.9712,341.5179 M,0,460150,460181,471.9712,341.5179,491.9568,342.2768 M,0,460181,460213,491.9568,342.2768,511,343
Sprite,Foreground,Centre,"sb\highlight.png",540,160 C,0,460338,,227,221,196 M,0,460338,460369,540,160,520.025,159.0013 F,2,460338,460663,1,0 S,2,460338,460663,1,0.2 P,0,460338,460663,A M,0,460369,460400,520.025,159.0013,500.0499,158.0025 M,0,460400,460431,500.0499,158.0025,480.0749,157.0038 M,0,460431,460463,480.0749,157.0038,460.0998,156.005
Sprite,Foreground,Centre,"sb\highlight.png",256,88 C,0,460588,,248,173,185 F,2,460588,460788,1,0 S,2,460588,460788,1,0.2 P,0,460588,460788,A
Sprite,Foreground,Centre,"sb\highlight.png",239,124 C,0,460650,,248,173,185 F,2,460650,460850,1,0 S,2,460650,460850,1,0.2 P,0,460650,460850,A
Sprite,Foreground,Centre,"sb\highlight.png",232,163 C,0,460713,,248,173,185 F,2,460713,460913,1,0 S,2,460713,460913,1,0.2 P,0,460713,460913,A
Sprite,Foreground,Centre,"sb\highlight.png",235,203 C,0,460775,,248,173,185 F,2,460775,460975,1,0 S,2,460775,460975,1,0.2 P,0,460775,460975,A
Sprite,Foreground,Centre,"sb\highlight.png",249,240 C,0,460838,,248,173,185 F,2,460838,461038,1,0 S,2,460838,461038,1,0.2 P,0,460838,461038,A
Sprite,Foreground,Centre,"sb\highlight.png",271,273 C,0,460900,,248,173,185 F,2,460900,461100,1,0 S,2,460900,461100,1,0.2 P,0,460900,461100,A
Sprite,Foreground,Centre,"sb\highlight.png",302,298 C,0,460963,,248,173,185 F,2,460963,461163,1,0 S,2,460963,461163,1,0.2 P,0,460963,461163,A
Sprite,Foreground,Centre,"sb\highlight.png",319,334 C,0,461025,,248,173,185 F,2,461025,461225,1,0 S,2,461025,461225,1,0.2 P,0,461025,461225,A
Sprite,Foreground,Centre,"sb\highlight.png",313,373 C,0,461088,,248,173,185 F,2,461088,461288,1,0 S,2,461088,461288,1,0.2 P,0,461088,461288,A
Sprite,Foreground,Centre,"sb\highlight.png",288,403 C,0,461150,,248,173,185 F,2,461150,461350,1,0 S,2,461150,461350,1,0.2 P,0,461150,461350,A
Sprite,Foreground,Centre,"sb\highlight.png",250,415 C,0,461213,,248,173,185 F,2,461213,461413,1,0 S,2,461213,461413,1,0.2 P,0,461213,461413,A
Sprite,Foreground,Centre,"sb\highlight.png",212,404 C,0,461275,,248,173,185 F,2,461275,461475,1,0 S,2,461275,461475,1,0.2 P,0,461275,461475,A
Sprite,Foreground,Centre,"sb\highlight.png",186,375 C,0,461338,,248,173,185 F,2,461338,461538,1,0 S,2,461338,461538,1,0.2 P,0,461338,461538,A
Sprite,Foreground,Centre,"sb\highlight.png",180,336 C,0,461400,,248,173,185 F,2,461400,461600,1,0 S,2,461400,461600,1,0.2 P,0,461400,461600,A
Sprite,Foreground,Centre,"sb\highlight.png",196,300 C,0,461463,,248,173,185 F,2,461463,461663,1,0 S,2,461463,461663,1,0.2 P,0,461463,461663,A
Sprite,Foreground,Centre,"sb\highlight.png",322,105 C,0,461588,,227,221,196 F,2,461588,461788,1,0 S,2,461588,461788,1,0.2 P,0,461588,461788,A
Sprite,Foreground,Centre,"sb\highlight.png",376,115 C,0,461650,,227,221,196 F,2,461650,461850,1,0 S,2,461650,461850,1,0.2 P,0,461650,461850,A
Sprite,Foreground,Centre,"sb\highlight.png",423,145 C,0,461713,,227,221,196 F,2,461713,461913,1,0 S,2,461713,461913,1,0.2 P,0,461713,461913,A
Sprite,Foreground,Centre,"sb\highlight.png",456,190 C,0,461775,,227,221,196 F,2,461775,461975,1,0 S,2,461775,461975,1,0.2 P,0,461775,461975,A
Sprite,Foreground,Centre,"sb\highlight.png",470,244 C,0,461838,,227,221,196 F,2,461838,462038,1,0 S,2,461838,462038,1,0.2 P,0,461838,462038,A
Sprite,Foreground,Centre,"sb\highlight.png",464,299 C,0,461900,,227,221,196 F,2,461900,462100,1,0 S,2,461900,462100,1,0.2 P,0,461900,462100,A
Sprite,Foreground,Centre,"sb\highlight.png",438,349 C,0,461963,,227,221,196 F,2,461963,462163,1,0 S,2,461963,462163,1,0.2 P,0,461963,462163,A
Sprite,Foreground,Centre,"sb\highlight.png",396,385 C,0,462025,,227,221,196 F,2,462025,462225,1,0 S,2,462025,462225,1,0.2 P,0,462025,462225,A
Sprite,Foreground,Centre,"sb\highlight.png",344,404 C,0,462088,,227,221,196 F,2,462088,462288,1,0 S,2,462088,462288,1,0.2 P,0,462088,462288,A
Sprite,Foreground,Centre,"sb\highlight.png",288,403 C,0,462150,,227,221,196 F,2,462150,462350,1,0 S,2,462150,462350,1,0.2 P,0,462150,462350,A
Sprite,Foreground,Centre,"sb\highlight.png",237,381 C,0,462213,,227,221,196 F,2,462213,462413,1,0 S,2,462213,462413,1,0.2 P,0,462213,462413,A
Sprite,Foreground,Centre,"sb\highlight.png",197,343 C,0,462275,,227,221,196 F,2,462275,462475,1,0 S,2,462275,462475,1,0.2 P,0,462275,462475,A
Sprite,Foreground,Centre,"sb\highlight.png",174,292 C,0,462338,,227,221,196 F,2,462338,462538,1,0 S,2,462338,462538,1,0.2 P,0,462338,462538,A
Sprite,Foreground,Centre,"sb\highlight.png",170,237 C,0,462400,,227,221,196 F,2,462400,462600,1,0 S,2,462400,462600,1,0.2 P,0,462400,462600,A
Sprite,Foreground,Centre,"sb\highlight.png",187,184 C,0,462463,,227,221,196 F,2,462463,462663,1,0 S,2,462463,462663,1,0.2 P,0,462463,462663,A
Sprite,Foreground,Centre,"sb\highlight.png",229,150 C,0,462525,,227,221,196 F,2,462525,462725,1,0 S,2,462525,462725,1,0.2 P,0,462525,462725,A
Sprite,Foreground,Centre,"sb\highlight.png",284,156 C,0,462588,,248,173,185 F,2,462588,462788,1,0 S,2,462588,462788,1,0.2 P,0,462588,462788,A
Sprite,Foreground,Centre,"sb\highlight.png",314,197 C,0,462650,,248,173,185 F,2,462650,462850,1,0 S,2,462650,462850,1,0.2 P,0,462650,462850,A
Sprite,Foreground,Centre,"sb\highlight.png",359,223 C,0,462713,,248,173,185 F,2,462713,462913,1,0 S,2,462713,462913,1,0.2 P,0,462713,462913,A
Sprite,Foreground,Centre,"sb\highlight.png",410,228 C,0,462775,,248,173,185 F,2,462775,462975,1,0 S,2,462775,462975,1,0.2 P,0,462775,462975,A
Sprite,Foreground,Centre,"sb\highlight.png",463,212 C,0,462837,,248,173,185 F,2,462837,463037,1,0 S,2,462837,463037,1,0.2 P,0,462837,463037,A
Sprite,Foreground,Centre,"sb\highlight.png",494,167 C,0,462900,,248,173,185 F,2,462900,463100,1,0 S,2,462900,463100,1,0.2 P,0,462900,463100,A
Sprite,Foreground,Centre,"sb\highlight.png",491,112 C,0,462962,,248,173,185 F,2,462962,463162,1,0 S,2,462962,463162,1,0.2 P,0,462962,463162,A
Sprite,Foreground,Centre,"sb\highlight.png",454,71 C,0,463025,,248,173,185 F,2,463025,463225,1,0 S,2,463025,463225,1,0.2 P,0,463025,463225,A
Sprite,Foreground,Centre,"sb\highlight.png",388,60 C,0,463088,,248,173,185 F,2,463088,463288,1,0 S,2,463088,463288,1,0.2 P,0,463088,463288,A
Sprite,Foreground,Centre,"sb\highlight.png",335,106 C,0,463150,,248,173,185 F,2,463150,463350,1,0 S,2,463150,463350,1,0.2 P,0,463150,463350,A
Sprite,Foreground,Centre,"sb\highlight.png",329,176 C,0,463213,,248,173,185 F,2,463213,463413,1,0 S,2,463213,463413,1,0.2 P,0,463213,463413,A
Sprite,Foreground,Centre,"sb\highlight.png",352,248 C,0,463275,,248,173,185 F,2,463275,463475,1,0 S,2,463275,463475,1,0.2 P,0,463275,463475,A
Sprite,Foreground,Centre,"sb\highlight.png",332,323 C,0,463338,,227,221,196 F,2,463338,463538,1,0 S,2,463338,463538,1,0.2 P,0,463338,463538,A
Sprite,Foreground,Centre,"sb\highlight.png",268,369 C,0,463400,,227,221,196 F,2,463400,463600,1,0 S,2,463400,463600,1,0.2 P,0,463400,463600,A
Sprite,Foreground,Centre,"sb\highlight.png",190,362 C,0,463462,,227,221,196 F,2,463462,463662,1,0 S,2,463462,463662,1,0.2 P,0,463462,463662,A
Sprite,Foreground,Centre,"sb\highlight.png",135,307 C,0,463525,,227,221,196 F,2,463525,463725,1,0 S,2,463525,463725,1,0.2 P,0,463525,463725,A
Sprite,Foreground,Centre,"sb\highlight.png",136,232 C,0,463588,,227,221,196 F,2,463588,463788,1,0 S,2,463588,463788,1,0.2 P,0,463588,463788,A
//Storyboard Sound Samples

[TimingPoints]
924,333.333333333333,4,2,0,100,1,0
2423,-100,4,2,0,50,0,0
14257,-90.9090909090909,4,2,0,80,0,0
30257,-100,4,2,0,70,0,0
67590,-100,4,2,0,80,0,0
70507,-100,4,2,0,5,0,0
70590,-100,4,2,0,80,0,0
70674,-100,4,2,0,5,0,0
70757,-100,4,2,0,80,0,0
70840,-100,4,2,0,5,0,0
70924,-100,4,2,0,80,0,0
71007,-100,4,2,0,5,0,0
71090,-100,4,2,0,80,0,0
71174,-100,4,2,0,5,0,0
71257,-100,4,2,0,80,0,0
71340,-100,4,2,0,5,0,0
71424,-100,4,2,0,80,0,0
71507,-100,4,2,0,5,0,0
71590,-100,4,2,0,80,0,0
72257,-100,4,2,0,50,0,0
72590,-100,4,2,0,70,0,0
72923,-100,4,2,0,80,0,1
76923,-76.9230769230769,4,2,0,80,0,1
77590,-100,4,2,0,80,0,1
80923,-83.3333333333333,4,2,0,80,0,1
82923,-76.9230769230769,4,2,0,80,0,0
83590,-71.4285714285714,4,2,0,80,0,1
92923,-133.333333333333,4,2,0,80,0,0
93257,-71.4285714285714,4,2,0,80,0,0
93590,-71.4285714285714,4,2,0,50,0,0
93923,-71.4285714285714,4,2,0,70,0,0
94257,-71.4285714285714,4,2,0,80,0,1
104923,-83.3333333333333,4,2,0,80,0,0
111590,-71.4285714285714,4,2,0,80,0,0
112257,-83.3333333333333,4,2,0,80,0,0
115590,-66.6666666666667,4,2,0,80,0,0
116923,-83.3333333333333,4,2,0,80,0,0
120923,-66.6666666666667,4,2,0,80,0,0
122257,-83.3333333333333,4,2,0,80,0,0
125590,-83.3333333333333,4,2,0,50,0,0
126257,-83.3333333333333,4,2,0,80,0,1
136923,-83.3333333333333,4,2,0,80,0,0
146257,-83.3333333333333,4,2,0,80,0,1
146507,-83.3333333333333,4,2,0,80,0,0
146590,-83.3333333333333,4,2,0,80,0,1
146840,-83.3333333333333,4,2,0,80,0,0
146923,-83.3333333333333,4,2,0,80,0,1
147173,-83.3333333333333,4,2,0,80,0,0
147257,-83.3333333333333,4,2,0,80,0,1
147507,-83.3333333333333,4,2,0,80,0,0
147590,-66.6666666666667,4,2,0,80,0,1
150923,-71.4285714285714,4,2,0,80,0,1
151257,-58.8235294117647,4,2,0,80,0,1
151590,-66.6666666666667,4,2,0,80,0,1
157590,-55.5555555555556,4,2,0,80,0,1
158257,-100,4,2,0,80,0,0
163590,-142.857142857143,4,2,0,80,0,0
167590,-71.4285714285714,4,2,0,80,0,0
168923,-142.857142857143,4,2,0,80,0,0
189590,-200,4,2,0,80,0,0
190173,-200,4,2,0,5,0,0
190257,666.666666666667,4,2,0,50,1,0
219590,-100,4,2,0,50,0,0
219673,-66.6666666666667,4,2,0,5,0,0
222257,-66.6666666666667,4,2,0,50,0,0
222340,-66.6666666666667,4,2,0,5,0,0
223590,-66.6666666666667,4,2,0,50,0,0
223673,-66.6666666666667,4,2,0,5,0,0
224923,-66.6666666666667,4,2,0,50,0,0
225007,-66.6666666666667,4,2,0,5,0,0
227590,-66.6666666666667,4,2,0,50,0,0
227673,-66.6666666666667,4,2,0,5,0,0
228923,-66.6666666666667,4,2,0,50,0,0
229007,-66.6666666666667,4,2,0,5,0,0
230257,-66.6666666666667,4,2,0,50,0,0
230340,-66.6666666666667,4,2,0,5,0,0
232923,333.333333333333,4,2,0,80,1,0
232923,-71.4285714285714,4,2,0,60,0,0
243589,-58.8235294117647,4,2,0,80,0,0
252922,-50,4,2,0,80,0,1
253089,-50,4,2,0,80,0,0
253172,-50,4,2,0,80,0,1
253339,-50,4,2,0,80,0,0
253422,-50,4,2,0,80,0,1
253589,-50,4,2,0,80,0,0
253672,-50,4,2,0,80,0,1
253839,-50,4,2,0,80,0,0
253922,-50,4,2,0,80,0,1
254089,-50,4,2,0,80,0,0
254256,-50,4,2,0,80,0,1
263422,-50,4,2,0,80,0,0
263589,-50,4,2,0,80,0,1
263756,-50,4,2,0,80,0,0
263922,-50,4,2,0,80,0,1
264089,-50,4,2,0,80,0,0
264256,-83.3333333333333,4,2,0,80,0,1
264422,-83.3333333333333,4,2,0,80,0,0
264589,-83.3333333333333,4,2,0,80,0,1
264756,-83.3333333333333,4,2,0,80,0,0
264922,-83.3333333333333,4,2,0,80,0,1
274922,-66.6666666666667,4,2,0,80,0,0
275589,-83.3333333333333,4,2,0,80,0,1
285922,-83.3333333333333,4,2,0,80,0,0
286256,83.3333333333333,4,2,0,80,1,0
286256,-200,4,2,0,80,0,1
296589,-200,4,2,0,80,0,0
296922,333.333333333333,4,2,0,80,1,0
296922,-76.9230769230769,4,2,0,80,0,1
300255,-153.846153846153,4,2,0,80,0,1
302588,-62.5,4,2,0,80,0,1
302922,-76.9230769230769,4,2,0,80,0,1
306922,-76.9230769230769,4,2,0,40,0,1
307088,-76.9230769230769,4,2,0,50,0,1
307255,-76.9230769230769,4,2,0,60,0,1
307422,-76.9230769230769,4,2,0,70,0,1
307588,-111.111111111111,4,2,0,80,0,0
308588,-66.6666666666667,4,2,0,80,0,0
308922,-111.111111111111,4,2,0,80,0,0
309922,-66.6666666666667,4,2,0,80,0,0
310255,-111.111111111111,4,2,0,80,0,0
317588,-111.111111111111,4,2,0,50,0,0
318255,-66.6666666666667,4,2,0,80,0,0
328921,-83.3333333333333,4,2,0,80,0,0
362922,387.096774193548,4,2,0,80,1,0
363309,279.06976744186,4,2,0,80,1,0
363588,250,4,2,0,80,1,0
363588,-100,4,2,0,80,0,1
378588,-100,4,2,0,80,0,0
379588,-83.3333333333333,4,2,0,80,0,1
386588,-83.3333333333333,4,2,0,80,0,0
387588,-83.3333333333333,4,2,0,80,0,1
394588,-83.3333333333333,4,2,0,80,0,0
395588,-83.3333333333333,4,2,0,80,0,1
395838,-100,4,2,51,80,0,1
403588,-100,4,2,0,80,0,1
403838,-100,4,2,50,80,0,1
411338,-66.6666666666667,4,2,0,80,0,0
411588,-100,4,2,0,80,0,0
419588,-100,4,2,0,80,0,0
426838,-83.3333333333333,4,2,0,80,0,0
427088,-71.4285714285714,4,2,0,80,0,0
427338,-80,4,2,0,80,0,0
427588,-83.3333333333333,4,2,0,80,0,1
442588,-100,4,2,0,80,0,0
443588,-83.3333333333333,4,2,0,80,0,1
458588,-100,4,2,0,80,0,0
459588,-100,4,2,0,80,0,1
463588,-100,4,2,0,80,0,0

[Colours]
Combo1 : 227,221,196
Combo2 : 248,173,185

[HitObjects]
350,185,3590,6,0,P|382:177|438:177,1,80,2|0,0:0|0:0,0:0:0:0:
468,68,3923,2,0,P|436:76|380:76,1,80
284,36,4257,2,0,P|188:24|96:68,1,160,2|0,0:0|0:0,0:0:0:0:
64,136,4757,1,0,0:0:0:0:
64,136,4923,5,2,0:0:0:0:
124,228,5090,2,0,P|132:304|124:336,2,80
64,136,5590,2,0,P|152:112|192:120,1,80,2|0,0:0|0:0,0:0:0:0:
236,172,5923,2,0,P|320:184|352:184,1,80
428,172,6257,6,0,L|444:8,1,160,2|0,0:0|0:0,0:0:0:0:
305,104,6757,1,0,0:0:0:0:
305,104,6923,2,0,L|317:204,1,80,2|0,0:0|0:0,0:0:0:0:
222,250,7257,2,0,L|238:154,1,80
184,72,7590,6,0,L|88:64,1,80,2|0,0:0|0:0,0:0:0:0:
32,152,7923,2,0,L|116:148,1,80
184,236,8257,2,0,L|104:244,1,80,2|0,0:0|0:0,0:0:0:0:
32,328,8590,2,0,L|124:332,1,80
224,328,8923,6,0,P|348:312|476:348,1,240,2|0,0:0|0:0,0:0:0:0:
404,240,9590,2,0,P|364:156|392:72,1,160,2|0,0:0|0:0,0:0:0:0:
280,36,10090,1,0,0:0:0:0:
280,36,10257,6,0,P|236:112|48:144,1,240,2|0,0:0|0:0,0:0:0:0:
60,264,10923,2,0,P|168:252|264:292,1,160,2|0,0:0|0:0,0:0:0:0:
428,332,11590,5,2,0:0:0:0:
428,332,11757,2,0,L|452:224,1,80
336,240,12090,2,0,L|304:68,1,160
84,60,12757,1,0,0:0:0:0:
84,60,12923,5,2,0:0:0:0:
72,284,13257,1,2,0:0:0:0:
100,72,13590,5,0,1:0:0:0:
92,184,13757,1,0,1:0:0:0:
84,296,13923,1,0,1:0:0:0:
124,42,14090,2,0,L|117:81,1,40,0|0,1:0|0:0,0:0:0:0:
104,192,14257,6,0,P|168:196|232:160,1,132.00000402832,4|0,0:0|0:0,0:0:0:0:
280,104,14590,2,0,P|328:96|372:108,1,88.000002685547,2|0,0:0|0:0,0:0:0:0:
496,180,14923,1,0,0:0:0:0:
328,208,15090,1,0,0:0:0:0:
388,12,15257,1,0,1:0:0:0:
424,260,15423,1,0,0:0:0:0:
404,128,15590,6,0,B|326:97|326:97|240:128,1,176.000005371094,0|2,0:0|0:0,0:0:0:0:
244,280,16090,2,0,B|328:308|328:308|412:280,1,176.000005371094
328,208,16590,1,0,1:0:0:0:
328,384,16757,1,0,0:0:0:0:
424,360,16923,6,0,P|488:304|448:208,1,176.000005371094,0|2,0:0|0:0,0:0:0:0:
188,224,17423,2,0,P|169:305|232:360,1,176.000005371094
328,208,17923,2,0,L|328:104,1,88.000002685547,0|0,1:0|0:0,0:0:0:0:
236,24,18257,6,0,P|172:12|108:40,1,132.00000402832
76,112,18590,2,0,L|72:200,1,88.000002685547,2|0,0:0|0:0,0:0:0:0:
132,296,18923,5,2,0:0:0:0:
328,208,19090,1,0,0:0:0:0:
184,124,19257,1,0,1:0:0:0:
244,280,19423,1,0,1:0:0:0:
244,280,19507,1,0,1:0:0:0:
244,280,19590,6,0,B|316:304|316:304|376:296,1,132.00000402832,4|0,0:0|0:0,0:0:0:0:
448,280,19923,2,0,P|456:224|448:184,1,88.000002685547,2|0,0:0|0:0,0:0:0:0:
316,40,20257,5,0,0:0:0:0:
285,200,20423,1,0,0:0:0:0:
214,102,20590,1,0,1:0:0:0:
374,132,20757,1,0,0:0:0:0:
391,132,20840,1,0,0:0:0:0:
408,132,20923,6,0,B|432:8|432:8|412:36|376:36,1,176.000005371094,0|2,0:0|0:0,0:0:0:0:
204,28,21423,2,0,B|183:29|163:1|163:1|187:125,1,176.000005371094
285,200,21923,1,0,1:0:0:0:
296,104,22090,1,0,0:0:0:0:
92,96,22257,6,0,B|60:156|60:156|88:272,1,176.000005371094,0|2,0:0|0:0,0:0:0:0:
278,364,22757,2,0,B|310:304|310:304|282:188,1,176.000005371094
180,204,23257,2,0,L|204:297,1,88.000002685547,0|0,1:0|0:0,0:0:0:0:
416,320,23590,6,0,L|392:232,1,88.000002685547
372,136,23923,1,2,0:0:0:0:
468,184,24090,1,0,0:0:0:0:
392,40,24257,1,0,1:0:0:0:
476,96,24423,1,4,0:3:0:0:
296,56,24590,1,8,0:3:0:0:
488,0,24757,1,4,0:3:0:0:
284,60,24923,6,0,P|254:93|234:142,2,88.000002685547,4|2|0,0:0|0:0|0:0,0:0:0:0:
316,302,25423,6,0,P|359:310|412:304,2,88.000002685547,4|0|0,0:0|0:0|0:0,0:0:0:0:
510,152,25923,6,0,P|495:110|463:67,2,88.000002685547,4|4|0,0:0|0:0|0:0,0:0:0:0:
488,252,26423,5,2,0:0:0:0:
408,124,26590,1,4,0:0:0:0:
416,320,26757,5,2,0:0:0:0:
336,192,26923,1,4,0:0:0:0:
344,384,27090,5,2,0:0:0:0:
264,256,27257,1,2,0:0:0:0:
244,252,27340,1,2,0:0:0:0:
224,248,27423,1,0,0:0:0:0:
204,244,27507,1,0,0:0:0:0:
184,240,27590,6,0,L|172:144,1,88.000002685547,4|2,0:0|0:0,0:0:0:0:
248,48,27923,1,0,0:0:0:0:
284,260,28090,6,0,L|272:164,1,88.000002685547,4|2,0:0|0:0,0:0:0:0:
348,68,28423,1,0,0:0:0:0:
384,280,28590,5,4,0:0:0:0:
448,88,28757,1,4,0:0:0:0:
448,88,28923,1,0,0:0:0:0:
408,8,29090,5,4,0:3:0:0:
480,232,29257,5,4,0:3:0:0:
248,48,29423,5,4,0:3:0:0:
320,272,29590,1,4,0:3:0:0:
80,72,29757,6,0,L|88:128,1,44.0000013427735
128,220,29923,1,8,0:0:0:0:
152,36,30090,1,0,0:0:0:0:
74,274,30257,6,0,P|113:296|153:292,1,80,4|0,0:0|0:0,0:0:0:0:
232,156,30590,2,0,L|228:72,1,80,2|0,0:0|0:0,0:0:0:0:
376,164,30923,2,0,L|368:300,1,120,2|0,0:0|0:0,0:0:0:0:
359,316,31257,2,0,P|323:331|283:329,1,80,2|0,0:0|0:0,0:0:0:0:
232,156,31590,5,2,0:0:0:0:
311,36,31757,1,0,0:0:0:0:
376,164,31923,1,2,0:0:0:0:
159,231,32090,2,0,P|135:157|161:83,1,160,2|2,0:0|0:0,0:0:0:0:
311,36,32590,2,0,L|392:40,1,80,10|0,0:0|0:0,0:0:0:0:
456,192,32923,6,0,L|452:271,1,80,2|0,0:0|0:0,0:0:0:0:
304,364,33257,2,0,L|300:284,1,80,2|0,0:0|0:0,0:0:0:0:
311,36,33590,1,2,0:0:0:0:
352,216,33757,1,0,0:0:0:0:
248,88,33923,1,2,0:0:0:0:
222,270,34090,1,0,0:0:0:0:
77,156,34257,5,2,0:0:0:0:
248,88,34423,1,0,0:0:0:0:
272,92,34507,1,0,0:0:0:0:
296,96,34590,2,0,L|300:192,1,80,2|0,0:0|0:0,0:0:0:0:
67,315,34923,2,0,L|77:156,1,160,2|8,0:0|0:0,0:0:0:0:
248,88,35423,1,0,0:0:0:0:
297,264,35590,6,0,P|259:276|221:269,1,80,2|0,0:0|0:0,0:0:0:0:
248,88,35923,1,2,0:0:0:0:
405,168,36090,1,2,0:0:0:0:
184,148,36257,2,0,P|164:115|162:75,1,80,2|0,0:0|0:0,0:0:0:0:
408,88,36590,2,0,L|405:168,1,80,2|0,0:0|0:0,0:0:0:0:
332,360,36923,5,2,0:0:0:0:
304,188,37090,1,2,0:0:0:0:
465,249,37257,2,0,P|435:272|391:279,1,80,2|0,0:0|0:0,0:0:0:0:
408,88,37590,2,0,P|444:100|474:133,1,80,2|0,0:0|0:0,0:0:0:0:
260,268,37923,1,10,0:0:0:0:
261,107,38090,1,0,0:0:0:0:
400,176,38257,6,0,L|320:183,1,80,2|0,0:0|0:0,0:0:0:0:
112,168,38590,1,2,0:0:0:0:
260,268,38757,1,2,0:0:0:0:
92,344,38923,2,0,L|12:340,1,80,2|0,0:0|0:0,0:0:0:0:
260,268,39257,2,0,L|339:271,1,80,2|0,0:0|0:0,0:0:0:0:
492,276,39590,5,2,0:0:0:0:
440,136,39757,1,0,0:0:0:0:
444,112,39840,1,0,0:0:0:0:
448,88,39923,2,0,L|444:8,1,80,2|0,0:0|0:0,0:0:0:0:
204,44,40257,1,2,0:0:0:0:
368,96,40423,1,0,0:0:0:0:
128,80,40590,2,0,L|136:256,1,160,8|0,0:0|0:0,0:0:0:0:
292,324,41090,5,0,0:0:0:0:
292,324,41257,2,0,L|296:232,1,80,2|0,0:0|0:0,0:0:0:0:
468,32,41923,2,0,L|471:111,1,80,2|0,0:0|0:0,0:0:0:0:
471,300,42257,6,0,P|432:307|393:302,1,80,2|0,0:0|0:0,0:0:0:0:
336,108,42590,2,0,P|296:100|257:105,1,80,2|0,0:0|0:0,0:0:0:0:
140,316,42923,2,0,L|132:184,1,120,2|0,0:0|0:0,0:0:0:0:
132,168,43257,2,0,P|132:112|200:32,1,160,8|0,0:0|0:0,0:0:0:0:
428,204,43757,5,0,0:0:0:0:
428,204,43923,2,0,L|348:200,1,80,2|0,0:0|0:0,0:0:0:0:
40,340,44590,2,0,L|120:336,1,80,2|0,0:0|0:0,0:0:0:0:
264,256,44923,5,2,0:0:0:0:
122,172,45090,1,0,0:0:0:0:
126,148,45173,1,0,0:0:0:0:
130,124,45257,2,0,L|128:28,1,80,2|0,0:0|0:0,0:0:0:0:
184,280,45590,1,2,0:0:0:0:
256,125,45757,1,0,0:0:0:0:
264,256,45923,2,0,P|336:276|424:248,1,160,8|0,0:0|0:0,0:0:0:0:
320,53,46423,5,2,0:0:0:0:
488,193,46590,1,2,0:0:0:0:
256,125,46757,1,0,0:0:0:0:
416,253,46923,2,0,L|410:332,1,80,2|0,0:0|0:0,0:0:0:0:
128,296,47257,1,2,0:0:0:0:
304,336,47423,1,0,0:0:0:0:
83,211,47590,6,0,P|78:172|83:132,1,80,2|0,0:0|0:0,0:0:0:0:
328,100,47923,1,2,0:0:0:0:
152,60,48090,1,2,0:0:0:0:
276,200,48257,2,0,L|272:284,1,80,2|2,0:0|0:0,0:0:0:0:
217,141,48590,2,0,P|285:117|357:189,1,160,10|0,0:0|0:0,0:0:0:0:
192,312,49090,5,2,0:0:0:0:
384,260,49257,1,2,0:0:0:0:
132,244,49423,1,0,0:0:0:0:
276,64,49590,2,0,L|272:143,1,80,2|0,0:0|0:0,0:0:0:0:
52,296,49923,2,0,L|48:216,1,80,2|0,0:0|0:0,0:0:0:0:
276,64,50257,5,0,0:0:0:0:
308,52,50340,1,0,0:0:0:0:
340,52,50423,1,0,0:0:0:0:
368,64,50507,1,0,0:0:0:0:
388,88,50590,2,0,L|388:196,1,80,8|0,0:3|0:0,0:0:0:0:
266,336,50923,1,4,0:3:0:0:
463,272,51090,1,0,0:0:0:0:
266,208,51257,1,8,0:3:0:0:
388,376,51423,1,0,0:0:0:0:
388,168,51590,5,4,0:0:0:0:
360,272,51757,1,2,0:0:0:0:
152,112,51923,1,2,0:0:0:0:
176,296,52090,2,0,L|184:384,1,80,2|0,0:0|0:0,0:0:0:0:
108,255,52423,2,0,P|143:224|187:220,1,80,2|4,0:0|0:3,0:0:0:0:
32,176,52757,1,2,0:0:0:0:
273,51,52923,6,0,P|225:115|145:107,1,160,4|2,0:3|0:0,0:0:0:0:
191,39,53423,1,2,0:0:0:0:
336,128,53590,1,0,0:0:0:0:
151,111,53757,1,2,0:0:0:0:
376,48,53923,1,4,0:3:0:0:
392,220,54090,1,2,0:0:0:0:
235,212,54257,6,0,B|291:200|291:200|395:220,1,160,4|2,0:3|0:0,0:0:0:0:
440,148,54757,1,2,0:0:0:0:
308,280,54923,1,2,0:0:0:0:
336,128,55090,1,0,0:0:0:0:
396,336,55257,1,4,0:3:0:0:
235,212,55423,1,2,0:0:0:0:
56,304,55590,6,0,L|148:312,1,80,4|2,0:3|0:0,0:0:0:0:
144,320,55840,1,0,0:0:0:0:
156,332,55923,2,0,L|235:325,1,80,2|0,0:0|0:0,0:0:0:0:
391,219,56257,1,2,0:0:0:0:
236,324,56423,1,0,0:0:0:0:
248,88,56590,1,4,0:3:0:0:
324,368,56757,1,2,0:0:0:0:
446,161,56923,6,0,P|378:141|310:209,1,160,4|2,0:3|0:0,0:0:0:0:
352,56,57423,1,2,0:0:0:0:
391,219,57590,1,2,0:0:0:0:
239,177,57757,2,0,P|287:177|327:209,1,80,0|4,0:0|0:3,0:0:0:0:
259,260,58090,1,2,0:0:0:0:
128,132,58257,6,0,P|164:100|280:92,1,160,4|2,0:3|0:0,0:0:0:0:
88,48,58757,1,2,0:0:0:0:
68,204,58923,2,0,L|60:296,1,80,2|0,0:0|0:0,0:0:0:0:
313,192,59257,1,0,1:0:0:0:
68,204,59423,1,2,0:0:0:0:
297,351,59590,6,0,L|312:192,1,160,4|2,0:3|0:0,0:0:0:0:
324,104,60090,1,2,0:0:0:0:
216,224,60257,1,2,0:0:0:0:
280,28,60423,1,2,0:0:0:0:
408,128,60590,1,4,0:3:0:0:
160,148,60757,1,0,0:0:0:0:
444,56,60923,5,4,0:3:0:0:
444,352,61090,2,4,P|424:360|384:360,1,40,4|0,0:3|0:3,0:3:0:0:
404,280,61257,1,4,0:3:0:0:
168,340,61423,1,0,1:0:0:0:
108,104,61590,1,2,0:0:0:0:
344,44,61757,1,4,0:3:0:0:
298,358,61923,1,8,0:0:0:0:
213,25,62090,1,0,0:0:0:0:
89,234,62257,6,0,B|175:211|174:258|250:234,1,160,4|2,0:0|0:0,0:0:0:0:
208,156,62757,1,2,0:0:0:0:
22,182,62923,2,0,P|6:230|30:286,2,80,0|0|4,0:0|0:0|0:3,0:0:0:0:
124,100,63423,1,2,0:0:0:0:
222,258,63590,6,0,P|153:282|82:210,1,160,4|2,0:3|0:0,0:0:0:0:
288,184,64090,1,0,0:0:0:0:
304,300,64257,2,0,L|292:380,1,80,2|0,0:0|0:0,0:0:0:0:
232,112,64590,1,4,0:3:0:0:
436,196,64757,1,2,0:0:0:0:
222,258,64923,6,0,P|282:211|373:240,1,160,4|2,0:3|0:0,0:0:0:0:
304,300,65423,1,2,0:0:0:0:
348,104,65590,1,0,0:0:0:0:
444,280,65757,1,2,0:0:0:0:
182,261,65923,2,0,L|234:257,1,40,4|0,0:3|0:0,0:0:0:0:
475,199,66090,2,0,L|423:195,1,40
176,172,66257,5,4,0:3:0:0:
196,360,66423,1,2,0:0:0:0:
196,360,66507,1,0,0:0:0:0:
196,360,66590,1,2,0:0:0:0:
208,88,66757,1,0,1:0:0:0:
112,300,66923,1,2,0:0:0:0:
156,24,67090,1,0,0:0:0:0:
336,228,67257,1,4,0:3:0:0:
36,196,67423,1,2,0:0:0:0:
385,160,67590,6,0,P|417:208|369:304,1,160,4|0,0:0|0:0,0:0:0:0:
300,152,68090,2,0,P|325:100|432:93,1,160,2|0,0:0|0:0,0:0:0:0:
323,235,68590,2,0,P|283:235|228:194,1,80,2|0,0:0|0:0,0:0:0:0:
153,73,68923,5,2,0:0:0:0:
107,341,69090,1,2,0:0:0:0:
300,152,69257,1,2,0:0:0:0:
271,316,69423,1,0,0:0:0:0:
33,190,69590,1,2,0:0:0:0:
33,190,69757,1,0,0:0:0:0:
307,72,69923,2,0,L|299:160,1,80,0|2,1:0|0:0,0:0:0:0:
202,362,70257,6,0,P|194:294|222:254,1,120,2|0,0:0|0:0,0:0:0:0:
310,310,70590,2,0,L|250:318,1,40,2|0,0:0|0:0,0:0:0:0:
140,180,70757,2,0,L|179:185,1,40,2|0,0:0|0:0,0:0:0:0:
392,224,70923,2,0,L|384:268,1,40,2|0,0:0|0:0,0:0:0:0:
216,120,71090,2,0,L|223:80,1,40,2|0,0:0|0:0,0:0:0:0:
452,116,71257,2,0,P|412:124|392:136,1,40,2|0,0:0|0:0,0:0:0:0:
221,254,71423,2,0,P|240:259|259:261,1,40,2|0,0:0|0:0,0:0:0:0:
476,236,71590,5,2,0:0:0:0:
308,48,71757,1,0,0:0:0:0:
308,48,71840,1,0,0:0:0:0:
308,48,71923,2,0,L|316:160,1,80,2|0,0:0|0:0,0:0:0:0:
332,356,72257,5,0,1:0:0:0:
297,374,72340,1,0,1:0:0:0:
257,376,72423,1,0,1:0:0:0:
220,361,72507,1,0,1:0:0:0:
180,324,72590,5,0,1:0:0:0:
132,304,72673,1,0,1:0:0:0:
80,304,72757,1,0,1:0:0:0:
36,336,72840,1,0,1:0:0:0:
12,292,72923,6,0,B|0:216|0:216|24:124,1,160,0|2,0:0|0:0,0:0:0:0:
152,32,73423,2,0,B|160:72|160:72|144:128,1,80,0|0,0:0|1:0,0:0:0:0:
12,292,73757,1,0,0:0:0:0:
160,220,73923,2,0,B|200:212|200:212|256:228,1,80,2|0,0:0|0:0,0:0:0:0:
380,300,74257,5,0,1:0:0:0:
360,140,74423,1,0,0:0:0:0:
496,32,74590,2,0,L|504:136,1,80,2|0,0:0|0:0,0:0:0:0:
380,300,74923,2,0,L|386:220,1,80,0|0,1:0|0:0,0:0:0:0:
347,22,75257,1,2,0:0:0:0:
501,110,75423,2,0,P|481:108|461:109,1,40
333,162,75590,6,0,P|257:194|165:166,1,160,0|2,1:0|0:0,0:0:0:0:
40,112,76090,1,0,0:0:0:0:
40,112,76257,2,0,L|48:0,1,80,0|0,1:0|0:0,0:0:0:0:
264,105,76590,1,2,0:0:0:0:
112,304,76757,1,0,0:0:0:0:
112,304,76840,1,0,0:0:0:0:
112,304,76923,6,0,L|64:228,1,51.999997619629,0|0,1:0|0:0,0:0:0:0:
120,160,77090,2,0,L|76:96,1,51.999997619629
264,105,77257,6,0,L|200:96,1,51.999997619629,2|0,0:0|0:0,0:0:0:0:
175,245,77423,2,0,L|239:236,1,51.999997619629
504,136,77590,6,0,L|388:116,2,80,0|0|2,1:0|0:0|0:0,0:0:0:0:
476,344,78090,1,0,0:0:0:0:
476,344,78173,1,0,0:0:0:0:
476,344,78257,6,0,L|376:332,1,80,4|0,0:0|0:0,0:0:0:0:
175,245,78590,1,2,0:0:0:0:
336,172,78757,1,0,0:0:0:0:
248,328,78923,2,0,P|184:360|148:356,1,80,0|0,1:0|0:0,0:0:0:0:
40,176,79257,2,0,P|104:144|140:148,1,80,2|0,0:0|0:0,0:0:0:0:
272,176,79590,5,0,1:0:0:0:
392,56,79757,1,0,0:0:0:0:
228,28,79923,1,2,0:0:0:0:
360,204,80090,2,0,P|360:248|340:300,1,80,0|0,0:0|1:0,0:0:0:0:
197,338,80423,1,0,0:0:0:0:
153,338,80507,1,0,0:0:0:0:
121,310,80590,1,0,0:0:0:0:
113,266,80673,1,0,0:0:0:0:
125,222,80757,2,0,P|105:198|73:182,1,40,2|0,0:0|0:0,0:0:0:0:
4,151,80923,6,0,P|56:103|188:143,1,191.999994140625,4|2,0:0|0:0,0:0:0:0:
288,251,81423,1,0,0:0:0:0:
329,98,81590,2,0,L|337:2,1,95.9999970703126,0|0,1:0|0:0,0:0:0:0:
181,215,81923,2,0,L|166:110,1,95.9999970703126,2|0,0:0|0:0,0:0:0:0:
324,184,82257,5,4,0:0:0:0:
336,2,82423,1,0,0:0:0:0:
200,300,82590,5,0,0:0:0:0:
167,119,82757,1,0,0:0:0:0:
405,221,82923,6,0,L|395:306,3,51.999997619629,0|0|0|0,1:0|1:0|1:0|1:0,1:0:0:0:
252,76,83257,1,0,1:0:0:0:
276,80,83340,1,0,1:0:0:0:
300,84,83423,1,0,1:0:0:0:
324,88,83507,1,0,1:0:0:0:
372,96,83590,6,0,B|428:64|428:64|404:232,1,223.999993164063
192,340,84090,1,0,0:0:0:0:
0,140,84257,2,0,B|45:156|81:132|81:132|139:150|139:150|173:135|225:139,1,223.999993164063,6|0,0:0|0:0,0:0:0:0:
512,248,84757,1,0,0:0:0:0:
342,380,84923,6,0,P|390:364|424:312,1,111.999996582031,4|0,0:0|0:0,0:0:0:0:
215,139,85257,2,0,P|204:188|232:244,1,111.999996582031,4|0,0:0|0:0,0:0:0:0:
487,149,85590,2,0,P|449:115|387:111,1,111.999996582031,4|0,0:0|0:0,0:0:0:0:
229,241,85923,5,2,0:0:0:0:
512,252,86090,1,2,0:0:0:0:
376,20,86257,6,0,P|292:8|220:56,1,167.999994873047,6|0,0:0|0:0,0:0:0:0:
201,123,86590,2,0,L|89:115,1,111.999996582031,4|0,0:0|0:0,0:0:0:0:
20,40,86923,5,2,0:0:0:0:
96,284,87090,1,0,0:0:0:0:
108,12,87257,1,2,0:0:0:0:
12,324,87423,1,0,0:0:0:0:
308,168,87590,5,2,0:0:0:0:
0,128,87757,1,0,0:0:0:0:
264,268,87923,1,2,0:0:0:0:
192,48,88090,1,0,0:0:0:0:
180,320,88257,5,2,0:0:0:0:
229,355,88340,1,0,0:0:0:0:
291,355,88423,1,0,0:0:0:0:
340,320,88507,1,0,0:0:0:0:
359,260,88590,6,0,L|348:200,1,55.9999982910157,2|0,0:0|0:0,0:0:0:0:
192,48,88757,2,0,L|202:103,1,55.9999982910157,2|0,0:0|0:0,0:0:0:0:
264,268,88923,6,0,B|360:260|360:260|436:236|428:160,1,223.999993164063,6|0,0:0|0:0,0:0:0:0:
316,4,89423,1,0,0:0:0:0:
504,60,89590,2,0,L|384:72,1,111.999996582031,6|0,0:0|0:0,0:0:0:0:
328,134,89840,1,0,0:0:0:0:
328,134,89923,2,0,L|256:142,1,55.9999982910157
44,48,90090,2,0,L|99:41,1,55.9999982910157
192,48,90257,6,0,L|168:168,1,111.999996582031,6|0,0:0|0:0,0:0:0:0:
412,208,90590,2,0,L|320:127,1,111.999996582031,6|0,0:0|0:0,0:0:0:0:
163,319,90923,2,0,L|279:280,1,111.999996582031,6|0,0:0|0:0,0:0:0:0:
412,208,91257,5,0,0:0:0:0:
292,40,91423,1,0,0:0:0:0:
428,308,91590,6,0,P|484:276|508:180,1,167.999994873047,6|0,0:0|0:0,0:0:0:0:
444,124,91923,1,2,0:0:0:0:
236,188,92090,1,2,0:0:0:0:
404,12,92257,1,2,0:0:0:0:
312,292,92423,1,2,0:0:0:0:
444,124,92590,6,0,L|376:120,1,55.9999982910157,2|0,0:0|0:0,0:0:0:0:
236,188,92757,2,0,L|168:184,1,55.9999982910157,2|0,0:0|0:0,0:0:0:0:
16,108,92923,6,0,L|116:116,1,90.0000034332277
196,96,93257,6,0,B|192:68|165:46|165:46|52:36,1,167.999994873047,6|0,0:0|0:0,0:0:0:0:
16,108,93590,5,0,1:0:0:0:
52,144,93673,1,0,1:0:0:0:
68,192,93757,1,0,1:0:0:0:
62,242,93840,1,0,1:0:0:0:
34,282,93923,5,0,1:0:0:0:
98,250,94007,1,0,1:0:0:0:
170,246,94090,1,0,1:0:0:0:
234,282,94173,1,0,1:0:0:0:
278,342,94257,5,4,0:0:0:0:
316,144,94423,1,2,0:0:0:0:
348,288,94590,5,0,1:0:0:0:
272,92,94757,1,2,0:0:0:0:
420,232,94923,5,0,0:0:0:0:
220,136,95090,1,2,0:0:0:0:
490,178,95257,5,0,1:0:0:0:
264,188,95423,1,2,0:0:0:0:
380,8,95590,5,0,0:0:0:0:
164,139,95757,1,2,0:0:0:0:
164,139,95840,1,0,0:0:0:0:
164,139,95923,2,0,L|224:135,1,55.9999982910157,0|0,1:0|0:0,0:0:0:0:
384,140,96090,2,0,L|324:136,1,55.9999982910157,2|0,0:0|0:0,0:0:0:0:
272,20,96257,1,2,0:0:0:0:
56,132,96423,1,0,0:0:0:0:
152,232,96590,6,0,L|144:292,1,55.9999982910157,0|0,1:0|0:0,0:0:0:0:
280,252,96757,2,0,L|272:196,1,55.9999982910157,2|0,0:0|0:0,0:0:0:0:
220,76,96923,6,0,P|164:60|108:80,1,111.999996582031,4|0,1:0|0:0,0:0:0:0:
56,132,97173,1,0,0:0:0:0:
56,132,97257,2,0,L|60:252,1,111.999996582031,0|0,1:0|0:0,0:0:0:0:
104,380,97590,6,0,P|164:368|208:336,1,111.999996582031,2|0,0:0|0:0,0:0:0:0:
256,264,97840,1,0,0:0:0:0:
307,339,97923,2,0,P|353:370|408:380,1,111.999996582031,0|0,1:0|0:0,0:0:0:0:
512,268,98257,6,0,L|380:252,1,111.999996582031,2|0,0:0|0:0,0:0:0:0:
316,144,98590,1,0,1:0:0:0:
316,144,98673,1,0,0:0:0:0:
315,143,98757,2,0,L|427:157,1,111.999996582031
488,40,99090,1,0,0:0:0:0:
464,36,99173,1,0,0:0:0:0:
440,32,99257,2,0,L|376:24,1,55.9999982910157,0|0,1:0|0:0,0:0:0:0:
248,24,99423,2,0,L|184:32,1,55.9999982910157,0|0,1:0|0:0,0:0:0:0:
32,96,99590,6,0,L|40:216,1,111.999996582031,4|2,1:0|0:0,0:0:0:0:
116,84,99840,1,0,0:0:0:0:
184,142,99923,6,0,L|192:22,1,111.999996582031,0|2,1:0|0:0,0:0:0:0:
268,172,100173,1,0,0:0:0:0:
336,114,100257,6,0,L|344:234,1,111.999996582031,0|2,0:0|0:0,0:0:0:0:
408,60,100507,1,0,0:0:0:0:
476,120,100590,6,0,L|484:0,1,111.999996582031,0|2,1:0|0:0,0:0:0:0:
472,208,100840,1,0,0:0:0:0:
476,292,100923,6,0,L|480:356,1,55.9999982910157
268,172,101090,2,0,L|272:236,1,55.9999982910157,2|0,0:0|0:0,0:0:0:0:
392,232,101257,6,0,L|396:168,1,55.9999982910157,0|0,1:0|0:0,0:0:0:0:
184,352,101423,2,0,L|188:288,1,55.9999982910157,2|0,0:0|0:0,0:0:0:0:
176,104,101590,5,0,0:0:0:0:
140,92,101673,1,0,0:0:0:0:
100,88,101757,1,0,0:0:0:0:
60,96,101840,1,0,0:0:0:0:
28,120,101923,6,0,L|32:196,1,55.9999982910157,0|0,1:0|0:0,0:0:0:0:
116,248,102090,2,0,L|113:192,1,55.9999982910157
100,8,102257,6,0,P|164:16|216:36,1,111.999996582031,4|0,1:0|0:0,0:0:0:0:
256,112,102507,1,0,0:0:0:0:
303,32,102590,2,0,P|356:13|412:8,1,111.999996582031,0|2,1:0|0:0,0:0:0:0:
472,184,102923,6,0,L|464:296,1,111.999996582031,2|0,0:0|0:0,0:0:0:0:
380,272,103173,1,0,0:0:0:0:
296,300,103257,2,0,L|288:188,1,111.999996582031,0|0,1:0|0:0,0:0:0:0:
256,112,103590,6,0,L|136:104,1,111.999996582031,2|0,0:0|0:0,0:0:0:0:
72,136,103840,1,0,0:0:0:0:
56,144,103923,2,0,L|60:200,1,55.9999982910157,0|0,1:0|0:0,0:0:0:0:
152,304,104090,2,0,L|148:248,1,55.9999982910157,2|0,0:0|0:0,0:0:0:0:
132,32,104257,5,0,1:0:0:0:
172,24,104340,1,0,1:0:0:0:
212,28,104423,1,0,1:0:0:0:
248,44,104507,1,0,1:0:0:0:
324,88,104590,5,0,1:0:0:0:
364,96,104673,1,0,1:0:0:0:
404,92,104757,1,0,1:0:0:0:
440,76,104840,1,0,1:0:0:0:
488,144,104923,6,0,B|500:240|500:240|476:344,1,191.999994140625,4|0,0:0|1:0,0:0:0:0:
344,284,105423,1,0,0:0:0:0:
344,284,105507,1,0,0:0:0:0:
344,284,105590,2,0,L|320:224,3,47.9999985351563
256,168,105923,2,0,L|248:232,1,47.9999985351563,2|0,1:2|0:0,0:0:0:0:
172,236,106090,2,0,L|192:296,1,47.9999985351563,2|0,0:0|0:0,0:0:0:0:
44,352,106257,5,2,0:0:0:0:
40,320,106340,1,0,0:0:0:0:
36,288,106423,1,0,0:0:0:0:
32,256,106507,1,0,0:0:0:0:
48,224,106590,6,0,L|40:152,3,47.9999985351563,0|0|0|0,1:0|0:0|0:0|0:0,0:0:0:0:
128,72,106923,2,0,L|120:144,3,47.9999985351563,2|0|0|0,0:0|0:0|0:0|0:0,0:0:0:0:
168,184,107257,2,0,P|216:204|328:168,1,143.999995605469,0|0,1:0|0:0,0:0:0:0:
368,112,107590,6,0,L|384:52,3,47.9999985351563,2|0|0|0,0:0|0:0|0:0|0:0,0:0:0:0:
456,152,107923,1,0,1:0:0:0:
456,152,108007,1,0,0:0:0:0:
456,152,108090,1,0,0:0:0:0:
456,152,108173,1,0,0:0:0:0:
456,152,108257,2,0,L|476:208,1,47.9999985351563,2|0,0:0|0:0,0:0:0:0:
416,252,108423,2,0,L|412:311,1,47.9999985351563
336,300,108590,2,0,L|303:349,1,47.9999985351563,0|0,1:0|0:0,0:0:0:0:
236,312,108757,2,0,L|179:329,1,47.9999985351563
96,288,108923,5,2,0:0:0:0:
83,262,109007,1,0,0:0:0:0:
80,233,109090,1,0,0:0:0:0:
87,206,109173,1,0,0:0:0:0:
100,176,109257,6,0,P|104:140|92:104,1,47.9999985351563,0|0,1:0|0:0,0:0:0:0:
32,88,109423,2,0,P|54:59|88:42,1,47.9999985351563,0|0,1:0|0:0,0:0:0:0:
200,155,109590,2,0,P|236:159|272:147,1,47.9999985351563,2|0,0:0|0:0,0:0:0:0:
288,87,109757,2,0,P|316:109|333:143,1,47.9999985351563
376,239,109923,1,0,1:0:0:0:
329,248,110007,1,0,0:0:0:0:
293,278,110090,1,0,0:0:0:0:
276,323,110173,1,0,0:0:0:0:
276,359,110257,6,0,P|220:327|156:335,1,95.9999970703126,6|0,0:0|0:0,0:0:0:0:
160,343,110507,1,0,0:0:0:0:
128,343,110590,1,0,1:0:0:0:
96,339,110673,1,0,0:0:0:0:
64,327,110757,2,0,P|32:271|40:207,1,95.9999970703126,2|0,0:0|0:0,0:0:0:0:
48,211,111007,1,0,0:0:0:0:
48,179,111090,1,0,0:0:0:0:
36,147,111173,1,0,0:0:0:0:
16,120,111257,2,0,P|12:60|32:16,1,95.9999970703126,0|2,1:0|0:0,0:0:0:0:
164,44,111590,6,0,P|160:92|144:120,1,55.9999982910157,2|0,0:0|0:0,0:0:0:0:
248,76,111757,2,0,P|235:122|215:147,1,55.9999982910157
324,124,111923,2,0,P|300:165|273:184,1,55.9999982910157,0|0,1:0|0:0,0:0:0:0:
384,200,112090,2,0,P|350:234|319:245,1,55.9999982910157,0|0,1:0|0:0,0:0:0:0:
432,316,112257,6,0,P|350:315|258:403,1,191.999994140625,0|0,0:0|1:0,0:0:0:0:
168,324,112757,1,0,0:0:0:0:
168,324,112840,1,0,0:0:0:0:
168,324,112923,6,0,L|160:248,3,47.9999985351563,4|0|0|0,0:0|0:0|0:0|0:0,0:0:0:0:
248,220,113257,2,0,L|256:144,3,47.9999985351563,0|0|0|0,1:0|0:0|0:0|0:0,0:0:0:0:
160,140,113590,2,0,L|152:64,3,47.9999985351563,0|0|0|0,1:0|0:0|0:0|0:0,0:0:0:0:
256,56,113923,2,0,L|261:8,3,47.9999985351563,0|0|0|0,1:0|0:0|0:0|0:0,0:0:0:0:
368,48,114257,5,4,0:0:0:0:
366,62,114340,1,0,0:0:0:0:
365,77,114423,2,0,L|356:132,1,47.9999985351563
472,116,114590,5,0,1:0:0:0:
471,130,114673,1,0,0:0:0:0:
469,145,114757,2,0,L|460:204,1,47.9999985351563
260,164,114923,5,0,1:0:0:0:
230,148,115007,1,0,1:0:0:0:
197,141,115090,5,0,1:0:0:0:
164,143,115173,1,0,1:0:0:0:
132,153,115257,1,0,1:0:0:0:
104,171,115340,1,0,1:0:0:0:
81,196,115423,2,0,L|96:268,1,47.9999985351563,0|0,1:0|1:0,1:0:0:0:
188,336,115590,6,0,B|196:322|188:294|188:294|204:280|216:266|216:266|236:268|256:274|256:274|272:268|292:266|292:266|304:280|320:294|320:294|312:322|320:338,1,240.000009155274,4|2,0:0|0:0,0:0:0:0:
132,152,116090,5,0,0:0:0:0:
256,384,116257,1,0,1:0:0:0:
380,152,116423,1,0,0:0:0:0:
256,384,116590,1,2,0:0:0:0:
256,36,116757,1,0,0:0:0:0:
48,252,116923,6,0,P|120:248|192:280,1,143.999995605469,0|0,1:0|0:0,0:0:0:0:
326,275,117257,2,0,P|392:247|464:252,1,143.999995605469,2|0,0:0|0:0,0:0:0:0:
380,152,117590,1,0,1:0:0:0:
132,152,117757,1,0,0:0:0:0:
404,144,117923,1,2,0:0:0:0:
107,144,118090,1,0,0:0:0:0:
326,275,118257,5,0,1:0:0:0:
186,109,118423,1,0,0:0:0:0:
385,203,118590,1,2,0:0:0:0:
126,180,118757,1,0,0:0:0:0:
375,91,118923,1,0,1:0:0:0:
136,292,119090,1,0,0:0:0:0:
271,5,119257,1,2,0:0:0:0:
240,378,119423,1,0,0:0:0:0:
135,48,119590,5,0,1:0:0:0:
376,335,119757,1,2,0:0:0:0:
69,176,119923,1,2,0:0:0:0:
442,207,120090,1,2,0:0:0:0:
112,312,120257,1,0,1:0:0:0:
399,71,120423,5,0,0:0:0:0:
404,94,120507,1,0,0:0:0:0:
410,117,120590,1,2,0:0:0:0:
113,313,120757,1,2,0:0:0:0:
118,289,120840,1,0,0:0:0:0:
124,266,120923,6,0,P|179:261|99:193,1,240.000009155274,4|2,0:0|0:0,0:0:0:0:
256,356,121423,1,0,0:0:0:0:
388,266,121590,2,0,P|333:261|413:193,1,240.000009155274,4|2,0:0|0:0,0:0:0:0:
256,356,122090,1,4,0:0:0:0:
58,264,122257,6,0,B|142:280|142:280|198:236,1,143.999995605469,0|0,1:0|0:0,0:0:0:0:
256,192,122590,1,2,0:0:0:0:
256,356,122757,1,0,0:0:0:0:
58,264,122923,1,0,1:0:0:0:
58,100,123090,1,0,0:0:0:0:
454,100,123257,1,2,0:0:0:0:
454,264,123423,1,0,0:0:0:0:
188,244,123590,5,0,1:0:0:0:
204,124,123757,1,0,0:0:0:0:
324,140,123923,1,2,0:0:0:0:
308,260,124090,1,0,0:0:0:0:
128,208,124257,5,0,1:0:0:0:
239,64,124423,1,0,0:0:0:0:
383,175,124590,1,2,0:0:0:0:
272,319,124757,1,0,0:0:0:0:
78,117,124923,5,0,1:0:0:0:
330,14,125090,1,2,0:0:0:0:
433,266,125257,1,2,0:0:0:0:
181,369,125423,1,2,0:0:0:0:
103,309,125590,5,0,1:0:0:0:
134,273,125673,1,0,1:0:0:0:
179,258,125757,1,0,1:0:0:0:
226,266,125840,1,0,1:0:0:0:
296,316,125923,2,0,L|284:376,1,47.9999985351563,2|0,1:2|1:0,1:0:0:0:
433,266,126090,2,0,L|423:218,1,47.9999985351563,2|0,1:2|1:0,1:0:0:0:
368,28,126257,5,4,0:0:0:0:
268,200,126423,1,0,0:0:0:0:
268,200,126507,1,0,0:0:0:0:
268,200,126590,1,10,0:0:0:0:
436,92,126757,1,0,0:0:0:0:
436,92,126840,1,0,0:0:0:0:
436,92,126923,5,2,0:0:0:0:
224,52,127090,1,2,0:0:0:0:
300,288,127257,1,8,0:0:0:0:
368,28,127423,1,2,0:0:0:0:
124,144,127590,5,2,0:0:0:0:
384,236,127757,1,0,0:0:0:0:
224,52,127923,1,10,0:0:0:0:
144,280,128090,2,0,L|148:376,1,95.9999970703126,2|0,0:0|0:0,0:0:0:0:
452,284,128423,6,0,P|465:238|452:192,1,95.9999970703126,0|10,0:0|0:0,0:0:0:0:
248,252,128757,1,2,0:0:0:0:
392,116,128923,6,0,P|439:96|485:101,1,95.9999970703126,2|0,0:0|0:0,0:0:0:0:
452,284,129257,1,10,0:0:0:0:
248,252,129423,1,0,0:0:0:0:
248,252,129507,1,0,0:0:0:0:
248,252,129590,5,2,0:0:0:0:
304,72,129757,1,0,0:0:0:0:
320,308,129923,1,10,0:0:0:0:
204,120,130090,1,2,0:0:0:0:
104,312,130257,5,2,0:0:0:0:
80,280,130340,1,0,0:0:0:0:
76,240,130423,1,2,0:0:0:0:
88,204,130507,1,0,0:0:0:0:
108,172,130590,5,10,0:0:0:0:
120,136,130673,1,0,0:0:0:0:
116,96,130757,1,2,0:0:0:0:
92,64,130840,1,0,0:0:0:0:
60,48,130923,6,0,L|106:37,1,47.9999985351563,2|0,0:0|0:0,0:0:0:0:
276,52,131090,2,0,L|229:62,1,47.9999985351563,2|0,0:0|0:0,0:0:0:0:
88,204,131257,6,0,L|134:193,1,47.9999985351563,10|0,0:0|0:0,0:0:0:0:
308,208,131423,2,0,L|261:218,1,47.9999985351563,2|0,0:0|0:0,0:0:0:0:
180,348,131590,5,6,0:0:0:0:
392,260,131757,1,0,0:0:0:0:
392,260,131840,1,0,0:0:0:0:
392,260,131923,1,10,0:0:0:0:
204,160,132090,1,0,0:0:0:0:
204,160,132173,1,0,0:0:0:0:
204,160,132257,5,2,0:0:0:0:
288,368,132423,1,2,0:0:0:0:
392,104,132590,1,8,0:0:0:0:
111,145,132757,1,2,0:0:0:0:
384,348,132923,5,2,0:0:0:0:
296,48,133090,1,2,0:0:0:0:
156,252,133257,2,0,L|160:360,1,95.9999970703126,8|2,0:0|0:0,0:0:0:0:
352,347,133590,2,0,L|354:299,1,47.9999985351563,0|2,0:0|0:0,0:0:0:0:
360,192,133757,5,2,0:0:0:0:
111,145,133923,1,2,0:0:0:0:
296,48,134090,1,0,0:0:0:0:
156,252,134257,5,6,0:0:0:0:
204,36,134423,1,0,0:0:0:0:
360,192,134590,1,2,0:0:0:0:
111,145,134757,1,0,0:0:0:0:
420,112,134923,6,0,L|416:16,1,95.9999970703126,6|0,0:0|0:0,0:0:0:0:
156,252,135257,1,2,0:0:0:0:
468,208,135423,1,2,0:0:0:0:
111,145,135590,1,6,0:0:0:0:
75,159,135673,1,0,0:0:0:0:
48,185,135757,1,2,0:0:0:0:
31,220,135840,1,0,0:0:0:0:
29,258,135923,1,6,0:0:0:0:
41,294,136007,1,0,0:0:0:0:
65,324,136090,1,2,0:0:0:0:
98,342,136173,1,0,0:0:0:0:
140,348,136257,6,0,L|186:337,1,47.9999985351563,4|0,0:0|0:0,0:0:0:0:
356,260,136423,2,0,L|309:270,1,47.9999985351563,2|0,0:0|0:0,0:0:0:0:
144,184,136590,6,0,L|190:173,1,47.9999985351563,4|0,0:0|0:0,0:0:0:0:
348,96,136757,2,0,L|301:106,1,47.9999985351563,2|0,0:0|0:0,0:0:0:0:
180,20,136923,6,0,L|36:60,1,143.999995605469,4|0,0:0|0:0,0:0:0:0:
4,80,137257,1,2,0:0:0:0:
204,112,137423,1,0,0:0:0:0:
76,196,137590,1,2,1:2:0:0:
278,156,137757,1,0,0:0:0:0:
184,272,137923,1,2,0:0:0:0:
363,162,138090,1,0,0:0:0:0:
312,332,138257,1,2,1:2:0:0:
100,264,138423,5,2,0:0:0:0:
415,257,138590,1,2,0:0:0:0:
159,72,138757,1,2,0:0:0:0:
257,373,138923,1,2,1:2:0:0:
355,71,139090,5,0,0:0:0:0:
200,332,139257,1,0,0:0:0:0:
159,72,139423,1,0,0:0:0:0:
312,328,139590,6,0,P|288:276|200:332,1,191.999994140625,0|2,1:0|0:0,0:0:0:0:
256,184,140090,1,0,0:0:0:0:
392,284,140257,5,2,1:2:0:0:
120,284,140423,1,2,0:0:0:0:
440,132,140590,5,2,0:0:0:0:
72,132,140757,1,2,0:0:0:0:
256,12,140923,5,2,1:2:0:0:
256,169,141090,5,2,0:0:0:0:
268,209,141173,5,2,0:0:0:0:
234,185,141257,5,2,0:0:0:0:
276,185,141340,5,2,0:0:0:0:
242,209,141423,5,2,0:0:0:0:
256,169,141507,5,2,0:0:0:0:
256,192,141590,5,2,0:0:0:0:
256,36,141757,6,0,L|256:8,2,23.9999992675781
256,64,141923,2,0,L|256:216,1,143.999995605469,2|0,0:0|0:0,0:0:0:0:
164,276,142257,6,0,B|256:304|256:304|360:272,1,191.999994140625,4|0,0:0|0:0,0:0:0:0:
256,240,142757,5,0,1:0:0:0:
256,272,142840,1,0,0:0:0:0:
256,308,142923,1,0,1:0:0:0:
256,108,143090,1,0,1:0:0:0:
64,260,143257,1,0,1:0:0:0:
448,260,143423,1,0,1:0:0:0:
448,260,143757,5,0,1:0:0:0:
432,248,143840,1,0,0:0:0:0:
416,236,143923,1,0,1:0:0:0:
256,196,144090,1,0,1:0:0:0:
256,352,144257,5,4,0:0:0:0:
64,260,144423,1,0,1:0:0:0:
80,248,144507,1,0,1:0:0:0:
96,236,144590,1,0,1:0:0:0:
256,32,144757,1,0,0:0:0:0:
256,272,144923,5,4,0:0:0:0:
144,88,145090,1,2,0:0:0:0:
112,80,145173,1,0,0:0:0:0:
80,80,145257,1,2,0:0:0:0:
256,352,145423,1,0,0:0:0:0:
256,112,145590,5,4,0:0:0:0:
368,296,145757,1,2,0:0:0:0:
400,304,145840,1,0,0:0:0:0:
432,304,145923,1,2,0:0:0:0:
256,32,146090,1,0,0:0:0:0:
40,184,146257,5,0,1:0:0:0:
80,164,146340,1,0,0:0:0:0:
124,160,146423,2,0,L|176:160,1,47.9999985351563,2|0,0:0|0:0,0:0:0:0:
357,383,146590,5,0,1:0:0:0:
319,358,146673,1,0,0:0:0:0:
294,322,146757,2,0,L|268:277,1,47.9999985351563,2|0,0:0|0:0,0:0:0:0:
370,8,146923,5,0,1:0:0:0:
368,53,147007,1,0,0:0:0:0:
349,93,147090,2,0,L|323:138,1,47.9999985351563,2|0,0:0|0:0,0:0:0:0:
124,304,147257,6,0,L|132:252,1,47.9999985351563,0|0,1:0|0:0,0:0:0:0:
256,44,147423,2,0,L|264:96,1,47.9999985351563,0|0,1:0|0:0,0:0:0:0:
388,304,147590,6,0,P|408:240|352:140,1,180.000006866455,4|2,0:0|0:0,0:0:0:0:
324,134,147923,2,0,P|260:164|200:132,1,120.000004577637,0|0,1:0|0:0,0:0:0:0:
64,92,148257,1,0,0:0:0:0:
131,256,148423,1,0,0:0:0:0:
263,91,148590,1,0,1:0:0:0:
248,236,148757,1,0,0:0:0:0:
448,92,148923,6,0,L|392:240,1,120.000004577637
368,270,149173,1,2,0:0:0:0:
372,288,149257,2,0,P|320:288|264:344,1,120.000004577637,0|0,1:0|0:0,0:0:0:0:
263,91,149590,1,0,0:0:0:0:
248,236,149757,1,0,0:0:0:0:
64,92,149923,1,0,1:0:0:0:
216,148,150090,1,0,0:0:0:0:
64,224,150257,5,0,0:0:0:0:
176,64,150423,1,0,0:0:0:0:
176,64,150507,1,2,0:0:0:0:
176,64,150590,2,0,P|236:28|304:28,1,120.000004577637,0|0,1:0|0:0,0:0:0:0:
348,136,150923,2,0,L|336:200,1,55.9999982910157
244,180,151090,2,0,L|247:235,1,55.9999982910157
360,52,151257,6,0,L|456:32,1,68.0000012969971,0|2,1:0|0:0,0:0:0:0:
352,308,151423,2,0,L|280:332,1,68.0000012969971,2|0,0:0|0:0,0:0:0:0:
204,348,151590,6,0,P|144:288|152:212,1,120.000004577637
160,168,151840,1,2,0:0:0:0:
236,104,151923,2,0,P|212:56|132:16,1,120.000004577637,0|0,1:0|0:0,0:0:0:0:
4,88,152257,1,0,0:0:0:0:
24,120,152340,1,2,0:0:0:0:
12,152,152423,1,0,0:0:0:0:
28,184,152507,1,0,0:0:0:0:
24,220,152590,2,0,B|12:264|12:264|32:308|32:308|16:360,1,120.000004577637,0|0,1:0|0:0,0:0:0:0:
164,360,152923,5,4,0:0:0:0:
384,328,153090,1,0,0:0:0:0:
401,296,153173,1,2,0:0:0:0:
413,262,153257,1,0,1:0:0:0:
420,227,153340,1,0,0:0:0:0:
421,191,153423,1,0,0:0:0:0:
417,155,153507,1,0,0:0:0:0:
407,121,153590,2,0,L|479:100,3,60.0000022888184
316,20,153923,2,0,L|232:8,1,60.0000022888184,0|0,1:0|0:0,0:0:0:0:
8,76,154090,2,0,L|68:96,1,60.0000022888184
192,140,154257,5,0,0:0:0:0:
205,164,154340,1,0,0:0:0:0:
223,187,154423,1,0,0:0:0:0:
236,214,154507,1,2,0:0:0:0:
280,174,154590,1,0,1:0:0:0:
337,156,154673,1,0,0:0:0:0:
396,163,154757,1,0,0:0:0:0:
452,186,154840,1,0,0:0:0:0:
500,221,154923,2,0,L|508:304,3,60.0000022888184
316,84,155257,2,0,L|320:16,1,60.0000022888184,0|0,1:0|0:0,0:0:0:0:
216,288,155423,2,0,L|216:364,1,60.0000022888184
110,130,155590,5,0,0:0:0:0:
70,148,155673,1,0,0:0:0:0:
62,192,155757,1,0,0:0:0:0:
93,230,155840,1,2,0:0:0:0:
142,214,155923,1,0,1:0:0:0:
193,196,156007,1,0,0:0:0:0:
250,197,156090,1,0,0:0:0:0:
295,235,156173,1,0,0:0:0:0:
328,296,156257,2,0,L|312:376,1,60.0000022888184
424,264,156423,2,0,L|404:348,1,60.0000022888184
501,126,156590,6,0,P|484:107|440:91,1,60.0000022888184,0|0,1:0|0:0,0:0:0:0:
377,140,156757,2,0,P|348:150|319:148,1,60.0000022888184
252,72,156923,5,0,1:0:0:0:
192,60,157007,1,0,0:0:0:0:
168,116,157090,2,0,B|108:132|108:132|44:96,1,120.000004577637,2|0,0:0|1:0,0:0:0:0:
48,164,157340,1,0,0:0:0:0:
40,224,157423,1,2,0:0:0:0:
152,340,157590,6,0,L|136:248,2,71.9999978027344,0|0|0,1:0|0:0|0:0,0:0:0:0:
220,208,157840,1,0,0:0:0:0:
220,208,157923,2,0,L|197:137,1,71.9999978027344,0|0,1:0|0:0,0:0:0:0:
312,120,158090,2,0,L|296:40,1,71.9999978027344,0|0,1:0|0:0,0:0:0:0:
394,12,158257,6,0,L|424:152,1,120,4|2,0:0|0:0,0:0:0:0:
428,160,158590,2,0,L|448:252,1,80
372,336,158923,1,0,0:0:0:0:
372,336,159090,1,0,0:0:0:0:
288,276,159257,1,0,0:0:0:0:
288,276,159423,1,0,0:0:0:0:
256,168,159590,6,0,P|188:160|136:196,1,120,0|2,0:0|0:0,0:0:0:0:
120,204,159923,2,0,P|88:168|84:128,1,80
112,36,160257,1,0,0:0:0:0:
204,12,160423,1,0,0:0:0:0:
252,92,160590,1,0,0:0:0:0:
344,116,160757,1,0,0:0:0:0:
464,236,160923,6,0,P|420:304|372:316,1,120,0|2,0:0|0:0,0:0:0:0:
352,304,161257,2,0,L|320:220,1,80
184,160,161590,1,0,0:0:0:0:
184,160,161757,1,0,0:0:0:0:
108,276,161923,1,2,0:0:0:0:
56,148,162090,1,2,0:0:0:0:
164,52,162257,6,0,L|248:44,1,80,2|0,0:0|0:0,0:0:0:0:
272,136,162590,2,0,L|355:150,1,80,2|0,0:0|0:0,0:0:0:0:
400,156,162840,2,0,L|452:144,1,40,2|0,0:0|0:0,0:0:0:0:
492,228,163090,1,0,0:0:0:0:
432,304,163257,2,0,P|368:332|308:320,1,120,2|0,0:0|0:0,0:0:0:0:
289,264,163590,6,0,P|168:244|56:296,1,223.999993164063,2|0,0:0|0:0,0:0:0:0:
4,96,164590,1,0,0:0:0:0:
308,39,164923,6,0,P|309:142|208:144,1,223.999993164063,2|0,0:0|0:0,0:0:0:0:
393,12,165923,1,0,0:0:0:0:
444,132,166257,5,0,0:0:0:0:
460,160,166340,1,0,0:0:0:0:
468,192,166423,1,0,0:0:0:0:
468,224,166507,1,0,0:0:0:0:
452,252,166590,1,2,0:0:0:0:
424,268,166673,1,0,0:0:0:0:
392,272,166757,1,0,0:0:0:0:
364,252,166840,1,0,0:0:0:0:
332,244,166923,1,0,0:0:0:0:
300,248,167007,1,0,0:0:0:0:
272,264,167090,1,0,0:0:0:0:
252,288,167173,1,0,0:0:0:0:
224,304,167257,1,2,0:0:0:0:
192,308,167340,1,0,0:0:0:0:
160,304,167423,1,0,0:0:0:0:
128,288,167507,1,0,0:0:0:0:
104,264,167590,6,0,L|80:220,6,27.9999991455078,2|0|0|0|0|0|0,0:0|0:0|0:0|0:0|0:0|0:0|0:0,0:0:0:0:
148,162,167923,2,0,L|149:189,6,27.9999991455078,2|0|0|0|0|0|0,0:0|0:0|0:0|0:0|0:0|0:0|0:0,0:0:0:0:
226,117,168257,2,0,L|220:145,7,27.9999991455078,2|0|0|0|0|0|0|0,0:0|0:0|0:0|0:0|0:0|0:0|0:0|0:0,0:0:0:0:
307,48,168590,6,0,P|335:160|339:232,1,167.999994873047,2|0,0:0|0:0,0:0:0:0:
348,308,168923,6,0,B|468:328|468:328|496:312|500:272|484:244|444:240,1,223.999993164063,6|2,0:0|0:0,0:0:0:0:
256,184,170923,2,0,L|180:160,2,76.9999976501466,2|2|2,0:0|0:0|0:0,0:0:0:0:
192,84,171590,6,0,B|148:76|108:96|96:148|96:148|108:256,1,223.999993164063,2|2,0:0|0:0,0:0:0:0:
272,296,173590,6,0,B|320:308|354:273|354:273|392:308|388:368|328:384,2,223.999993164063,2|2|2,0:0|0:0|0:0,0:0:0:0:
200,165,176257,2,0,P|188:113|192:88,2,76.9999976501466,2|2|2,0:0|0:0|0:0,0:0:0:0:
296,40,176923,6,0,B|240:32|216:8|216:8|168:8|168:8|140:32|80:40,1,223.999993164063,2|2,0:0|0:0,0:0:0:0:
36,152,178590,6,0,B|80:168|80:168|168:160,1,111.999996582031,2|2,0:0|0:0,0:0:0:0:
284,152,179257,1,2,0:0:0:0:
204,16,179590,5,2,0:0:0:0:
128,312,180923,5,2,0:0:0:0:
216,21,181590,1,2,0:0:0:0:
423,242,182257,5,2,0:0:0:0:
423,242,183590,5,2,0:0:0:0:
236,328,183923,1,2,0:0:0:0:
304,80,184257,2,0,B|312:132|312:132|304:160,2,76.9999976501466,2|2|2,0:0|0:0|0:0,0:0:0:0:
232,168,184923,6,0,P|288:228|380:144,1,223.999993164063,2|2,0:0|0:0,0:0:0:0:
120,128,186590,5,0,0:0:0:0:
204,336,186923,1,2,0:0:0:0:
392,128,187257,1,2,0:0:0:0:
308,336,187590,5,2,0:0:0:0:
256,32,188257,5,2,0:0:0:0:
464,252,188923,5,2,0:0:0:0:
48,252,189590,6,0,L|188:220,1,140,2|0,0:0|0:0,0:0:0:0:
256,192,190257,5,2,0:0:0:0:
72,136,219590,6,0,P|224:180|32:192,1,560,2|0,3:0|0:0,0:0:0:0:
344,91,222257,6,0,B|408:144|428:240|428:240|436:152|516:88|516:88|451:119|424:113,1,450.000017166138,2|0,0:0|0:0,0:0:0:0:
344,91,223590,6,0,B|292:76|128:108|128:108|282:163|282:163|232:172|217:182,1,450.000017166138,2|0,0:0|0:0,0:0:0:0:
88,188,224923,6,0,B|123:251|86:332|86:332|143:307|143:307|195:329|195:329|179:259|215:183|215:183|235:231|279:247|279:247|267:311|311:375|374:356|374:356|347:291|355:215|396:188|396:188|424:208|456:212,1,930.000035476686,4|0,0:3|0:0,0:0:0:0:
472,144,227590,6,0,B|414:127|373:75|354:31|354:31|326:101|267:131|183:122|183:122|213:80|204:49,1,450.000017166138,2|0,0:0|0:0,0:0:0:0:
132,64,228923,6,0,B|148:128|116:280|116:280|180:224|269:222|269:222|224:248|212:288,1,450.000017166138,2|0,0:0|0:0,0:0:0:0:
340,320,230257,6,0,B|366:216|320:140|320:140|283:98|283:98|306:103|330:98|360:82|360:82|405:66|461:58|498:87,1,450.000017166138,4|0,0:3|0:0,0:0:0:0:
256,192,231590,12,0,232840,0:0:0:0:
108,72,232923,5,6,0:2:0:0:
183,289,233089,1,0,0:0:0:0:
260,329,233256,1,0,3:2:0:0:
204,188,233423,6,0,L|220:120,1,55.9999982910157,0|0,3:1|3:1,3:0:0:0:
308,83,233589,2,0,L|321:29,1,55.9999982910157,0|0,3:0|3:0,3:0:0:0:
388,91,233756,2,0,L|400:36,1,55.9999982910157
229,78,233923,6,0,L|204:188,1,111.999996582031,2|0,3:2|0:0,0:0:0:0:
183,289,234256,5,0,0:0:0:0:
260,329,234423,1,0,0:0:0:0:
108,72,234589,1,2,3:2:0:0:
388,91,234756,2,0,L|400:36,1,55.9999982910157,0|0,3:0|3:0,3:0:0:0:
321,29,234923,2,0,L|305:101,1,55.9999982910157,0|0,3:0|3:0,3:0:0:0:
260,329,235089,1,2,3:2:0:0:
204,188,235256,6,0,L|220:120,1,55.9999982910157,0|0,3:1|0:1,0:0:0:0:
108,72,235423,2,0,L|124:4,1,55.9999982910157,2|0,3:2|0:1,0:0:0:0:
229,78,235589,6,0,L|204:188,1,111.999996582031
169,342,235923,2,0,L|182:288,1,55.9999982910157,2|0,3:2|3:0,3:0:0:0:
260,329,236089,2,0,L|276:261,1,55.9999982910157,2|0,3:2|3:1,3:0:0:0:
484,122,236256,2,0,L|468:198,2,55.9999982910157,2|0|0,0:2|0:0|0:0,0:0:0:0:
378,200,236589,2,0,L|418:340,1,111.999996582031,2|0,3:2|0:0,0:0:0:0:
229,78,236923,5,2,3:0:0:0:
182,288,237089,2,0,L|169:342,1,55.9999982910157,2|0,3:2|0:0,0:0:0:0:
272,274,237256,2,0,L|260:329,1,55.9999982910157,0|0,3:2|0:1,0:0:0:0:
378,200,237423,2,0,L|416:336,1,111.999996582031,2|0,3:0|0:0,0:0:0:0:
182,288,237756,6,0,L|169:342,1,55.9999982910157,2|0,3:2|0:0,0:0:0:0:
229,78,237923,2,0,L|204:196,1,111.999996582031,2|0,3:0|0:0,0:0:0:0:
168,342,238256,5,2,3:2:0:0:
378,200,238423,1,0,0:0:0:0:
408,307,238589,1,0,3:0:0:0:
282,92,238756,2,0,L|210:72,1,55.9999982910157,2|0,3:2|0:0,0:0:0:0:
54,142,238923,2,0,L|114:130,1,55.9999982910157,0|0,3:0|3:0,0:0:0:0:
150,198,239089,2,0,L|210:186,1,55.9999982910157,0|0,3:0|3:0,0:0:0:0:
378,200,239256,6,0,L|418:340,1,111.999996582031,2|0,3:2|0:0,0:0:0:0:
182,288,239589,5,2,3:2:0:0:
282,92,239756,1,0,0:0:0:0:
384,60,239923,1,0,0:0:0:0:
204,187,240089,2,0,L|150:198,1,55.9999982910157,2|0,3:2|3:0,0:0:0:0:
54,142,240255,2,0,L|108:131,1,55.9999982910157,0|0,3:0|3:0,0:0:0:0:
282,92,240423,1,0,0:0:0:0:
39,218,240589,2,0,L|171:194,1,111.999996582031,2|0,3:2|0:0,0:0:0:0:
408,307,240923,5,2,3:2:0:0:
282,92,241089,5,2,0:2:0:0:
384,60,241256,1,0,3:0:0:0:
204,187,241423,2,0,L|188:259,1,55.9999982910157,0|0,3:0|3:0,3:0:0:0:
51,272,241589,2,0,L|38:217,1,55.9999982910157,2|0,3:2|3:0,3:0:0:0:
88,156,241756,2,0,L|103:102,1,55.9999982910157,0|0,3:0|3:0,3:0:0:0:
384,60,241923,6,0,L|398:176,1,111.999996582031,2|2,3:2|3:2,0:0:0:0:
408,307,242256,5,2,3:2:0:0:
191,241,242423,2,0,L|207:173,1,55.9999982910157
269,146,242589,2,0,L|285:78,1,55.9999982910157
408,307,242756,5,2,3:2:0:0:
191,241,242923,2,0,L|207:173,1,55.9999982910157
269,146,243089,2,0,L|285:78,1,55.9999982910157
384,60,243256,2,0,L|400:-8,2,55.9999982910157
292,313,243589,5,8,0:3:0:0:
424,208,243756,1,0,0:0:0:0:
384,60,243923,1,0,1:0:0:0:
292,313,244089,5,0,0:0:0:0:
298,293,244172,1,0,0:0:0:0:
304,274,244255,1,0,0:0:0:0:
310,254,244339,1,0,0:0:0:0:
316,235,244423,1,8,0:3:0:0:
323,215,244505,1,0,0:0:0:0:
329,196,244589,5,0,1:0:0:0:
384,60,244756,1,2,0:0:0:0:
136,40,244923,5,8,0:3:0:0:
72,208,245089,1,0,0:0:0:0:
180,360,245256,1,0,1:0:0:0:
136,40,245423,1,8,0:3:0:0:
139,73,245506,1,0,0:0:0:0:
143,107,245589,1,0,0:0:0:0:
147,141,245673,1,0,0:0:0:0:
151,175,245756,1,8,0:3:0:0:
180,360,245923,6,0,L|209:227,1,136.000002593994,0|0,1:0|0:0,0:0:0:0:
384,60,246256,1,8,0:3:0:0:
416,220,246423,1,0,0:0:0:0:
354,45,246589,6,0,L|375:130,1,68.0000012969971,0|0,1:0|0:0,0:0:0:0:
404,264,246756,2,0,L|383:179,1,68.0000012969971
260,32,246923,1,0,0:0:0:0:
267,65,247006,1,0,0:0:0:0:
275,98,247089,1,8,0:3:0:0:
283,131,247173,1,0,0:0:0:0:
291,164,247256,5,0,1:0:0:0:
319,291,247422,6,0,L|335:367,2,68.0000012969971,0|0|8,0:0|0:0|0:3,0:0:0:0:
275,98,247756,2,0,L|260:25,2,68.0000012969971,0|0|0,0:0|0:0|1:0,0:0:0:0:
333,357,248089,2,0,L|300:208,1,136.000002593994,8|0,0:3|0:0,0:0:0:0:
261,31,248422,5,8,0:3:0:0:
303,224,248589,2,0,L|333:357,1,136.000002593994,0|0,1:0|0:0,0:0:0:0:
261,31,248922,6,0,L|236:112,1,68.0000012969971,8|0,0:3|0:0,0:0:0:0:
160,112,249089,1,0,1:0:0:0:
367,173,249256,6,0,L|392:254,1,68.0000012969971,8|0,0:3|0:0,0:0:0:0:
468,254,249422,1,0,1:0:0:0:
199,247,249589,6,0,L|174:328,1,68.0000012969971,8|0,0:3|0:0,0:0:0:0:
98,328,249756,1,0,1:0:0:0:
333,357,249922,1,8,0:3:0:0:
325,323,250006,1,0,0:0:0:0:
318,290,250089,1,8,1:3:0:0:
310,257,250172,1,0,0:0:0:0:
303,224,250255,5,8,0:3:0:0:
296,196,250339,1,0,0:0:0:0:
288,168,250422,1,0,1:0:0:0:
176,200,250589,5,8,0:3:0:0:
168,171,250673,1,0,0:0:0:0:
160,143,250756,1,0,1:0:0:0:
236,92,250922,5,8,0:3:0:0:
244,63,251006,1,0,0:0:0:0:
252,35,251089,1,0,1:0:0:0:
288,168,251256,1,0,1:0:0:0:
296,196,251339,1,0,0:0:0:0:
303,224,251423,5,8,0:3:0:0:
310,257,251506,1,0,0:0:0:0:
318,290,251589,6,0,L|244:296,1,68.0000012969971,8|0,1:3|0:0,0:0:0:0:
112,252,251756,6,0,L|180:248,1,68.0000012969971,8|0,1:3|0:0,0:0:0:0:
220,172,251922,2,0,L|287:167,1,68.0000012969971,8|0,1:3|0:0,0:0:0:0:
420,80,252089,6,0,L|353:85,1,68.0000012969971,8|0,1:3|0:0,0:0:0:0:
318,290,252256,5,8,1:3:0:0:
297,292,252339,1,0,0:0:0:0:
277,293,252422,1,8,1:3:0:0:
257,295,252506,1,0,0:0:0:0:
232,296,252589,6,8,L|224:368,1,68.0000012969971,8|8,1:3|1:3,1:3:0:0:
100,185,252756,2,8,L|112:253,1,68.0000012969971,8|8,1:3|1:3,1:3:0:0:
228,87,252922,6,0,P|297:52|369:80,1,160,6|0,0:1|0:0,0:0:0:0:
303,152,253172,2,0,P|282:227|308:302,1,160,2|0,0:1|0:0,0:0:0:0:
464,288,253422,6,0,P|485:212|459:137,1,160,6|0,0:1|0:0,0:0:0:0:
152,268,253672,2,0,L|308:301,1,160,4|0,0:0|0:0,0:0:0:0:
63,216,253922,6,0,P|52:254|53:293,1,80,6|0,0:1|0:0,0:0:0:0:
152,96,254089,2,0,P|153:56|141:18,1,80
228,310,254256,6,0,L|308:301,1,80,4|0,0:0|0:0,0:0:0:0:
384,152,254422,1,0,0:0:0:0:
388,136,254506,1,0,0:0:0:0:
392,120,254589,1,2,0:0:0:0:
396,104,254672,1,0,0:0:0:0:
400,88,254756,1,0,0:0:0:0:
404,72,254839,1,0,0:0:0:0:
408,56,254922,6,0,L|304:76,1,80,4|0,0:0|0:0,0:0:0:0:
248,216,255089,1,0,0:0:0:0:
232,212,255172,1,0,0:0:0:0:
216,204,255256,1,2,0:0:0:0:
204,192,255339,1,0,0:0:0:0:
196,180,255422,1,0,0:0:0:0:
188,164,255506,1,0,0:0:0:0:
184,148,255589,6,0,L|192:60,1,80,4|0,0:0|0:0,0:0:0:0:
56,176,255756,1,0,0:0:0:0:
52,200,255839,1,0,0:0:0:0:
52,224,255922,6,0,P|64:261|90:291,1,80,2|0,0:0|0:0,0:0:0:0:
176,336,256089,2,0,P|214:344|253:336,1,80
343,97,256256,6,0,P|304:88|265:96,1,80
184,148,256423,2,0,P|157:177|144:215,1,80
251,255,256589,6,0,L|253:334,1,80,2|0,0:0|0:0,0:0:0:0:
88,371,256756,2,0,L|90:291,1,80
72,104,256922,6,0,L|76:4,1,80,4|0,0:0|0:0,0:0:0:0:
168,144,257089,1,0,0:0:0:0:
184,136,257172,1,0,0:0:0:0:
200,128,257256,1,2,0:0:0:0:
216,120,257339,1,0,0:0:0:0:
232,112,257422,1,0,0:0:0:0:
248,104,257506,1,0,0:0:0:0:
264,96,257589,6,0,L|267:175,1,80,4|0,0:0|0:0,0:0:0:0:
348,260,257756,1,0,0:0:0:0:
364,268,257839,1,0,0:0:0:0:
380,272,257922,1,2,0:0:0:0:
396,272,258006,1,0,0:0:0:0:
412,268,258089,1,0,0:0:0:0:
428,260,258172,1,0,0:0:0:0:
440,248,258256,6,0,P|452:204|456:148,1,80,4|0,0:0|0:0,0:0:0:0:
368,56,258422,1,0,0:0:0:0:
196,108,258589,5,2,0:0:0:0:
348,260,258756,1,0,0:0:0:0:
132,42,258922,6,0,P|111:75|104:114,1,80
48,200,259089,2,0,P|66:235|96:260,1,80
188,304,259256,5,2,0:0:0:0:
196,108,259422,2,0,L|200:204,1,80
356,360,259589,6,0,L|368:256,1,80,4|0,0:0|0:0,0:0:0:0:
300,200,259756,1,0,0:0:0:0:
296,184,259839,1,0,0:0:0:0:
292,168,259922,1,2,0:0:0:0:
288,152,260006,1,0,0:0:0:0:
284,136,260089,1,0,0:0:0:0:
280,120,260172,1,0,0:0:0:0:
276,104,260256,6,0,L|180:108,1,80,4|0,0:0|0:0,0:0:0:0:
112,200,260422,1,0,0:0:0:0:
108,216,260506,1,0,0:0:0:0:
108,232,260589,1,2,0:0:0:0:
112,248,260672,1,0,0:0:0:0:
120,264,260756,1,0,0:0:0:0:
132,276,260839,1,0,0:0:0:0:
144,288,260922,6,0,L|240:280,1,80,4|0,0:0|0:0,0:0:0:0:
312,320,261089,1,0,0:0:0:0:
328,324,261172,1,0,0:0:0:0:
344,326,261256,6,0,P|376:303|397:270,1,80,2|0,0:0|0:0,0:0:0:0:
400,164,261422,2,0,P|395:124|377:89,1,80
128,72,261589,6,0,P|132:111|150:146,1,80,2|0,0:0|0:0,0:0:0:0:
241,201,261755,2,0,P|277:217|317:219,1,80
472,32,261922,6,0,P|435:15|395:13,1,80,2|0,0:0|0:0,0:0:0:0:
300,36,262088,2,0,P|267:59|246:92,1,80
400,164,262256,6,0,L|479:167,1,80,4|0,0:0|0:0,0:0:0:0:
332,276,262422,1,0,0:0:0:0:
316,280,262506,1,0,0:0:0:0:
300,284,262589,1,2,0:0:0:0:
284,288,262672,1,0,0:0:0:0:
268,292,262756,1,0,0:0:0:0:
252,296,262839,1,0,0:0:0:0:
236,300,262922,6,0,L|140:304,1,80,4|0,0:0|0:0,0:0:0:0:
128,148,263089,1,0,0:0:0:0:
136,164,263172,1,0,0:0:0:0:
144,180,263256,1,2,0:0:0:0:
152,192,263339,1,0,0:0:0:0:
160,204,263422,1,0,0:0:0:0:
168,220,263506,1,0,0:0:0:0:
176,232,263589,5,0,1:0:0:0:
336,152,263756,1,4,0:0:0:0:
144,136,263922,1,0,1:0:0:0:
368,248,264089,1,4,0:0:0:0:
99,270,264256,6,0,L|104:336,1,47.9999985351563,0|0,1:0|1:0,1:0:0:0:
413,114,264422,2,0,L|408:48,1,47.9999985351563,0|0,1:0|1:0,1:0:0:0:
36,82,264589,2,0,L|32:129,1,47.9999985351563,0|0,1:0|1:0,1:0:0:0:
475,301,264756,2,0,L|478:253,1,47.9999985351563,0|0,1:0|1:0,1:0:0:0:
144,136,264922,5,4,0:0:0:0:
368,248,265089,1,0,0:0:0:0:
312,80,265256,1,2,0:0:0:0:
200,304,265423,1,0,0:0:0:0:
162,108,265589,1,0,1:0:0:0:
349,275,265756,1,0,0:0:0:0:
339,98,265922,1,2,0:0:0:0:
172,285,266090,1,0,0:0:0:0:
187,87,266256,5,0,1:0:0:0:
324,296,266423,1,0,0:0:0:0:
360,123,266590,1,2,0:0:0:0:
151,260,266757,1,0,0:0:0:0:
216,73,266922,1,0,1:0:0:0:
295,310,267089,1,0,0:0:0:0:
374,152,267256,1,2,0:0:0:0:
137,231,267423,1,0,0:0:0:0:
248,67,267589,5,0,1:0:0:0:
263,316,267756,1,0,0:0:0:0:
380,184,267923,1,2,0:0:0:0:
131,199,268090,1,0,0:0:0:0:
281,69,268256,1,0,1:0:0:0:
230,314,268423,1,0,0:0:0:0:
378,217,268590,1,2,0:0:0:0:
133,166,268757,1,0,0:0:0:0:
390,164,268922,5,0,1:0:0:0:
121,219,269089,1,0,0:0:0:0:
404,222,269256,1,2,0:0:0:0:
107,161,269423,1,0,0:0:0:0:
419,158,269589,1,0,1:0:0:0:
92,225,269756,1,0,0:0:0:0:
435,228,269922,1,2,0:0:0:0:
76,155,270089,1,2,0:0:0:0:
293,12,270256,5,4,0:0:0:0:
219,372,270422,1,0,0:0:0:0:
287,127,270589,1,2,0:0:0:0:
296,251,270756,1,0,0:0:0:0:
184,197,270922,1,0,1:0:0:0:
363,184,271089,1,0,0:0:0:0:
208,289,271256,1,2,0:0:0:0:
195,102,271422,1,0,0:0:0:0:
363,184,271589,5,0,1:0:0:0:
496,168,271756,1,2,0:0:0:0:
476,36,271922,1,0,0:0:0:0:
343,52,272089,1,0,0:0:0:0:
175,235,272256,1,0,1:0:0:0:
42,218,272423,1,2,0:0:0:0:
62,86,272589,1,0,0:0:0:0:
195,102,272756,1,0,0:0:0:0:
317,282,272922,5,0,1:0:0:0:
166,253,273089,1,0,0:0:0:0:
195,102,273256,1,2,0:0:0:0:
346,131,273422,1,0,0:0:0:0:
335,308,273589,1,0,1:0:0:0:
139,271,273756,1,0,0:0:0:0:
176,75,273923,1,2,0:0:0:0:
372,112,274089,1,0,0:0:0:0:
358,343,274256,5,0,1:0:0:0:
104,294,274423,1,0,0:0:0:0:
153,40,274590,1,2,1:2:0:0:
407,89,274756,1,0,0:0:0:0:
75,157,274922,6,0,L|152:168,1,60.0000022888184,0|0,1:0|1:0,1:0:0:0:
436,226,275089,2,0,L|360:216,1,60.0000022888184,0|0,1:0|1:0,1:0:0:0:
36,176,275256,2,0,L|127:188,1,60.0000022888184,0|0,1:0|1:0,1:0:0:0:
468,259,275423,2,0,L|376:246,1,60.0000022888184,0|0,1:0|1:0,1:0:0:0:
104,294,275589,5,0,0:0:0:0:
176,144,275756,5,0,0:0:0:0:
192,336,275922,2,0,L|288:328,1,95.9999970703126,8|0,0:0|0:0,0:0:0:0:
336,124,276256,1,0,0:0:0:0:
188,40,276422,1,0,0:0:0:0:
43,124,276589,2,0,P|35:195|48:265,1,143.999995605469,8|0,0:0|0:0,0:0:0:0:
68,296,276922,6,0,L|172:292,1,95.9999970703126
384,272,277256,1,8,0:0:0:0:
398,236,277339,1,0,0:0:0:0:
404,198,277422,1,0,0:0:0:0:
400,160,277505,1,0,0:0:0:0:
387,124,277589,1,0,0:0:0:0:
176,56,277756,1,0,0:0:0:0:
348,40,277922,2,0,L|468:48,1,95.9999970703126,8|0,0:0|0:0,0:0:0:0:
384,272,278256,5,0,0:0:0:0:
148,336,278422,1,0,0:0:0:0:
304,136,278589,2,0,P|311:183|308:232,1,95.9999970703126,8|0,0:0|0:0,0:0:0:0:
60,304,278922,1,0,0:0:0:0:
120,112,279089,1,0,0:0:0:0:
244,312,279256,2,0,P|311:333|377:307,1,143.999995605469,8|0,0:0|0:0,0:0:0:0:
400,284,279589,6,0,L|396:168,1,95.9999970703126
272,56,279922,1,8,0:0:0:0:
236,41,280005,1,0,0:0:0:0:
198,35,280088,1,0,0:0:0:0:
160,38,280171,1,0,0:0:0:0:
124,51,280255,1,0,0:0:0:0:
52,248,280422,1,0,0:0:0:0:
244,312,280589,1,8,0:0:0:0:
24,340,280756,1,0,0:0:0:0:
332,344,280922,6,0,L|336:224,1,95.9999970703126
360,72,281256,2,0,P|424:56|480:68,1,95.9999970703126,8|0,0:0|0:0,0:0:0:0:
260,200,281589,1,0,0:0:0:0:
192,40,281756,1,0,0:0:0:0:
88,184,281922,2,0,L|84:336,1,143.999995605469,8|0,0:0|0:0,0:0:0:0:
116,352,282256,6,0,P|161:365|208:357,1,95.9999970703126
448,292,282589,1,8,0:0:0:0:
462,256,282672,1,0,0:0:0:0:
468,218,282755,1,0,0:0:0:0:
464,180,282838,1,0,0:0:0:0:
451,144,282922,1,0,0:0:0:0:
192,40,283089,1,0,0:0:0:0:
380,72,283256,1,8,0:0:0:0:
120,104,283422,1,0,0:0:0:0:
312,292,283589,6,0,L|308:164,1,95.9999970703126,4|0,0:0|0:0,0:0:0:0:
56,184,283922,1,8,0:0:0:0:
192,344,284089,1,0,0:0:0:0:
404,248,284256,2,0,L|400:120,1,95.9999970703126,4|0,0:0|0:0,0:0:0:0:
24,100,284589,1,8,0:0:0:0:
76,348,284756,1,0,0:0:0:0:
284,356,284923,5,0,0:0:0:0:
306,325,285006,1,0,0:0:0:0:
320,289,285089,1,0,0:0:0:0:
323,251,285172,1,0,0:0:0:0:
315,213,285256,1,8,0:0:0:0:
297,179,285339,1,0,0:0:0:0:
272,152,285422,1,0,0:0:0:0:
256,116,285505,1,0,0:0:0:0:
252,76,285589,1,0,0:0:0:0:
260,40,285672,6,0,L|264:4,3,23.9999992675781,4|0|0|0,0:0|0:0|0:0|0:0,0:0:0:0:
96,52,285922,5,12,0:0:0:0:
100,72,286006,1,0,0:0:0:0:
104,92,286089,1,0,0:0:0:0:
108,112,286172,1,0,0:0:0:0:
112,128,286256,6,0,L|208:144,1,80
321,242,286422,2,0,L|400:256,1,80
400,128,286589,2,0,L|304:144,1,80,2|0,0:0|0:0,0:0:0:0:
190,242,286755,2,0,L|112:256,1,80
97,122,286922,6,0,L|203:139,1,80
332,248,287089,2,0,L|411:262,1,80
414,122,287255,2,0,L|308:139,1,80,2|0,0:0|0:0,0:0:0:0:
180,248,287422,2,0,L|84:264,1,80
81,115,287589,6,0,L|197:135,1,80
344,252,287755,2,0,L|440:268,1,80
430,115,287922,2,0,L|314:135,1,80,2|0,0:0|0:0,0:0:0:0:
168,256,288088,2,0,L|72:272,1,80
64,108,288256,6,0,L|180:128,1,80
360,256,288422,2,0,L|465:274,1,80
256,48,288589,6,0,P|252:64|256:96,6,40,2|0|0|0|0|0|0,0:0|0:0|0:0|0:0|0:0|0:0|0:0,0:0:0:0:
256,280,288922,6,0,B|260:320|260:320|256:364,1,80
168,192,289089,2,0,B|128:196|128:196|84:192,1,80
256,104,289256,2,0,B|252:64|252:64|256:20,1,80,2|0,0:0|0:0,0:0:0:0:
344,192,289422,2,0,B|384:188|384:188|428:192,1,80
193,254,289589,6,0,B|168:285|168:285|134:313,1,80
193,129,289756,2,0,B|162:104|162:104|134:70,1,80
318,129,289923,2,0,B|343:98|343:98|377:70,1,80,2|0,0:0|0:0,0:0:0:0:
318,254,290089,2,0,B|349:279|349:279|374:310,1,80
137,310,290256,6,0,B|168:285|168:285|193:254,1,80
137,73,290423,2,0,B|162:104|162:104|193:129,1,80
374,73,290590,2,0,B|343:98|343:98|318:129,1,80,2|0,0:0|0:0,0:0:0:0:
374,310,290756,2,0,B|349:279|349:279|318:254,1,80
94,235,290922,6,0,B|133:228|133:228|170:214,1,80
299,29,291089,2,0,B|285:67|285:67|278:106,1,80
374,310,291256,2,0,B|349:279|349:279|318:254,1,80,2|0,0:0|0:0,0:0:0:0:
137,73,291422,2,0,B|168:98|168:98|193:129,1,80
212,353,291589,6,0,B|219:314|219:314|233:277,1,80
299,30,291756,2,0,B|292:69|292:69|278:106,1,80
255,359,291922,2,0,B|251:320|251:320|256:280,1,80,2|0,0:0|0:0,0:0:0:0:
256,24,292089,2,0,B|260:64|260:64|255:104,1,80
299,354,292256,2,0,B|285:316|285:316|278:277,1,80
212,29,292423,2,0,B|226:67|226:67|233:106,1,80
339,337,292589,2,0,B|316:304|316:304|300:268,1,80,2|0,0:0|0:0,0:0:0:0:
172,46,292756,2,0,B|195:79|195:79|211:115,1,80
318,254,292922,6,0,B|343:285|343:285|374:310,1,80
193,129,293089,2,0,B|168:98|168:98|137:73,1,80
332,236,293256,2,0,B|364:259|364:259|400:276,1,80,2|0,0:0|0:0,0:0:0:0:
179,148,293423,2,0,B|147:124|147:124|111:107,1,80
341,214,293589,2,0,B|378:228|378:228|417:235,1,80
170,169,293756,2,0,B|133:155|133:155|94:148,1,80
441,125,293922,6,0,L|393:137,6,40,2|0|0|0|0|0|0,0:0|0:0|0:0|0:0|0:0|0:0|0:0,0:0:0:0:
320,48,294256,6,0,L|400:56,1,80
192,336,294422,2,0,L|112:328,1,80
403,135,294589,2,0,L|453:197,1,80,2|0,0:0|0:0,0:0:0:0:
108,248,294755,2,0,L|58:186,1,80
400,255,294922,2,0,L|392:336,1,80
112,127,295088,2,0,L|120:48,1,80
312,339,295256,2,0,L|250:389,1,80,2|0,0:0|0:0,0:0:0:0:
199,44,295422,2,0,L|261:-5,1,80
192,336,295589,6,0,L|112:328,1,80
320,48,295755,2,0,L|400:56,1,80
176,344,295922,2,0,L|95:336,1,80,2|0,0:0|0:0,0:0:0:0:
336,40,296089,2,0,L|416:48,1,80
32,280,296256,5,0,0:0:0:0:
84,232,296339,1,0,0:0:0:0:
154,225,296422,1,0,0:0:0:0:
224,248,296506,1,0,0:0:0:0:
272,320,296589,5,2,0:0:0:0:
345,348,296672,5,0,0:0:0:0:
420,326,296755,5,0,0:0:0:0:
465,262,296838,5,0,0:0:0:0:
462,183,296922,6,0,L|454:79,1,103.999995239258,2|0,1:2|0:0,0:0:0:0:
216,156,297255,1,2,1:2:0:0:
462,183,297422,1,0,0:0:0:0:
208,52,297588,2,0,L|215:155,1,103.999995239258,2|0,0:0|0:0,0:0:0:0:
454,79,297922,1,2,1:2:0:0:
215,155,298088,1,0,0:0:0:0:
372,262,298255,6,0,B|300:230|300:230|220:250,1,155.999992858887,2|0,0:0|0:0,0:0:0:0:
140,312,298588,2,0,P|204:300|224:240,1,103.999995239258,2|0,1:2|0:0,0:0:0:0:
231,19,298922,2,0,P|259:99|343:107,1,155.999992858887,2|0,0:0|0:0,0:0:0:0:
311,31,299255,1,2,1:2:0:0:
372,262,299422,1,2,0:0:0:0:
140,212,299588,5,4,0:0:0:0:
440,152,299755,1,2,0:0:0:0:
256,360,299922,1,2,1:2:0:0:
72,152,300088,1,0,0:0:0:0:
72,152,300172,1,0,0:0:0:0:
72,152,300255,2,0,P|104:128|158:123,1,77.9999964294435,2|0,0:0|0:0,0:0:0:0:
140,212,300588,1,2,1:2:0:0:
321,114,300755,1,0,0:0:0:0:
32,72,300922,5,2,0:0:0:0:
256,360,301088,1,2,0:0:0:0:
480,72,301255,1,2,1:2:0:0:
32,312,301422,1,0,0:0:0:0:
256,24,301588,1,2,0:0:0:0:
480,312,301755,1,2,0:0:0:0:
8,192,301922,1,2,1:2:0:0:
504,192,302088,1,0,0:0:0:0:
144,316,302255,5,2,0:0:0:0:
368,68,302422,1,0,0:0:0:0:
368,316,302588,6,0,B|312:280|312:280|224:288,1,128,2|0,1:2|0:0,0:0:0:0:
144,316,302838,1,0,0:0:0:0:
144,316,302922,6,0,L|124:188,1,103.999995239258,2|2,0:0|0:0,0:0:0:0:
296,36,303255,2,0,B|368:68|368:68|448:44,1,155.999992858887,2|0,1:2|0:0,0:0:0:0:
500,192,303588,6,0,P|444:148|332:168,1,155.999992858887,2|0,0:0|0:0,0:0:0:0:
272,200,303922,1,2,1:2:0:0:
512,96,304088,1,0,0:0:0:0:
109,58,304255,2,0,L|129:222,1,155.999992858887,2|0,0:0|0:0,0:0:0:0:
144,316,304588,1,2,1:2:0:0:
284,92,304755,1,2,0:0:0:0:
400,356,304922,5,0,0:0:0:0:
52,272,305088,1,2,0:0:0:0:
408,232,305255,1,2,1:2:0:0:
109,58,305422,1,0,0:0:0:0:
465,98,305589,1,2,0:0:0:0:
256,296,305755,1,0,0:0:0:0:
292,0,305922,1,2,1:2:0:0:
484,208,306088,1,0,0:0:0:0:
28,176,306255,5,2,0:0:0:0:
484,208,306422,1,0,0:0:0:0:
28,176,306589,1,0,0:0:0:0:
484,208,306755,1,0,0:0:0:0:
28,176,306922,6,0,L|84:180,1,51.999997619629,0|0,1:0|1:0,1:0:0:0:
484,208,307088,2,0,L|428:204,1,51.999997619629,0|0,1:0|1:0,1:0:0:0:
28,176,307255,2,0,L|84:180,1,51.999997619629,0|0,1:0|1:0,1:0:0:0:
484,208,307421,2,0,L|428:204,1,51.999997619629,0|0,1:0|1:0,1:0:0:0:
60,268,307588,6,0,P|128:268|192:336,1,143.999995605469,4|0,0:0|1:0,0:0:0:0:
99,356,308088,1,0,0:0:0:0:
264,156,308255,2,0,L|256:288,1,107.999996704102
264,296,308588,6,6,P|320:308|376:268,1,120.000004577637,2|0,0:0|0:0,0:0:0:0:
416,56,308922,6,0,L|436:204,1,143.999995605469,0|0,0:0|1:0,0:0:0:0:
370,276,309422,1,0,0:0:0:0:
166,116,309588,2,0,P|202:120|274:168,1,107.999996704102
272,184,309922,6,0,P|340:184|380:120,1,120.000004577637,2|0,0:0|0:0,0:0:0:0:
178,11,310255,6,0,P|162:99|174:143,1,107.999996704102
184,188,310588,1,0,1:0:0:0:
332,80,310755,1,0,0:0:0:0:
84,152,310922,2,0,P|81:205|97:256,1,107.999996704102,2|0,0:0|0:0,0:0:0:0:
168,308,311255,2,0,P|176:344|176:384,1,71.9999978027344,2|0,1:2|0:0,0:0:0:0:
269,234,311588,6,0,P|304:234|339:242,1,71.9999978027344,2|0,0:0|0:0,0:0:0:0:
427,353,311922,1,0,1:0:0:0:
369,163,312088,1,2,0:0:0:0:
305,352,312255,1,2,0:0:0:0:
269,234,312422,1,0,0:0:0:0:
168,308,312588,1,0,1:0:0:0:
188,136,312755,1,0,0:0:0:0:
72,292,312922,6,0,P|176:256|184:180,1,143.999995605469,4|0,0:0|1:0,0:0:0:0:
140,64,313422,1,2,0:0:0:0:
188,136,313588,2,0,P|240:140|296:128,1,71.9999978027344,2|0,0:0|0:0,0:0:0:0:
396,48,313922,2,0,L|384:148,1,71.9999978027344,0|2,1:0|0:0,0:0:0:0:
372,220,314255,5,2,0:0:0:0:
259,137,314422,1,2,0:0:0:0:
466,75,314588,1,0,1:0:0:0:
428,288,314755,1,2,0:0:0:0:
428,288,314838,1,0,0:0:0:0:
428,288,314922,2,0,P|432:332|448:380,1,71.9999978027344
272,300,315255,2,0,P|276:256|292:208,1,71.9999978027344,0|0,1:0|0:0,0:0:0:0:
476,192,315588,6,0,P|424:136|348:148,1,143.999995605469,6|0,0:0|1:0,0:0:0:0:
283,229,316088,1,0,0:0:0:0:
156,64,316255,2,0,P|152:128|180:216,1,143.999995605469,6|0,0:0|1:0,0:0:0:0:
283,229,316755,1,2,0:0:0:0:
336,44,316922,5,0,0:0:0:0:
376,304,317088,1,2,0:0:0:0:
176,204,317255,1,0,1:0:0:0:
484,112,317422,1,2,0:0:0:0:
288,24,317588,2,0,L|296:88,1,35.9999989013672,0|0,1:0|1:0,1:0:0:0:
283,229,317755,2,0,L|278:193,1,35.9999989013672,0|0,1:0|1:0,1:0:0:0:
86,73,317922,1,0,1:0:0:0:
120,63,318005,1,0,1:0:0:0:
156,64,318088,1,0,1:0:0:0:
190,76,318171,1,0,1:0:0:0:
217,97,318255,6,0,P|302:123|385:93,1,180.000006866455
424,64,318588,2,0,P|412:122|409:182,1,120.000004577637,2|0,0:0|0:0,0:0:0:0:
424,360,318922,1,0,0:0:0:0:
283,229,319088,1,0,0:0:0:0:
468,280,319255,1,2,0:0:0:0:
239,309,319422,1,0,0:0:0:0:
436,199,319588,6,0,P|448:141|441:82,1,120.000004577637
228,72,319922,2,0,P|215:130|222:189,1,120.000004577637,2|0,0:0|0:0,0:0:0:0:
144,24,320255,2,0,P|116:104|116:212,1,180.000006866455
120,240,320588,1,2,0:0:0:0:
300,312,320755,1,0,0:0:0:0:
300,312,320838,1,0,0:0:0:0:
300,312,320922,6,0,L|419:304,1,120.000004577637
460,140,321255,2,0,L|340:147,1,120.000004577637,2|0,0:0|0:0,0:0:0:0:
180,332,321588,2,0,P|148:260|172:132,1,180.000006866455
172,128,321922,1,2,0:0:0:0:
328,52,322088,1,0,0:0:0:0:
68,40,322255,6,0,L|71:159,1,120.000004577637
240,340,322588,2,0,L|243:220,1,120.000004577637,2|0,0:0|0:0,0:0:0:0:
328,52,322922,1,0,0:0:0:0:
388,200,323088,1,2,0:0:0:0:
388,200,323172,1,0,0:0:0:0:
388,200,323255,1,0,0:0:0:0:
224,176,323422,1,2,0:0:0:0:
224,176,323505,1,0,0:0:0:0:
224,176,323588,6,0,L|40:184,1,180.000006866455,4|0,0:0|0:0,0:0:0:0:
27,216,323922,2,0,P|11:273|16:333,1,120.000004577637,2|0,0:0|0:0,0:0:0:0:
224,320,324255,1,0,0:0:0:0:
445,248,324422,1,0,0:0:0:0:
224,176,324588,1,2,0:0:0:0:
360,365,324755,1,0,0:0:0:0:
361,131,324922,6,0,P|364:71|349:13,1,120.000004577637
162,14,325255,2,0,P|147:72|150:131,1,120.000004577637,2|0,0:0|0:0,0:0:0:0:
152,292,325588,2,0,P|256:341|359:288,1,240.000009155274,0|2,0:0|0:0,0:0:0:0:
256,192,326088,1,0,0:0:0:0:
256,192,326171,1,0,0:0:0:0:
256,192,326255,5,4,0:0:0:0:
205,36,326421,1,0,0:0:0:0:
388,287,326588,1,2,0:0:0:0:
92,192,326754,1,0,0:0:0:0:
388,95,326921,1,4,0:0:0:0:
205,347,327088,1,0,0:0:0:0:
205,36,327255,1,2,0:0:0:0:
388,287,327422,1,0,0:0:0:0:
92,192,327588,5,4,0:0:0:0:
80,220,327671,1,0,0:0:0:0:
80,252,327755,1,0,0:0:0:0:
88,280,327838,1,0,0:0:0:0:
104,304,327921,2,0,L|168:296,1,60.0000022888184,4|0,0:0|0:0,0:0:0:0:
216,188,328088,2,0,L|280:196,1,60.0000022888184
369,338,328255,5,4,0:0:0:0:
403,304,328338,1,0,0:0:0:0:
427,262,328421,1,0,0:0:0:0:
439,215,328504,1,0,0:0:0:0:
439,167,328588,1,4,0:0:0:0:
426,120,328671,1,0,0:0:0:0:
402,78,328754,1,0,0:0:0:0:
368,44,328837,1,0,0:0:0:0:
324,28,328921,6,0,P|240:0|136:28,1,191.999994140625,4|2,0:0|0:0,0:0:0:0:
80,100,329421,1,0,0:0:0:0:
148,168,329588,2,0,P|155:261|65:222,1,191.999994140625,4|2,3:0|0:0,0:0:0:0:
316,312,330088,2,0,P|340:300|392:296,1,47.9999985351563
435,335,330255,2,0,P|443:283|411:227,1,95.9999970703126,4|0,0:3|0:0,0:0:0:0:
432,72,330588,1,2,0:0:0:0:
304,180,330755,5,0,0:0:0:0:
143,103,330921,1,4,0:3:0:0:
282,32,331088,1,0,0:0:0:0:
432,72,331255,1,2,0:0:0:0:
304,180,331421,2,0,P|308:240|312:256,1,47.9999985351563
364,280,331588,6,0,P|416:272|460:288,1,95.9999970703126,4|0,0:3|0:0,0:0:0:0:
276,364,331921,1,2,0:0:0:0:
170,283,332088,2,0,P|162:231|178:187,1,95.9999970703126,0|4,0:0|0:3,0:0:0:0:
282,32,332421,1,0,0:0:0:0:
461,69,332588,1,2,0:0:0:0:
328,197,332755,2,0,P|332:257|336:273,1,47.9999985351563
388,300,332921,6,0,L|512:296,1,95.9999970703126,4|0,0:3|0:0,0:0:0:0:
461,69,333255,1,2,0:0:0:0:
328,197,333421,1,0,0:0:0:0:
360,16,333588,1,4,0:3:0:0:
436,180,333755,1,0,0:0:0:0:
279,96,333921,1,2,0:0:0:0:
216,200,334088,2,0,L|220:280,1,47.9999985351563
268,328,334255,6,0,B|216:344|216:344|140:324|140:324|80:344,1,191.999994140625,4|2,0:0|0:0,0:0:0:0:
48,192,334755,1,0,0:0:0:0:
84,41,334921,2,0,B|140:60|140:60|216:40|216:40|268:56,1,191.999994140625,4|2,0:3|0:0,0:0:0:0:
416,60,335421,1,0,0:0:0:0:
252,136,335588,6,0,B|172:184|172:184|252:244,1,191.999994140625,4|2,0:3|0:0,0:0:0:0:
416,324,336088,1,0,0:0:0:0:
464,192,336255,1,4,0:3:0:0:
308,192,336421,1,0,0:0:0:0:
416,60,336588,1,2,0:0:0:0:
416,324,336755,2,0,L|380:276,1,47.9999985351563
252,244,336921,6,0,P|184:244|136:284,1,95.9999970703126,4|0,0:3|0:0,0:0:0:0:
52,368,337255,1,2,0:0:0:0:
256,144,337421,2,0,P|324:144|372:104,1,95.9999970703126,0|4,0:0|0:3,0:0:0:0:
480,5,337755,1,0,0:0:0:0:
256,144,337921,1,2,0:0:0:0:
334,219,338088,2,0,P|378:215|410:199,1,47.9999985351563
432,148,338255,6,0,P|464:215|368:298,1,191.999994140625,4|2,0:3|0:0,0:0:0:0:
228,240,338755,1,0,0:0:0:0:
351,131,338921,1,4,0:3:0:0:
176,122,339088,1,0,0:0:0:0:
334,219,339255,2,0,L|386:215,1,47.9999985351563,2|0,0:0|0:0,0:0:0:0:
488,48,339421,2,0,L|412:44,1,47.9999985351563,2|0,0:0|0:0,0:0:0:0:
184,0,339588,6,0,B|164:44|164:44|180:144,1,127.99999609375
248,164,339921,2,0,P|176:152|120:208,1,127.99999609375,2|0,0:0|0:0,0:0:0:0:
148,264,340255,2,0,P|220:276|276:220,1,127.99999609375
296,324,340588,2,0,P|360:324|416:372,1,127.99999609375,2|0,0:0|0:0,0:0:0:0:
472,308,340921,6,0,B|456:244|488:244|472:172,1,127.99999609375
416,120,341255,2,0,P|432:72|488:112,1,127.99999609375,2|0,0:0|0:0,0:0:0:0:
332,200,341588,2,0,P|256:176|176:180,1,127.99999609375,2|0,0:0|0:0,0:0:0:0:
120,184,341921,2,0,P|178:130|215:58,1,127.99999609375,2|0,0:0|0:0,0:0:0:0:
240,8,342255,6,0,P|257:85|300:153,1,127.99999609375
332,200,342588,2,0,P|400:220|448:276,1,127.99999609375,2|0,0:0|0:0,0:0:0:0:
392,328,342921,2,0,P|336:350|267:311,1,127.99999609375
200,352,343255,2,0,P|141:330|84:355,1,127.99999609375,2|0,0:0|0:0,0:0:0:0:
60,276,343588,6,0,P|128:252|216:268,1,127.99999609375
62,222,343921,2,0,P|133:228|206:280,1,127.99999609375,2|0,0:0|0:0,0:0:0:0:
272,172,344255,2,0,P|204:148|116:164,1,127.99999609375,2|0,0:0|0:0,0:0:0:0:
270,118,344588,2,0,P|198:124|125:176,1,127.99999609375,2|0,0:0|0:0,0:0:0:0:
181,255,344921,6,0,P|269:259|269:239,1,127.99999609375
344,292,345255,2,0,P|388:253|432:291,1,127.99999609375,2|0,0:0|0:0,0:0:0:0:
269,255,345588,2,0,P|311:195|377:167,1,127.99999609375
440,184,345921,2,0,P|452:124|424:48,1,127.99999609375,2|0,0:0|0:0,0:0:0:0:
352,80,346255,6,0,B|290:62|290:62|228:96,1,127.99999609375
144,96,346588,2,0,B|126:158|126:158|156:213,1,127.99999609375,2|0,0:0|0:0,0:0:0:0:
160,304,346921,2,0,B|222:322|222:322|284:288,1,127.99999609375,2|0,0:0|0:0,0:0:0:0:
368,288,347255,2,0,B|386:226|386:226|355:170,1,127.99999609375,2|0,0:0|0:0,0:0:0:0:
228,189,347588,6,0,L|360:169,1,127.99999609375
235,123,347921,2,0,L|359:171,1,127.99999609375,2|0,0:0|0:0,0:0:0:0:
274,69,348255,2,0,L|357:173,1,127.99999609375
334,42,348588,2,0,L|354:174,1,127.99999609375,2|0,0:0|0:0,0:0:0:0:
387,290,348921,6,0,B|363:238|363:238|351:154,1,127.99999609375
364,296,349255,2,0,B|317:262|317:262|264:196,1,127.99999609375,2|0,0:0|0:0,0:0:0:0:
344,312,349588,2,0,B|286:306|286:306|208:275,1,127.99999609375,2|0,0:0|0:0,0:0:0:0:
328,336,349921,2,0,B|276:360|276:360|192:372,1,127.99999609375,2|0,0:0|0:0,0:0:0:0:
91,335,350255,6,0,P|143:331|215:383,1,127.99999609375,6|0,0:0|0:0,0:0:0:0:
16,308,350588,2,0,P|40:276|80:256,2,63.9999980468751,2|0|0,0:0|0:0|0:0,0:0:0:0:
132,252,350921,2,0,P|100:236|80:128,1,127.99999609375,2|0,0:0|0:0,0:0:0:0:
204,68,351255,2,0,P|206:103|122:175,1,127.99999609375,2|0,0:0|0:0,0:0:0:0:
8,100,351588,6,0,P|37:80|141:116,1,127.99999609375,2|0,0:0|0:0,0:0:0:0:
236,208,351921,2,0,P|265:227|369:191,1,127.99999609375,2|0,0:0|0:0,0:0:0:0:
404,148,352255,1,2,0:0:0:0:
320,136,352366,1,0,0:0:0:0:
352,212,352477,1,0,0:0:0:0:
404,148,352588,2,0,L|416:68,1,63.9999980468751,2|0,0:0|0:0,0:0:0:0:
392,284,352810,1,0,0:0:0:0:
392,284,352921,6,0,P|464:288|520:324,1,127.99999609375,2|0,0:0|0:0,0:0:0:0:
329,290,353255,2,0,P|377:289|413:269,1,63.9999980468751,2|0,0:0|0:0,0:0:0:0:
352,212,353477,1,0,0:0:0:0:
277,349,353588,2,0,P|253:269|281:229,1,127.99999609375,2|0,0:0|0:0,0:0:0:0:
162,288,353921,2,2,P|210:248|306:240,1,127.99999609375,2|0,0:0|0:0,0:0:0:0:
149,200,354255,6,0,L|281:236,1,127.99999609375,2|0,0:0|0:0,0:0:0:0:
72,168,354588,2,0,L|195:134,1,127.99999609375,2|0,0:0|0:0,0:0:0:0:
272,100,354921,1,2,0:0:0:0:
205,52,355033,1,0,0:0:0:0:
195,134,355144,1,0,0:0:0:0:
262,185,355255,1,2,0:0:0:0:
338,152,355366,1,0,0:0:0:0:
348,69,355477,1,0,0:0:0:0:
288,12,355588,6,0,P|376:36|428:28,1,127.99999609375,6|0,0:0|0:0,0:0:0:0:
472,88,355921,2,0,L|464:168,1,63.9999980468751,2|0,0:0|0:0,0:0:0:0:
452,236,356144,1,0,0:0:0:0:
451,235,356255,2,0,P|403:275|342:265,1,127.99999609375,2|0,0:0|0:0,0:0:0:0:
256,292,356588,2,0,P|317:282|365:322,1,127.99999609375,2|0,0:0|0:0,0:0:0:0:
167,231,356921,6,0,L|183:367,1,127.99999609375,2|0,0:0|0:0,0:0:0:0:
270,164,357255,2,0,L|254:300,1,127.99999609375,2|0,0:0|0:0,0:0:0:0:
182,359,357588,1,2,0:0:0:0:
104,332,357699,1,0,0:0:0:0:
20,328,357810,1,0,0:0:0:0:
92,284,357921,1,2,0:0:0:0:
176,276,358033,1,0,0:0:0:0:
256,292,358144,1,0,0:0:0:0:
328,336,358255,5,6,0:0:0:0:
120,208,358921,1,6,0:0:0:0:
256,192,359588,12,0,362588,0:0:0:0:
44,288,362922,6,0,P|72:304|136:296,1,80,2|0,0:0|0:0,0:0:0:0:
224,220,363309,2,0,L|232:304,1,80,2|0,0:0|0:0,0:0:0:0:
96,152,363588,6,0,B|188:176|168:112|264:140,1,160,0|2,1:2|0:0,0:0:0:0:
224,220,363963,1,0,0:0:0:0:
128,80,364088,2,0,P|67:76|14:159,1,160,0|2,1:2|0:0,0:0:0:0:
48,224,364463,1,0,0:0:0:0:
168,320,364588,2,0,L|296:312,1,120,0|0,1:2|0:0,0:0:0:0:
377,309,364838,6,0,P|381:262|363:218,1,80,4|0,1:2|0:0,0:0:0:0:
196,112,365088,2,0,P|234:138|281:145,1,80,4|0,1:2|0:0,0:0:0:0:
464,60,365338,2,0,P|421:80|391:117,1,80,4|0,0:0|0:0,0:0:0:0:
496,304,365588,6,0,L|476:144,1,160,4|2,1:2|0:0,0:0:0:0:
320,16,365963,1,0,0:0:0:0:
376,316,366088,6,0,L|344:160,1,160,4|2,1:2|0:0,0:0:0:0:
196,112,366463,1,0,0:0:0:0:
272,368,366588,6,0,L|223:216,1,160,4|2,1:2|0:0,0:0:0:0:
132,256,366963,1,0,0:0:0:0:
32,240,367088,5,0,1:0:0:0:
198,329,367213,1,0,1:0:0:0:
119,157,367338,1,0,1:0:0:0:
83,343,367463,1,0,1:0:0:0:
222,214,367588,6,0,B|280:208|280:208|320:228|320:228|392:220,1,160,4|2,1:2|0:0,0:0:0:0:
276,292,367963,1,0,0:0:0:0:
452,296,368088,2,0,P|464:232|436:128,1,160,0|2,1:2|0:0,0:0:0:0:
360,16,368463,1,0,0:0:0:0:
244,96,368588,2,0,L|116:88,1,120,0|0,1:2|0:0,0:0:0:0:
75,85,368838,6,0,B|43:126|43:126|40:169,1,80,6|0,1:2|0:0,0:0:0:0:
285,255,369088,2,0,B|266:207|266:207|230:182,1,80,6|0,0:0|0:0,0:0:0:0:
30,352,369338,2,0,B|82:360|82:360|121:341,1,80,6|0,1:2|0:0,0:0:0:0:
170,126,369588,6,0,B|140:162|152:200|152:200|119:222|119:273,1,160,6|2,1:2|0:0,0:0:0:0:
228,360,369963,1,0,0:0:0:0:
376,308,370088,6,0,B|405:271|393:233|393:233|426:211|426:160,1,160,6|2,1:2|0:0,0:0:0:0:
318,74,370463,1,0,0:0:0:0:
256,180,370588,6,0,P|308:176|348:160,1,80,4|0,1:2|0:0,0:0:0:0:
484,8,370838,2,0,P|432:12|392:28,1,80,6|0,0:0|0:0,0:0:0:0:
256,180,371088,6,0,P|204:176|164:160,1,80,4|0,1:2|0:0,0:0:0:0:
52,8,371338,2,0,P|104:12|144:28,1,80,6|0,0:0|0:0,0:0:0:0:
456,112,371588,6,0,B|476:192|476:192|460:272,1,160,6|2,1:2|0:0,0:0:0:0:
256,100,371963,1,0,0:0:0:0:
52,268,372088,2,0,B|36:191|36:191|56:111,1,160,6|2,1:2|0:0,0:0:0:0:
168,248,372463,1,0,0:0:0:0:
256,340,372588,6,0,B|284:264|228:264|252:180,1,160,6|2,1:2|0:0,0:0:0:0:
256,100,372963,1,0,0:0:0:0:
360,352,373088,5,2,1:2:0:0:
168,248,373213,1,2,0:0:0:0:
344,248,373338,1,2,0:0:0:0:
152,352,373463,1,2,0:0:0:0:
436,280,373588,6,0,B|448:168|448:168|416:116,1,160,6|0,1:2|1:0,0:0:0:0:
88,127,373963,2,0,B|64:168|64:168|76:280,1,160,6|0,1:2|0:0,0:0:0:0:
152,352,374338,2,0,P|204:360|232:352,1,80,6|0,1:2|0:0,0:0:0:0:
360,32,374588,2,0,P|308:24|280:32,1,80,6|0,1:2|0:0,0:0:0:0:
88,127,374838,5,2,0:0:0:0:
84,140,374900,1,0,0:0:0:0:
80,152,374963,1,0,0:0:0:0:
76,164,375025,1,0,0:0:0:0:
72,176,375088,1,4,1:2:0:0:
68,188,375150,1,0,0:0:0:0:
64,200,375213,1,0,0:0:0:0:
60,212,375275,1,0,0:0:0:0:
56,224,375338,1,2,0:0:0:0:
52,236,375400,1,0,0:0:0:0:
48,248,375463,1,0,0:0:0:0:
44,260,375525,1,0,0:0:0:0:
40,272,375588,6,0,B|120:264|120:264|192:320,1,160,6|2,1:2|0:0,0:0:0:0:
256,192,375963,1,0,0:0:0:0:
329,312,376088,2,0,B|392:264|392:264|472:272,1,160,6|2,1:2|0:0,0:0:0:0:
428,372,376463,1,0,0:0:0:0:
256,268,376588,6,0,B|284:192|228:192|252:108,1,160,6|2,1:2|0:0,0:0:0:0:
256,16,376963,1,0,0:0:0:0:
64,168,377088,2,0,P|100:184|148:188,1,80,6|0,1:2|0:0,0:0:0:0:
371,188,377338,2,0,P|411:184|448:168,1,80,6|0,1:2|0:0,0:0:0:0:
256,0,377588,5,2,1:2:0:0:
136,100,377713,1,0,1:2:0:0:
376,100,377838,6,0,B|332:104|332:104|300:84,1,80
176,24,378088,6,0,L|136:8,1,40,0|0,1:0|0:0,0:0:0:0:
112,92,378213,2,0,L|68:90,1,40,0|0,1:0|0:0,0:0:0:0:
64,168,378338,5,2,1:2:0:0:
72,176,378400,1,0,0:0:0:0:
80,184,378463,1,0,0:0:0:0:
88,192,378525,1,0,0:0:0:0:
96,200,378588,6,0,L|88:240,3,40,2|0|0|0,1:2|0:0|0:0|0:0,0:0:0:0:
196,180,378838,6,0,L|188:140,1,40,2|0,1:2|0:0,0:0:0:0:
256,280,378963,2,0,L|248:320,1,40,2|0,1:2|0:0,0:0:0:0:
348,208,379088,5,2,1:2:0:0:
352,196,379150,1,0,0:0:0:0:
356,184,379213,1,0,0:0:0:0:
360,172,379275,1,0,0:0:0:0:
364,160,379338,1,2,1:2:0:0:
368,148,379400,1,0,0:0:0:0:
372,136,379463,1,0,0:0:0:0:
376,124,379525,1,0,0:0:0:0:
380,111,379588,6,0,P|383:64|376:16,1,95.9999970703126
208,40,379838,2,0,P|204:87|211:135,1,95.9999970703126,2|0,0:0|0:0,0:0:0:0:
428,184,380088,1,4,0:3:0:0:
216,216,380213,1,0,0:0:0:0:
380,280,380338,1,6,0:3:0:0:
168,280,380463,1,0,0:0:0:0:
484,276,380588,6,0,L|480:112,1,143.999995605469,4|0,0:3|0:0,0:0:0:0:
455,95,380838,2,0,P|412:77|364:79,1,95.9999970703126,2|0,0:0|0:0,0:0:0:0:
300,268,381088,1,4,0:3:0:0:
284,64,381213,1,0,0:0:0:0:
200,244,381338,1,6,0:3:0:0:
208,40,381463,1,0,0:0:0:0:
115,204,381588,6,0,P|107:251|115:298,1,95.9999970703126,4|0,0:0|0:0,0:0:0:0:
280,288,381838,2,0,P|288:240|280:193,1,95.9999970703126,2|0,0:0|0:0,0:0:0:0:
76,32,382088,1,4,0:3:0:0:
284,64,382213,1,0,0:0:0:0:
115,204,382338,1,4,0:3:0:0:
115,204,382400,1,0,0:0:0:0:
115,204,382463,1,0,0:0:0:0:
376,60,382588,6,0,L|372:155,1,95.9999970703126,0|0,0:3|0:0,0:0:0:0:
480,308,382838,2,0,L|476:212,1,95.9999970703126,2|0,0:0|0:0,0:0:0:0:
280,288,383088,2,0,B|256:292|256:292|240:284|240:284|232:296|232:296|214:289|214:289|200:304|200:304|164:324|120:316|100:276,1,191.999994140625,4|2,0:3|0:0,0:0:0:0:
120,76,383463,1,0,0:0:0:0:
300,40,383588,6,0,L|395:47,1,95.9999970703126,4|0,0:0|0:0,0:0:0:0:
443,227,383838,2,0,L|348:220,1,95.9999970703126,2|0,0:0|0:0,0:0:0:0:
120,76,384088,1,4,0:3:0:0:
300,40,384213,1,0,0:0:0:0:
348,220,384338,1,6,0:3:0:0:
168,256,384463,1,0,0:0:0:0:
36,48,384588,6,0,L|32:143,1,95.9999970703126
72,364,384838,2,0,L|75:268,1,95.9999970703126,2|0,0:0|0:0,0:0:0:0:
200,108,385088,1,4,0:3:0:0:
392,136,385213,1,0,0:0:0:0:
256,32,385338,1,6,0:3:0:0:
348,220,385463,1,0,0:0:0:0:
168,256,385588,5,4,0:3:0:0:
148,252,385650,1,0,0:0:0:0:
132,242,385713,1,0,0:0:0:0:
119,227,385775,1,0,0:0:0:0:
112,209,385838,1,4,0:3:0:0:
112,190,385900,1,0,0:0:0:0:
119,171,385963,1,0,0:0:0:0:
132,157,386025,1,0,0:0:0:0:
148,144,386088,2,0,L|195:150,3,47.9999985351563,8|0|0|0,0:3|0:0|0:0|0:0,0:0:0:0:
224,80,386338,2,0,L|271:73,3,47.9999985351563,2|0|2|0,0:3|0:0|0:3|0:0,0:0:0:0:
348,56,386588,5,4,0:3:0:0:
352,76,386650,1,0,0:0:0:0:
356,96,386713,1,0,0:0:0:0:
360,116,386775,1,0,0:0:0:0:
364,136,386838,1,4,0:3:0:0:
368,156,386900,1,0,0:0:0:0:
372,176,386963,1,0,0:0:0:0:
376,196,387025,1,0,0:0:0:0:
380,216,387088,2,0,L|376:272,3,47.9999985351563,4|0|0|0,0:3|0:0|0:0|0:0,0:0:0:0:
428,324,387338,1,2,0:0:0:0:
132,328,387588,5,4,0:0:0:0:
104,301,387650,1,0,0:0:0:0:
88,267,387713,1,0,0:0:0:0:
85,228,387775,1,0,0:0:0:0:
92,184,387838,1,2,0:0:0:0:
108,144,387900,1,0,0:0:0:0:
116,100,387963,1,0,0:0:0:0:
108,56,388025,1,0,0:0:0:0:
75,29,388088,6,0,L|30:10,1,47.9999985351563,6|0,0:3|0:0,0:0:0:0:
14,188,388213,2,0,L|-5:232,1,47.9999985351563
168,249,388338,2,0,L|212:267,1,47.9999985351563,6|0,0:3|0:0,0:0:0:0:
231,91,388463,2,0,L|249:46,1,47.9999985351563
372,32,388588,5,6,0:3:0:0:
400,56,388650,1,0,0:0:0:0:
424,88,388713,1,0,0:0:0:0:
444,120,388775,1,0,0:0:0:0:
456,156,388838,1,6,0:3:0:0:
460,192,388900,1,0,0:0:0:0:
456,228,388962,1,0,0:0:0:0:
444,264,389025,1,0,0:0:0:0:
424,296,389087,5,6,0:3:0:0:
400,328,389150,1,0,0:0:0:0:
372,352,389212,1,0,0:0:0:0:
336,360,389275,1,0,0:0:0:0:
296,360,389338,2,0,L|192:344,1,95.9999970703126,6|0,0:3|0:0,0:0:0:0:
64,244,389588,5,6,0:3:0:0:
59,205,389650,1,0,0:0:0:0:
67,167,389713,1,0,0:0:0:0:
88,136,389775,1,0,0:0:0:0:
119,112,389838,1,6,0:3:0:0:
155,101,389900,1,0,0:0:0:0:
193,104,389963,1,0,0:0:0:0:
229,118,390025,1,0,0:0:0:0:
256,136,390088,5,6,0:3:0:0:
283,118,390150,1,0,0:0:0:0:
319,104,390212,1,0,0:0:0:0:
357,101,390275,1,0,0:0:0:0:
393,112,390337,1,6,0:3:0:0:
424,136,390400,1,0,0:0:0:0:
445,167,390462,1,0,0:0:0:0:
453,205,390525,1,0,0:0:0:0:
448,244,390588,6,0,L|428:288,3,47.9999985351563,6|0|0|0,0:3|0:0|0:0|0:0,0:0:0:0:
356,256,390838,2,0,L|322:290,3,47.9999985351563,6|0|0|0,0:3|0:0|0:0|0:0,0:0:0:0:
272,208,391088,2,0,L|225:195,3,47.9999985351563,6|0|0|0,0:3|0:0|0:0|0:0,0:0:0:0:
172,256,391338,2,0,L|132:228,3,47.9999985351563,6|0|0|0,0:3|0:0|0:0|0:0,0:0:0:0:
68,88,391588,5,6,0:3:0:0:
104,84,391650,1,0,0:0:0:0:
144,80,391713,1,0,0:0:0:0:
180,76,391775,1,0,0:0:0:0:
220,72,391838,1,6,0:3:0:0:
256,68,391900,1,0,0:0:0:0:
296,64,391963,1,0,0:0:0:0:
332,60,392025,1,0,0:0:0:0:
372,56,392088,6,0,L|372:104,1,47.9999985351563,6|0,0:3|0:0,0:0:0:0:
296,268,392213,2,0,L|296:220,1,47.9999985351563
180,76,392338,2,0,L|180:124,1,47.9999985351563,6|0,0:3|0:0,0:0:0:0:
104,288,392463,2,0,L|104:240,1,47.9999985351563
224,352,392588,5,6,0:3:0:0:
266,354,392650,1,0,0:0:0:0:
308,346,392713,1,0,0:0:0:0:
346,327,392775,1,0,0:0:0:0:
378,299,392838,1,6,0:3:0:0:
402,264,392900,1,0,0:0:0:0:
416,224,392963,1,0,0:0:0:0:
418,181,393025,1,0,0:0:0:0:
410,139,393088,5,6,0:3:0:0:
391,101,393150,1,0,0:0:0:0:
363,69,393213,1,0,0:0:0:0:
328,45,393275,1,0,0:0:0:0:
288,32,393338,1,6,0:3:0:0:
245,29,393400,1,0,0:0:0:0:
203,37,393463,1,0,0:0:0:0:
165,56,393525,1,0,0:0:0:0:
132,88,393588,5,8,0:3:0:0:
136,104,393650,1,8,0:3:0:0:
140,120,393713,1,8,0:3:0:0:
144,132,393775,1,8,0:3:0:0:
148,148,393838,1,8,0:3:0:0:
152,160,393900,1,4,0:3:0:0:
156,176,393963,1,4,0:3:0:0:
160,188,394025,1,4,0:3:0:0:
164,204,394088,2,0,L|232:208,3,47.9999985351563,4|0|0|0,0:3|0:0|0:0|0:0,0:0:0:0:
180,300,394338,5,8,0:3:0:0:
232,320,394400,1,8,0:3:0:0:
288,320,394463,1,8,0:3:0:0:
336,300,394525,1,8,0:3:0:0:
371,264,394588,6,0,P|419:133|347:14,1,287.999991210938,4|0,0:0|0:0,0:0:0:0:
164,14,395088,6,0,P|92:133|141:264,1,287.999991210938,4|0,0:0|0:0,0:0:0:0:
288,188,395588,5,6,0:0:0:0:
256,368,395713,1,0,0:0:0:0:
140,263,395838,1,8,0:0:0:0:
404,316,395963,1,2,0:0:0:0:
55,243,396088,2,0,P|77:203|187:191,1,160,0|8,1:0|0:0,0:0:0:0:
182,188,396463,1,2,0:0:0:0:
372,120,396588,5,4,0:3:0:0:
140,264,396713,1,0,0:0:0:0:
328,308,396838,1,8,0:0:0:0:
184,76,396963,1,2,0:0:0:0:
396,196,397088,2,0,B|407:158|407:158|407:116,1,80,0|0,1:0|0:0,0:0:0:0:
182,188,397338,1,8,0:0:0:0:
407,117,397463,1,2,0:0:0:0:
104,32,397588,6,0,B|96:72|96:72|101:111,1,80,4|0,0:3|0:0,0:0:0:0:
264,220,397838,1,8,0:0:0:0:
336,32,397963,1,2,0:0:0:0:
20,144,398088,2,0,B|42:177|42:177|73:201,1,80,0|0,1:0|0:0,0:0:0:0:
332,156,398338,1,8,0:0:0:0:
73,201,398463,1,2,0:0:0:0:
376,232,398588,6,0,L|364:336,1,80,4|0,0:3|0:0,0:0:0:0:
160,240,398838,1,8,0:0:0:0:
456,264,398963,1,2,0:0:0:0:
82,280,399088,2,0,L|72:200,1,80,0|0,1:0|0:0,0:0:0:0:
232,32,399338,1,8,0:0:0:0:
299,185,399463,1,2,0:0:0:0:
280,352,399588,6,0,B|224:344|224:344|200:348|200:348|112:352,1,160,4|8,0:3|0:0,0:0:0:0:
110,111,399963,1,2,0:0:0:0:
344,160,400088,2,0,B|344:188|344:188|332:248,1,80,0|0,1:0|0:0,0:0:0:0:
72,200,400338,1,8,0:0:0:0:
218,109,400463,1,2,0:0:0:0:
372,184,400588,6,0,L|364:292,1,80,4|0,0:3|0:0,0:0:0:0:
164,188,400838,1,8,0:0:0:0:
436,92,400963,1,2,0:0:0:0:
104,32,401088,2,0,L|112:140,1,80,0|0,1:0|0:0,0:0:0:0:
408,352,401338,2,0,L|400:244,1,80,8|2,0:0|0:0,0:0:0:0:
192,101,401588,5,4,0:3:0:0:
346,128,401713,1,2,0:0:0:0:
319,282,401838,1,8,0:0:0:0:
165,255,401963,1,2,0:0:0:0:
241,27,402088,5,0,1:0:0:0:
420,177,402213,1,2,0:0:0:0:
270,356,402338,1,8,0:0:0:0:
91,206,402463,1,2,0:0:0:0:
325,42,402588,5,4,0:3:0:0:
405,261,402713,1,2,0:0:0:0:
186,341,402838,5,8,1:2:0:0:
161,328,402900,1,0,1:0:0:0:
134,322,402963,1,0,1:0:0:0:
106,323,403025,1,0,1:0:0:0:
80,332,403088,2,0,L|92:380,1,40,4|0,1:2|0:0,0:0:0:0:
208,184,403213,1,0,0:0:0:0:
384,337,403338,5,0,1:0:0:0:
411,341,403400,1,0,1:0:0:0:
438,335,403463,1,0,1:0:0:0:
461,319,403525,1,0,1:0:0:0:
476,296,403588,6,0,P|477:231|388:184,1,160,0|8,0:0|0:0,0:0:0:0:
256,272,403963,1,2,0:0:0:0:
325,42,404088,2,0,L|317:142,1,80,0|0,1:0|0:0,0:0:0:0:
256,272,404338,1,8,0:0:0:0:
204,80,404463,1,2,0:0:0:0:
404,184,404588,5,4,0:3:0:0:
168,212,404713,1,0,0:0:0:0:
404,184,404838,1,8,0:0:0:0:
168,212,404963,1,2,0:0:0:0:
472,124,405088,2,0,B|490:160|490:160|474:292,1,160,0|8,1:0|0:0,0:0:0:0:
248,160,405463,1,2,0:0:0:0:
414,69,405588,6,0,P|447:47|487:46,1,80,4|0,0:3|0:0,0:0:0:0:
320,208,405838,1,8,0:0:0:0:
204,36,405963,1,2,0:0:0:0:
24,140,406088,2,0,L|36:240,1,80,0|0,1:0|0:0,0:0:0:0:
312,120,406338,1,8,0:0:0:0:
72,72,406463,1,2,0:0:0:0:
400,284,406588,6,0,B|407:220|407:220|401:187|401:187|408:124,1,160,4|8,0:3|0:0,0:0:0:0:
420,24,406963,1,2,0:0:0:0:
228,216,407088,1,0,1:0:0:0:
496,168,407213,1,0,0:0:0:0:
312,120,407338,1,8,0:0:0:0:
133,184,407463,1,2,0:0:0:0:
133,184,407525,1,0,0:0:0:0:
133,184,407588,5,4,0:3:0:0:
308,292,407713,1,0,0:0:0:0:
256,24,407838,1,8,0:0:0:0:
32,180,407963,1,2,0:0:0:0:
323,370,408088,2,0,P|382:320|376:244,1,160,0|8,1:0|0:0,0:0:0:0:
212,132,408463,1,2,0:0:0:0:
128,300,408588,6,0,L|136:404,1,80,4|0,0:3|0:0,0:0:0:0:
308,292,408838,1,8,0:0:0:0:
52,256,408963,1,2,0:0:0:0:
344,100,409088,1,0,1:0:0:0:
308,292,409213,1,0,0:0:0:0:
136,80,409338,2,0,L|129:0,1,80,8|2,0:0|0:0,0:0:0:0:
312,180,409588,5,4,0:3:0:0:
200,204,409713,1,2,0:0:0:0:
340,210,409838,1,8,0:0:0:0:
172,174,409963,1,2,0:0:0:0:
382,165,410088,1,0,1:0:0:0:
129,219,410213,1,2,0:0:0:0:
445,232,410338,1,8,0:0:0:0:
66,151,410463,1,2,0:0:0:0:
511,137,410588,5,4,0:3:0:0:
0,246,410838,1,12,0:3:0:0:
488,311,411088,1,8,0:3:0:0:
23,72,411338,2,0,L|16:44,8,30.0000011444092,0|0|0|0|0|0|0|0|0,1:0|1:0|1:0|1:0|1:0|1:0|1:0|1:0|1:0,1:0:0:0:
64,104,419588,6,0,P|60:144|60:216,1,80,4|0,0:0|0:0,0:0:0:0:
144,260,419838,2,0,P|148:220|148:148,1,80,2|0,0:0|0:0,0:0:0:0:
200,88,420088,1,0,0:0:0:0:
200,88,420213,1,0,0:0:0:0:
284,152,420338,1,2,0:0:0:0:
284,152,420463,1,0,0:0:0:0:
416,88,420588,6,2,P|448:76|488:80,2,53.3333333333333
384,160,420838,2,0,L|372:260,1,80,2|0,0:0|0:0,0:0:0:0:
296,328,421088,2,0,P|264:320|224:320,1,40,2|0,0:0|0:0,0:0:0:0:
204,264,421213,2,0,P|172:275|139:297,1,40,2|0,0:0|0:0,0:0:0:0:
88,240,421338,2,0,P|76:160|80:136,1,80,2|0,0:0|0:0,0:0:0:0:
148,64,421588,5,4,0:0:0:0:
148,64,421713,1,0,0:0:0:0:
228,156,421838,1,2,0:0:0:0:
228,156,421963,1,0,0:0:0:0:
300,60,422088,1,0,0:0:0:0:
300,60,422213,1,0,0:0:0:0:
364,160,422338,1,2,0:0:0:0:
364,160,422463,1,0,0:0:0:0:
432,260,422588,6,0,P|384:288|344:288,1,80,2|0,0:0|0:0,0:0:0:0:
252,236,422838,2,0,L|192:224,3,40,2|0|0|0,0:0|0:0|0:0|0:0,0:0:0:0:
184,200,423088,2,0,L|144:192,3,40,2|0|0|0,0:0|0:0|0:0|0:0,0:0:0:0:
124,160,423338,2,0,L|84:152,3,40,2|0|0|0,0:0|0:0|0:0|0:0,0:0:0:0:
32,68,423588,6,0,L|36:20,1,40,2|0,0:0|0:0,0:0:0:0:
112,80,423713,2,0,L|116:32,1,40,2|0,0:0|0:0,0:0:0:0:
192,96,423838,6,0,L|196:48,1,40
272,108,423963,2,0,L|276:60,1,40,2|0,0:0|0:0,0:0:0:0:
352,40,424088,5,2,0:0:0:0:
352,40,424150,1,0,0:0:0:0:
352,40,424213,1,0,0:0:0:0:
352,40,424275,1,0,0:0:0:0:
352,40,424338,2,0,L|360:136,1,80,2|0,0:0|0:0,0:0:0:0:
360,232,424588,6,0,L|360:348,1,80,6|0,0:0|0:0,0:0:0:0:
272,352,424838,2,0,L|272:272,1,80,2|0,0:0|0:0,0:0:0:0:
212,204,425088,1,6,0:0:0:0:
173,194,425150,1,0,0:0:0:0:
134,204,425213,1,0,0:0:0:0:
104,230,425275,1,0,0:0:0:0:
64,244,425338,2,0,L|40:148,1,80,2|0,0:0|0:0,0:0:0:0:
72,76,425588,5,6,0:0:0:0:
108,60,425650,1,0,0:0:0:0:
148,64,425713,1,0,0:0:0:0:
180,88,425775,1,0,0:0:0:0:
208,116,425838,2,0,P|264:128|304:116,1,80,2|0,0:0|0:0,0:0:0:0:
426,91,426088,2,0,L|468:158,1,80,6|0,0:0|0:0,0:0:0:0:
411,256,426338,2,0,L|368:188,1,80,6|0,0:0|0:0,0:0:0:0:
496,272,426588,5,2,0:0:0:0:
484,308,426650,1,0,0:0:0:0:
452,336,426713,1,2,0:0:0:0:
412,344,426775,1,0,0:0:0:0:
376,336,426838,6,0,P|320:312|252:312,1,95.9999970703126,6|0,0:0|0:0,0:0:0:0:
168,364,427088,6,0,P|100:372|40:356,1,111.999996582031,6|0,0:0|0:0,0:0:0:0:
8,216,427338,1,2,0:0:0:0:
28,164,427400,1,0,0:0:0:0:
76,140,427463,1,2,0:0:0:0:
132,144,427525,1,0,0:0:0:0:
132,144,427588,6,0,B|204:124|204:124|284:148,1,143.999995605469,6|0,0:0|0:0,0:0:0:0:
340,208,427838,2,0,L|352:256,1,47.9999985351563,2|0,0:0|0:0,0:0:0:0:
475,194,427963,2,0,L|463:147,1,47.9999985351563,2|0,0:0|0:0,0:0:0:0:
324,52,428088,5,2,0:0:0:0:
440,284,428213,1,0,0:0:0:0:
419,63,428338,2,0,L|315:51,1,95.9999970703126,2|0,0:0|0:0,0:0:0:0:
168,240,428588,6,0,B|148:292|148:292|172:384,1,143.999995605469,2|0,0:0|0:0,0:0:0:0:
262,301,428838,2,0,B|282:249|282:249|258:157,1,143.999995605469,2|0,0:0|0:0,0:0:0:0:
168,240,429088,6,0,L|100:248,1,47.9999985351563,2|0,0:0|0:0,0:0:0:0:
0,145,429213,2,0,L|48:140,1,47.9999985351563,2|0,0:0|0:0,0:0:0:0:
184,120,429338,6,0,L|116:128,1,47.9999985351563,2|0,0:0|0:0,0:0:0:0:
16,25,429463,2,0,L|63:19,1,47.9999985351563,2|0,0:0|0:0,0:0:0:0:
184,36,429588,6,0,B|240:52|240:52|332:40,1,143.999995605469,2|0,0:0|0:0,0:0:0:0:
404,28,429838,1,2,0:0:0:0:
259,163,429963,1,0,0:0:0:0:
472,120,430088,6,0,B|500:104|500:104|484:216,1,143.999995605469,2|0,0:0|0:0,0:0:0:0:
472,292,430338,1,2,0:0:0:0:
372,160,430463,1,0,0:0:0:0:
336,312,430588,6,0,L|220:324,1,95.9999970703126,2|0,0:0|0:0,0:0:0:0:
216,328,430775,1,0,0:0:0:0:
192,332,430838,1,2,0:0:0:0:
40,272,430963,1,0,0:0:0:0:
0,120,431088,6,0,P|-1:94|2:71,1,47.9999985351563,2|0,0:0|0:0,0:0:0:0:
116,100,431213,2,0,P|127:77|142:59,1,47.9999985351563,2|0,0:0|0:0,0:0:0:0:
232,136,431338,2,0,P|253:122|275:114,1,47.9999985351563,2|0,0:0|0:0,0:0:0:0:
307,226,431463,2,0,P|332:224|355:228,1,47.9999985351563,2|0,0:0|0:0,0:0:0:0:
444,360,431588,6,0,B|428:300|428:300|436:260,1,95.9999970703126,2|0,0:0|0:0,0:0:0:0:
456,192,431775,1,0,0:0:0:0:
481,117,431838,2,0,B|487:83|487:83|471:23,1,95.9999970703126,2|0,0:0|0:0,0:0:0:0:
356,20,432088,6,0,L|256:12,1,95.9999970703126,2|0,0:0|0:0,0:0:0:0:
16,192,432338,2,0,L|116:184,1,95.9999970703126,2|0,0:0|0:0,0:0:0:0:
220,208,432588,5,2,0:0:0:0:
192,328,432713,1,0,0:0:0:0:
284,132,432838,5,2,0:0:0:0:
308,292,432963,1,0,0:0:0:0:
268,48,433088,5,2,0:0:0:0:
408,208,433213,1,0,0:0:0:0:
188,0,433338,5,2,0:0:0:0:
460,80,433463,1,0,0:0:0:0:
108,56,433588,6,0,L|96:160,1,95.9999970703126,2|0,0:0|0:0,0:0:0:0:
219,367,433838,2,0,L|208:272,1,95.9999970703126,2|0,0:0|0:0,0:0:0:0:
364,48,434088,6,0,L|352:152,1,95.9999970703126,2|0,0:0|0:0,0:0:0:0:
475,359,434338,2,0,L|463:263,1,95.9999970703126,2|0,0:0|0:0,0:0:0:0:
364,48,434588,6,0,P|300:40|264:44,1,95.9999970703126,2|0,0:0|0:0,0:0:0:0:
120,128,434838,6,0,L|108:176,1,47.9999985351563,6|0,0:0|0:0,0:0:0:0:
80,288,434963,1,0,0:0:0:0:
196,108,435088,6,0,L|196:156,1,47.9999985351563,6|0,0:0|0:0,0:0:0:0:
196,312,435213,1,0,0:0:0:0:
264,64,435338,6,0,L|272:116,1,47.9999985351563,6|0,0:0|0:0,0:0:0:0:
312,332,435463,1,0,0:0:0:0:
328,12,435588,6,0,L|456:8,1,95.9999970703126,4|0,0:0|0:0,0:0:0:0:
511,173,435838,2,0,L|416:176,1,95.9999970703126,2|0,0:0|0:0,0:0:0:0:
295,205,436088,6,0,L|279:253,1,47.9999985351563
211,357,436213,2,0,L|195:309,1,47.9999985351563
167,161,436338,6,0,L|151:209,1,47.9999985351563,2|0,0:0|0:0,0:0:0:0:
83,313,436463,2,0,L|67:265,1,47.9999985351563
48,152,436588,6,0,P|36:120|40:80,2,63.9999980468751,2|2|0,0:0|0:0|0:0,0:0:0:0:
116,80,436838,6,0,B|164:72|164:72|212:80,1,95.9999970703126,2|0,0:0|0:0,0:0:0:0:
231,378,437088,2,0,B|200:340|200:340|183:294,1,95.9999970703126,2|0,0:0|0:0,0:0:0:0:
432,129,437338,2,0,B|414:174|414:174|384:212,1,95.9999970703126,2|0,0:0|0:0,0:0:0:0:
282,269,437588,5,2,0:0:0:0:
441,315,437713,1,0,0:0:0:0:
384,211,437838,1,2,0:0:0:0:
336,368,437963,1,0,0:0:0:0:
196,268,438088,5,2,0:0:0:0:
37,314,438213,1,0,0:0:0:0:
94,210,438338,1,2,0:0:0:0:
141,371,438463,1,0,0:0:0:0:
180,164,438588,6,0,P|152:136|120:124,2,63.9999980468751,2|2|0,0:0|0:0|0:0,0:0:0:0:
264,184,438838,6,0,P|268:128|252:80,1,95.9999970703126,2|0,0:0|0:0,0:0:0:0:
180,24,439088,1,2,0:0:0:0:
364,96,439213,1,2,0:0:0:0:
180,164,439338,1,0,0:0:0:0:
364,236,439463,1,2,0:0:0:0:
280,320,439588,6,0,L|252:360,3,47.9999985351563,2|0|0|0,0:0|0:0|0:0|0:0,0:0:0:0:
376,332,439838,1,2,0:0:0:0:
272,224,439963,1,2,0:0:0:0:
172,312,440088,2,0,L|68:324,1,95.9999970703126,2|0,0:0|0:0,0:0:0:0:
0,160,440338,2,0,L|95:148,1,95.9999970703126,2|0,0:0|0:0,0:0:0:0:
216,140,440588,6,0,B|224:88|224:88|136:52,1,143.999995605469,2|0,0:0|0:0,0:0:0:0:
68,24,440838,1,2,0:0:0:0:
164,204,440963,1,2,0:0:0:0:
296,128,441088,6,0,L|452:116,1,143.999995605469,2|0,0:0|0:0,0:0:0:0:
512,112,441338,1,2,0:0:0:0:
376,24,441463,1,2,0:0:0:0:
404,224,441588,5,2,0:0:0:0:
420,260,441650,1,0,0:0:0:0:
416,300,441713,1,0,0:0:0:0:
392,332,441775,1,0,0:0:0:0:
356,344,441838,1,2,0:0:0:0:
320,336,441900,1,0,0:0:0:0:
292,308,441963,1,0,0:0:0:0:
260,288,442025,1,0,0:0:0:0:
220,284,442088,5,2,0:0:0:0:
180,308,442150,1,0,0:0:0:0:
132,312,442213,1,0,0:0:0:0:
92,284,442275,1,0,0:0:0:0:
76,240,442338,5,2,0:0:0:0:
88,184,442400,1,0,0:0:0:0:
136,152,442463,1,0,0:0:0:0:
192,156,442525,1,0,0:0:0:0:
236,192,442588,6,0,L|332:184,1,80,2|2,0:0|0:0,0:0:0:0:
440,168,442838,5,6,0:0:0:0:
260,104,442963,1,2,0:0:0:0:
464,8,443088,5,6,0:0:0:0:
212,0,443213,1,2,0:0:0:0:
492,92,443338,6,0,L|524:96,2,20,6|0|0,0:0|0:0|0:0,0:0:0:0:
172,76,443463,2,0,L|136:80,2,20,2|0|0,0:0|0:0|0:0,0:0:0:0:
440,168,443588,5,2,0:0:0:0:
448,214,443650,1,0,0:0:0:0:
428,257,443713,1,0,0:0:0:0:
388,283,443775,1,0,0:0:0:0:
341,281,443838,2,0,L|280:264,1,47.9999985351563,2|0,0:0|0:0,0:0:0:0:
393,154,443963,2,0,L|439:167,1,47.9999985351563
252,328,444088,2,0,P|224:268|272:200,1,143.999995605469,2|0,0:0|0:0,0:0:0:0:
292,176,444338,2,0,P|300:124|300:68,1,95.9999970703126,2|2,0:0|0:0,0:0:0:0:
160,108,444588,5,2,0:0:0:0:
114,94,444650,1,0,0:0:0:0:
70,110,444713,1,0,0:0:0:0:
46,150,444775,1,0,0:0:0:0:
60,196,444838,1,2,0:0:0:0:
103,215,444900,1,0,0:0:0:0:
130,254,444963,1,2,0:0:0:0:
136,300,445025,1,0,0:0:0:0:
115,340,445088,2,0,P|171:316|259:332,1,143.999995605469,2|0,0:0|0:0,0:0:0:0:
284,356,445338,2,0,P|320:352|352:340,1,47.9999985351563,2|0,0:0|0:0,0:0:0:0:
488,272,445463,2,0,P|464:270|440:264,1,47.9999985351563,2|0,0:0|0:0,0:0:0:0:
300,184,445588,5,2,0:0:0:0:
300,136,445650,1,0,0:0:0:0:
330,100,445713,1,0,0:0:0:0:
376,91,445775,1,0,0:0:0:0:
417,113,445838,2,0,P|448:128|512:136,1,95.9999970703126,2|0,0:0|0:0,0:0:0:0:
272,20,446088,2,0,P|212:24|172:108,1,143.999995605469,2|0,0:0|0:0,0:0:0:0:
176,132,446338,2,0,P|184:172|176:236,1,95.9999970703126,2|0,0:0|0:0,0:0:0:0:
56,316,446588,6,0,P|116:316|204:356,1,143.999995605469,2|0,0:0|0:0,0:0:0:0:
232,368,446838,1,2,0:0:0:0:
279,371,446900,1,0,0:0:0:0:
323,354,446963,1,2,0:0:0:0:
356,319,447025,1,0,0:0:0:0:
370,274,447088,1,2,0:0:0:0:
322,44,447213,1,2,0:0:0:0:
134,81,447338,1,2,0:0:0:0:
110,271,447463,1,0,0:0:0:0:
415,212,447588,5,2,0:0:0:0:
380,180,447650,1,0,0:0:0:0:
332,172,447713,1,0,0:0:0:0:
284,184,447775,1,0,0:0:0:0:
252,220,447838,1,2,0:0:0:0:
256,384,447963,1,0,0:0:0:0:
416,163,448088,2,0,P|413:111|401:63,1,95.9999970703126,2|0,0:0|0:0,0:0:0:0:
108,120,448338,2,0,P|97:166|94:214,1,95.9999970703126,2|0,0:0|0:0,0:0:0:0:
332,336,448588,5,2,0:0:0:0:
278,30,448713,1,0,0:0:0:0:
142,309,448838,1,2,0:0:0:0:
416,163,448963,1,0,0:0:0:0:
109,120,449088,1,2,0:0:0:0:
233,353,449213,1,0,0:0:0:0:
179,47,449338,1,2,0:0:0:0:
402,263,449463,1,0,0:0:0:0:
90,214,449588,5,2,0:0:0:0:
371,71,449713,1,0,0:0:0:0:
333,338,449838,1,2,0:0:0:0:
177,45,449963,1,0,0:0:0:0:
231,354,450088,1,2,0:0:0:0:
277,27,450213,1,0,0:0:0:0:
139,309,450338,1,2,0:0:0:0:
371,71,450463,1,0,0:0:0:0:
371,71,450525,1,0,0:0:0:0:
371,71,450588,6,0,P|413:80|480:80,1,95.9999970703126,2|0,0:0|0:0,0:0:0:0:
139,309,450838,2,0,P|92:299|20:299,1,95.9999970703126,6|0,0:0|0:0,0:0:0:0:
332,336,451088,1,2,0:0:0:0:
331,288,451150,1,0,0:0:0:0:
306,247,451213,1,0,0:0:0:0:
265,225,451275,1,0,0:0:0:0:
217,226,451338,1,2,0:0:0:0:
174,206,451400,1,0,0:0:0:0:
145,168,451463,1,0,0:0:0:0:
138,121,451525,1,0,0:0:0:0:
152,76,451588,6,0,P|200:48|324:108,1,191.999994140625,2|2,0:0|0:0,0:0:0:0:
388,164,451963,1,0,0:0:0:0:
232,308,452088,2,0,P|204:308|124:252,1,95.9999970703126,2|0,0:0|0:0,0:0:0:0:
388,164,452338,2,0,P|435:168|476:193,1,95.9999970703126,2|0,0:0|0:0,0:0:0:0:
232,308,452588,6,0,P|232:260|240:236,2,63.9999980468751,2|2|0,0:0|0:0|0:0,0:0:0:0:
292,368,452838,6,0,P|352:356|392:280,1,143.999995605469,2|0,0:0|0:0,0:0:0:0:
395,211,453088,2,0,L|383:139,1,47.9999985351563,2|0,0:0|0:0,0:0:0:0:
202,62,453213,2,0,L|165:92,1,47.9999985351563
341,81,453338,2,0,L|297:64,1,47.9999985351563,2|0,0:0|0:0,0:0:0:0:
117,173,453463,2,0,L|129:245,1,47.9999985351563,2|0,0:0|0:0,0:0:0:0:
170,302,453588,6,0,P|240:320|320:316,1,143.999995605469,2|0,0:0|0:0,0:0:0:0:
391,288,453838,1,2,0:0:0:0:
488,352,453963,1,0,0:0:0:0:
395,211,454088,1,2,0:0:0:0:
511,217,454213,1,0,0:0:0:0:
372,140,454338,1,2,0:0:0:0:
475,87,454463,1,0,0:0:0:0:
336,68,454588,6,0,P|272:60|188:68,1,143.999995605469,2|0,0:0|0:0,0:0:0:0:
92,20,454838,2,0,P|117:79|166:148,1,143.999995605469,2|0,0:0|0:0,0:0:0:0:
176,256,455088,2,0,P|214:204|250:127,1,143.999995605469,2|0,0:0|0:0,0:0:0:0:
329,20,455338,2,0,L|337:76,1,47.9999985351563,2|0,0:0|0:0,0:0:0:0:
364,272,455463,2,0,L|357:224,1,47.9999985351563
248,132,455588,5,0,0:0:0:0:
207,106,455650,1,0,0:0:0:0:
160,98,455713,1,0,0:0:0:0:
114,111,455775,1,0,0:0:0:0:
77,141,455838,2,0,L|88:264,1,95.9999970703126
237,369,456088,1,2,0:0:0:0:
284,374,456150,1,0,0:0:0:0:
327,355,456213,1,0,0:0:0:0:
356,318,456275,1,0,0:0:0:0:
364,272,456338,2,0,L|357:224,1,47.9999985351563,2|0,0:0|0:0,0:0:0:0:
329,20,456463,2,0,L|337:76,1,47.9999985351563,2|0,0:0|0:0,0:0:0:0:
272,280,456588,5,2,0:0:0:0:
452,164,456713,1,0,0:0:0:0:
248,132,456838,1,2,0:0:0:0:
248,132,456900,1,0,0:0:0:0:
248,132,456963,1,0,0:0:0:0:
451,68,457088,2,0,P|455:140|447:184,1,95.9999970703126,2|0,0:0|0:0,0:0:0:0:
211,209,457338,2,0,P|202:161|203:113,1,95.9999970703126,2|0,0:0|0:0,0:0:0:0:
490,257,457588,5,2,0:0:0:0:
453,287,457650,1,0,0:0:0:0:
406,293,457713,1,0,0:0:0:0:
364,272,457775,1,0,0:0:0:0:
339,232,457838,1,2,0:0:0:0:
302,201,457900,1,0,0:0:0:0:
256,193,457963,1,0,0:0:0:0:
211,209,458025,1,0,0:0:0:0:
181,246,458088,1,2,0:0:0:0:
134,243,458150,1,0,0:0:0:0:
93,218,458213,1,0,0:0:0:0:
70,177,458275,1,0,0:0:0:0:
69,130,458338,1,2,0:0:0:0:
324,92,458463,1,2,0:0:0:0:
76,36,458588,6,0,L|24:24,2,40,2|0|0,0:0|0:0|0:0,0:0:0:0:
324,92,458838,2,0,L|376:80,2,40,2|0|0,0:0|0:0|0:0,0:0:0:0:
69,130,459088,2,0,L|17:118,2,40,2|0|0,0:0|0:0|0:0,0:0:0:0:
317,186,459338,2,0,L|369:174,2,40,2|0|0,0:0|0:0|0:0,0:0:0:0:
80,304,459588,5,0,0:0:0:0:
113,326,459650,1,0,0:0:0:0:
151,337,459713,1,0,0:0:0:0:
191,335,459775,1,0,0:0:0:0:
228,321,459838,1,0,0:0:0:0:
260,300,459900,1,0,0:0:0:0:
293,279,459962,1,0,0:0:0:0:
333,275,460025,1,0,0:0:0:0:
368,284,460088,2,0,L|447:287,1,80,2|0,0:0|0:0,0:0:0:0:
476,104,460338,2,0,L|396:100,1,80,2|0,0:0|0:0,0:0:0:0:
192,32,460588,5,0,0:0:0:0:
175,68,460650,1,0,0:0:0:0:
168,107,460713,1,0,0:0:0:0:
171,147,460775,1,0,0:0:0:0:
185,184,460838,1,0,0:0:0:0:
207,217,460900,1,0,0:0:0:0:
238,242,460963,1,0,0:0:0:0:
255,278,461025,1,0,0:0:0:0:
249,317,461088,1,0,0:0:0:0:
224,347,461150,1,0,0:0:0:0:
186,359,461213,1,0,0:0:0:0:
148,348,461275,1,0,0:0:0:0:
122,319,461338,1,0,0:0:0:0:
116,280,461400,1,0,0:0:0:0:
132,244,461463,1,0,0:0:0:0:
258,49,461588,5,0,0:0:0:0:
312,59,461650,1,0,0:0:0:0:
359,89,461713,1,0,0:0:0:0:
392,134,461775,1,0,0:0:0:0:
406,188,461838,1,0,0:0:0:0:
400,243,461900,1,0,0:0:0:0:
374,293,461963,1,0,0:0:0:0:
332,329,462025,1,0,0:0:0:0:
280,348,462088,1,0,0:0:0:0:
224,347,462150,1,0,0:0:0:0:
173,325,462213,1,0,0:0:0:0:
133,287,462275,1,0,0:0:0:0:
110,236,462338,1,0,0:0:0:0:
106,181,462400,1,0,0:0:0:0:
123,128,462463,1,0,0:0:0:0:
165,94,462525,1,0,0:0:0:0:
220,100,462588,5,0,0:0:0:0:
250,141,462650,1,0,0:0:0:0:
295,167,462713,1,0,0:0:0:0:
346,172,462775,1,0,0:0:0:0:
399,156,462837,1,0,0:0:0:0:
430,111,462900,1,0,0:0:0:0:
427,56,462962,1,0,0:0:0:0:
390,15,463025,1,0,0:0:0:0:
324,4,463088,1,0,0:0:0:0:
271,50,463150,1,0,0:0:0:0:
265,120,463213,1,0,0:0:0:0:
288,192,463275,1,0,0:0:0:0:
268,267,463338,5,0,0:0:0:0:
204,313,463400,1,0,0:0:0:0:
126,306,463462,1,0,0:0:0:0:
71,251,463525,1,0,0:0:0:0:
72,176,463588,1,0,0:0:0:0:
256,192,463650,12,2,467588,0:0:0:0:
