osu file format v14

[General]
AudioFilename: audio.mp3
AudioLeadIn: 0
PreviewTime: 231534
Countdown: 0
SampleSet: Normal
StackLeniency: 0.7
Mode: 1
LetterboxInBreaks: 0
WidescreenStoryboard: 0

[Editor]
DistanceSpacing: 0.1
BeatDivisor: 4
GridSize: 32
TimelineZoom: 3

[Metadata]
Title:osu!favourites
TitleUnicode:osu!favourites
Artist:SakiZ
ArtistUnicode:SakiZ
Creator:davidminh0111
Version:Inner Oni
Source:
Tags:Station Earth Cold Green Eyes Roos Denayer Yousei Teikoku Senketsu no Chikai HO KAGO TEA TIME Kira Days I See MONSTAS Holdin On Skrillex Nero Remix U1 overground Dopamine Ocelot TSUBAKI ESTi HELIX Infected Mushroom The Pretender DJ Fresh Gold Dust MomoKuro tei Ichimon Nippon Egao Hyakkei Reol Asymmetry HoneyWorks Miraizu feat Aida Miou CV Toyosaki Aki supercell Kimi Shiranai Monogatari ALiCE'S EMOTiON Dark Flight Dreamer Camellia Exit This Earth Atomosphere Akiyama Uni Odoru Mizushibuki Feint Tower Of Heaven You Are Slaves Hatsune Miku Mythologia End Ayase Rie Yuima-ru World sana Kokuhaku Rival Sengen Tsunamaru Daidai Genome Rubik Cube RADWIMPS Zen Zense fourfolium Now Loading Syaro Uchida Maaya Caffeine Fighter TOTTO Sunao Yoshikawa Arousing namirin Koi Hime Pettanko Ni Sokkususu Blade Dance Kano Stella rium Hana Sakura Uta Halozy Deconstruction Star Kikoku Doukoku Jigokuraku Lily Scarlet Rose Shukusai Elementalia
BeatmapID:3025326
BeatmapSetID:1474090

[Difficulty]
HPDrainRate:4
CircleSize:2
OverallDifficulty:7
ApproachRate:10
SliderMultiplier:1.4
SliderTickRate:1

[Events]
//Background and Video events
0,0,"BG.png",0,0
//Break Periods
2,174209,190659
2,443909,445665
//Storyboard Layer 0 (Background)
//Storyboard Layer 1 (Fail)
//Storyboard Layer 2 (Pass)
//Storyboard Layer 3 (Foreground)
//Storyboard Layer 4 (Overlay)
//Storyboard Sound Samples

[TimingPoints]
1209,300,4,1,0,50,1,0
10809,-111.111111111111,4,1,0,50,0,0
39009,-100,4,1,0,50,0,0
39159,-100,4,1,0,50,0,0
39309,-100,4,1,0,50,0,0
39459,-100,4,1,0,50,0,0
39609,-100,4,1,0,80,0,0
47934,-83.3333333333333,4,1,0,80,0,0
48909,-83.3333333333333,4,1,0,75,0,0
49209,-100,4,1,0,80,0,0
77559,-102.040816326531,4,1,0,80,0,0
77709,-104.166666666667,4,1,0,80,0,0
77784,-106.382978723404,4,1,0,80,0,0
77859,-108.695652173913,4,1,0,70,0,0
78009,-111.111111111111,4,1,0,65,0,0
85209,-100,4,1,0,70,0,0
87609,-100,4,1,0,80,0,0
90009,-100,4,1,0,70,0,0
91209,-98.0392156862745,4,1,0,70,0,0
91284,-96.1538461538461,4,1,0,70,0,0
91359,-94.3396226415094,4,1,0,70,0,0
91434,-92.5925925925926,4,1,0,70,0,0
91509,-90.9090909090909,4,1,0,70,0,0
91584,-89.2857142857143,4,1,0,70,0,0
91659,-87.719298245614,4,1,0,70,0,0
91734,-86.2068965517241,4,1,0,70,0,0
91809,-84.7457627118644,4,1,0,70,0,0
91884,-83.3333333333333,4,1,0,80,0,0
91959,-81.9672131147541,4,1,0,80,0,0
92034,-80.6451612903226,4,1,0,80,0,0
92109,-79.3650793650794,4,1,0,80,0,0
92184,-78.125,4,1,0,80,0,0
92259,-76.9230769230769,4,1,0,80,0,0
92334,-75.7575757575758,4,1,0,80,0,0
92409,-74.6268656716418,4,1,0,100,0,0
92559,-90.9090909090909,4,1,0,90,0,0
101609,-100,4,1,0,75,0,0
101709,-100,4,1,0,75,0,0
101809,-100,4,1,0,75,0,0
101909,-100,4,1,0,75,0,0
102009,-100,4,1,0,75,0,0
111309,-100,4,1,0,75,0,0
111384,-100,4,1,0,75,0,0
111459,-100,4,1,0,75,0,0
111534,-100,4,1,0,75,0,0
111609,-100,4,1,0,70,0,0
120909,-100,4,1,0,70,0,0
120984,-100,4,1,0,70,0,0
121059,-100,4,1,0,70,0,0
121134,-100,4,1,0,70,0,0
121209,-100,4,1,0,75,0,0
130509,-100,4,1,0,75,0,0
130584,-100,4,1,0,75,0,0
130659,-100,4,1,0,75,0,0
130734,-100,4,1,0,75,0,0
130809,-100,4,1,0,70,0,0
159309,-100,4,1,0,70,0,0
159384,-100,4,1,0,70,0,0
159459,-100,4,1,0,70,0,0
159534,-100,4,1,0,70,0,0
159609,-100,4,1,0,75,0,0
174009,-100,4,1,0,70,0,0
212709,-125,4,1,0,50,0,0
221484,-121.212121212121,4,1,0,50,0,0
221559,-117.647058823529,4,1,0,50,0,0
221634,-114.285714285714,4,1,0,50,0,0
221709,-111.111111111111,4,1,0,50,0,0
221784,-108.108108108108,4,1,0,50,0,0
221859,-105.263157894737,4,1,0,50,0,0
221934,-102.564102564103,4,1,0,50,0,0
222009,-100,4,1,0,70,0,0
228009,-100,4,1,0,60,0,0
229209,-100,4,1,0,60,0,0
231609,-100,4,1,0,60,0,0
231909,-100,4,1,0,70,0,0
232209,-100,4,1,0,70,0,0
232359,-100,4,1,0,70,0,0
232509,-100,4,1,0,70,0,0
232659,-100,4,1,0,70,0,0
232809,-100,4,1,0,80,0,0
241209,-100,4,1,0,40,0,0
241809,-100,4,1,0,70,0,0
251709,-100,4,1,0,70,0,0
251784,-100,4,1,0,70,0,0
251859,-100,4,1,0,70,0,0
251934,-100,4,1,0,70,0,0
252009,-100,4,1,0,75,0,0
261309,-100,4,1,0,75,0,0
261384,-100,4,1,0,75,0,0
261459,-100,4,1,0,75,0,0
261534,-100,4,1,0,75,0,0
261609,-100,4,1,0,75,0,0
270009,-100,4,1,0,75,0,0
270309,-100,4,1,0,75,0,0
270609,-100,4,1,0,75,0,0
270909,-100,4,1,0,70,0,0
271209,-100,4,1,0,75,0,0
280509,-100,4,1,0,75,0,0
280584,-100,4,1,0,75,0,0
280659,-100,4,1,0,75,0,0
280734,-100,4,1,0,75,0,0
280809,-100,4,1,0,70,0,0
299709,-100,4,1,0,70,0,0
299784,-100,4,1,0,70,0,0
299859,-100,4,1,0,70,0,0
299934,-100,4,1,0,70,0,0
300009,-100,4,1,0,75,0,0
319134,-100,4,1,0,75,0,0
319209,-100,4,1,0,75,0,0
328509,-100,4,1,0,75,0,0
328584,-100,4,1,0,75,0,0
328659,-100,4,1,0,75,0,0
328734,-100,4,1,0,75,0,0
328809,-100,4,1,0,70,0,0
347709,-100,4,1,0,70,0,0
347784,-100,4,1,0,70,0,0
347859,-100,4,1,0,70,0,0
347934,-100,4,1,0,70,0,0
348009,-100,4,1,0,75,0,0
366909,-100,4,1,0,70,0,0
366984,-100,4,1,0,70,0,0
367059,-100,4,1,0,70,0,0
367134,-100,4,1,0,70,0,0
367209,-100,4,1,0,70,0,0
395709,-100,4,1,0,70,0,0
395784,-100,4,1,0,70,0,0
395859,-100,4,1,0,70,0,0
395934,-100,4,1,0,70,0,0
396009,-100,4,1,0,75,0,0
405534,-100,4,1,0,75,0,0
405609,-100,4,1,0,75,0,0
414909,-100,4,1,0,75,0,0
414984,-100,4,1,0,75,0,0
415059,-100,4,1,0,75,0,0
415134,-100,4,1,0,75,0,0
415209,-100,4,1,0,70,0,0
446115,250,4,1,0,70,1,0
446115,-100,4,1,0,50,0,0
456115,-100,4,1,0,55,0,0
464115,-100,4,1,0,60,0,0
468115,-100,4,1,0,65,0,0
472115,-100,4,1,0,70,0,0
479990,-100,4,1,0,70,0,0
480115,-100,4,1,0,65,0,0
488115,-100,4,1,0,70,0,0
496115,-100,4,1,0,65,0,0
504115,-100,4,1,0,75,0,0
524052,-100,4,1,0,75,0,0
524115,-100,4,1,0,75,0,0
544052,-100,4,1,0,75,0,0
544115,-100,4,1,0,75,0,0
565115,250,3,1,0,70,1,0
565115,-100,3,1,0,70,0,0
570365,-100,3,1,0,70,0,0
570615,-100,3,1,0,70,0,0
570865,-100,3,1,0,70,0,0
571115,-100,3,1,0,70,0,0
571365,-100,3,1,0,70,0,0
571615,-100,3,1,0,70,0,0
571865,-100,3,1,0,70,0,0
572115,-100,3,1,0,70,0,0
572365,-100,3,1,0,70,0,0
584620,250,4,1,0,70,1,0
591620,-100,4,1,0,70,0,0
591870,-100,4,1,0,70,0,0
592120,-100,4,1,0,70,0,0
592370,-100,4,1,0,70,0,0
592620,-100,4,1,0,70,0,0
612370,-100,4,1,0,80,0,0
612432,-100,4,1,0,80,0,0
612495,-100,4,1,0,80,0,0
612557,-100,4,1,0,80,0,0
612620,-100,4,1,0,75,0,0
613483,304.568527918782,4,2,0,80,1,0
613483,-83.3333333333333,4,2,0,80,0,0
613635,379.746835443038,4,2,0,80,1,8
613635,-66.6666666666667,4,2,0,80,0,0
613989,606.060606060606,4,2,0,80,1,8
613989,-50,4,2,0,80,0,0
614292,689.655172413793,4,2,0,80,1,8
614292,-45.4545454545455,4,2,0,80,0,0
614636,789.473684210526,4,2,0,80,1,8
614636,-40,4,2,0,80,0,0
614833,689.655172413793,4,2,0,80,1,0
614833,-43.4782608695652,4,2,0,80,0,0
615522,606.060606060606,4,2,0,80,1,0
615522,-47.6190476190476,4,2,0,80,0,0
616128,606.060606060606,4,2,0,80,1,8
616128,-47.6190476190476,4,2,0,80,0,0
616431,674.157303370787,4,2,0,80,1,8
616431,-45.4545454545455,4,2,0,80,0,0
616768,789.473684210526,4,2,0,80,1,8
616768,-43.4782608695652,4,2,0,80,0,0
617162,937.5,4,2,0,80,1,8
617162,-40,4,2,0,80,0,0
617630,1008.40336134454,4,2,0,80,1,8
617630,-37.037037037037,4,2,0,80,0,0
625697,1008.40336134454,4,2,0,80,1,0
625697,-25,4,2,0,80,0,0
626201,1008.40336134454,4,2,0,80,1,8
626201,-25,4,2,0,80,0,0
626327,631.578947368421,4,2,0,80,1,8
626327,-38.4615384615385,4,2,0,80,0,0
626484,789.473684210526,4,2,0,80,1,8
626484,-31.25,4,2,0,80,0,0

[HitObjects]
256,192,10809,5,0,0:0:0:0:
256,192,10959,8,0,14409,0:0:0:0:
256,192,15609,5,0,0:0:0:0:
256,192,15759,8,0,19209,0:0:0:0:
256,192,20409,5,8,0:0:0:0:
256,192,20859,1,0,0:0:0:0:
256,192,21309,1,8,0:0:0:0:
256,192,21909,1,8,0:0:0:0:
256,192,22659,1,0,0:0:0:0:
256,192,22809,1,8,0:0:0:0:
256,192,23259,1,0,0:0:0:0:
256,192,23709,1,0,0:0:0:0:
256,192,24309,1,8,0:0:0:0:
256,192,25059,1,0,0:0:0:0:
256,192,25209,1,8,0:0:0:0:
256,192,25659,1,0,0:0:0:0:
256,192,26109,1,8,0:0:0:0:
256,192,26709,1,0,0:0:0:0:
256,192,26859,1,0,0:0:0:0:
256,192,27009,1,8,0:0:0:0:
256,192,27159,1,0,0:0:0:0:
256,192,27459,1,8,0:0:0:0:
256,192,30009,1,0,0:0:0:0:
256,192,30609,1,0,0:0:0:0:
256,192,30759,1,0,0:0:0:0:
256,192,30909,1,8,0:0:0:0:
256,192,31059,1,0,0:0:0:0:
256,192,31209,1,8,0:0:0:0:
256,192,31434,1,0,0:0:0:0:
256,192,31659,1,8,0:0:0:0:
256,192,31959,1,0,0:0:0:0:
256,192,32259,1,8,0:0:0:0:
256,192,33009,1,8,0:0:0:0:
256,192,33159,1,8,0:0:0:0:
256,192,33309,1,0,0:0:0:0:
256,192,33459,1,0,0:0:0:0:
256,192,33609,1,8,0:0:0:0:
256,192,33834,1,0,0:0:0:0:
256,192,34059,1,8,0:0:0:0:
256,192,34359,1,0,0:0:0:0:
256,192,34659,1,8,0:0:0:0:
256,192,34809,1,0,0:0:0:0:
256,192,35109,1,0,0:0:0:0:
256,192,35409,1,0,0:0:0:0:
256,192,35709,1,0,0:0:0:0:
256,192,36009,1,0,0:0:0:0:
256,192,36309,1,8,0:0:0:0:
256,192,36459,1,0,0:0:0:0:
256,192,36609,1,0,0:0:0:0:
256,192,36759,1,8,0:0:0:0:
256,192,36909,1,0,0:0:0:0:
256,192,37059,1,0,0:0:0:0:
256,192,37209,1,8,0:0:0:0:
256,192,37509,1,0,0:0:0:0:
256,192,37659,1,8,0:0:0:0:
256,192,37959,1,0,0:0:0:0:
256,192,38109,1,8,0:0:0:0:
256,192,38409,8,0,39459,0:0:0:0:
256,192,39609,5,4,0:0:0:0:
256,192,39759,1,0,0:0:0:0:
256,192,39909,1,8,0:0:0:0:
256,192,39984,1,8,0:0:0:0:
256,192,40059,1,0,0:0:0:0:
256,192,40134,1,0,0:0:0:0:
256,192,40209,1,8,0:0:0:0:
256,192,40359,1,0,0:0:0:0:
256,192,40509,1,8,0:0:0:0:
256,192,40659,1,0,0:0:0:0:
256,192,40734,1,0,0:0:0:0:
256,192,40809,1,8,0:0:0:0:
256,192,40959,1,0,0:0:0:0:
256,192,41109,1,0,0:0:0:0:
256,192,41184,1,0,0:0:0:0:
256,192,41259,1,8,0:0:0:0:
256,192,41409,1,0,0:0:0:0:
256,192,41559,1,8,0:0:0:0:
256,192,41634,1,8,0:0:0:0:
256,192,41709,1,0,0:0:0:0:
256,192,41784,1,8,0:0:0:0:
256,192,41859,1,8,0:0:0:0:
256,192,42009,1,0,0:0:0:0:
256,192,42084,1,0,0:0:0:0:
256,192,42159,1,0,0:0:0:0:
256,192,42309,1,8,0:0:0:0:
256,192,42459,1,0,0:0:0:0:
256,192,42609,1,8,0:0:0:0:
256,192,42684,1,8,0:0:0:0:
256,192,42759,1,0,0:0:0:0:
256,192,42909,1,8,0:0:0:0:
256,192,43059,1,0,0:0:0:0:
256,192,43209,1,8,0:0:0:0:
256,192,43284,1,8,0:0:0:0:
256,192,43359,1,0,0:0:0:0:
256,192,43509,1,0,0:0:0:0:
256,192,43659,1,8,0:0:0:0:
256,192,43734,1,8,0:0:0:0:
256,192,43809,1,0,0:0:0:0:
256,192,43959,1,0,0:0:0:0:
256,192,44109,1,8,0:0:0:0:
256,192,44184,1,8,0:0:0:0:
256,192,44259,1,8,0:0:0:0:
256,192,44409,1,4,0:0:0:0:
256,192,44559,1,0,0:0:0:0:
256,192,44709,1,8,0:0:0:0:
256,192,44784,1,0,0:0:0:0:
256,192,44859,1,8,0:0:0:0:
256,192,45009,1,8,0:0:0:0:
256,192,45159,1,0,0:0:0:0:
256,192,45234,1,0,0:0:0:0:
256,192,45309,1,0,0:0:0:0:
256,192,45384,1,0,0:0:0:0:
256,192,45459,1,0,0:0:0:0:
256,192,45609,1,8,0:0:0:0:
256,192,45759,1,0,0:0:0:0:
256,192,45834,1,0,0:0:0:0:
256,192,45909,1,0,0:0:0:0:
256,192,46059,1,8,0:0:0:0:
256,192,46134,1,0,0:0:0:0:
256,192,46209,1,8,0:0:0:0:
256,192,46284,1,0,0:0:0:0:
256,192,46359,1,8,0:0:0:0:
256,192,46509,1,8,0:0:0:0:
256,192,46659,1,0,0:0:0:0:
256,192,46809,1,0,0:0:0:0:
256,192,46959,1,0,0:0:0:0:
256,192,47034,1,0,0:0:0:0:
256,192,47109,1,8,0:0:0:0:
256,192,47184,1,8,0:0:0:0:
256,192,47259,1,0,0:0:0:0:
256,192,47409,1,8,0:0:0:0:
256,192,47559,1,8,0:0:0:0:
256,192,47634,1,8,0:0:0:0:
256,192,47709,1,0,0:0:0:0:
256,192,47859,1,0,0:0:0:0:
256,192,48009,1,12,0:0:0:0:
256,192,48459,1,12,0:0:0:0:
256,192,48909,1,12,0:0:0:0:
256,192,49209,1,4,0:0:0:0:
256,192,49359,1,8,0:0:0:0:
256,192,49509,1,0,0:0:0:0:
256,192,49584,1,0,0:0:0:0:
256,192,49659,1,0,0:0:0:0:
256,192,49809,1,8,0:0:0:0:
256,192,50109,1,0,0:0:0:0:
256,192,50259,1,8,0:0:0:0:
256,192,50409,1,0,0:0:0:0:
256,192,50559,1,8,0:0:0:0:
256,192,50634,1,8,0:0:0:0:
256,192,50709,1,8,0:0:0:0:
256,192,50859,1,0,0:0:0:0:
256,192,51009,1,8,0:0:0:0:
256,192,51084,1,8,0:0:0:0:
256,192,51159,1,0,0:0:0:0:
256,192,51309,1,8,0:0:0:0:
256,192,51459,1,8,0:0:0:0:
256,192,51609,1,0,0:0:0:0:
256,192,51909,1,0,0:0:0:0:
256,192,52059,1,8,0:0:0:0:
256,192,52209,1,0,0:0:0:0:
256,192,52359,1,0,0:0:0:0:
256,192,52434,1,8,0:0:0:0:
256,192,52509,1,8,0:0:0:0:
256,192,52659,1,8,0:0:0:0:
256,192,52959,1,0,0:0:0:0:
256,192,53109,1,0,0:0:0:0:
256,192,53184,1,0,0:0:0:0:
256,192,53259,1,8,0:0:0:0:
256,192,53409,1,0,0:0:0:0:
256,192,53559,1,8,0:0:0:0:
256,192,53709,1,8,0:0:0:0:
256,192,53784,1,0,0:0:0:0:
256,192,53859,1,8,0:0:0:0:
256,192,54009,1,0,0:0:0:0:
256,192,54159,1,8,0:0:0:0:
256,192,54309,1,0,0:0:0:0:
256,192,54459,1,8,0:0:0:0:
256,192,54609,1,0,0:0:0:0:
256,192,54909,1,0,0:0:0:0:
256,192,55059,1,8,0:0:0:0:
256,192,55209,1,0,0:0:0:0:
256,192,55359,1,0,0:0:0:0:
256,192,55509,1,8,0:0:0:0:
256,192,55584,1,8,0:0:0:0:
256,192,55659,1,8,0:0:0:0:
256,192,55809,1,8,0:0:0:0:
256,192,55959,1,0,0:0:0:0:
256,192,56109,1,8,0:0:0:0:
256,192,56259,1,8,0:0:0:0:
256,192,56409,1,0,0:0:0:0:
256,192,56709,1,8,0:0:0:0:
256,192,56859,1,0,0:0:0:0:
256,192,56934,1,0,0:0:0:0:
256,192,57009,1,8,0:0:0:0:
256,192,57159,1,0,0:0:0:0:
256,192,57309,1,8,0:0:0:0:
256,192,57384,1,8,0:0:0:0:
256,192,57459,1,0,0:0:0:0:
256,192,57534,1,8,0:0:0:0:
256,192,57609,1,0,0:0:0:0:
256,192,57759,1,8,0:0:0:0:
256,192,57834,1,8,0:0:0:0:
256,192,57909,1,0,0:0:0:0:
256,192,58059,1,0,0:0:0:0:
256,192,58209,1,8,0:0:0:0:
256,192,58359,1,0,0:0:0:0:
256,192,58509,1,0,0:0:0:0:
256,192,58584,1,0,0:0:0:0:
256,192,58659,1,8,0:0:0:0:
256,192,58734,1,8,0:0:0:0:
256,192,58809,1,4,0:0:0:0:
256,192,58959,1,0,0:0:0:0:
256,192,59109,1,8,0:0:0:0:
256,192,59184,1,8,0:0:0:0:
256,192,59259,1,8,0:0:0:0:
256,192,59409,1,0,0:0:0:0:
256,192,59559,1,0,0:0:0:0:
256,192,59709,1,8,0:0:0:0:
256,192,59784,1,0,0:0:0:0:
256,192,59859,1,8,0:0:0:0:
256,192,60009,1,0,0:0:0:0:
256,192,60309,1,8,0:0:0:0:
256,192,60384,1,8,0:0:0:0:
256,192,60459,1,8,0:0:0:0:
256,192,60609,1,8,0:0:0:0:
256,192,60759,1,0,0:0:0:0:
256,192,60834,1,0,0:0:0:0:
256,192,60909,1,8,0:0:0:0:
256,192,60984,1,8,0:0:0:0:
256,192,61059,1,0,0:0:0:0:
256,192,61209,1,8,0:0:0:0:
256,192,61359,1,0,0:0:0:0:
256,192,61509,1,0,0:0:0:0:
256,192,61659,1,8,0:0:0:0:
256,192,61734,1,8,0:0:0:0:
256,192,61809,1,0,0:0:0:0:
256,192,61959,1,0,0:0:0:0:
256,192,62109,1,8,0:0:0:0:
256,192,62259,1,8,0:0:0:0:
256,192,62409,1,8,0:0:0:0:
256,192,62484,1,8,0:0:0:0:
256,192,62559,1,8,0:0:0:0:
256,192,62709,1,0,0:0:0:0:
256,192,62859,1,8,0:0:0:0:
256,192,62934,1,8,0:0:0:0:
256,192,63009,1,8,0:0:0:0:
256,192,63159,1,0,0:0:0:0:
256,192,63309,1,8,0:0:0:0:
256,192,63384,1,8,0:0:0:0:
256,192,63459,1,8,0:0:0:0:
256,192,63609,1,4,0:0:0:0:
256,192,63759,1,8,0:0:0:0:
256,192,63909,1,0,0:0:0:0:
256,192,63984,1,0,0:0:0:0:
256,192,64059,1,0,0:0:0:0:
256,192,64209,1,8,0:0:0:0:
256,192,64509,1,0,0:0:0:0:
256,192,64659,1,8,0:0:0:0:
256,192,64809,1,0,0:0:0:0:
256,192,64884,1,0,0:0:0:0:
256,192,64959,1,8,0:0:0:0:
256,192,65109,1,8,0:0:0:0:
256,192,65259,1,0,0:0:0:0:
256,192,65334,1,8,0:0:0:0:
256,192,65409,1,8,0:0:0:0:
256,192,65484,1,0,0:0:0:0:
256,192,65559,1,8,0:0:0:0:
256,192,65709,1,8,0:0:0:0:
256,192,65859,1,8,0:0:0:0:
256,192,66009,1,0,0:0:0:0:
256,192,66309,1,0,0:0:0:0:
256,192,66459,1,8,0:0:0:0:
256,192,66609,1,0,0:0:0:0:
256,192,66684,1,0,0:0:0:0:
256,192,66759,1,0,0:0:0:0:
256,192,66909,1,8,0:0:0:0:
256,192,67059,1,8,0:0:0:0:
256,192,67359,1,0,0:0:0:0:
256,192,67509,1,0,0:0:0:0:
256,192,67659,1,8,0:0:0:0:
256,192,67734,1,8,0:0:0:0:
256,192,67809,1,0,0:0:0:0:
256,192,67959,1,8,0:0:0:0:
256,192,68109,1,8,0:0:0:0:
256,192,68184,1,0,0:0:0:0:
256,192,68259,1,8,0:0:0:0:
256,192,68334,1,8,0:0:0:0:
256,192,68409,1,0,0:0:0:0:
256,192,68559,1,8,0:0:0:0:
256,192,68709,1,0,0:0:0:0:
256,192,68859,1,8,0:0:0:0:
256,192,69009,1,0,0:0:0:0:
256,192,69159,1,0,0:0:0:0:
256,192,69234,1,0,0:0:0:0:
256,192,69309,1,8,0:0:0:0:
256,192,69459,1,8,0:0:0:0:
256,192,69609,1,0,0:0:0:0:
256,192,69684,1,8,0:0:0:0:
256,192,69759,1,0,0:0:0:0:
256,192,69834,1,0,0:0:0:0:
256,192,69909,1,8,0:0:0:0:
256,192,70059,1,8,0:0:0:0:
256,192,70134,1,0,0:0:0:0:
256,192,70209,1,8,0:0:0:0:
256,192,70359,1,0,0:0:0:0:
256,192,70509,1,8,0:0:0:0:
256,192,70659,1,8,0:0:0:0:
256,192,70809,1,0,0:0:0:0:
256,192,71109,1,8,0:0:0:0:
256,192,71259,1,8,0:0:0:0:
256,192,71409,1,0,0:0:0:0:
256,192,71484,1,8,0:0:0:0:
256,192,71559,1,0,0:0:0:0:
256,192,71709,1,8,0:0:0:0:
256,192,71859,1,8,0:0:0:0:
256,192,71934,1,8,0:0:0:0:
256,192,72009,1,0,0:0:0:0:
256,192,72159,1,8,0:0:0:0:
256,192,72309,1,0,0:0:0:0:
256,192,72459,1,0,0:0:0:0:
256,192,72534,1,0,0:0:0:0:
256,192,72609,1,8,0:0:0:0:
256,192,72759,1,0,0:0:0:0:
256,192,72909,1,0,0:0:0:0:
256,192,72984,1,0,0:0:0:0:
256,192,73059,1,8,0:0:0:0:
256,192,73134,1,8,0:0:0:0:
256,192,73209,1,4,0:0:0:0:
256,192,73359,1,0,0:0:0:0:
256,192,73509,1,8,0:0:0:0:
256,192,73584,1,8,0:0:0:0:
256,192,73659,1,8,0:0:0:0:
256,192,73734,1,8,0:0:0:0:
256,192,73809,1,0,0:0:0:0:
256,192,73959,1,0,0:0:0:0:
256,192,74109,1,0,0:0:0:0:
256,192,74259,1,8,0:0:0:0:
256,192,74334,1,8,0:0:0:0:
256,192,74409,1,0,0:0:0:0:
256,192,74709,1,8,0:0:0:0:
256,192,74784,1,8,0:0:0:0:
256,192,74859,1,8,0:0:0:0:
256,192,75009,1,8,0:0:0:0:
256,192,75159,1,0,0:0:0:0:
256,192,75234,1,0,0:0:0:0:
256,192,75309,1,8,0:0:0:0:
256,192,75384,1,8,0:0:0:0:
256,192,75459,1,0,0:0:0:0:
256,192,75609,1,12,0:0:0:0:
256,192,75909,1,0,0:0:0:0:
256,192,76059,1,8,0:0:0:0:
256,192,76134,1,8,0:0:0:0:
256,192,76209,1,0,0:0:0:0:
256,192,76359,1,0,0:0:0:0:
256,192,76509,1,8,0:0:0:0:
256,192,76659,1,8,0:0:0:0:
256,192,76809,1,8,0:0:0:0:
256,192,76884,1,8,0:0:0:0:
256,192,76959,1,8,0:0:0:0:
256,192,77109,1,0,0:0:0:0:
256,192,77259,1,8,0:0:0:0:
256,192,77334,1,8,0:0:0:0:
256,192,77409,1,8,0:0:0:0:
256,192,77559,1,0,0:0:0:0:
256,192,77709,1,8,0:0:0:0:
256,192,77784,1,8,0:0:0:0:
256,192,77859,1,8,0:0:0:0:
256,192,78009,1,12,0:0:0:0:
256,192,78309,1,0,0:0:0:0:
256,192,78609,1,8,0:0:0:0:
256,192,78759,1,0,0:0:0:0:
256,192,79059,1,0,0:0:0:0:
256,192,79209,1,8,0:0:0:0:
256,192,79509,1,0,0:0:0:0:
256,192,79809,1,0,0:0:0:0:
256,192,80109,1,0,0:0:0:0:
256,192,80409,1,8,0:0:0:0:
256,192,80709,1,0,0:0:0:0:
256,192,81009,1,0,0:0:0:0:
256,192,81309,1,0,0:0:0:0:
256,192,81609,1,12,0:0:0:0:
256,192,81759,1,8,0:0:0:0:
256,192,82059,1,12,0:0:0:0:
256,192,82359,1,0,0:0:0:0:
256,192,82509,1,8,0:0:0:0:
256,192,82809,1,0,0:0:0:0:
256,192,83109,1,8,0:0:0:0:
256,192,83259,1,0,0:0:0:0:
256,192,83409,1,8,0:0:0:0:
256,192,83559,1,8,0:0:0:0:
256,192,83709,1,0,0:0:0:0:
256,192,84009,1,0,0:0:0:0:
256,192,84309,1,8,0:0:0:0:
256,192,84459,1,0,0:0:0:0:
256,192,84609,1,8,0:0:0:0:
256,192,84759,1,8,0:0:0:0:
256,192,84909,1,8,0:0:0:0:
256,192,85209,1,4,0:0:0:0:
256,192,85359,1,0,0:0:0:0:
256,192,85509,1,8,0:0:0:0:
256,192,85659,1,8,0:0:0:0:
256,192,85809,1,0,0:0:0:0:
256,192,85959,1,0,0:0:0:0:
256,192,86109,1,8,0:0:0:0:
256,192,86259,1,8,0:0:0:0:
256,192,86409,1,0,0:0:0:0:
256,192,86559,1,8,0:0:0:0:
256,192,86709,1,8,0:0:0:0:
256,192,86859,1,8,0:0:0:0:
256,192,87009,1,0,0:0:0:0:
256,192,87309,1,8,0:0:0:0:
256,192,87609,1,0,0:0:0:0:
256,192,87909,1,8,0:0:0:0:
256,192,88209,1,0,0:0:0:0:
256,192,88509,1,8,0:0:0:0:
256,192,88659,1,8,0:0:0:0:
256,192,88809,1,0,0:0:0:0:
256,192,89109,1,0,0:0:0:0:
256,192,89259,1,8,0:0:0:0:
256,192,89409,1,0,0:0:0:0:
256,192,89559,1,8,0:0:0:0:
256,192,89709,1,0,0:0:0:0:
256,192,90009,1,0,0:0:0:0:
256,192,90159,1,8,0:0:0:0:
256,192,90309,1,0,0:0:0:0:
256,192,90459,1,0,0:0:0:0:
256,192,90609,1,8,0:0:0:0:
256,192,90759,1,8,0:0:0:0:
256,192,90909,1,0,0:0:0:0:
256,192,91059,1,8,0:0:0:0:
256,192,91209,1,8,0:0:0:0:
256,192,91284,1,0,0:0:0:0:
256,192,91359,1,8,0:0:0:0:
256,192,91434,1,0,0:0:0:0:
256,192,91509,1,8,0:0:0:0:
256,192,91584,1,0,0:0:0:0:
256,192,91659,1,8,0:0:0:0:
256,192,91734,1,0,0:0:0:0:
256,192,91809,1,8,0:0:0:0:
256,192,91884,1,0,0:0:0:0:
256,192,91959,1,8,0:0:0:0:
256,192,92034,1,0,0:0:0:0:
256,192,92109,1,8,0:0:0:0:
256,192,92184,1,0,0:0:0:0:
256,192,92259,1,8,0:0:0:0:
256,192,92334,1,8,0:0:0:0:
256,192,92409,1,4,0:0:0:0:
256,192,92559,1,0,0:0:0:0:
256,192,92709,1,0,0:0:0:0:
256,192,92759,1,8,0:0:0:0:
256,192,92809,1,8,0:0:0:0:
256,192,92859,1,0,0:0:0:0:
256,192,93009,1,8,0:0:0:0:
256,192,93059,1,8,0:0:0:0:
256,192,93109,1,8,0:0:0:0:
256,192,93159,1,0,0:0:0:0:
256,192,93309,1,8,0:0:0:0:
256,192,93346,1,8,0:0:0:0:
256,192,93459,1,8,0:0:0:0:
256,192,93496,1,8,0:0:0:0:
256,192,93609,1,0,0:0:0:0:
256,192,93646,1,0,0:0:0:0:
256,192,93759,1,8,0:0:0:0:
256,192,93809,1,8,0:0:0:0:
256,192,93859,1,8,0:0:0:0:
256,192,93909,1,0,0:0:0:0:
256,192,94059,1,0,0:0:0:0:
256,192,94209,1,8,0:0:0:0:
256,192,94259,1,8,0:0:0:0:
256,192,94309,1,8,0:0:0:0:
256,192,94359,1,0,0:0:0:0:
256,192,94509,1,0,0:0:0:0:
256,192,94546,1,0,0:0:0:0:
256,192,94659,1,8,0:0:0:0:
256,192,94696,1,8,0:0:0:0:
256,192,94809,1,8,0:0:0:0:
256,192,94859,1,0,0:0:0:0:
256,192,94909,1,0,0:0:0:0:
256,192,94959,1,8,0:0:0:0:
256,192,95109,1,0,0:0:0:0:
256,192,95159,1,8,0:0:0:0:
256,192,95209,1,8,0:0:0:0:
256,192,95259,1,0,0:0:0:0:
256,192,95409,1,8,0:0:0:0:
256,192,95459,1,8,0:0:0:0:
256,192,95509,1,8,0:0:0:0:
256,192,95559,1,0,0:0:0:0:
256,192,95709,1,0,0:0:0:0:
256,192,95746,1,0,0:0:0:0:
256,192,95859,1,8,0:0:0:0:
256,192,95896,1,8,0:0:0:0:
256,192,96009,1,8,0:0:0:0:
256,192,96046,1,8,0:0:0:0:
256,192,96159,1,0,0:0:0:0:
256,192,96309,1,8,0:0:0:0:
256,192,96346,1,8,0:0:0:0:
256,192,96459,1,8,0:0:0:0:
256,192,96496,1,8,0:0:0:0:
256,192,96609,1,0,0:0:0:0:
256,192,96646,1,0,0:0:0:0:
256,192,96759,1,0,0:0:0:0:
256,192,96796,1,0,0:0:0:0:
256,192,96909,1,8,0:0:0:0:
256,192,97059,1,8,0:0:0:0:
256,192,97209,1,8,0:0:0:0:
256,192,97259,1,0,0:0:0:0:
256,192,97309,1,0,0:0:0:0:
256,192,97359,1,8,0:0:0:0:
256,192,97509,1,0,0:0:0:0:
256,192,97559,1,8,0:0:0:0:
256,192,97609,1,8,0:0:0:0:
256,192,97659,1,0,0:0:0:0:
256,192,97809,1,8,0:0:0:0:
256,192,97859,1,8,0:0:0:0:
256,192,97909,1,8,0:0:0:0:
256,192,97959,1,0,0:0:0:0:
256,192,98109,1,8,0:0:0:0:
256,192,98146,1,8,0:0:0:0:
256,192,98259,1,8,0:0:0:0:
256,192,98296,1,8,0:0:0:0:
256,192,98409,1,0,0:0:0:0:
256,192,98446,1,0,0:0:0:0:
256,192,98559,1,8,0:0:0:0:
256,192,98609,1,8,0:0:0:0:
256,192,98659,1,8,0:0:0:0:
256,192,98709,1,0,0:0:0:0:
256,192,98859,1,0,0:0:0:0:
256,192,99009,1,8,0:0:0:0:
256,192,99059,1,8,0:0:0:0:
256,192,99109,1,8,0:0:0:0:
256,192,99159,1,0,0:0:0:0:
256,192,99309,1,0,0:0:0:0:
256,192,99346,1,0,0:0:0:0:
256,192,99459,1,8,0:0:0:0:
256,192,99496,1,8,0:0:0:0:
256,192,99609,1,4,0:0:0:0:
256,192,99759,1,8,0:0:0:0:
256,192,99909,1,0,0:0:0:0:
256,192,99959,1,0,0:0:0:0:
256,192,100009,1,0,0:0:0:0:
256,192,100059,1,8,0:0:0:0:
256,192,100209,1,4,0:0:0:0:
256,192,100359,1,0,0:0:0:0:
256,192,100434,1,0,0:0:0:0:
256,192,100509,1,8,0:0:0:0:
256,192,100659,1,8,0:0:0:0:
256,192,100809,1,8,0:0:0:0:
256,192,100909,1,0,0:0:0:0:
256,192,101009,1,0,0:0:0:0:
256,192,101109,1,8,0:0:0:0:
256,192,101209,1,0,0:0:0:0:
256,192,101309,1,0,0:0:0:0:
256,192,101409,1,8,0:0:0:0:
256,192,101509,1,0,0:0:0:0:
256,192,101609,1,0,0:0:0:0:
256,192,101709,1,8,0:0:0:0:
256,192,101809,1,8,0:0:0:0:
256,192,101909,1,8,0:0:0:0:
256,192,102009,1,4,0:0:0:0:
256,192,102159,1,0,0:0:0:0:
256,192,102234,1,8,0:0:0:0:
256,192,102309,1,0,0:0:0:0:
256,192,102384,1,0,0:0:0:0:
256,192,102459,1,8,0:0:0:0:
256,192,102534,1,8,0:0:0:0:
256,192,102609,1,0,0:0:0:0:
256,192,102759,1,0,0:0:0:0:
256,192,102834,1,0,0:0:0:0:
256,192,102909,1,0,0:0:0:0:
256,192,102984,1,8,0:0:0:0:
256,192,103059,1,8,0:0:0:0:
256,192,103134,1,8,0:0:0:0:
256,192,103209,1,0,0:0:0:0:
256,192,103259,1,8,0:0:0:0:
256,192,103309,1,8,0:0:0:0:
256,192,103359,1,0,0:0:0:0:
256,192,103434,1,8,0:0:0:0:
256,192,103509,1,0,0:0:0:0:
256,192,103584,1,0,0:0:0:0:
256,192,103659,1,8,0:0:0:0:
256,192,103809,1,0,0:0:0:0:
256,192,103959,1,8,0:0:0:0:
256,192,104034,1,8,0:0:0:0:
256,192,104109,1,0,0:0:0:0:
256,192,104184,1,8,0:0:0:0:
256,192,104259,1,8,0:0:0:0:
256,192,104334,1,8,0:0:0:0:
256,192,104409,1,0,0:0:0:0:
256,192,104559,1,0,0:0:0:0:
256,192,104634,1,8,0:0:0:0:
256,192,104709,1,0,0:0:0:0:
256,192,104784,1,0,0:0:0:0:
256,192,104859,1,8,0:0:0:0:
256,192,104934,1,8,0:0:0:0:
256,192,105009,1,0,0:0:0:0:
256,192,105159,1,8,0:0:0:0:
256,192,105309,1,0,0:0:0:0:
256,192,105384,1,0,0:0:0:0:
256,192,105459,1,8,0:0:0:0:
256,192,105534,1,0,0:0:0:0:
256,192,105609,1,8,0:0:0:0:
256,192,105659,1,8,0:0:0:0:
256,192,105709,1,8,0:0:0:0:
256,192,105759,1,0,0:0:0:0:
256,192,105834,1,8,0:0:0:0:
256,192,105909,1,0,0:0:0:0:
256,192,106059,1,8,0:0:0:0:
256,192,106209,1,0,0:0:0:0:
256,192,106359,1,8,0:0:0:0:
256,192,106434,1,8,0:0:0:0:
256,192,106509,1,0,0:0:0:0:
256,192,106584,1,0,0:0:0:0:
256,192,106659,1,8,0:0:0:0:
256,192,106809,1,4,0:0:0:0:
256,192,106959,1,8,0:0:0:0:
256,192,107034,1,8,0:0:0:0:
256,192,107109,1,0,0:0:0:0:
256,192,107184,1,0,0:0:0:0:
256,192,107259,1,8,0:0:0:0:
256,192,107334,1,8,0:0:0:0:
256,192,107409,1,0,0:0:0:0:
256,192,107559,1,0,0:0:0:0:
256,192,107634,1,0,0:0:0:0:
256,192,107709,1,0,0:0:0:0:
256,192,107784,1,8,0:0:0:0:
256,192,107859,1,8,0:0:0:0:
256,192,107934,1,8,0:0:0:0:
256,192,108009,1,0,0:0:0:0:
256,192,108059,1,8,0:0:0:0:
256,192,108109,1,8,0:0:0:0:
256,192,108159,1,0,0:0:0:0:
256,192,108234,1,8,0:0:0:0:
256,192,108309,1,0,0:0:0:0:
256,192,108384,1,0,0:0:0:0:
256,192,108459,1,8,0:0:0:0:
256,192,108609,1,8,0:0:0:0:
256,192,108759,1,0,0:0:0:0:
256,192,108834,1,8,0:0:0:0:
256,192,108909,1,0,0:0:0:0:
256,192,108984,1,8,0:0:0:0:
256,192,109059,1,8,0:0:0:0:
256,192,109134,1,8,0:0:0:0:
256,192,109209,1,4,0:0:0:0:
256,192,109359,1,0,0:0:0:0:
256,192,109434,1,0,0:0:0:0:
256,192,109509,1,0,0:0:0:0:
256,192,109659,1,8,0:0:0:0:
256,192,109809,1,4,0:0:0:0:
256,192,109959,1,0,0:0:0:0:
256,192,110034,1,0,0:0:0:0:
256,192,110109,1,0,0:0:0:0:
256,192,110259,1,8,0:0:0:0:
256,192,110409,1,0,0:0:0:0:
256,192,110484,1,8,0:0:0:0:
256,192,110559,1,8,0:0:0:0:
256,192,110634,1,8,0:0:0:0:
256,192,110709,1,0,0:0:0:0:
256,192,110784,1,8,0:0:0:0:
256,192,110859,1,0,0:0:0:0:
256,192,110934,1,8,0:0:0:0:
256,192,111009,1,0,0:0:0:0:
256,192,111084,1,0,0:0:0:0:
256,192,111159,1,8,0:0:0:0:
256,192,111234,1,0,0:0:0:0:
256,192,111309,1,8,0:0:0:0:
256,192,111384,1,8,0:0:0:0:
256,192,111459,1,8,0:0:0:0:
256,192,111534,1,8,0:0:0:0:
256,192,111609,1,4,0:0:0:0:
256,192,111759,1,8,0:0:0:0:
256,192,111834,1,8,0:0:0:0:
256,192,111909,1,0,0:0:0:0:
256,192,112059,1,8,0:0:0:0:
256,192,112209,1,8,0:0:0:0:
256,192,112509,1,0,0:0:0:0:
256,192,112659,1,8,0:0:0:0:
256,192,112809,1,0,0:0:0:0:
256,192,112959,1,0,0:0:0:0:
256,192,113034,1,0,0:0:0:0:
256,192,113109,1,8,0:0:0:0:
256,192,113259,1,0,0:0:0:0:
256,192,113334,1,8,0:0:0:0:
256,192,113409,1,8,0:0:0:0:
256,192,113559,1,0,0:0:0:0:
256,192,113709,1,8,0:0:0:0:
256,192,113784,1,8,0:0:0:0:
256,192,113859,1,8,0:0:0:0:
256,192,114009,1,0,0:0:0:0:
256,192,114309,1,8,0:0:0:0:
256,192,114459,1,0,0:0:0:0:
256,192,114609,1,8,0:0:0:0:
256,192,114759,1,0,0:0:0:0:
256,192,114834,1,0,0:0:0:0:
256,192,114909,1,8,0:0:0:0:
256,192,114984,1,0,0:0:0:0:
256,192,115059,1,8,0:0:0:0:
256,192,115209,1,8,0:0:0:0:
256,192,115359,1,0,0:0:0:0:
256,192,115434,1,8,0:0:0:0:
256,192,115584,1,0,0:0:0:0:
256,192,115659,1,0,0:0:0:0:
256,192,115734,1,0,0:0:0:0:
256,192,115809,1,8,0:0:0:0:
256,192,116109,1,0,0:0:0:0:
256,192,116259,1,8,0:0:0:0:
256,192,116409,1,0,0:0:0:0:
256,192,116709,1,0,0:0:0:0:
256,192,116859,1,8,0:0:0:0:
256,192,117009,1,8,0:0:0:0:
256,192,117084,1,8,0:0:0:0:
256,192,117159,1,0,0:0:0:0:
256,192,117234,1,8,0:0:0:0:
256,192,117309,1,0,0:0:0:0:
256,192,117384,1,8,0:0:0:0:
256,192,117459,1,0,0:0:0:0:
256,192,117534,1,8,0:0:0:0:
256,192,117609,1,0,0:0:0:0:
256,192,117759,1,0,0:0:0:0:
256,192,117909,1,0,0:0:0:0:
256,192,117984,1,8,0:0:0:0:
256,192,118059,1,0,0:0:0:0:
256,192,118209,1,8,0:0:0:0:
256,192,118359,1,8,0:0:0:0:
256,192,118509,1,8,0:0:0:0:
256,192,118584,1,8,0:0:0:0:
256,192,118659,1,8,0:0:0:0:
256,192,118809,1,4,0:0:0:0:
256,192,118959,1,8,0:0:0:0:
256,192,119109,1,0,0:0:0:0:
256,192,119184,1,0,0:0:0:0:
256,192,119259,1,0,0:0:0:0:
256,192,119409,1,4,0:0:0:0:
256,192,119559,1,8,0:0:0:0:
256,192,119709,1,0,0:0:0:0:
256,192,119784,1,0,0:0:0:0:
256,192,119859,1,0,0:0:0:0:
256,192,120009,1,0,0:0:0:0:
256,192,120084,1,0,0:0:0:0:
256,192,120159,1,8,0:0:0:0:
256,192,120234,1,8,0:0:0:0:
256,192,120309,1,0,0:0:0:0:
256,192,120384,1,0,0:0:0:0:
256,192,120459,1,8,0:0:0:0:
256,192,120534,1,8,0:0:0:0:
256,192,120609,1,0,0:0:0:0:
256,192,120684,1,0,0:0:0:0:
256,192,120759,1,8,0:0:0:0:
256,192,120834,1,8,0:0:0:0:
256,192,120909,1,0,0:0:0:0:
256,192,120984,1,8,0:0:0:0:
256,192,121059,1,8,0:0:0:0:
256,192,121134,1,8,0:0:0:0:
256,192,121209,1,4,0:0:0:0:
256,192,121359,1,8,0:0:0:0:
256,192,121434,1,8,0:0:0:0:
256,192,121509,1,0,0:0:0:0:
256,192,121659,1,8,0:0:0:0:
256,192,121696,1,8,0:0:0:0:
256,192,121809,1,0,0:0:0:0:
256,192,121846,1,0,0:0:0:0:
256,192,121959,1,8,0:0:0:0:
256,192,121996,1,8,0:0:0:0:
256,192,122109,1,0,0:0:0:0:
256,192,122146,1,0,0:0:0:0:
256,192,122259,1,8,0:0:0:0:
256,192,122296,1,8,0:0:0:0:
256,192,122409,1,0,0:0:0:0:
256,192,122446,1,0,0:0:0:0:
256,192,122559,1,8,0:0:0:0:
256,192,122596,1,8,0:0:0:0:
256,192,122709,1,0,0:0:0:0:
256,192,122746,1,0,0:0:0:0:
256,192,122859,1,0,0:0:0:0:
256,192,122896,1,0,0:0:0:0:
256,192,123009,1,8,0:0:0:0:
256,192,123046,1,8,0:0:0:0:
256,192,123159,1,0,0:0:0:0:
256,192,123234,1,0,0:0:0:0:
256,192,123309,1,8,0:0:0:0:
256,192,123384,1,0,0:0:0:0:
256,192,123459,1,8,0:0:0:0:
256,192,123534,1,8,0:0:0:0:
256,192,123609,1,0,0:0:0:0:
256,192,123759,1,8,0:0:0:0:
256,192,123834,1,8,0:0:0:0:
256,192,123909,1,0,0:0:0:0:
256,192,124059,1,8,0:0:0:0:
256,192,124096,1,8,0:0:0:0:
256,192,124209,1,0,0:0:0:0:
256,192,124246,1,0,0:0:0:0:
256,192,124359,1,8,0:0:0:0:
256,192,124396,1,8,0:0:0:0:
256,192,124509,1,0,0:0:0:0:
256,192,124546,1,0,0:0:0:0:
256,192,124659,1,8,0:0:0:0:
256,192,124696,1,8,0:0:0:0:
256,192,124809,1,8,0:0:0:0:
256,192,124846,1,8,0:0:0:0:
256,192,124959,1,0,0:0:0:0:
256,192,124996,1,0,0:0:0:0:
256,192,125109,1,8,0:0:0:0:
256,192,125146,1,8,0:0:0:0:
256,192,125259,1,0,0:0:0:0:
256,192,125296,1,0,0:0:0:0:
256,192,125409,1,8,0:0:0:0:
256,192,125446,1,8,0:0:0:0:
256,192,125559,1,0,0:0:0:0:
256,192,125634,1,0,0:0:0:0:
256,192,125709,1,8,0:0:0:0:
256,192,125784,1,0,0:0:0:0:
256,192,125859,1,8,0:0:0:0:
256,192,125934,1,8,0:0:0:0:
256,192,126009,1,0,0:0:0:0:
256,192,126159,1,8,0:0:0:0:
256,192,126234,1,8,0:0:0:0:
256,192,126309,1,0,0:0:0:0:
256,192,126459,1,8,0:0:0:0:
256,192,126496,1,8,0:0:0:0:
256,192,126609,1,8,0:0:0:0:
256,192,126646,1,8,0:0:0:0:
256,192,126759,1,0,0:0:0:0:
256,192,126796,1,0,0:0:0:0:
256,192,126909,1,0,0:0:0:0:
256,192,126946,1,0,0:0:0:0:
256,192,127059,1,8,0:0:0:0:
256,192,127096,1,8,0:0:0:0:
256,192,127209,1,8,0:0:0:0:
256,192,127246,1,8,0:0:0:0:
256,192,127359,1,0,0:0:0:0:
256,192,127396,1,0,0:0:0:0:
256,192,127509,1,8,0:0:0:0:
256,192,127546,1,8,0:0:0:0:
256,192,127659,1,0,0:0:0:0:
256,192,127696,1,0,0:0:0:0:
256,192,127809,1,8,0:0:0:0:
256,192,127846,1,8,0:0:0:0:
256,192,127959,1,8,0:0:0:0:
256,192,128034,1,8,0:0:0:0:
256,192,128109,1,0,0:0:0:0:
256,192,128184,1,0,0:0:0:0:
256,192,128259,1,8,0:0:0:0:
256,192,128409,1,4,0:0:0:0:
256,192,128559,1,8,0:0:0:0:
256,192,128634,1,8,0:0:0:0:
256,192,128709,1,0,0:0:0:0:
256,192,128859,1,8,0:0:0:0:
256,192,129009,1,4,0:0:0:0:
256,192,129159,1,8,0:0:0:0:
256,192,129309,1,0,0:0:0:0:
256,192,129384,1,0,0:0:0:0:
256,192,129459,1,8,0:0:0:0:
256,192,129609,1,0,0:0:0:0:
256,192,129684,1,8,0:0:0:0:
256,192,129759,1,8,0:0:0:0:
256,192,129834,1,8,0:0:0:0:
256,192,129909,1,0,0:0:0:0:
256,192,129984,1,8,0:0:0:0:
256,192,130059,1,8,0:0:0:0:
256,192,130134,1,8,0:0:0:0:
256,192,130209,1,0,0:0:0:0:
256,192,130284,1,8,0:0:0:0:
256,192,130359,1,8,0:0:0:0:
256,192,130434,1,0,0:0:0:0:
256,192,130509,1,0,0:0:0:0:
256,192,130584,1,8,0:0:0:0:
256,192,130659,1,8,0:0:0:0:
256,192,130734,1,8,0:0:0:0:
256,192,130809,1,4,0:0:0:0:
256,192,130959,1,8,0:0:0:0:
256,192,131109,1,0,0:0:0:0:
256,192,131184,1,0,0:0:0:0:
256,192,131259,1,0,0:0:0:0:
256,192,131409,1,8,0:0:0:0:
256,192,131559,1,8,0:0:0:0:
256,192,131634,1,8,0:0:0:0:
256,192,131709,1,8,0:0:0:0:
256,192,131784,1,8,0:0:0:0:
256,192,131859,1,0,0:0:0:0:
256,192,132009,1,8,0:0:0:0:
256,192,132084,1,8,0:0:0:0:
256,192,132159,1,0,0:0:0:0:
256,192,132309,1,8,0:0:0:0:
256,192,132459,1,0,0:0:0:0:
256,192,132534,1,0,0:0:0:0:
256,192,132609,1,0,0:0:0:0:
256,192,132759,1,8,0:0:0:0:
256,192,132909,1,0,0:0:0:0:
256,192,133209,1,0,0:0:0:0:
256,192,133359,1,8,0:0:0:0:
256,192,133509,1,0,0:0:0:0:
256,192,133584,1,0,0:0:0:0:
256,192,133659,1,0,0:0:0:0:
256,192,133809,1,8,0:0:0:0:
256,192,133959,1,8,0:0:0:0:
256,192,134034,1,0,0:0:0:0:
256,192,134109,1,8,0:0:0:0:
256,192,134184,1,8,0:0:0:0:
256,192,134259,1,0,0:0:0:0:
256,192,134409,1,8,0:0:0:0:
256,192,134484,1,8,0:0:0:0:
256,192,134559,1,0,0:0:0:0:
256,192,134709,1,8,0:0:0:0:
256,192,134859,1,0,0:0:0:0:
256,192,134934,1,0,0:0:0:0:
256,192,135009,1,0,0:0:0:0:
256,192,135159,1,8,0:0:0:0:
256,192,135309,1,0,0:0:0:0:
256,192,135609,1,4,0:0:0:0:
256,192,135759,1,8,0:0:0:0:
256,192,135909,1,0,0:0:0:0:
256,192,135984,1,0,0:0:0:0:
256,192,136059,1,0,0:0:0:0:
256,192,136209,1,8,0:0:0:0:
256,192,136359,1,8,0:0:0:0:
256,192,136434,1,8,0:0:0:0:
256,192,136509,1,8,0:0:0:0:
256,192,136584,1,8,0:0:0:0:
256,192,136659,1,0,0:0:0:0:
256,192,136809,1,0,0:0:0:0:
256,192,136884,1,8,0:0:0:0:
256,192,136959,1,0,0:0:0:0:
256,192,137109,1,8,0:0:0:0:
256,192,137259,1,0,0:0:0:0:
256,192,137334,1,0,0:0:0:0:
256,192,137409,1,0,0:0:0:0:
256,192,137559,1,8,0:0:0:0:
256,192,137709,1,0,0:0:0:0:
256,192,138009,1,4,0:0:0:0:
256,192,138159,1,8,0:0:0:0:
256,192,138309,1,0,0:0:0:0:
256,192,138384,1,0,0:0:0:0:
256,192,138459,1,0,0:0:0:0:
256,192,138609,1,4,0:0:0:0:
256,192,138759,1,8,0:0:0:0:
256,192,138909,1,0,0:0:0:0:
256,192,138984,1,0,0:0:0:0:
256,192,139059,1,0,0:0:0:0:
256,192,139209,1,0,0:0:0:0:
256,192,139284,1,0,0:0:0:0:
256,192,139359,1,0,0:0:0:0:
256,192,139434,1,0,0:0:0:0:
256,192,139509,1,8,0:0:0:0:
256,192,139584,1,8,0:0:0:0:
256,192,139659,1,8,0:0:0:0:
256,192,139734,1,8,0:0:0:0:
256,192,139809,1,0,0:0:0:0:
256,192,139884,1,8,0:0:0:0:
256,192,139959,1,8,0:0:0:0:
256,192,140034,1,0,0:0:0:0:
256,192,140109,1,0,0:0:0:0:
256,192,140184,1,8,0:0:0:0:
256,192,140259,1,0,0:0:0:0:
256,192,140334,1,8,0:0:0:0:
256,192,140409,1,4,0:0:0:0:
256,192,140559,1,8,0:0:0:0:
256,192,140709,1,8,0:0:0:0:
256,192,140784,1,8,0:0:0:0:
256,192,140859,1,0,0:0:0:0:
256,192,141009,1,8,0:0:0:0:
256,192,141159,1,0,0:0:0:0:
256,192,141234,1,8,0:0:0:0:
256,192,141309,1,0,0:0:0:0:
256,192,141459,1,8,0:0:0:0:
256,192,141609,1,0,0:0:0:0:
256,192,141684,1,0,0:0:0:0:
256,192,141759,1,8,0:0:0:0:
256,192,141834,1,0,0:0:0:0:
256,192,141909,1,0,0:0:0:0:
256,192,142059,1,0,0:0:0:0:
256,192,142209,1,8,0:0:0:0:
256,192,142284,1,0,0:0:0:0:
256,192,142359,1,8,0:0:0:0:
256,192,142509,1,8,0:0:0:0:
256,192,142809,1,0,0:0:0:0:
256,192,142959,1,8,0:0:0:0:
256,192,143109,1,0,0:0:0:0:
256,192,143184,1,0,0:0:0:0:
256,192,143259,1,0,0:0:0:0:
256,192,143409,1,8,0:0:0:0:
256,192,143559,1,8,0:0:0:0:
256,192,143634,1,0,0:0:0:0:
256,192,143709,1,8,0:0:0:0:
256,192,143859,1,8,0:0:0:0:
256,192,144009,1,8,0:0:0:0:
256,192,144084,1,0,0:0:0:0:
256,192,144159,1,8,0:0:0:0:
256,192,144234,1,8,0:0:0:0:
256,192,144309,1,0,0:0:0:0:
256,192,144459,1,0,0:0:0:0:
256,192,144609,1,8,0:0:0:0:
256,192,144684,1,8,0:0:0:0:
256,192,144759,1,0,0:0:0:0:
256,192,144909,1,8,0:0:0:0:
256,192,145209,1,4,0:0:0:0:
256,192,145359,1,8,0:0:0:0:
256,192,145509,1,0,0:0:0:0:
256,192,145584,1,0,0:0:0:0:
256,192,145659,1,0,0:0:0:0:
256,192,145809,1,8,0:0:0:0:
256,192,145959,1,8,0:0:0:0:
256,192,146034,1,8,0:0:0:0:
256,192,146109,1,0,0:0:0:0:
256,192,146259,1,8,0:0:0:0:
256,192,146409,1,0,0:0:0:0:
256,192,146484,1,0,0:0:0:0:
256,192,146559,1,0,0:0:0:0:
256,192,146634,1,8,0:0:0:0:
256,192,146709,1,0,0:0:0:0:
256,192,146859,1,0,0:0:0:0:
256,192,147009,1,0,0:0:0:0:
256,192,147084,1,8,0:0:0:0:
256,192,147159,1,0,0:0:0:0:
256,192,147309,1,8,0:0:0:0:
256,192,147609,1,4,0:0:0:0:
256,192,147759,1,8,0:0:0:0:
256,192,147909,1,0,0:0:0:0:
256,192,147984,1,0,0:0:0:0:
256,192,148059,1,0,0:0:0:0:
256,192,148209,1,4,0:0:0:0:
256,192,148359,1,8,0:0:0:0:
256,192,148509,1,0,0:0:0:0:
256,192,148584,1,0,0:0:0:0:
256,192,148659,1,0,0:0:0:0:
256,192,148809,1,0,0:0:0:0:
256,192,148884,1,0,0:0:0:0:
256,192,148959,1,8,0:0:0:0:
256,192,149034,1,8,0:0:0:0:
256,192,149109,1,0,0:0:0:0:
256,192,149184,1,0,0:0:0:0:
256,192,149259,1,8,0:0:0:0:
256,192,149334,1,8,0:0:0:0:
256,192,149409,1,0,0:0:0:0:
256,192,149484,1,8,0:0:0:0:
256,192,149559,1,8,0:0:0:0:
256,192,149634,1,8,0:0:0:0:
256,192,149709,1,0,0:0:0:0:
256,192,149784,1,8,0:0:0:0:
256,192,149859,1,0,0:0:0:0:
256,192,149934,1,8,0:0:0:0:
256,192,150009,1,4,0:0:0:0:
256,192,150159,1,0,0:0:0:0:
256,192,150309,1,8,0:0:0:0:
256,192,150384,1,8,0:0:0:0:
256,192,150459,1,8,0:0:0:0:
256,192,150609,1,0,0:0:0:0:
256,192,150759,1,0,0:0:0:0:
256,192,150834,1,8,0:0:0:0:
256,192,150909,1,0,0:0:0:0:
256,192,151059,1,8,0:0:0:0:
256,192,151209,1,8,0:0:0:0:
256,192,151284,1,8,0:0:0:0:
256,192,151359,1,0,0:0:0:0:
256,192,151434,1,0,0:0:0:0:
256,192,151509,1,8,0:0:0:0:
256,192,151659,1,0,0:0:0:0:
256,192,151809,1,8,0:0:0:0:
256,192,151959,1,0,0:0:0:0:
256,192,152109,1,0,0:0:0:0:
256,192,152184,1,0,0:0:0:0:
256,192,152259,1,0,0:0:0:0:
256,192,152409,1,8,0:0:0:0:
256,192,152709,1,0,0:0:0:0:
256,192,152784,1,0,0:0:0:0:
256,192,152859,1,8,0:0:0:0:
256,192,153009,1,8,0:0:0:0:
256,192,153159,1,0,0:0:0:0:
256,192,153309,1,0,0:0:0:0:
256,192,153384,1,0,0:0:0:0:
256,192,153459,1,0,0:0:0:0:
256,192,153609,1,8,0:0:0:0:
256,192,153759,1,8,0:0:0:0:
256,192,153834,1,0,0:0:0:0:
256,192,153909,1,8,0:0:0:0:
256,192,154059,1,8,0:0:0:0:
256,192,154209,1,0,0:0:0:0:
256,192,154509,1,0,0:0:0:0:
256,192,154659,1,8,0:0:0:0:
256,192,154809,1,4,0:0:0:0:
256,192,155109,1,8,0:0:0:0:
256,192,155184,1,8,0:0:0:0:
256,192,155259,1,0,0:0:0:0:
256,192,155409,1,8,0:0:0:0:
256,192,155484,1,8,0:0:0:0:
256,192,155559,1,0,0:0:0:0:
256,192,155709,1,8,0:0:0:0:
256,192,155859,1,0,0:0:0:0:
256,192,156009,1,8,0:0:0:0:
256,192,156159,1,8,0:0:0:0:
256,192,156309,1,0,0:0:0:0:
256,192,156384,1,0,0:0:0:0:
256,192,156459,1,8,0:0:0:0:
256,192,156609,1,0,0:0:0:0:
256,192,156909,1,0,0:0:0:0:
256,192,157059,1,0,0:0:0:0:
256,192,157209,1,12,0:0:0:0:
256,192,157359,1,0,0:0:0:0:
256,192,157434,1,0,0:0:0:0:
256,192,157509,1,0,0:0:0:0:
256,192,157659,1,0,0:0:0:0:
256,192,157809,1,12,0:0:0:0:
256,192,157959,1,0,0:0:0:0:
256,192,158034,1,0,0:0:0:0:
256,192,158109,1,0,0:0:0:0:
256,192,158259,1,0,0:0:0:0:
256,192,158409,1,8,0:0:0:0:
256,192,158484,1,0,0:0:0:0:
256,192,158559,1,8,0:0:0:0:
256,192,158634,1,8,0:0:0:0:
256,192,158709,1,0,0:0:0:0:
256,192,158784,1,0,0:0:0:0:
256,192,158859,1,8,0:0:0:0:
256,192,158934,1,0,0:0:0:0:
256,192,159009,1,8,0:0:0:0:
256,192,159084,1,8,0:0:0:0:
256,192,159159,1,0,0:0:0:0:
256,192,159234,1,8,0:0:0:0:
256,192,159309,1,0,0:0:0:0:
256,192,159384,1,0,0:0:0:0:
256,192,159459,1,8,0:0:0:0:
256,192,159534,1,8,0:0:0:0:
256,192,159609,1,4,0:0:0:0:
256,192,159759,1,0,0:0:0:0:
256,192,159834,1,0,0:0:0:0:
256,192,159909,1,0,0:0:0:0:
256,192,160059,1,8,0:0:0:0:
256,192,160209,1,0,0:0:0:0:
256,192,160284,1,0,0:0:0:0:
256,192,160359,1,8,0:0:0:0:
256,192,160509,1,0,0:0:0:0:
256,192,160659,1,8,0:0:0:0:
256,192,160809,1,0,0:0:0:0:
256,192,160884,1,0,0:0:0:0:
256,192,160959,1,8,0:0:0:0:
256,192,161034,1,8,0:0:0:0:
256,192,161109,1,0,0:0:0:0:
256,192,161259,1,0,0:0:0:0:
256,192,161409,1,8,0:0:0:0:
256,192,161559,1,8,0:0:0:0:
256,192,161634,1,8,0:0:0:0:
256,192,161709,1,0,0:0:0:0:
256,192,161859,1,8,0:0:0:0:
256,192,162009,1,0,0:0:0:0:
256,192,162159,1,0,0:0:0:0:
256,192,162234,1,0,0:0:0:0:
256,192,162309,1,8,0:0:0:0:
256,192,162459,1,8,0:0:0:0:
256,192,162609,1,0,0:0:0:0:
256,192,162684,1,8,0:0:0:0:
256,192,162759,1,0,0:0:0:0:
256,192,162909,1,0,0:0:0:0:
256,192,163059,1,8,0:0:0:0:
256,192,163209,1,8,0:0:0:0:
256,192,163284,1,8,0:0:0:0:
256,192,163359,1,0,0:0:0:0:
256,192,163434,1,0,0:0:0:0:
256,192,163509,1,8,0:0:0:0:
256,192,163809,1,0,0:0:0:0:
256,192,163959,1,0,0:0:0:0:
256,192,164034,1,8,0:0:0:0:
256,192,164109,1,8,0:0:0:0:
256,192,164259,1,0,0:0:0:0:
256,192,164409,1,12,0:0:0:0:
256,192,164559,1,0,0:0:0:0:
256,192,164634,1,0,0:0:0:0:
256,192,164709,1,8,0:0:0:0:
256,192,164859,1,0,0:0:0:0:
256,192,164934,1,0,0:0:0:0:
256,192,165009,1,8,0:0:0:0:
256,192,165084,1,0,0:0:0:0:
256,192,165159,1,0,0:0:0:0:
256,192,165309,1,8,0:0:0:0:
256,192,165459,1,0,0:0:0:0:
256,192,165609,1,8,0:0:0:0:
256,192,165684,1,8,0:0:0:0:
256,192,165759,1,8,0:0:0:0:
256,192,165909,1,0,0:0:0:0:
256,192,166059,1,8,0:0:0:0:
256,192,166209,1,0,0:0:0:0:
256,192,166284,1,0,0:0:0:0:
256,192,166359,1,8,0:0:0:0:
256,192,166509,1,0,0:0:0:0:
256,192,166659,1,8,0:0:0:0:
256,192,166809,1,4,0:0:0:0:
256,192,166959,1,8,0:0:0:0:
256,192,167034,1,8,0:0:0:0:
256,192,167109,1,0,0:0:0:0:
256,192,167259,1,8,0:0:0:0:
256,192,167409,1,4,0:0:0:0:
256,192,167559,1,0,0:0:0:0:
256,192,167634,1,8,0:0:0:0:
256,192,167709,1,0,0:0:0:0:
256,192,167784,1,0,0:0:0:0:
256,192,167859,1,8,0:0:0:0:
256,192,168009,1,0,0:0:0:0:
256,192,168084,1,0,0:0:0:0:
256,192,168159,1,8,0:0:0:0:
256,192,168234,1,8,0:0:0:0:
256,192,168309,1,0,0:0:0:0:
256,192,168384,1,0,0:0:0:0:
256,192,168459,1,8,0:0:0:0:
256,192,168534,1,8,0:0:0:0:
256,192,168609,1,0,0:0:0:0:
256,192,168684,1,8,0:0:0:0:
256,192,168759,1,0,0:0:0:0:
256,192,168834,1,0,0:0:0:0:
256,192,168909,1,0,0:0:0:0:
256,192,168984,1,8,0:0:0:0:
256,192,169059,1,0,0:0:0:0:
256,192,169134,1,8,0:0:0:0:
256,192,169209,1,4,0:0:0:0:
256,192,169359,1,0,0:0:0:0:
256,192,169509,1,8,0:0:0:0:
256,192,169659,1,0,0:0:0:0:
256,192,169734,1,0,0:0:0:0:
256,192,169809,1,8,0:0:0:0:
256,192,169884,1,8,0:0:0:0:
256,192,169959,1,0,0:0:0:0:
256,192,170034,1,0,0:0:0:0:
256,192,170109,1,0,0:0:0:0:
256,192,170259,1,0,0:0:0:0:
256,192,170409,1,8,0:0:0:0:
256,192,170559,1,8,0:0:0:0:
256,192,170634,1,8,0:0:0:0:
256,192,170709,1,0,0:0:0:0:
256,192,170859,1,8,0:0:0:0:
256,192,171009,1,0,0:0:0:0:
256,192,171084,1,0,0:0:0:0:
256,192,171159,1,8,0:0:0:0:
256,192,171234,1,0,0:0:0:0:
256,192,171309,1,8,0:0:0:0:
256,192,171459,1,0,0:0:0:0:
256,192,171609,1,8,0:0:0:0:
256,192,171759,1,0,0:0:0:0:
256,192,171834,1,0,0:0:0:0:
256,192,171909,1,8,0:0:0:0:
256,192,171984,1,8,0:0:0:0:
256,192,172059,1,0,0:0:0:0:
256,192,172134,1,0,0:0:0:0:
256,192,172209,1,8,0:0:0:0:
256,192,172284,1,8,0:0:0:0:
256,192,172359,1,0,0:0:0:0:
256,192,172434,1,0,0:0:0:0:
256,192,172509,1,8,0:0:0:0:
256,192,172659,1,0,0:0:0:0:
256,192,172809,1,12,0:0:0:0:
256,192,174009,1,4,0:0:0:0:
256,192,191109,12,0,192759,0:0:0:0:
256,192,192909,5,0,0:0:0:0:
256,192,192984,1,0,0:0:0:0:
256,192,193059,1,0,0:0:0:0:
256,192,193134,1,0,0:0:0:0:
256,192,193209,1,12,0:0:0:0:
256,192,193359,1,0,0:0:0:0:
256,192,193434,1,0,0:0:0:0:
256,192,193509,1,8,0:0:0:0:
256,192,193659,1,0,0:0:0:0:
256,192,193809,1,8,0:0:0:0:
256,192,193959,1,0,0:0:0:0:
256,192,194034,1,0,0:0:0:0:
256,192,194109,1,8,0:0:0:0:
256,192,194259,1,8,0:0:0:0:
256,192,194334,1,8,0:0:0:0:
256,192,194409,1,0,0:0:0:0:
256,192,194484,1,8,0:0:0:0:
256,192,194559,1,0,0:0:0:0:
256,192,194709,1,0,0:0:0:0:
256,192,194859,1,0,0:0:0:0:
256,192,194934,1,8,0:0:0:0:
256,192,195009,1,8,0:0:0:0:
256,192,195159,1,8,0:0:0:0:
256,192,195234,1,0,0:0:0:0:
256,192,195309,1,8,0:0:0:0:
256,192,195384,1,8,0:0:0:0:
256,192,195459,1,0,0:0:0:0:
256,192,195609,1,8,0:0:0:0:
256,192,195759,1,0,0:0:0:0:
256,192,195834,1,0,0:0:0:0:
256,192,195909,1,0,0:0:0:0:
256,192,196059,1,0,0:0:0:0:
256,192,196209,1,8,0:0:0:0:
256,192,196359,1,0,0:0:0:0:
256,192,196659,1,12,0:0:0:0:
256,192,196959,1,0,0:0:0:0:
256,192,197109,1,8,0:0:0:0:
256,192,197259,1,0,0:0:0:0:
256,192,197409,1,0,0:0:0:0:
256,192,197559,1,0,0:0:0:0:
256,192,197634,1,0,0:0:0:0:
256,192,197709,1,8,0:0:0:0:
256,192,197784,1,0,0:0:0:0:
256,192,197859,1,8,0:0:0:0:
256,192,198009,1,4,0:0:0:0:
256,192,198309,1,0,0:0:0:0:
256,192,198459,1,8,0:0:0:0:
256,192,198609,1,0,0:0:0:0:
256,192,198684,1,0,0:0:0:0:
256,192,198759,1,0,0:0:0:0:
256,192,198909,1,8,0:0:0:0:
256,192,199059,1,8,0:0:0:0:
256,192,199209,1,0,0:0:0:0:
256,192,199284,1,8,0:0:0:0:
256,192,199359,1,0,0:0:0:0:
256,192,199509,1,0,0:0:0:0:
256,192,199659,1,8,0:0:0:0:
256,192,199809,1,0,0:0:0:0:
256,192,199959,1,0,0:0:0:0:
256,192,200034,1,0,0:0:0:0:
256,192,200109,1,8,0:0:0:0:
256,192,200184,1,0,0:0:0:0:
256,192,200259,1,8,0:0:0:0:
256,192,200409,1,8,0:0:0:0:
256,192,200709,1,0,0:0:0:0:
256,192,200859,1,8,0:0:0:0:
256,192,201009,1,0,0:0:0:0:
256,192,201084,1,8,0:0:0:0:
256,192,201159,1,0,0:0:0:0:
256,192,201309,1,0,0:0:0:0:
256,192,201459,1,8,0:0:0:0:
256,192,201609,1,8,0:0:0:0:
256,192,201684,1,8,0:0:0:0:
256,192,201759,1,0,0:0:0:0:
256,192,201909,1,8,0:0:0:0:
256,192,202059,1,8,0:0:0:0:
256,192,202134,1,8,0:0:0:0:
256,192,202209,1,0,0:0:0:0:
256,192,202284,1,8,0:0:0:0:
256,192,202359,1,0,0:0:0:0:
256,192,202434,1,8,0:0:0:0:
256,192,202509,1,0,0:0:0:0:
256,192,202659,1,0,0:0:0:0:
256,192,202809,1,12,0:0:0:0:
256,192,202959,1,0,0:0:0:0:
256,192,203034,1,0,0:0:0:0:
256,192,203109,1,0,0:0:0:0:
256,192,203259,1,8,0:0:0:0:
256,192,203409,1,0,0:0:0:0:
256,192,203484,1,0,0:0:0:0:
256,192,203559,1,0,0:0:0:0:
256,192,203709,1,8,0:0:0:0:
256,192,203859,1,0,0:0:0:0:
256,192,203934,1,0,0:0:0:0:
256,192,204009,1,0,0:0:0:0:
256,192,204159,1,0,0:0:0:0:
256,192,204309,1,0,0:0:0:0:
256,192,204384,1,0,0:0:0:0:
256,192,204459,1,8,0:0:0:0:
256,192,204534,1,0,0:0:0:0:
256,192,204609,1,8,0:0:0:0:
256,192,204684,1,8,0:0:0:0:
256,192,204759,1,0,0:0:0:0:
256,192,204834,1,8,0:0:0:0:
256,192,204909,1,8,0:0:0:0:
256,192,204984,1,8,0:0:0:0:
256,192,205059,1,0,0:0:0:0:
256,192,205209,1,0,0:0:0:0:
256,192,205509,1,0,0:0:0:0:
256,192,205659,1,8,0:0:0:0:
256,192,205809,1,0,0:0:0:0:
256,192,205959,1,12,0:0:0:0:
256,192,206259,1,12,0:0:0:0:
256,192,206559,1,0,0:0:0:0:
256,192,206634,1,0,0:0:0:0:
256,192,206709,1,8,0:0:0:0:
256,192,206859,1,0,0:0:0:0:
256,192,207009,1,8,0:0:0:0:
256,192,207084,1,8,0:0:0:0:
256,192,207159,1,0,0:0:0:0:
256,192,207234,1,0,0:0:0:0:
256,192,207309,1,8,0:0:0:0:
256,192,207384,1,0,0:0:0:0:
256,192,207459,1,8,0:0:0:0:
256,192,207609,1,4,0:0:0:0:
256,192,207909,1,8,0:0:0:0:
256,192,207984,1,8,0:0:0:0:
256,192,208059,1,8,0:0:0:0:
256,192,208209,1,0,0:0:0:0:
256,192,208359,1,8,0:0:0:0:
256,192,208509,1,0,0:0:0:0:
256,192,208584,1,0,0:0:0:0:
256,192,208659,1,8,0:0:0:0:
256,192,208809,1,8,0:0:0:0:
256,192,208959,1,8,0:0:0:0:
256,192,209034,1,0,0:0:0:0:
256,192,209109,1,8,0:0:0:0:
256,192,209184,1,8,0:0:0:0:
256,192,209259,1,8,0:0:0:0:
256,192,209334,1,0,0:0:0:0:
256,192,209409,1,8,0:0:0:0:
256,192,209484,1,0,0:0:0:0:
256,192,209559,1,8,0:0:0:0:
256,192,209634,1,0,0:0:0:0:
256,192,209709,1,8,0:0:0:0:
256,192,209784,1,0,0:0:0:0:
256,192,209859,1,0,0:0:0:0:
256,192,209934,1,0,0:0:0:0:
256,192,210009,1,8,0:0:0:0:
256,192,210309,1,0,0:0:0:0:
256,192,210459,1,0,0:0:0:0:
256,192,210534,1,8,0:0:0:0:
256,192,210609,1,8,0:0:0:0:
256,192,210684,1,8,0:0:0:0:
256,192,210759,1,0,0:0:0:0:
256,192,210834,1,8,0:0:0:0:
256,192,210909,1,0,0:0:0:0:
256,192,211059,1,0,0:0:0:0:
256,192,211209,1,8,0:0:0:0:
256,192,211284,1,0,0:0:0:0:
256,192,211359,1,8,0:0:0:0:
256,192,211434,1,0,0:0:0:0:
256,192,211509,1,0,0:0:0:0:
256,192,211584,1,8,0:0:0:0:
256,192,211659,1,8,0:0:0:0:
256,192,211734,1,0,0:0:0:0:
256,192,211809,1,0,0:0:0:0:
256,192,211884,1,8,0:0:0:0:
256,192,211959,1,8,0:0:0:0:
256,192,212034,1,0,0:0:0:0:
256,192,212109,1,8,0:0:0:0:
256,192,212184,1,0,0:0:0:0:
256,192,212259,1,8,0:0:0:0:
256,192,212334,1,8,0:0:0:0:
256,192,212409,1,4,0:0:0:0:
256,192,212709,1,0,0:0:0:0:
256,192,213009,1,8,0:0:0:0:
256,192,213159,1,8,0:0:0:0:
256,192,213309,1,0,0:0:0:0:
256,192,213459,1,0,0:0:0:0:
256,192,213759,1,0,0:0:0:0:
256,192,213909,1,8,0:0:0:0:
256,192,214059,1,0,0:0:0:0:
256,192,214209,1,0,0:0:0:0:
256,192,214359,1,0,0:0:0:0:
256,192,214509,1,8,0:0:0:0:
256,192,214659,1,0,0:0:0:0:
256,192,214809,1,0,0:0:0:0:
256,192,214959,1,0,0:0:0:0:
256,192,215109,1,8,0:0:0:0:
256,192,215409,1,8,0:0:0:0:
256,192,215559,1,0,0:0:0:0:
256,192,215709,1,8,0:0:0:0:
256,192,215859,1,8,0:0:0:0:
256,192,216009,1,8,0:0:0:0:
256,192,216084,1,8,0:0:0:0:
256,192,216159,1,8,0:0:0:0:
256,192,216234,1,8,0:0:0:0:
256,192,216309,1,8,0:0:0:0:
256,192,216459,1,0,0:0:0:0:
256,192,216609,1,0,0:0:0:0:
256,192,216759,1,8,0:0:0:0:
256,192,216909,1,8,0:0:0:0:
256,192,216984,1,8,0:0:0:0:
256,192,217059,1,0,0:0:0:0:
256,192,217134,1,0,0:0:0:0:
256,192,217209,1,0,0:0:0:0:
256,192,217359,1,0,0:0:0:0:
256,192,217509,1,8,0:0:0:0:
256,192,217809,1,0,0:0:0:0:
256,192,217959,1,8,0:0:0:0:
256,192,218109,1,8,0:0:0:0:
256,192,218259,1,0,0:0:0:0:
256,192,218559,1,0,0:0:0:0:
256,192,218709,1,8,0:0:0:0:
256,192,218859,1,0,0:0:0:0:
256,192,219009,1,8,0:0:0:0:
256,192,219159,1,0,0:0:0:0:
256,192,219309,1,8,0:0:0:0:
256,192,219459,1,0,0:0:0:0:
256,192,219609,1,0,0:0:0:0:
256,192,219759,1,0,0:0:0:0:
256,192,219909,1,8,0:0:0:0:
256,192,220209,1,0,0:0:0:0:
256,192,220359,1,0,0:0:0:0:
256,192,220509,1,8,0:0:0:0:
256,192,220659,1,8,0:0:0:0:
256,192,220959,1,0,0:0:0:0:
256,192,221109,1,0,0:0:0:0:
256,192,221259,1,0,0:0:0:0:
256,192,221409,1,8,0:0:0:0:
256,192,221484,1,8,0:0:0:0:
256,192,221559,1,8,0:0:0:0:
256,192,221634,1,8,0:0:0:0:
256,192,221709,1,8,0:0:0:0:
256,192,221784,1,8,0:0:0:0:
256,192,221859,1,8,0:0:0:0:
256,192,221934,1,8,0:0:0:0:
256,192,222009,1,4,0:0:0:0:
256,192,222159,1,8,0:0:0:0:
256,192,222309,1,0,0:0:0:0:
256,192,222459,1,0,0:0:0:0:
256,192,222534,1,0,0:0:0:0:
256,192,222609,1,8,0:0:0:0:
256,192,222684,1,8,0:0:0:0:
256,192,222759,1,0,0:0:0:0:
256,192,222909,1,8,0:0:0:0:
256,192,223059,1,8,0:0:0:0:
256,192,223209,1,0,0:0:0:0:
256,192,223359,1,8,0:0:0:0:
256,192,223434,1,8,0:0:0:0:
256,192,223509,1,0,0:0:0:0:
256,192,223584,1,0,0:0:0:0:
256,192,223659,1,8,0:0:0:0:
256,192,223734,1,0,0:0:0:0:
256,192,223809,1,8,0:0:0:0:
256,192,223959,1,0,0:0:0:0:
256,192,224034,1,0,0:0:0:0:
256,192,224109,1,8,0:0:0:0:
256,192,224259,1,0,0:0:0:0:
256,192,224409,1,8,0:0:0:0:
256,192,224559,1,0,0:0:0:0:
256,192,224634,1,8,0:0:0:0:
256,192,224709,1,0,0:0:0:0:
256,192,224859,1,8,0:0:0:0:
256,192,225009,1,0,0:0:0:0:
256,192,225159,1,8,0:0:0:0:
256,192,225234,1,8,0:0:0:0:
256,192,225309,1,0,0:0:0:0:
256,192,225459,1,8,0:0:0:0:
256,192,225609,1,0,0:0:0:0:
256,192,225684,1,8,0:0:0:0:
256,192,225759,1,0,0:0:0:0:
256,192,225834,1,0,0:0:0:0:
256,192,225909,1,8,0:0:0:0:
256,192,226059,1,0,0:0:0:0:
256,192,226209,1,8,0:0:0:0:
256,192,226359,1,8,0:0:0:0:
256,192,226434,1,8,0:0:0:0:
256,192,226509,1,0,0:0:0:0:
256,192,226584,1,0,0:0:0:0:
256,192,226659,1,8,0:0:0:0:
256,192,226734,1,8,0:0:0:0:
256,192,226809,1,0,0:0:0:0:
256,192,226959,1,0,0:0:0:0:
256,192,227109,1,8,0:0:0:0:
256,192,227259,1,8,0:0:0:0:
256,192,227409,1,0,0:0:0:0:
256,192,227559,1,0,0:0:0:0:
256,192,227709,1,8,0:0:0:0:
256,192,227859,1,8,0:0:0:0:
256,192,228009,1,0,0:0:0:0:
256,192,228159,1,8,0:0:0:0:
256,192,228309,1,0,0:0:0:0:
256,192,228459,1,8,0:0:0:0:
256,192,228609,1,0,0:0:0:0:
256,192,228759,1,8,0:0:0:0:
256,192,228909,1,0,0:0:0:0:
256,192,229059,1,0,0:0:0:0:
256,192,229209,1,12,0:0:0:0:
256,192,229359,1,0,0:0:0:0:
256,192,229434,1,0,0:0:0:0:
256,192,229509,1,8,0:0:0:0:
256,192,229584,1,0,0:0:0:0:
256,192,229659,1,0,0:0:0:0:
256,192,229734,1,8,0:0:0:0:
256,192,229809,1,8,0:0:0:0:
256,192,229884,1,8,0:0:0:0:
256,192,229959,1,0,0:0:0:0:
256,192,230034,1,8,0:0:0:0:
256,192,230109,1,8,0:0:0:0:
256,192,230184,1,0,0:0:0:0:
256,192,230259,1,8,0:0:0:0:
256,192,230334,1,0,0:0:0:0:
256,192,230409,1,8,0:0:0:0:
256,192,230484,1,0,0:0:0:0:
256,192,230559,1,0,0:0:0:0:
256,192,230634,1,0,0:0:0:0:
256,192,230709,1,8,0:0:0:0:
256,192,230784,1,0,0:0:0:0:
256,192,230859,1,0,0:0:0:0:
256,192,230934,1,8,0:0:0:0:
256,192,231009,1,8,0:0:0:0:
256,192,231084,1,0,0:0:0:0:
256,192,231159,1,8,0:0:0:0:
256,192,231234,1,0,0:0:0:0:
256,192,231309,1,8,0:0:0:0:
256,192,231384,1,0,0:0:0:0:
256,192,231459,1,0,0:0:0:0:
256,192,231534,1,8,0:0:0:0:
256,192,231609,1,4,0:0:0:0:
256,192,231909,1,0,0:0:0:0:
256,192,232059,1,8,0:0:0:0:
256,192,232209,1,0,0:0:0:0:
256,192,232284,1,0,0:0:0:0:
256,192,232359,1,0,0:0:0:0:
256,192,232434,1,0,0:0:0:0:
256,192,232509,1,8,0:0:0:0:
256,192,232584,1,8,0:0:0:0:
256,192,232659,1,8,0:0:0:0:
256,192,232809,1,4,0:0:0:0:
256,192,233034,1,8,0:0:0:0:
256,192,233109,1,0,0:0:0:0:
256,192,233259,1,8,0:0:0:0:
256,192,233334,1,8,0:0:0:0:
256,192,233409,1,0,0:0:0:0:
256,192,233484,1,0,0:0:0:0:
256,192,233559,1,8,0:0:0:0:
256,192,233709,1,0,0:0:0:0:
256,192,233859,1,0,0:0:0:0:
256,192,233934,1,0,0:0:0:0:
256,192,234009,1,8,0:0:0:0:
256,192,234234,1,8,0:0:0:0:
256,192,234309,1,0,0:0:0:0:
256,192,234459,1,0,0:0:0:0:
256,192,234534,1,8,0:0:0:0:
256,192,234609,1,0,0:0:0:0:
256,192,234684,1,8,0:0:0:0:
256,192,234759,1,0,0:0:0:0:
256,192,234909,1,8,0:0:0:0:
256,192,234984,1,8,0:0:0:0:
256,192,235059,1,0,0:0:0:0:
256,192,235209,1,8,0:0:0:0:
256,192,235434,1,8,0:0:0:0:
256,192,235509,1,0,0:0:0:0:
256,192,235659,1,8,0:0:0:0:
256,192,235734,1,8,0:0:0:0:
256,192,235809,1,0,0:0:0:0:
256,192,235884,1,0,0:0:0:0:
256,192,235959,1,8,0:0:0:0:
256,192,236034,1,8,0:0:0:0:
256,192,236109,1,0,0:0:0:0:
256,192,236184,1,0,0:0:0:0:
256,192,236259,1,8,0:0:0:0:
256,192,236409,1,8,0:0:0:0:
256,192,236634,1,0,0:0:0:0:
256,192,236709,1,8,0:0:0:0:
256,192,236859,1,0,0:0:0:0:
256,192,237009,1,8,0:0:0:0:
256,192,237084,1,8,0:0:0:0:
256,192,237159,1,0,0:0:0:0:
256,192,237234,1,0,0:0:0:0:
256,192,237309,1,8,0:0:0:0:
256,192,237384,1,8,0:0:0:0:
256,192,237459,1,0,0:0:0:0:
256,192,237609,1,4,0:0:0:0:
256,192,237834,1,8,0:0:0:0:
256,192,237909,1,0,0:0:0:0:
256,192,238059,1,8,0:0:0:0:
256,192,238134,1,8,0:0:0:0:
256,192,238209,1,0,0:0:0:0:
256,192,238284,1,8,0:0:0:0:
256,192,238359,1,8,0:0:0:0:
256,192,238509,1,8,0:0:0:0:
256,192,238659,1,8,0:0:0:0:
256,192,238734,1,8,0:0:0:0:
256,192,238809,1,0,0:0:0:0:
256,192,239034,1,8,0:0:0:0:
256,192,239109,1,0,0:0:0:0:
256,192,239259,1,0,0:0:0:0:
256,192,239334,1,0,0:0:0:0:
256,192,239409,1,8,0:0:0:0:
256,192,239484,1,0,0:0:0:0:
256,192,239559,1,8,0:0:0:0:
256,192,239709,1,8,0:0:0:0:
256,192,239784,1,0,0:0:0:0:
256,192,239859,1,8,0:0:0:0:
256,192,240009,1,4,0:0:0:0:
256,192,240159,1,0,0:0:0:0:
256,192,240234,1,0,0:0:0:0:
256,192,240309,1,0,0:0:0:0:
256,192,240459,1,8,0:0:0:0:
256,192,240609,1,4,0:0:0:0:
256,192,240759,1,0,0:0:0:0:
256,192,240834,1,0,0:0:0:0:
256,192,240909,1,0,0:0:0:0:
256,192,241059,1,8,0:0:0:0:
256,192,241209,1,4,0:0:0:0:
256,192,241809,1,0,0:0:0:0:
256,192,241884,1,0,0:0:0:0:
256,192,241959,1,0,0:0:0:0:
256,192,242034,1,0,0:0:0:0:
256,192,242109,1,8,0:0:0:0:
256,192,242184,1,8,0:0:0:0:
256,192,242259,1,8,0:0:0:0:
256,192,242334,1,8,0:0:0:0:
256,192,242409,1,4,0:0:0:0:
256,192,242559,1,8,0:0:0:0:
256,192,242709,1,0,0:0:0:0:
256,192,242859,1,8,0:0:0:0:
256,192,242934,1,8,0:0:0:0:
256,192,243009,1,8,0:0:0:0:
256,192,243159,1,0,0:0:0:0:
256,192,243234,1,0,0:0:0:0:
256,192,243309,1,0,0:0:0:0:
256,192,243459,1,8,0:0:0:0:
256,192,243534,1,8,0:0:0:0:
256,192,243609,1,0,0:0:0:0:
256,192,243684,1,0,0:0:0:0:
256,192,243759,1,8,0:0:0:0:
256,192,243909,1,0,0:0:0:0:
256,192,243984,1,0,0:0:0:0:
256,192,244059,1,0,0:0:0:0:
256,192,244209,1,8,0:0:0:0:
256,192,244509,1,0,0:0:0:0:
256,192,244659,1,8,0:0:0:0:
256,192,244809,1,0,0:0:0:0:
256,192,244959,1,0,0:0:0:0:
256,192,245034,1,0,0:0:0:0:
256,192,245109,1,0,0:0:0:0:
256,192,245259,1,8,0:0:0:0:
256,192,245334,1,8,0:0:0:0:
256,192,245409,1,0,0:0:0:0:
256,192,245559,1,0,0:0:0:0:
256,192,245709,1,8,0:0:0:0:
256,192,245784,1,8,0:0:0:0:
256,192,245859,1,8,0:0:0:0:
256,192,246009,1,8,0:0:0:0:
256,192,246084,1,8,0:0:0:0:
256,192,246159,1,0,0:0:0:0:
256,192,246234,1,0,0:0:0:0:
256,192,246309,1,8,0:0:0:0:
256,192,246459,1,0,0:0:0:0:
256,192,246609,1,8,0:0:0:0:
256,192,246759,1,8,0:0:0:0:
256,192,246834,1,8,0:0:0:0:
256,192,246909,1,0,0:0:0:0:
256,192,246984,1,8,0:0:0:0:
256,192,247059,1,0,0:0:0:0:
256,192,247209,1,4,0:0:0:0:
256,192,247509,1,0,0:0:0:0:
256,192,247659,1,8,0:0:0:0:
256,192,247809,1,0,0:0:0:0:
256,192,247884,1,0,0:0:0:0:
256,192,247959,1,0,0:0:0:0:
256,192,248109,1,0,0:0:0:0:
256,192,248259,1,8,0:0:0:0:
256,192,248409,1,0,0:0:0:0:
256,192,248484,1,0,0:0:0:0:
256,192,248559,1,8,0:0:0:0:
256,192,248634,1,8,0:0:0:0:
256,192,248709,1,0,0:0:0:0:
256,192,248859,1,8,0:0:0:0:
256,192,248934,1,8,0:0:0:0:
256,192,249009,1,0,0:0:0:0:
256,192,249309,1,0,0:0:0:0:
256,192,249459,1,8,0:0:0:0:
256,192,249609,1,4,0:0:0:0:
256,192,249759,1,0,0:0:0:0:
256,192,249834,1,8,0:0:0:0:
256,192,249909,1,8,0:0:0:0:
256,192,249984,1,8,0:0:0:0:
256,192,250059,1,0,0:0:0:0:
256,192,250209,1,4,0:0:0:0:
256,192,250359,1,0,0:0:0:0:
256,192,250434,1,8,0:0:0:0:
256,192,250509,1,8,0:0:0:0:
256,192,250584,1,8,0:0:0:0:
256,192,250659,1,0,0:0:0:0:
256,192,250809,1,0,0:0:0:0:
256,192,250884,1,0,0:0:0:0:
256,192,250959,1,8,0:0:0:0:
256,192,251034,1,8,0:0:0:0:
256,192,251109,1,0,0:0:0:0:
256,192,251184,1,8,0:0:0:0:
256,192,251259,1,8,0:0:0:0:
256,192,251334,1,8,0:0:0:0:
256,192,251409,1,0,0:0:0:0:
256,192,251484,1,8,0:0:0:0:
256,192,251559,1,0,0:0:0:0:
256,192,251634,1,0,0:0:0:0:
256,192,251709,1,8,0:0:0:0:
256,192,251784,1,8,0:0:0:0:
256,192,251859,1,0,0:0:0:0:
256,192,251934,1,0,0:0:0:0:
256,192,252009,1,12,0:0:0:0:
256,192,252159,1,0,0:0:0:0:
256,192,252234,1,8,0:0:0:0:
256,192,252384,1,8,0:0:0:0:
256,192,252459,1,0,0:0:0:0:
256,192,252609,1,8,0:0:0:0:
256,192,252684,1,8,0:0:0:0:
256,192,252759,1,0,0:0:0:0:
256,192,252834,1,0,0:0:0:0:
256,192,252909,1,8,0:0:0:0:
256,192,252984,1,0,0:0:0:0:
256,192,253059,1,0,0:0:0:0:
256,192,253134,1,0,0:0:0:0:
256,192,253209,1,8,0:0:0:0:
256,192,253359,1,0,0:0:0:0:
256,192,253434,1,8,0:0:0:0:
256,192,253584,1,8,0:0:0:0:
256,192,253659,1,0,0:0:0:0:
256,192,253809,1,8,0:0:0:0:
256,192,253884,1,0,0:0:0:0:
256,192,253959,1,0,0:0:0:0:
256,192,254034,1,8,0:0:0:0:
256,192,254109,1,8,0:0:0:0:
256,192,254184,1,8,0:0:0:0:
256,192,254259,1,0,0:0:0:0:
256,192,254334,1,0,0:0:0:0:
256,192,254409,1,8,0:0:0:0:
256,192,254559,1,0,0:0:0:0:
256,192,254634,1,8,0:0:0:0:
256,192,254784,1,8,0:0:0:0:
256,192,254859,1,0,0:0:0:0:
256,192,255009,1,8,0:0:0:0:
256,192,255084,1,8,0:0:0:0:
256,192,255159,1,0,0:0:0:0:
256,192,255234,1,8,0:0:0:0:
256,192,255309,1,8,0:0:0:0:
256,192,255384,1,0,0:0:0:0:
256,192,255459,1,0,0:0:0:0:
256,192,255534,1,0,0:0:0:0:
256,192,255609,1,8,0:0:0:0:
256,192,255759,1,0,0:0:0:0:
256,192,255834,1,8,0:0:0:0:
256,192,255984,1,8,0:0:0:0:
256,192,256059,1,0,0:0:0:0:
256,192,256209,1,8,0:0:0:0:
256,192,256284,1,0,0:0:0:0:
256,192,256359,1,0,0:0:0:0:
256,192,256434,1,8,0:0:0:0:
256,192,256509,1,8,0:0:0:0:
256,192,256584,1,8,0:0:0:0:
256,192,256659,1,0,0:0:0:0:
256,192,256734,1,0,0:0:0:0:
256,192,256809,1,12,0:0:0:0:
256,192,256959,1,0,0:0:0:0:
256,192,257034,1,8,0:0:0:0:
256,192,257184,1,8,0:0:0:0:
256,192,257259,1,0,0:0:0:0:
256,192,257409,1,8,0:0:0:0:
256,192,257484,1,8,0:0:0:0:
256,192,257559,1,0,0:0:0:0:
256,192,257634,1,0,0:0:0:0:
256,192,257709,1,8,0:0:0:0:
256,192,257784,1,0,0:0:0:0:
256,192,257859,1,0,0:0:0:0:
256,192,257934,1,0,0:0:0:0:
256,192,258009,1,8,0:0:0:0:
256,192,258159,1,0,0:0:0:0:
256,192,258234,1,8,0:0:0:0:
256,192,258384,1,8,0:0:0:0:
256,192,258459,1,0,0:0:0:0:
256,192,258609,1,8,0:0:0:0:
256,192,258684,1,0,0:0:0:0:
256,192,258759,1,0,0:0:0:0:
256,192,258834,1,8,0:0:0:0:
256,192,258909,1,8,0:0:0:0:
256,192,258984,1,8,0:0:0:0:
256,192,259059,1,0,0:0:0:0:
256,192,259209,1,12,0:0:0:0:
256,192,259359,1,0,0:0:0:0:
256,192,259434,1,8,0:0:0:0:
256,192,259584,1,8,0:0:0:0:
256,192,259659,1,0,0:0:0:0:
256,192,259809,1,12,0:0:0:0:
256,192,259959,1,0,0:0:0:0:
256,192,260034,1,0,0:0:0:0:
256,192,260109,1,8,0:0:0:0:
256,192,260184,1,8,0:0:0:0:
256,192,260259,1,0,0:0:0:0:
256,192,260409,1,8,0:0:0:0:
256,192,260484,1,0,0:0:0:0:
256,192,260559,1,0,0:0:0:0:
256,192,260634,1,8,0:0:0:0:
256,160,260709,1,0,0:0:0:0:
256,192,260784,1,8,0:0:0:0:
256,192,260859,1,0,0:0:0:0:
256,192,260934,1,8,0:0:0:0:
256,192,261009,1,8,0:0:0:0:
256,192,261084,1,0,0:0:0:0:
256,192,261159,1,0,0:0:0:0:
256,192,261234,1,8,0:0:0:0:
256,192,261309,1,8,0:0:0:0:
256,192,261384,1,8,0:0:0:0:
256,192,261459,1,0,0:0:0:0:
256,192,261534,1,8,0:0:0:0:
256,192,261609,1,4,0:0:0:0:
256,192,261759,1,0,0:0:0:0:
256,192,261909,1,8,0:0:0:0:
256,192,262059,1,0,0:0:0:0:
256,192,262209,1,8,0:0:0:0:
256,192,262284,1,0,0:0:0:0:
256,192,262359,1,8,0:0:0:0:
256,192,262434,1,8,0:0:0:0:
256,192,262509,1,0,0:0:0:0:
256,192,262659,1,8,0:0:0:0:
256,192,262809,1,8,0:0:0:0:
256,192,262884,1,0,0:0:0:0:
256,192,262959,1,8,0:0:0:0:
256,192,263109,1,0,0:0:0:0:
256,192,263259,1,8,0:0:0:0:
256,192,263409,1,0,0:0:0:0:
256,192,263709,1,0,0:0:0:0:
256,192,263859,1,0,0:0:0:0:
256,192,264009,1,8,0:0:0:0:
256,192,264309,1,0,0:0:0:0:
256,192,264459,1,8,0:0:0:0:
256,192,264609,1,0,0:0:0:0:
256,192,264684,1,0,0:0:0:0:
256,192,264759,1,0,0:0:0:0:
256,192,264909,1,8,0:0:0:0:
256,192,265059,1,8,0:0:0:0:
256,192,265134,1,8,0:0:0:0:
256,192,265209,1,0,0:0:0:0:
256,192,265359,1,0,0:0:0:0:
256,192,265509,1,0,0:0:0:0:
256,192,265584,1,8,0:0:0:0:
256,192,265659,1,0,0:0:0:0:
256,192,265809,1,8,0:0:0:0:
256,192,266109,1,0,0:0:0:0:
256,192,266259,1,0,0:0:0:0:
256,192,266409,1,12,0:0:0:0:
256,192,266709,1,0,0:0:0:0:
256,192,266859,1,8,0:0:0:0:
256,192,267009,1,0,0:0:0:0:
256,192,267084,1,0,0:0:0:0:
256,192,267159,1,8,0:0:0:0:
256,192,267234,1,8,0:0:0:0:
256,192,267309,1,0,0:0:0:0:
256,192,267459,1,8,0:0:0:0:
256,192,267609,1,8,0:0:0:0:
256,192,267684,1,8,0:0:0:0:
256,192,267759,1,0,0:0:0:0:
256,192,267834,1,0,0:0:0:0:
256,192,267909,1,8,0:0:0:0:
256,192,268059,1,0,0:0:0:0:
256,192,268209,1,8,0:0:0:0:
256,192,268284,1,8,0:0:0:0:
256,192,268359,1,8,0:0:0:0:
256,192,268509,1,0,0:0:0:0:
256,192,268659,1,8,0:0:0:0:
256,192,268809,1,4,0:0:0:0:
256,192,268959,1,0,0:0:0:0:
256,192,269034,1,0,0:0:0:0:
256,192,269109,1,0,0:0:0:0:
256,192,269259,1,8,0:0:0:0:
256,192,269409,1,4,0:0:0:0:
256,192,269559,1,0,0:0:0:0:
256,192,269634,1,0,0:0:0:0:
256,192,269709,1,0,0:0:0:0:
256,192,269859,1,8,0:0:0:0:
256,192,270009,1,0,0:0:0:0:
256,192,270084,1,8,0:0:0:0:
256,192,270159,1,0,0:0:0:0:
256,192,270234,1,8,0:0:0:0:
256,192,270309,1,0,0:0:0:0:
256,192,270384,1,8,0:0:0:0:
256,192,270459,1,0,0:0:0:0:
256,192,270534,1,8,0:0:0:0:
256,192,270609,1,0,0:0:0:0:
256,192,270684,1,0,0:0:0:0:
256,192,270759,1,8,0:0:0:0:
256,192,270834,1,8,0:0:0:0:
256,192,270909,1,0,0:0:0:0:
256,192,270984,1,0,0:0:0:0:
256,192,271059,1,8,0:0:0:0:
256,192,271134,1,0,0:0:0:0:
256,192,271209,1,12,0:0:0:0:
256,192,271509,1,0,0:0:0:0:
256,192,271659,1,8,0:0:0:0:
256,192,271809,1,8,0:0:0:0:
256,192,271884,1,8,0:0:0:0:
256,192,271959,1,8,0:0:0:0:
256,192,272109,1,8,0:0:0:0:
256,192,272259,1,8,0:0:0:0:
256,192,272409,1,0,0:0:0:0:
256,192,272484,1,0,0:0:0:0:
256,192,272559,1,8,0:0:0:0:
256,192,272709,1,0,0:0:0:0:
256,192,272859,1,8,0:0:0:0:
256,192,272934,1,8,0:0:0:0:
256,192,273009,1,0,0:0:0:0:
256,192,273159,1,8,0:0:0:0:
256,192,273309,1,0,0:0:0:0:
256,192,273384,1,0,0:0:0:0:
256,192,273459,1,0,0:0:0:0:
256,192,273609,1,8,0:0:0:0:
256,192,273909,1,0,0:0:0:0:
256,192,274059,1,8,0:0:0:0:
256,192,274209,1,8,0:0:0:0:
256,192,274284,1,8,0:0:0:0:
256,192,274359,1,8,0:0:0:0:
256,192,274509,1,8,0:0:0:0:
256,192,274659,1,8,0:0:0:0:
256,192,274809,1,0,0:0:0:0:
256,192,274884,1,0,0:0:0:0:
256,192,274959,1,8,0:0:0:0:
256,192,275109,1,0,0:0:0:0:
256,192,275259,1,8,0:0:0:0:
256,192,275334,1,8,0:0:0:0:
256,192,275409,1,0,0:0:0:0:
256,192,275484,1,8,0:0:0:0:
256,192,275559,1,8,0:0:0:0:
256,192,275634,1,8,0:0:0:0:
256,192,275709,1,0,0:0:0:0:
256,192,275784,1,0,0:0:0:0:
256,192,275859,1,8,0:0:0:0:
256,192,275934,1,0,0:0:0:0:
256,192,276009,1,12,0:0:0:0:
256,192,276159,1,0,0:0:0:0:
256,192,276309,1,8,0:0:0:0:
256,192,276384,1,0,0:0:0:0:
256,192,276459,1,8,0:0:0:0:
256,192,276609,1,0,0:0:0:0:
256,192,276759,1,8,0:0:0:0:
256,192,276909,1,0,0:0:0:0:
256,192,277209,1,8,0:0:0:0:
256,192,277359,1,8,0:0:0:0:
256,192,277509,1,0,0:0:0:0:
256,192,277584,1,0,0:0:0:0:
256,192,277659,1,8,0:0:0:0:
256,192,277809,1,8,0:0:0:0:
256,192,277959,1,8,0:0:0:0:
256,192,278109,1,0,0:0:0:0:
256,192,278409,1,12,0:0:0:0:
256,192,278559,1,0,0:0:0:0:
256,192,278634,1,0,0:0:0:0:
256,192,278709,1,0,0:0:0:0:
256,192,278859,1,0,0:0:0:0:
256,192,279009,1,12,0:0:0:0:
256,192,279159,1,0,0:0:0:0:
256,192,279234,1,0,0:0:0:0:
256,192,279309,1,0,0:0:0:0:
256,192,279459,1,0,0:0:0:0:
256,192,279609,1,8,0:0:0:0:
256,192,279684,1,0,0:0:0:0:
256,192,279759,1,0,0:0:0:0:
256,192,279834,1,0,0:0:0:0:
256,192,279909,1,8,0:0:0:0:
256,192,279984,1,0,0:0:0:0:
256,192,280059,1,0,0:0:0:0:
256,192,280134,1,0,0:0:0:0:
256,192,280209,1,8,0:0:0:0:
256,192,280284,1,0,0:0:0:0:
256,192,280359,1,8,0:0:0:0:
256,192,280434,1,0,0:0:0:0:
256,192,280509,1,8,0:0:0:0:
256,192,280584,1,0,0:0:0:0:
256,192,280659,1,8,0:0:0:0:
256,192,280734,1,8,0:0:0:0:
256,192,280809,1,4,0:0:0:0:
256,192,280959,1,0,0:0:0:0:
256,192,281034,1,0,0:0:0:0:
256,192,281109,1,0,0:0:0:0:
256,192,281259,1,0,0:0:0:0:
256,192,281409,1,8,0:0:0:0:
256,192,281559,1,8,0:0:0:0:
256,192,281634,1,8,0:0:0:0:
256,192,281709,1,0,0:0:0:0:
256,192,281859,1,8,0:0:0:0:
256,192,281934,1,8,0:0:0:0:
256,192,282009,1,0,0:0:0:0:
256,192,282084,1,0,0:0:0:0:
256,192,282159,1,0,0:0:0:0:
256,192,282309,1,0,0:0:0:0:
256,192,282459,1,0,0:0:0:0:
256,192,282609,1,8,0:0:0:0:
256,192,282909,1,8,0:0:0:0:
256,192,283059,1,0,0:0:0:0:
256,192,283209,1,8,0:0:0:0:
256,192,283509,1,0,0:0:0:0:
256,192,283659,1,8,0:0:0:0:
256,192,283809,1,0,0:0:0:0:
256,192,283884,1,0,0:0:0:0:
256,192,283959,1,8,0:0:0:0:
256,192,284109,1,8,0:0:0:0:
256,192,284259,1,0,0:0:0:0:
256,192,284334,1,0,0:0:0:0:
256,192,284409,1,0,0:0:0:0:
256,192,284559,1,0,0:0:0:0:
256,192,284709,1,0,0:0:0:0:
256,192,284859,1,8,0:0:0:0:
256,192,285009,1,0,0:0:0:0:
256,192,285084,1,0,0:0:0:0:
256,192,285159,1,8,0:0:0:0:
256,192,285234,1,8,0:0:0:0:
256,192,285309,1,0,0:0:0:0:
256,192,285459,1,8,0:0:0:0:
256,192,285609,1,4,0:0:0:0:
256,192,285909,1,0,0:0:0:0:
256,192,286059,1,0,0:0:0:0:
256,192,286134,1,0,0:0:0:0:
256,192,286209,1,0,0:0:0:0:
256,192,286359,1,0,0:0:0:0:
256,192,286509,1,8,0:0:0:0:
256,192,286659,1,8,0:0:0:0:
256,192,286734,1,8,0:0:0:0:
256,192,286809,1,0,0:0:0:0:
256,192,286884,1,0,0:0:0:0:
256,192,286959,1,8,0:0:0:0:
256,192,287109,1,0,0:0:0:0:
256,192,287259,1,0,0:0:0:0:
256,192,287409,1,8,0:0:0:0:
256,192,287559,1,0,0:0:0:0:
256,192,287709,1,8,0:0:0:0:
256,192,288009,1,4,0:0:0:0:
256,192,288159,1,0,0:0:0:0:
256,192,288234,1,0,0:0:0:0:
256,192,288309,1,0,0:0:0:0:
256,192,288459,1,8,0:0:0:0:
256,192,288609,1,4,0:0:0:0:
256,192,288759,1,0,0:0:0:0:
256,192,288834,1,0,0:0:0:0:
256,192,288909,1,0,0:0:0:0:
256,192,289059,1,8,0:0:0:0:
256,192,289209,1,0,0:0:0:0:
256,192,289284,1,0,0:0:0:0:
256,192,289359,1,8,0:0:0:0:
256,192,289434,1,8,0:0:0:0:
256,192,289509,1,0,0:0:0:0:
256,192,289584,1,0,0:0:0:0:
256,192,289659,1,8,0:0:0:0:
256,192,289734,1,8,0:0:0:0:
256,192,289809,1,0,0:0:0:0:
256,192,289884,1,8,0:0:0:0:
256,192,289959,1,0,0:0:0:0:
256,192,290034,1,8,0:0:0:0:
256,192,290109,1,0,0:0:0:0:
256,192,290184,1,8,0:0:0:0:
256,192,290259,1,0,0:0:0:0:
256,192,290334,1,8,0:0:0:0:
256,192,290409,1,4,0:0:0:0:
256,192,290709,1,8,0:0:0:0:
256,192,290784,1,8,0:0:0:0:
256,192,290859,1,8,0:0:0:0:
256,192,291009,1,0,0:0:0:0:
256,192,291159,1,0,0:0:0:0:
256,192,291234,1,0,0:0:0:0:
256,192,291309,1,8,0:0:0:0:
256,192,291459,1,8,0:0:0:0:
256,192,291609,1,8,0:0:0:0:
256,192,291684,1,8,0:0:0:0:
256,192,291759,1,8,0:0:0:0:
256,192,291834,1,8,0:0:0:0:
256,192,291909,1,0,0:0:0:0:
256,192,292059,1,8,0:0:0:0:
256,192,292209,1,0,0:0:0:0:
256,192,292359,1,8,0:0:0:0:
256,192,292509,1,0,0:0:0:0:
256,192,292584,1,8,0:0:0:0:
256,192,292659,1,0,0:0:0:0:
256,192,292809,1,12,0:0:0:0:
256,192,292959,1,8,0:0:0:0:
256,192,293109,1,0,0:0:0:0:
256,192,293259,1,0,0:0:0:0:
256,192,293334,1,8,0:0:0:0:
256,192,293409,1,0,0:0:0:0:
256,192,293559,1,0,0:0:0:0:
256,192,293709,1,8,0:0:0:0:
256,192,293859,1,8,0:0:0:0:
256,192,293934,1,8,0:0:0:0:
256,192,294009,1,0,0:0:0:0:
256,192,294159,1,8,0:0:0:0:
256,192,294234,1,8,0:0:0:0:
256,192,294309,1,0,0:0:0:0:
256,192,294384,1,8,0:0:0:0:
256,192,294459,1,0,0:0:0:0:
256,192,294609,1,12,0:0:0:0:
256,192,294909,1,0,0:0:0:0:
256,192,295059,1,8,0:0:0:0:
256,192,295209,1,4,0:0:0:0:
256,192,295509,1,8,0:0:0:0:
256,192,295584,1,8,0:0:0:0:
256,192,295659,1,8,0:0:0:0:
256,192,295809,1,0,0:0:0:0:
256,192,295959,1,8,0:0:0:0:
256,192,296034,1,8,0:0:0:0:
256,192,296109,1,0,0:0:0:0:
256,192,296259,1,8,0:0:0:0:
256,192,296409,1,8,0:0:0:0:
256,192,296484,1,8,0:0:0:0:
256,192,296559,1,8,0:0:0:0:
256,192,296634,1,8,0:0:0:0:
256,192,296709,1,0,0:0:0:0:
256,192,296859,1,8,0:0:0:0:
256,192,297009,1,0,0:0:0:0:
256,192,297159,1,10,0:0:0:0:
256,192,297309,1,0,0:0:0:0:
256,192,297459,1,8,0:0:0:0:
256,192,297609,1,4,0:0:0:0:
256,192,297759,1,0,0:0:0:0:
256,192,297834,1,0,0:0:0:0:
256,192,297909,1,0,0:0:0:0:
256,192,298059,1,8,0:0:0:0:
256,192,298209,1,4,0:0:0:0:
256,192,298359,1,0,0:0:0:0:
256,192,298434,1,0,0:0:0:0:
256,192,298509,1,0,0:0:0:0:
256,192,298659,1,8,0:0:0:0:
256,192,298809,1,4,0:0:0:0:
256,192,299109,1,4,0:0:0:0:
256,192,299409,1,0,0:0:0:0:
256,192,299484,1,0,0:0:0:0:
256,192,299559,1,8,0:0:0:0:
256,192,299634,1,0,0:0:0:0:
256,192,299709,1,0,0:0:0:0:
256,192,299784,1,0,0:0:0:0:
256,192,299859,1,8,0:0:0:0:
256,192,299934,1,0,0:0:0:0:
256,192,300009,1,12,0:0:0:0:
256,192,300159,1,0,0:0:0:0:
256,192,300234,1,0,0:0:0:0:
256,192,300309,1,0,0:0:0:0:
256,192,300384,1,8,0:0:0:0:
256,192,300459,1,0,0:0:0:0:
256,192,300609,1,8,0:0:0:0:
256,192,300759,1,0,0:0:0:0:
256,192,300909,1,0,0:0:0:0:
256,192,301059,1,8,0:0:0:0:
256,192,301359,1,8,0:0:0:0:
256,192,301509,1,8,0:0:0:0:
256,192,301584,1,8,0:0:0:0:
256,192,301659,1,0,0:0:0:0:
256,192,301809,1,8,0:0:0:0:
256,192,301884,1,8,0:0:0:0:
256,192,301959,1,0,0:0:0:0:
256,192,302034,1,0,0:0:0:0:
256,192,302109,1,8,0:0:0:0:
256,192,302259,1,0,0:0:0:0:
256,192,302409,1,8,0:0:0:0:
256,192,302559,1,0,0:0:0:0:
256,192,302634,1,8,0:0:0:0:
256,192,302709,1,0,0:0:0:0:
256,192,302859,1,8,0:0:0:0:
256,192,303009,1,0,0:0:0:0:
256,192,303309,1,8,0:0:0:0:
256,192,303609,1,0,0:0:0:0:
256,192,303759,1,0,0:0:0:0:
256,192,303909,1,8,0:0:0:0:
256,192,304059,1,0,0:0:0:0:
256,192,304209,1,8,0:0:0:0:
256,192,304284,1,8,0:0:0:0:
256,192,304359,1,0,0:0:0:0:
256,192,304434,1,0,0:0:0:0:
256,192,304509,1,8,0:0:0:0:
256,192,304584,1,0,0:0:0:0:
256,192,304659,1,8,0:0:0:0:
256,192,304734,1,8,0:0:0:0:
256,192,304809,1,8,0:0:0:0:
256,192,304884,1,8,0:0:0:0:
256,192,304959,1,0,0:0:0:0:
256,192,305034,1,0,0:0:0:0:
256,192,305109,1,0,0:0:0:0:
256,192,305259,1,8,0:0:0:0:
256,192,305334,1,8,0:0:0:0:
256,192,305409,1,0,0:0:0:0:
256,192,305484,1,0,0:0:0:0:
256,192,305559,1,0,0:0:0:0:
256,192,305709,1,8,0:0:0:0:
256,192,305784,1,8,0:0:0:0:
256,192,305859,1,0,0:0:0:0:
256,192,305934,1,8,0:0:0:0:
256,192,306009,1,0,0:0:0:0:
256,192,306159,1,8,0:0:0:0:
256,192,306234,1,8,0:0:0:0:
256,192,306309,1,0,0:0:0:0:
256,192,306384,1,8,0:0:0:0:
256,192,306459,1,0,0:0:0:0:
256,192,306609,1,8,0:0:0:0:
256,192,306684,1,8,0:0:0:0:
256,192,306759,1,0,0:0:0:0:
256,192,306834,1,8,0:0:0:0:
256,192,306909,1,0,0:0:0:0:
256,192,307059,1,8,0:0:0:0:
256,192,307134,1,0,0:0:0:0:
256,192,307209,1,0,0:0:0:0:
256,192,307284,1,8,0:0:0:0:
256,192,307359,1,0,0:0:0:0:
256,192,307509,1,8,0:0:0:0:
256,192,307584,1,0,0:0:0:0:
256,192,307659,1,0,0:0:0:0:
256,192,307734,1,8,0:0:0:0:
256,192,307809,1,0,0:0:0:0:
256,192,307959,1,8,0:0:0:0:
256,192,308109,1,8,0:0:0:0:
256,192,308184,1,0,0:0:0:0:
256,192,308259,1,8,0:0:0:0:
256,192,308409,1,0,0:0:0:0:
256,192,308484,1,0,0:0:0:0:
256,192,308559,1,8,0:0:0:0:
256,192,308634,1,8,0:0:0:0:
256,192,308709,1,0,0:0:0:0:
256,192,308784,1,8,0:0:0:0:
256,192,308859,1,8,0:0:0:0:
256,192,308934,1,8,0:0:0:0:
256,192,309009,1,0,0:0:0:0:
256,192,309084,1,8,0:0:0:0:
256,192,309159,1,0,0:0:0:0:
256,192,309234,1,8,0:0:0:0:
256,192,309309,1,0,0:0:0:0:
256,192,309384,1,8,0:0:0:0:
256,192,309459,1,0,0:0:0:0:
256,192,309534,1,0,0:0:0:0:
256,192,309609,1,12,0:0:0:0:
256,192,309759,1,0,0:0:0:0:
256,192,309834,1,0,0:0:0:0:
256,192,309909,1,8,0:0:0:0:
256,192,310059,1,0,0:0:0:0:
256,192,310134,1,0,0:0:0:0:
256,192,310209,1,8,0:0:0:0:
256,192,310359,1,0,0:0:0:0:
256,192,310434,1,0,0:0:0:0:
256,192,310509,1,0,0:0:0:0:
256,192,310659,1,8,0:0:0:0:
256,192,310809,1,8,0:0:0:0:
256,192,310959,1,0,0:0:0:0:
256,192,311034,1,0,0:0:0:0:
256,192,311109,1,0,0:0:0:0:
256,192,311259,1,8,0:0:0:0:
256,192,311559,1,0,0:0:0:0:
256,192,311709,1,8,0:0:0:0:
256,192,311859,1,0,0:0:0:0:
256,192,311934,1,0,0:0:0:0:
256,192,312009,1,8,0:0:0:0:
256,192,312159,1,8,0:0:0:0:
256,192,312309,1,0,0:0:0:0:
256,192,312384,1,0,0:0:0:0:
256,192,312459,1,0,0:0:0:0:
256,192,312609,1,8,0:0:0:0:
256,192,312759,1,8,0:0:0:0:
256,192,312834,1,8,0:0:0:0:
256,192,312909,1,0,0:0:0:0:
256,192,313059,1,8,0:0:0:0:
256,192,313509,1,8,0:0:0:0:
256,192,313659,1,0,0:0:0:0:
256,192,313734,1,0,0:0:0:0:
256,192,313809,1,0,0:0:0:0:
256,192,313959,1,8,0:0:0:0:
256,192,314109,1,8,0:0:0:0:
256,192,314259,1,0,0:0:0:0:
256,192,314409,1,4,0:0:0:0:
256,192,314559,1,0,0:0:0:0:
256,192,314634,1,0,0:0:0:0:
256,192,314709,1,8,0:0:0:0:
256,192,314859,1,0,0:0:0:0:
256,192,315009,1,8,0:0:0:0:
256,192,315159,1,0,0:0:0:0:
256,192,315234,1,0,0:0:0:0:
256,192,315309,1,8,0:0:0:0:
256,192,315384,1,8,0:0:0:0:
256,192,315459,1,8,0:0:0:0:
256,192,315609,1,0,0:0:0:0:
256,192,315759,1,0,0:0:0:0:
256,192,315834,1,0,0:0:0:0:
256,192,315909,1,8,0:0:0:0:
256,192,316059,1,0,0:0:0:0:
256,192,316209,1,8,0:0:0:0:
256,192,316284,1,8,0:0:0:0:
256,192,316359,1,0,0:0:0:0:
256,192,316434,1,0,0:0:0:0:
256,192,316509,1,8,0:0:0:0:
256,192,316809,1,12,0:0:0:0:
256,192,316959,1,0,0:0:0:0:
256,192,317034,1,0,0:0:0:0:
256,192,317109,1,0,0:0:0:0:
256,192,317259,1,0,0:0:0:0:
256,192,317409,1,12,0:0:0:0:
256,192,317559,1,0,0:0:0:0:
256,192,317634,1,0,0:0:0:0:
256,192,317709,1,0,0:0:0:0:
256,192,317859,1,0,0:0:0:0:
256,192,318009,1,8,0:0:0:0:
256,192,318084,1,0,0:0:0:0:
256,192,318159,1,0,0:0:0:0:
256,192,318234,1,0,0:0:0:0:
256,192,318309,1,8,0:0:0:0:
256,192,318384,1,0,0:0:0:0:
256,192,318459,1,0,0:0:0:0:
256,192,318534,1,0,0:0:0:0:
256,192,318609,1,8,0:0:0:0:
256,192,318684,1,0,0:0:0:0:
256,192,318759,1,0,0:0:0:0:
256,192,318834,1,0,0:0:0:0:
256,192,318909,1,8,0:0:0:0:
256,192,318984,1,0,0:0:0:0:
256,192,319059,1,8,0:0:0:0:
256,192,319134,1,0,0:0:0:0:
256,192,319209,1,12,0:0:0:0:
256,192,319509,1,0,0:0:0:0:
256,192,319584,1,0,0:0:0:0:
256,192,319659,1,0,0:0:0:0:
256,192,319809,1,8,0:0:0:0:
256,192,319959,1,0,0:0:0:0:
256,192,320034,1,0,0:0:0:0:
256,192,320109,1,8,0:0:0:0:
256,192,320259,1,0,0:0:0:0:
256,192,320409,1,8,0:0:0:0:
256,192,320484,1,8,0:0:0:0:
256,192,320559,1,0,0:0:0:0:
256,192,320634,1,0,0:0:0:0:
256,192,320709,1,8,0:0:0:0:
256,192,320859,1,8,0:0:0:0:
256,192,321009,1,0,0:0:0:0:
256,192,321084,1,0,0:0:0:0:
256,192,321159,1,8,0:0:0:0:
256,192,321234,1,8,0:0:0:0:
256,192,321309,1,0,0:0:0:0:
256,192,321459,1,0,0:0:0:0:
256,192,321609,1,8,0:0:0:0:
256,192,321909,1,0,0:0:0:0:
256,192,321984,1,0,0:0:0:0:
256,192,322059,1,0,0:0:0:0:
256,192,322209,1,8,0:0:0:0:
256,192,322359,1,0,0:0:0:0:
256,192,322434,1,0,0:0:0:0:
256,192,322509,1,8,0:0:0:0:
256,192,322659,1,0,0:0:0:0:
256,192,322809,1,8,0:0:0:0:
256,192,322884,1,0,0:0:0:0:
256,192,322959,1,0,0:0:0:0:
256,192,323034,1,0,0:0:0:0:
256,192,323109,1,8,0:0:0:0:
256,192,323259,1,8,0:0:0:0:
256,192,323409,1,0,0:0:0:0:
256,192,323484,1,0,0:0:0:0:
256,192,323559,1,0,0:0:0:0:
256,192,323709,1,0,0:0:0:0:
256,192,323859,1,0,0:0:0:0:
256,192,324009,1,12,0:0:0:0:
256,192,324159,1,8,0:0:0:0:
256,192,324309,1,0,0:0:0:0:
256,192,324384,1,0,0:0:0:0:
256,192,324459,1,0,0:0:0:0:
256,192,324534,1,0,0:0:0:0:
256,192,324609,1,8,0:0:0:0:
256,192,324759,1,8,0:0:0:0:
256,192,324909,1,8,0:0:0:0:
256,192,324984,1,8,0:0:0:0:
256,192,325059,1,0,0:0:0:0:
256,192,325209,1,0,0:0:0:0:
256,192,325509,1,0,0:0:0:0:
256,192,325659,1,8,0:0:0:0:
256,192,325809,1,0,0:0:0:0:
256,192,325884,1,0,0:0:0:0:
256,192,325959,1,8,0:0:0:0:
256,192,326034,1,0,0:0:0:0:
256,192,326109,1,0,0:0:0:0:
256,192,326259,1,8,0:0:0:0:
256,192,326409,1,4,0:0:0:0:
256,192,326559,1,0,0:0:0:0:
256,192,326634,1,0,0:0:0:0:
256,192,326709,1,0,0:0:0:0:
256,192,326859,1,8,0:0:0:0:
256,192,327009,1,4,0:0:0:0:
256,192,327159,1,0,0:0:0:0:
256,192,327234,1,0,0:0:0:0:
256,192,327309,1,0,0:0:0:0:
256,192,327459,1,8,0:0:0:0:
256,192,327609,1,8,0:0:0:0:
256,192,327684,1,0,0:0:0:0:
256,192,327759,1,0,0:0:0:0:
256,192,327834,1,0,0:0:0:0:
256,192,327909,1,8,0:0:0:0:
256,192,327984,1,0,0:0:0:0:
256,192,328059,1,0,0:0:0:0:
256,192,328134,1,0,0:0:0:0:
256,192,328209,1,8,0:0:0:0:
256,192,328284,1,0,0:0:0:0:
256,192,328359,1,8,0:0:0:0:
256,192,328434,1,8,0:0:0:0:
256,192,328509,1,0,0:0:0:0:
256,192,328584,1,8,0:0:0:0:
256,192,328659,1,8,0:0:0:0:
256,192,328734,1,8,0:0:0:0:
256,192,328809,1,4,0:0:0:0:
256,192,328959,1,0,0:0:0:0:
256,192,329034,1,0,0:0:0:0:
256,192,329109,1,8,0:0:0:0:
256,192,329259,1,8,0:0:0:0:
256,192,329409,1,0,0:0:0:0:
256,192,329709,1,8,0:0:0:0:
256,192,329859,1,8,0:0:0:0:
256,192,330009,1,0,0:0:0:0:
256,192,330159,1,0,0:0:0:0:
256,192,330234,1,0,0:0:0:0:
256,192,330309,1,8,0:0:0:0:
256,192,330459,1,8,0:0:0:0:
256,192,330609,1,0,0:0:0:0:
256,192,330759,1,8,0:0:0:0:
256,192,330909,1,0,0:0:0:0:
256,192,330984,1,0,0:0:0:0:
256,192,331059,1,0,0:0:0:0:
256,192,331134,1,0,0:0:0:0:
256,192,331209,1,8,0:0:0:0:
256,192,331509,1,0,0:0:0:0:
256,192,331659,1,8,0:0:0:0:
256,192,331809,1,8,0:0:0:0:
256,192,331884,1,8,0:0:0:0:
256,192,331959,1,8,0:0:0:0:
256,192,332109,1,8,0:0:0:0:
256,192,332259,1,0,0:0:0:0:
256,192,332334,1,0,0:0:0:0:
256,192,332409,1,8,0:0:0:0:
256,192,332559,1,8,0:0:0:0:
256,192,332709,1,0,0:0:0:0:
256,192,332784,1,0,0:0:0:0:
256,192,332859,1,0,0:0:0:0:
256,192,333009,1,8,0:0:0:0:
256,192,333159,1,0,0:0:0:0:
256,192,333234,1,0,0:0:0:0:
256,192,333309,1,0,0:0:0:0:
256,192,333384,1,0,0:0:0:0:
256,192,333459,1,0,0:0:0:0:
256,192,333609,1,12,0:0:0:0:
256,192,333759,1,0,0:0:0:0:
256,192,333834,1,0,0:0:0:0:
256,192,333909,1,8,0:0:0:0:
256,192,334059,1,0,0:0:0:0:
256,192,334209,1,0,0:0:0:0:
256,192,334284,1,0,0:0:0:0:
256,192,334359,1,8,0:0:0:0:
256,192,334434,1,8,0:0:0:0:
256,192,334509,1,0,0:0:0:0:
256,192,334659,1,8,0:0:0:0:
256,192,334734,1,8,0:0:0:0:
256,192,334809,1,8,0:0:0:0:
256,192,334959,1,0,0:0:0:0:
256,192,335034,1,0,0:0:0:0:
256,192,335109,1,8,0:0:0:0:
256,192,335259,1,0,0:0:0:0:
256,192,335559,1,0,0:0:0:0:
256,192,335709,1,0,0:0:0:0:
256,192,335784,1,8,0:0:0:0:
256,192,335859,1,0,0:0:0:0:
256,192,336009,1,12,0:0:0:0:
256,192,336159,1,0,0:0:0:0:
256,192,336234,1,0,0:0:0:0:
256,192,336309,1,0,0:0:0:0:
256,192,336459,1,0,0:0:0:0:
256,192,336609,1,12,0:0:0:0:
256,192,336759,1,0,0:0:0:0:
256,192,336834,1,0,0:0:0:0:
256,192,336909,1,0,0:0:0:0:
256,192,337059,1,0,0:0:0:0:
256,192,337209,1,8,0:0:0:0:
256,192,337284,1,0,0:0:0:0:
256,192,337359,1,0,0:0:0:0:
256,192,337434,1,0,0:0:0:0:
256,192,337509,1,8,0:0:0:0:
256,192,337584,1,0,0:0:0:0:
256,192,337659,1,0,0:0:0:0:
256,192,337734,1,0,0:0:0:0:
256,192,337809,1,8,0:0:0:0:
256,192,337884,1,0,0:0:0:0:
256,192,337959,1,8,0:0:0:0:
256,192,338034,1,8,0:0:0:0:
256,192,338109,1,0,0:0:0:0:
256,192,338184,1,8,0:0:0:0:
256,192,338259,1,8,0:0:0:0:
256,192,338334,1,8,0:0:0:0:
256,192,338409,1,4,0:0:0:0:
256,192,338559,1,8,0:0:0:0:
256,192,338634,1,8,0:0:0:0:
256,192,338709,1,0,0:0:0:0:
256,192,338859,1,8,0:0:0:0:
256,192,339009,1,0,0:0:0:0:
256,192,339309,1,0,0:0:0:0:
256,192,339459,1,8,0:0:0:0:
256,192,339609,1,0,0:0:0:0:
256,192,339684,1,0,0:0:0:0:
256,192,339759,1,0,0:0:0:0:
256,192,339909,1,8,0:0:0:0:
256,192,340059,1,0,0:0:0:0:
256,192,340134,1,0,0:0:0:0:
256,192,340209,1,8,0:0:0:0:
256,192,340359,1,0,0:0:0:0:
256,192,340509,1,8,0:0:0:0:
256,192,340659,1,8,0:0:0:0:
256,192,340734,1,0,0:0:0:0:
256,192,340809,1,8,0:0:0:0:
256,192,340884,1,8,0:0:0:0:
256,192,340959,1,0,0:0:0:0:
256,192,341034,1,0,0:0:0:0:
256,192,341109,1,8,0:0:0:0:
256,192,341259,1,0,0:0:0:0:
256,192,341409,1,8,0:0:0:0:
256,192,341559,1,8,0:0:0:0:
256,192,341634,1,8,0:0:0:0:
256,192,341709,1,0,0:0:0:0:
256,192,341859,1,8,0:0:0:0:
256,192,342009,1,0,0:0:0:0:
256,192,342159,1,8,0:0:0:0:
256,192,342459,1,0,0:0:0:0:
256,192,342609,1,0,0:0:0:0:
256,192,342759,1,8,0:0:0:0:
256,192,342834,1,0,0:0:0:0:
256,192,342909,1,8,0:0:0:0:
256,192,343059,1,8,0:0:0:0:
256,192,343209,1,4,0:0:0:0:
256,192,343509,1,8,0:0:0:0:
256,192,343809,1,0,0:0:0:0:
256,192,343959,1,0,0:0:0:0:
256,192,344034,1,0,0:0:0:0:
256,192,344109,1,8,0:0:0:0:
256,192,344184,1,8,0:0:0:0:
256,192,344259,1,8,0:0:0:0:
256,192,344409,1,8,0:0:0:0:
256,192,344559,1,0,0:0:0:0:
256,192,344634,1,0,0:0:0:0:
256,192,344709,1,8,0:0:0:0:
256,192,344859,1,0,0:0:0:0:
256,192,345009,1,8,0:0:0:0:
256,192,345159,1,0,0:0:0:0:
256,192,345234,1,8,0:0:0:0:
256,192,345384,1,8,0:0:0:0:
256,192,345459,1,0,0:0:0:0:
256,192,345609,1,4,0:0:0:0:
256,192,345759,1,0,0:0:0:0:
256,192,345834,1,0,0:0:0:0:
256,192,345909,1,0,0:0:0:0:
256,192,346059,1,8,0:0:0:0:
256,192,346209,1,4,0:0:0:0:
256,192,346359,1,0,0:0:0:0:
256,192,346434,1,0,0:0:0:0:
256,192,346509,1,0,0:0:0:0:
256,192,346659,1,8,0:0:0:0:
256,192,346809,1,8,0:0:0:0:
256,192,346884,1,0,0:0:0:0:
256,192,346959,1,8,0:0:0:0:
256,192,347034,1,0,0:0:0:0:
256,192,347109,1,8,0:0:0:0:
256,192,347184,1,0,0:0:0:0:
256,192,347259,1,8,0:0:0:0:
256,192,347334,1,0,0:0:0:0:
256,192,347409,1,8,0:0:0:0:
256,192,347484,1,8,0:0:0:0:
256,192,347559,1,0,0:0:0:0:
256,192,347634,1,8,0:0:0:0:
256,192,347709,1,8,0:0:0:0:
256,192,347784,1,8,0:0:0:0:
256,192,347859,1,0,0:0:0:0:
256,192,347934,1,0,0:0:0:0:
256,192,348009,1,12,0:0:0:0:
256,192,348159,1,0,0:0:0:0:
256,192,348234,1,0,0:0:0:0:
256,192,348309,1,8,0:0:0:0:
256,192,348459,1,8,0:0:0:0:
256,192,348609,1,0,0:0:0:0:
256,192,348759,1,0,0:0:0:0:
256,192,348834,1,0,0:0:0:0:
256,192,348909,1,8,0:0:0:0:
256,192,349059,1,8,0:0:0:0:
256,192,349209,1,0,0:0:0:0:
256,192,349284,1,0,0:0:0:0:
256,192,349359,1,8,0:0:0:0:
256,192,349509,1,0,0:0:0:0:
256,192,349584,1,0,0:0:0:0:
256,192,349659,1,8,0:0:0:0:
256,192,349809,1,8,0:0:0:0:
256,192,349884,1,8,0:0:0:0:
256,192,349959,1,0,0:0:0:0:
256,192,350109,1,0,0:0:0:0:
256,192,350184,1,0,0:0:0:0:
256,192,350259,1,8,0:0:0:0:
256,192,350409,1,8,0:0:0:0:
256,192,350559,1,0,0:0:0:0:
256,192,350634,1,0,0:0:0:0:
256,192,350709,1,8,0:0:0:0:
256,192,350859,1,8,0:0:0:0:
256,192,351009,1,0,0:0:0:0:
256,192,351159,1,0,0:0:0:0:
256,192,351234,1,0,0:0:0:0:
256,192,351309,1,8,0:0:0:0:
256,192,351459,1,8,0:0:0:0:
256,192,351609,1,0,0:0:0:0:
256,192,351684,1,0,0:0:0:0:
256,192,351759,1,8,0:0:0:0:
256,192,351909,1,0,0:0:0:0:
256,192,351984,1,0,0:0:0:0:
256,192,352059,1,8,0:0:0:0:
256,192,352209,1,8,0:0:0:0:
256,192,352509,1,0,0:0:0:0:
256,192,352659,1,8,0:0:0:0:
256,192,352809,1,4,0:0:0:0:
256,192,352959,1,8,0:0:0:0:
256,192,353109,1,0,0:0:0:0:
256,192,353184,1,0,0:0:0:0:
256,192,353259,1,0,0:0:0:0:
256,192,353334,1,0,0:0:0:0:
256,192,353409,1,8,0:0:0:0:
256,192,353559,1,0,0:0:0:0:
256,192,353634,1,0,0:0:0:0:
256,192,353709,1,0,0:0:0:0:
256,192,353859,1,8,0:0:0:0:
256,192,354009,1,0,0:0:0:0:
256,192,354159,1,0,0:0:0:0:
256,192,354234,1,0,0:0:0:0:
256,192,354309,1,8,0:0:0:0:
256,192,354459,1,8,0:0:0:0:
256,192,354609,1,0,0:0:0:0:
256,192,354909,1,8,0:0:0:0:
256,192,355059,1,8,0:0:0:0:
256,192,355209,1,4,0:0:0:0:
256,192,355359,1,0,0:0:0:0:
256,192,355434,1,0,0:0:0:0:
256,192,355509,1,0,0:0:0:0:
256,192,355659,1,8,0:0:0:0:
256,192,355809,1,4,0:0:0:0:
256,192,355959,1,0,0:0:0:0:
256,192,356034,1,0,0:0:0:0:
256,192,356109,1,0,0:0:0:0:
256,192,356259,1,8,0:0:0:0:
256,192,356409,1,0,0:0:0:0:
256,192,356484,1,0,0:0:0:0:
256,192,356559,1,0,0:0:0:0:
256,192,356634,1,0,0:0:0:0:
256,192,356709,1,8,0:0:0:0:
256,192,356784,1,8,0:0:0:0:
256,192,356859,1,8,0:0:0:0:
256,192,356934,1,0,0:0:0:0:
256,192,357009,1,8,0:0:0:0:
256,192,357084,1,0,0:0:0:0:
256,192,357159,1,0,0:0:0:0:
256,192,357234,1,0,0:0:0:0:
256,192,357309,1,8,0:0:0:0:
256,192,357384,1,0,0:0:0:0:
256,192,357459,1,8,0:0:0:0:
256,192,357534,1,0,0:0:0:0:
256,192,357609,1,12,0:0:0:0:
256,192,357759,1,0,0:0:0:0:
256,192,357909,1,8,0:0:0:0:
256,192,357984,1,8,0:0:0:0:
256,192,358059,1,0,0:0:0:0:
256,192,358134,1,8,0:0:0:0:
256,192,358209,1,0,0:0:0:0:
256,192,358359,1,0,0:0:0:0:
256,192,358509,1,8,0:0:0:0:
256,192,358659,1,0,0:0:0:0:
256,192,358734,1,0,0:0:0:0:
256,192,358809,1,0,0:0:0:0:
256,192,358959,1,0,0:0:0:0:
256,192,359109,1,8,0:0:0:0:
256,192,359184,1,8,0:0:0:0:
256,192,359259,1,0,0:0:0:0:
256,192,359334,1,8,0:0:0:0:
256,192,359409,1,0,0:0:0:0:
256,192,359559,1,0,0:0:0:0:
256,192,359709,1,8,0:0:0:0:
256,192,359859,1,0,0:0:0:0:
256,192,359934,1,0,0:0:0:0:
256,192,360009,1,0,0:0:0:0:
256,192,360159,1,0,0:0:0:0:
256,192,360309,1,0,0:0:0:0:
256,192,360384,1,8,0:0:0:0:
256,192,360459,1,0,0:0:0:0:
256,192,360534,1,8,0:0:0:0:
256,192,360609,1,0,0:0:0:0:
256,192,360759,1,0,0:0:0:0:
256,192,360909,1,8,0:0:0:0:
256,192,361059,1,8,0:0:0:0:
256,192,361209,1,0,0:0:0:0:
256,192,361359,1,8,0:0:0:0:
256,192,361434,1,8,0:0:0:0:
256,192,361509,1,0,0:0:0:0:
256,192,361659,1,8,0:0:0:0:
256,192,361809,1,0,0:0:0:0:
256,192,361884,1,0,0:0:0:0:
256,192,361959,1,8,0:0:0:0:
256,192,362109,1,0,0:0:0:0:
256,192,362409,1,4,0:0:0:0:
256,192,362709,1,0,0:0:0:0:
256,192,362784,1,0,0:0:0:0:
256,192,362859,1,8,0:0:0:0:
256,192,362934,1,0,0:0:0:0:
256,192,363009,1,8,0:0:0:0:
256,192,363159,1,0,0:0:0:0:
256,192,363309,1,8,0:0:0:0:
256,192,363384,1,8,0:0:0:0:
256,192,363459,1,0,0:0:0:0:
256,192,363609,1,0,0:0:0:0:
256,192,363759,1,0,0:0:0:0:
256,192,363909,1,0,0:0:0:0:
256,192,363984,1,0,0:0:0:0:
256,192,364059,1,8,0:0:0:0:
256,192,364134,1,0,0:0:0:0:
256,192,364209,1,8,0:0:0:0:
256,192,364359,1,0,0:0:0:0:
256,192,364509,1,8,0:0:0:0:
256,192,364584,1,8,0:0:0:0:
256,192,364659,1,8,0:0:0:0:
256,192,364809,1,4,0:0:0:0:
256,192,364959,1,0,0:0:0:0:
256,192,365034,1,0,0:0:0:0:
256,192,365109,1,0,0:0:0:0:
256,192,365259,1,8,0:0:0:0:
256,192,365409,1,4,0:0:0:0:
256,192,365559,1,0,0:0:0:0:
256,192,365634,1,0,0:0:0:0:
256,192,365709,1,0,0:0:0:0:
256,192,365859,1,8,0:0:0:0:
256,192,366009,1,0,0:0:0:0:
256,192,366084,1,0,0:0:0:0:
256,192,366159,1,0,0:0:0:0:
256,192,366234,1,0,0:0:0:0:
256,192,366309,1,8,0:0:0:0:
256,192,366384,1,8,0:0:0:0:
256,192,366459,1,8,0:0:0:0:
256,192,366534,1,8,0:0:0:0:
256,192,366609,1,0,0:0:0:0:
256,192,366684,1,8,0:0:0:0:
256,192,366759,1,0,0:0:0:0:
256,192,366834,1,8,0:0:0:0:
256,192,366909,1,0,0:0:0:0:
256,192,366984,1,8,0:0:0:0:
256,192,367059,1,8,0:0:0:0:
256,192,367134,1,8,0:0:0:0:
256,192,367209,1,4,0:0:0:0:
256,192,367359,1,8,0:0:0:0:
256,192,367509,1,8,0:0:0:0:
256,192,367584,1,8,0:0:0:0:
256,192,367659,1,8,0:0:0:0:
256,192,367809,1,0,0:0:0:0:
256,192,367884,1,0,0:0:0:0:
256,192,367959,1,8,0:0:0:0:
256,192,368109,1,0,0:0:0:0:
256,192,368259,1,8,0:0:0:0:
256,192,368409,1,0,0:0:0:0:
256,192,368559,1,0,0:0:0:0:
256,192,368634,1,8,0:0:0:0:
256,192,368709,1,8,0:0:0:0:
256,192,368859,1,8,0:0:0:0:
256,192,369009,1,0,0:0:0:0:
256,192,369309,1,8,0:0:0:0:
256,192,369459,1,8,0:0:0:0:
256,192,369609,1,0,0:0:0:0:
256,192,369909,1,0,0:0:0:0:
256,192,370059,1,8,0:0:0:0:
256,192,370209,1,0,0:0:0:0:
256,192,370284,1,0,0:0:0:0:
256,192,370359,1,0,0:0:0:0:
256,192,370509,1,8,0:0:0:0:
256,192,370659,1,8,0:0:0:0:
256,192,370809,1,0,0:0:0:0:
256,192,370884,1,0,0:0:0:0:
256,192,370959,1,8,0:0:0:0:
256,192,371109,1,8,0:0:0:0:
256,192,371259,1,8,0:0:0:0:
256,192,371409,1,0,0:0:0:0:
256,192,371709,1,8,0:0:0:0:
256,192,371859,1,0,0:0:0:0:
256,192,372009,1,12,0:0:0:0:
256,192,372159,1,0,0:0:0:0:
256,192,372309,1,0,0:0:0:0:
256,192,372384,1,0,0:0:0:0:
256,192,372459,1,8,0:0:0:0:
256,192,372534,1,0,0:0:0:0:
256,192,372609,1,8,0:0:0:0:
256,192,372759,1,8,0:0:0:0:
256,192,372909,1,8,0:0:0:0:
256,192,372984,1,8,0:0:0:0:
256,192,373059,1,0,0:0:0:0:
256,192,373209,1,0,0:0:0:0:
256,192,373284,1,0,0:0:0:0:
256,192,373359,1,8,0:0:0:0:
256,192,373509,1,0,0:0:0:0:
256,192,373659,1,8,0:0:0:0:
256,192,373809,1,8,0:0:0:0:
256,192,373884,1,0,0:0:0:0:
256,192,373959,1,8,0:0:0:0:
256,192,374034,1,0,0:0:0:0:
256,192,374109,1,8,0:0:0:0:
256,192,374259,1,8,0:0:0:0:
256,192,374409,1,4,0:0:0:0:
256,192,374559,1,0,0:0:0:0:
256,192,374634,1,0,0:0:0:0:
256,192,374709,1,0,0:0:0:0:
256,192,374859,1,8,0:0:0:0:
256,192,375009,1,4,0:0:0:0:
256,192,375159,1,0,0:0:0:0:
256,192,375234,1,0,0:0:0:0:
256,192,375309,1,0,0:0:0:0:
256,192,375459,1,8,0:0:0:0:
256,192,375609,1,0,0:0:0:0:
256,192,375684,1,0,0:0:0:0:
256,192,375759,1,0,0:0:0:0:
256,192,375834,1,0,0:0:0:0:
256,192,375909,1,8,0:0:0:0:
256,192,375984,1,8,0:0:0:0:
256,192,376059,1,8,0:0:0:0:
256,192,376134,1,8,0:0:0:0:
256,192,376209,1,0,0:0:0:0:
256,192,376284,1,0,0:0:0:0:
256,192,376359,1,0,0:0:0:0:
256,192,376434,1,0,0:0:0:0:
256,192,376509,1,8,0:0:0:0:
256,192,376584,1,8,0:0:0:0:
256,192,376659,1,0,0:0:0:0:
256,192,376734,1,0,0:0:0:0:
256,192,376809,1,12,0:0:0:0:
256,192,377109,1,8,0:0:0:0:
256,192,377259,1,0,0:0:0:0:
256,192,377409,1,0,0:0:0:0:
256,192,377559,1,0,0:0:0:0:
256,192,377634,1,0,0:0:0:0:
256,192,377709,1,8,0:0:0:0:
256,192,377859,1,8,0:0:0:0:
256,192,378009,1,0,0:0:0:0:
256,192,378159,1,0,0:0:0:0:
256,192,378309,1,8,0:0:0:0:
256,192,378459,1,8,0:0:0:0:
256,192,378534,1,8,0:0:0:0:
256,192,378609,1,0,0:0:0:0:
256,192,378759,1,0,0:0:0:0:
256,192,378834,1,0,0:0:0:0:
256,192,378909,1,8,0:0:0:0:
256,192,379059,1,8,0:0:0:0:
256,192,379209,1,0,0:0:0:0:
256,192,379284,1,8,0:0:0:0:
256,192,379359,1,0,0:0:0:0:
256,192,379434,1,0,0:0:0:0:
256,192,379509,1,8,0:0:0:0:
256,192,379659,1,0,0:0:0:0:
256,192,379959,1,8,0:0:0:0:
256,192,380109,1,0,0:0:0:0:
256,192,380259,1,8,0:0:0:0:
256,192,380334,1,8,0:0:0:0:
256,192,380409,1,0,0:0:0:0:
256,192,380559,1,0,0:0:0:0:
256,192,380709,1,8,0:0:0:0:
256,192,380859,1,0,0:0:0:0:
256,192,380934,1,0,0:0:0:0:
256,192,381009,1,8,0:0:0:0:
256,192,381159,1,0,0:0:0:0:
256,192,381309,1,8,0:0:0:0:
256,192,381384,1,0,0:0:0:0:
256,192,381459,1,8,0:0:0:0:
256,192,381609,1,4,0:0:0:0:
256,192,381759,1,8,0:0:0:0:
256,192,381834,1,8,0:0:0:0:
256,192,381909,1,8,0:0:0:0:
256,192,382059,1,8,0:0:0:0:
256,192,382359,1,0,0:0:0:0:
256,192,382509,1,0,0:0:0:0:
256,192,382659,1,8,0:0:0:0:
256,192,382809,1,8,0:0:0:0:
256,192,382884,1,8,0:0:0:0:
256,192,382959,1,0,0:0:0:0:
256,192,383109,1,0,0:0:0:0:
256,192,383259,1,0,0:0:0:0:
256,192,383334,1,8,0:0:0:0:
256,192,383409,1,0,0:0:0:0:
256,192,383559,1,8,0:0:0:0:
256,192,383709,1,0,0:0:0:0:
256,192,383859,1,8,0:0:0:0:
256,192,384009,1,4,0:0:0:0:
256,192,384159,1,0,0:0:0:0:
256,192,384234,1,0,0:0:0:0:
256,192,384309,1,0,0:0:0:0:
256,192,384459,1,8,0:0:0:0:
256,192,384609,1,4,0:0:0:0:
256,192,384759,1,0,0:0:0:0:
256,192,384834,1,0,0:0:0:0:
256,192,384909,1,0,0:0:0:0:
256,192,385059,1,8,0:0:0:0:
256,192,385209,1,0,0:0:0:0:
256,192,385284,1,0,0:0:0:0:
256,192,385359,1,0,0:0:0:0:
256,192,385434,1,0,0:0:0:0:
256,192,385509,1,8,0:0:0:0:
256,192,385584,1,8,0:0:0:0:
256,192,385659,1,8,0:0:0:0:
256,192,385734,1,8,0:0:0:0:
256,192,385809,1,0,0:0:0:0:
256,192,385884,1,8,0:0:0:0:
256,192,385959,1,0,0:0:0:0:
256,192,386034,1,8,0:0:0:0:
256,192,386109,1,0,0:0:0:0:
256,192,386184,1,8,0:0:0:0:
256,192,386259,1,0,0:0:0:0:
256,192,386334,1,0,0:0:0:0:
256,192,386409,1,12,0:0:0:0:
256,192,386709,1,0,0:0:0:0:
256,192,386859,1,8,0:0:0:0:
256,192,387009,1,0,0:0:0:0:
256,192,387084,1,0,0:0:0:0:
256,192,387159,1,0,0:0:0:0:
256,192,387309,1,8,0:0:0:0:
256,192,387459,1,0,0:0:0:0:
256,192,387609,1,0,0:0:0:0:
256,192,387759,1,8,0:0:0:0:
256,192,387909,1,0,0:0:0:0:
256,192,387984,1,0,0:0:0:0:
256,192,388059,1,8,0:0:0:0:
256,192,388134,1,0,0:0:0:0:
256,192,388284,1,0,0:0:0:0:
256,192,388359,1,8,0:0:0:0:
256,192,388509,1,0,0:0:0:0:
256,192,388584,1,0,0:0:0:0:
256,192,388659,1,8,0:0:0:0:
256,192,388809,1,0,0:0:0:0:
256,192,389109,1,0,0:0:0:0:
256,192,389259,1,8,0:0:0:0:
256,192,389409,1,0,0:0:0:0:
256,192,389484,1,0,0:0:0:0:
256,192,389559,1,8,0:0:0:0:
256,192,389709,1,0,0:0:0:0:
256,192,389784,1,8,0:0:0:0:
256,192,389934,1,8,0:0:0:0:
256,192,390009,1,0,0:0:0:0:
256,192,390159,1,8,0:0:0:0:
256,192,390234,1,0,0:0:0:0:
256,192,390309,1,8,0:0:0:0:
256,192,390459,1,0,0:0:0:0:
256,192,390609,1,8,0:0:0:0:
256,192,390759,1,8,0:0:0:0:
256,192,390834,1,8,0:0:0:0:
256,192,390984,1,0,0:0:0:0:
256,192,391059,1,8,0:0:0:0:
256,192,391209,1,4,0:0:0:0:
256,192,391509,1,0,0:0:0:0:
256,192,391659,1,8,0:0:0:0:
256,192,391809,1,0,0:0:0:0:
256,192,391884,1,0,0:0:0:0:
256,192,391959,1,0,0:0:0:0:
256,192,392109,1,8,0:0:0:0:
256,192,392259,1,0,0:0:0:0:
256,192,392409,1,0,0:0:0:0:
256,192,392559,1,8,0:0:0:0:
256,192,392709,1,0,0:0:0:0:
256,192,392784,1,8,0:0:0:0:
256,192,392859,1,8,0:0:0:0:
256,192,392934,1,0,0:0:0:0:
256,192,393084,1,0,0:0:0:0:
256,192,393159,1,8,0:0:0:0:
256,192,393309,1,0,0:0:0:0:
256,192,393384,1,0,0:0:0:0:
256,192,393459,1,8,0:0:0:0:
256,192,393609,1,4,0:0:0:0:
256,192,393759,1,0,0:0:0:0:
256,192,393834,1,0,0:0:0:0:
256,192,393909,1,0,0:0:0:0:
256,192,394059,1,8,0:0:0:0:
256,192,394209,1,4,0:0:0:0:
256,192,394359,1,0,0:0:0:0:
256,192,394434,1,0,0:0:0:0:
256,192,394509,1,0,0:0:0:0:
256,192,394659,1,8,0:0:0:0:
256,192,394809,1,0,0:0:0:0:
256,192,394884,1,8,0:0:0:0:
256,192,394959,1,0,0:0:0:0:
256,192,395034,1,0,0:0:0:0:
256,192,395109,1,8,0:0:0:0:
256,192,395184,1,0,0:0:0:0:
256,192,395259,1,8,0:0:0:0:
256,192,395334,1,8,0:0:0:0:
256,192,395409,1,0,0:0:0:0:
256,192,395484,1,8,0:0:0:0:
256,192,395559,1,0,0:0:0:0:
256,192,395634,1,8,0:0:0:0:
256,192,395709,1,0,0:0:0:0:
256,192,395784,1,8,0:0:0:0:
256,192,395859,1,0,0:0:0:0:
256,192,395934,1,0,0:0:0:0:
256,192,396009,1,12,0:0:0:0:
256,192,396159,1,0,0:0:0:0:
256,192,396309,1,0,0:0:0:0:
256,192,396384,1,8,0:0:0:0:
256,192,396459,1,8,0:0:0:0:
256,192,396534,1,0,0:0:0:0:
256,192,396684,1,8,0:0:0:0:
256,192,396759,1,0,0:0:0:0:
256,192,396909,1,8,0:0:0:0:
256,192,396984,1,0,0:0:0:0:
256,192,397059,1,0,0:0:0:0:
256,192,397134,1,0,0:0:0:0:
256,192,397209,1,8,0:0:0:0:
256,192,397359,1,8,0:0:0:0:
256,192,397509,1,0,0:0:0:0:
256,192,397584,1,8,0:0:0:0:
256,192,397659,1,0,0:0:0:0:
256,192,397734,1,0,0:0:0:0:
256,192,397809,1,8,0:0:0:0:
256,192,397884,1,0,0:0:0:0:
256,192,397959,1,8,0:0:0:0:
256,192,398034,1,8,0:0:0:0:
256,192,398109,1,8,0:0:0:0:
256,192,398184,1,0,0:0:0:0:
256,192,398259,1,8,0:0:0:0:
256,192,398334,1,0,0:0:0:0:
256,192,398409,1,8,0:0:0:0:
256,192,398559,1,0,0:0:0:0:
256,192,398709,1,8,0:0:0:0:
256,192,398784,1,8,0:0:0:0:
256,192,398859,1,8,0:0:0:0:
256,192,398934,1,0,0:0:0:0:
256,192,399084,1,8,0:0:0:0:
256,192,399159,1,0,0:0:0:0:
256,192,399309,1,8,0:0:0:0:
256,192,399384,1,8,0:0:0:0:
256,192,399459,1,0,0:0:0:0:
256,192,399534,1,0,0:0:0:0:
256,192,399609,1,8,0:0:0:0:
256,192,399759,1,8,0:0:0:0:
256,192,399909,1,0,0:0:0:0:
256,192,399984,1,8,0:0:0:0:
256,192,400059,1,0,0:0:0:0:
256,192,400134,1,0,0:0:0:0:
256,192,400209,1,8,0:0:0:0:
256,192,400284,1,0,0:0:0:0:
256,192,400359,1,8,0:0:0:0:
256,192,400434,1,0,0:0:0:0:
256,192,400509,1,8,0:0:0:0:
256,192,400584,1,0,0:0:0:0:
256,192,400659,1,8,0:0:0:0:
256,192,400734,1,8,0:0:0:0:
256,192,400809,1,4,0:0:0:0:
256,192,400959,1,0,0:0:0:0:
256,192,401034,1,0,0:0:0:0:
256,192,401109,1,8,0:0:0:0:
256,192,401259,1,0,0:0:0:0:
256,192,401409,1,8,0:0:0:0:
256,192,401559,1,8,0:0:0:0:
256,192,401634,1,8,0:0:0:0:
256,192,401709,1,0,0:0:0:0:
256,192,401784,1,8,0:0:0:0:
256,192,401859,1,8,0:0:0:0:
256,192,401934,1,8,0:0:0:0:
256,192,402009,1,0,0:0:0:0:
256,192,402159,1,0,0:0:0:0:
256,192,402234,1,0,0:0:0:0:
256,192,402309,1,8,0:0:0:0:
256,192,402459,1,0,0:0:0:0:
256,192,402609,1,8,0:0:0:0:
256,192,402759,1,0,0:0:0:0:
256,192,402834,1,0,0:0:0:0:
256,192,402909,1,8,0:0:0:0:
256,192,403059,1,8,0:0:0:0:
256,192,403209,1,12,0:0:0:0:
256,192,403359,1,0,0:0:0:0:
256,192,403434,1,0,0:0:0:0:
256,192,403509,1,0,0:0:0:0:
256,192,403659,1,0,0:0:0:0:
256,192,403809,1,12,0:0:0:0:
256,192,403959,1,0,0:0:0:0:
256,192,404034,1,0,0:0:0:0:
256,192,404109,1,0,0:0:0:0:
256,192,404259,1,0,0:0:0:0:
256,192,404409,1,8,0:0:0:0:
256,192,404484,1,0,0:0:0:0:
256,192,404559,1,0,0:0:0:0:
256,192,404634,1,0,0:0:0:0:
256,192,404709,1,8,0:0:0:0:
256,192,404784,1,8,0:0:0:0:
256,192,404859,1,0,0:0:0:0:
256,192,404934,1,0,0:0:0:0:
256,192,405009,1,8,0:0:0:0:
256,192,405084,1,0,0:0:0:0:
256,192,405159,1,8,0:0:0:0:
256,192,405234,1,0,0:0:0:0:
256,192,405309,1,8,0:0:0:0:
256,192,405384,1,0,0:0:0:0:
256,192,405459,1,8,0:0:0:0:
256,192,405534,1,8,0:0:0:0:
256,192,405609,1,4,0:0:0:0:
256,192,405759,1,0,0:0:0:0:
256,192,405834,1,8,0:0:0:0:
256,192,405909,1,0,0:0:0:0:
256,192,405984,1,0,0:0:0:0:
256,192,406059,1,8,0:0:0:0:
256,192,406209,1,0,0:0:0:0:
256,192,406284,1,8,0:0:0:0:
256,192,406434,1,8,0:0:0:0:
256,192,406509,1,0,0:0:0:0:
256,192,406584,1,8,0:0:0:0:
256,192,406659,1,0,0:0:0:0:
256,192,406734,1,0,0:0:0:0:
256,192,406809,1,8,0:0:0:0:
256,192,406884,1,8,0:0:0:0:
256,192,406959,1,0,0:0:0:0:
256,192,407109,1,0,0:0:0:0:
256,192,407259,1,8,0:0:0:0:
256,192,407409,1,8,0:0:0:0:
256,192,407484,1,0,0:0:0:0:
256,192,407634,1,0,0:0:0:0:
256,192,407709,1,8,0:0:0:0:
256,192,407784,1,0,0:0:0:0:
256,192,407859,1,8,0:0:0:0:
256,192,407934,1,8,0:0:0:0:
256,192,408009,1,0,0:0:0:0:
256,192,408159,1,0,0:0:0:0:
256,192,408234,1,8,0:0:0:0:
256,192,408309,1,0,0:0:0:0:
256,192,408384,1,0,0:0:0:0:
256,192,408459,1,8,0:0:0:0:
256,192,408609,1,8,0:0:0:0:
256,192,408684,1,8,0:0:0:0:
256,192,408759,1,0,0:0:0:0:
256,192,408834,1,0,0:0:0:0:
256,192,408984,1,0,0:0:0:0:
256,192,409059,1,8,0:0:0:0:
256,192,409134,1,8,0:0:0:0:
256,192,409209,1,0,0:0:0:0:
256,192,409284,1,8,0:0:0:0:
256,192,409359,1,0,0:0:0:0:
256,192,409434,1,0,0:0:0:0:
256,192,409509,1,8,0:0:0:0:
256,192,409659,1,0,0:0:0:0:
256,192,409734,1,8,0:0:0:0:
256,192,409809,1,8,0:0:0:0:
256,192,409884,1,0,0:0:0:0:
256,192,409959,1,0,0:0:0:0:
256,192,410034,1,8,0:0:0:0:
256,192,410184,1,8,0:0:0:0:
256,192,410259,1,8,0:0:0:0:
256,192,410334,1,8,0:0:0:0:
256,192,410409,1,4,0:0:0:0:
256,192,410559,1,0,0:0:0:0:
256,192,410634,1,8,0:0:0:0:
256,192,410709,1,0,0:0:0:0:
256,192,410784,1,0,0:0:0:0:
256,192,410859,1,8,0:0:0:0:
256,192,411009,1,0,0:0:0:0:
256,192,411084,1,0,0:0:0:0:
256,192,411159,1,8,0:0:0:0:
256,192,411234,1,8,0:0:0:0:
256,192,411384,1,8,0:0:0:0:
256,192,411459,1,0,0:0:0:0:
256,192,411534,1,0,0:0:0:0:
256,192,411609,1,8,0:0:0:0:
256,192,411684,1,8,0:0:0:0:
256,192,411759,1,0,0:0:0:0:
256,192,411909,1,0,0:0:0:0:
256,192,412059,1,8,0:0:0:0:
256,192,412134,1,8,0:0:0:0:
256,192,412209,1,8,0:0:0:0:
256,192,412284,1,0,0:0:0:0:
256,192,412359,1,0,0:0:0:0:
256,192,412434,1,8,0:0:0:0:
256,192,412584,1,0,0:0:0:0:
256,192,412659,1,8,0:0:0:0:
256,192,412734,1,8,0:0:0:0:
256,192,412809,1,4,0:0:0:0:
256,192,412959,1,0,0:0:0:0:
256,192,413034,1,0,0:0:0:0:
256,192,413109,1,0,0:0:0:0:
256,192,413259,1,8,0:0:0:0:
256,192,413409,1,4,0:0:0:0:
256,192,413559,1,0,0:0:0:0:
256,192,413634,1,0,0:0:0:0:
256,192,413709,1,0,0:0:0:0:
256,192,413859,1,8,0:0:0:0:
256,192,414009,1,0,0:0:0:0:
256,192,414084,1,0,0:0:0:0:
256,192,414159,1,0,0:0:0:0:
256,192,414234,1,0,0:0:0:0:
256,192,414309,1,8,0:0:0:0:
256,192,414384,1,8,0:0:0:0:
256,192,414459,1,8,0:0:0:0:
256,192,414534,1,8,0:0:0:0:
256,192,414609,1,0,0:0:0:0:
256,192,414684,1,8,0:0:0:0:
256,192,414759,1,0,0:0:0:0:
256,192,414834,1,8,0:0:0:0:
256,192,414909,1,0,0:0:0:0:
256,192,414984,1,8,0:0:0:0:
256,192,415059,1,0,0:0:0:0:
256,192,415134,1,0,0:0:0:0:
256,192,415209,1,12,0:0:0:0:
256,192,415359,1,0,0:0:0:0:
256,192,415509,1,8,0:0:0:0:
256,192,415659,1,0,0:0:0:0:
256,192,415734,1,0,0:0:0:0:
256,192,415809,1,8,0:0:0:0:
256,192,415884,1,0,0:0:0:0:
256,192,415959,1,8,0:0:0:0:
256,192,416109,1,8,0:0:0:0:
256,192,416259,1,8,0:0:0:0:
256,192,416409,1,0,0:0:0:0:
256,192,416559,1,8,0:0:0:0:
256,192,416634,1,8,0:0:0:0:
256,192,416709,1,0,0:0:0:0:
256,192,416859,1,8,0:0:0:0:
256,192,417009,1,0,0:0:0:0:
256,192,417084,1,8,0:0:0:0:
256,192,417234,1,8,0:0:0:0:
256,192,417309,1,0,0:0:0:0:
256,192,417459,1,8,0:0:0:0:
256,192,417609,1,0,0:0:0:0:
256,192,417684,1,0,0:0:0:0:
256,192,417759,1,0,0:0:0:0:
256,192,417909,1,8,0:0:0:0:
256,192,418059,1,8,0:0:0:0:
256,192,418134,1,8,0:0:0:0:
256,192,418209,1,0,0:0:0:0:
256,192,418284,1,0,0:0:0:0:
256,192,418359,1,8,0:0:0:0:
256,192,418509,1,0,0:0:0:0:
256,192,418659,1,8,0:0:0:0:
256,192,418809,1,0,0:0:0:0:
256,192,418959,1,8,0:0:0:0:
256,192,419034,1,8,0:0:0:0:
256,192,419109,1,8,0:0:0:0:
256,192,419259,1,0,0:0:0:0:
256,192,419409,1,8,0:0:0:0:
256,192,419634,1,0,0:0:0:0:
256,192,419859,1,8,0:0:0:0:
256,192,420009,1,4,0:0:0:0:
256,192,420159,1,0,0:0:0:0:
256,192,420309,1,8,0:0:0:0:
256,192,420459,1,0,0:0:0:0:
256,192,420534,1,8,0:0:0:0:
256,192,420609,1,0,0:0:0:0:
256,192,420684,1,0,0:0:0:0:
256,192,420759,1,8,0:0:0:0:
256,192,420909,1,8,0:0:0:0:
256,192,421059,1,8,0:0:0:0:
256,192,421209,1,0,0:0:0:0:
256,192,421359,1,8,0:0:0:0:
256,192,421434,1,8,0:0:0:0:
256,192,421509,1,0,0:0:0:0:
256,192,421659,1,8,0:0:0:0:
256,192,421809,1,0,0:0:0:0:
256,192,421884,1,8,0:0:0:0:
256,192,422034,1,8,0:0:0:0:
256,192,422109,1,0,0:0:0:0:
256,192,422259,1,8,0:0:0:0:
256,192,422409,1,4,0:0:0:0:
256,192,422559,1,0,0:0:0:0:
256,192,422634,1,0,0:0:0:0:
256,192,422709,1,0,0:0:0:0:
256,192,422859,1,8,0:0:0:0:
256,192,423009,1,4,0:0:0:0:
256,192,423159,1,0,0:0:0:0:
256,192,423234,1,0,0:0:0:0:
256,192,423309,1,0,0:0:0:0:
256,192,423459,1,8,0:0:0:0:
256,192,423609,1,8,0:0:0:0:
256,192,423684,1,0,0:0:0:0:
256,192,423759,1,0,0:0:0:0:
256,192,423834,1,0,0:0:0:0:
256,192,423909,1,8,0:0:0:0:
256,192,423984,1,0,0:0:0:0:
256,192,424059,1,0,0:0:0:0:
256,192,424134,1,0,0:0:0:0:
256,192,424209,1,8,0:0:0:0:
256,192,424284,1,0,0:0:0:0:
256,192,424359,1,0,0:0:0:0:
256,192,424434,1,8,0:0:0:0:
256,192,424509,1,0,0:0:0:0:
256,192,424584,1,0,0:0:0:0:
256,192,424659,1,8,0:0:0:0:
256,192,424734,1,8,0:0:0:0:
256,192,424809,1,4,0:0:0:0:
256,192,424959,1,8,0:0:0:0:
256,192,425109,1,0,0:0:0:0:
256,192,425184,1,0,0:0:0:0:
256,192,425259,1,8,0:0:0:0:
256,192,425409,1,0,0:0:0:0:
256,192,425559,1,0,0:0:0:0:
256,192,425634,1,8,0:0:0:0:
256,192,425709,1,0,0:0:0:0:
256,192,425859,1,0,0:0:0:0:
256,192,426009,1,8,0:0:0:0:
256,192,426159,1,0,0:0:0:0:
256,192,426234,1,8,0:0:0:0:
256,192,426309,1,0,0:0:0:0:
256,192,426459,1,8,0:0:0:0:
256,192,426534,1,0,0:0:0:0:
256,192,426609,1,8,0:0:0:0:
256,192,426759,1,0,0:0:0:0:
256,192,426834,1,0,0:0:0:0:
256,192,426909,1,8,0:0:0:0:
256,192,426984,1,8,0:0:0:0:
256,192,427059,1,0,0:0:0:0:
256,192,427209,1,8,0:0:0:0:
256,192,427359,1,0,0:0:0:0:
256,192,427434,1,0,0:0:0:0:
256,192,427509,1,8,0:0:0:0:
256,192,427584,1,8,0:0:0:0:
256,192,427659,1,0,0:0:0:0:
256,192,427809,1,8,0:0:0:0:
256,192,427959,1,8,0:0:0:0:
256,192,428034,1,8,0:0:0:0:
256,192,428109,1,0,0:0:0:0:
256,192,428184,1,8,0:0:0:0:
256,192,428259,1,0,0:0:0:0:
256,192,428409,1,12,0:0:0:0:
256,192,428709,1,12,0:0:0:0:
256,192,429009,1,12,0:0:0:0:
256,192,429159,1,0,0:0:0:0:
256,192,429234,1,0,0:0:0:0:
256,192,429309,1,8,0:0:0:0:
256,192,429459,1,8,0:0:0:0:
256,192,429609,1,0,0:0:0:0:
256,192,429759,1,8,0:0:0:0:
256,192,429909,1,0,0:0:0:0:
256,192,429984,1,0,0:0:0:0:
256,192,430059,1,8,0:0:0:0:
256,192,430209,1,0,0:0:0:0:
256,192,430359,1,0,0:0:0:0:
256,192,430434,1,8,0:0:0:0:
256,192,430509,1,0,0:0:0:0:
256,192,430659,1,0,0:0:0:0:
256,192,430809,1,8,0:0:0:0:
256,192,430959,1,0,0:0:0:0:
256,192,431034,1,8,0:0:0:0:
256,192,431109,1,0,0:0:0:0:
256,192,431184,1,0,0:0:0:0:
256,192,431259,1,8,0:0:0:0:
256,192,431409,1,8,0:0:0:0:
256,192,431559,1,0,0:0:0:0:
256,192,431634,1,0,0:0:0:0:
256,192,431709,1,8,0:0:0:0:
256,192,431784,1,8,0:0:0:0:
256,192,431859,1,0,0:0:0:0:
256,192,432009,1,8,0:0:0:0:
256,192,432159,1,0,0:0:0:0:
256,192,432234,1,0,0:0:0:0:
256,192,432309,1,8,0:0:0:0:
256,192,432459,1,0,0:0:0:0:
256,192,432534,1,8,0:0:0:0:
256,192,432609,1,8,0:0:0:0:
256,192,432759,1,8,0:0:0:0:
256,192,432834,1,0,0:0:0:0:
256,192,432909,1,0,0:0:0:0:
256,192,432984,1,8,0:0:0:0:
256,192,433059,1,0,0:0:0:0:
256,192,433209,1,12,0:0:0:0:
256,192,433509,1,12,0:0:0:0:
256,192,433809,1,12,0:0:0:0:
256,192,433959,1,0,0:0:0:0:
256,192,434034,1,0,0:0:0:0:
256,192,434109,1,8,0:0:0:0:
256,192,434259,1,0,0:0:0:0:
256,192,434409,1,8,0:0:0:0:
256,192,434559,1,0,0:0:0:0:
256,192,434634,1,0,0:0:0:0:
256,192,434709,1,8,0:0:0:0:
256,192,434859,1,0,0:0:0:0:
256,192,434934,1,0,0:0:0:0:
256,192,435009,1,8,0:0:0:0:
256,192,435084,1,8,0:0:0:0:
256,192,435159,1,0,0:0:0:0:
256,192,435309,1,8,0:0:0:0:
256,192,435459,1,8,0:0:0:0:
256,192,435534,1,8,0:0:0:0:
256,192,435609,1,0,0:0:0:0:
256,192,435759,1,0,0:0:0:0:
256,192,435909,1,8,0:0:0:0:
256,192,436059,1,0,0:0:0:0:
256,192,436134,1,0,0:0:0:0:
256,192,436209,1,8,0:0:0:0:
256,192,436284,1,0,0:0:0:0:
256,192,436359,1,0,0:0:0:0:
256,192,436434,1,0,0:0:0:0:
256,192,436509,1,8,0:0:0:0:
256,192,436659,1,0,0:0:0:0:
256,192,436809,1,12,0:0:0:0:
256,192,436959,1,0,0:0:0:0:
256,192,437034,1,0,0:0:0:0:
256,192,437109,1,0,0:0:0:0:
256,192,437184,1,0,0:0:0:0:
256,192,437259,1,8,0:0:0:0:
256,192,437409,1,12,0:0:0:0:
256,192,437559,1,0,0:0:0:0:
256,192,437634,1,0,0:0:0:0:
256,192,437709,1,0,0:0:0:0:
256,192,437784,1,0,0:0:0:0:
256,192,437859,1,8,0:0:0:0:
256,192,438009,1,12,0:0:0:0:
256,192,438159,1,0,0:0:0:0:
256,192,438309,1,12,0:0:0:0:
256,192,438459,1,0,0:0:0:0:
256,192,438609,1,12,0:0:0:0:
256,192,438759,1,0,0:0:0:0:
256,192,438909,1,12,0:0:0:0:
256,192,439059,1,8,0:0:0:0:
256,192,439209,1,0,0:0:0:0:
256,192,439284,1,0,0:0:0:0:
256,192,439359,1,0,0:0:0:0:
256,192,439509,1,12,0:0:0:0:
256,192,439659,1,8,0:0:0:0:
256,192,439809,1,0,0:0:0:0:
256,192,439884,1,0,0:0:0:0:
256,192,439959,1,0,0:0:0:0:
256,192,440109,1,12,0:0:0:0:
256,192,440259,1,8,0:0:0:0:
256,192,440409,1,0,0:0:0:0:
256,192,440484,1,0,0:0:0:0:
256,192,440559,1,0,0:0:0:0:
256,192,440709,1,8,0:0:0:0:
256,192,440859,1,0,0:0:0:0:
256,192,440934,1,0,0:0:0:0:
256,192,441009,1,8,0:0:0:0:
256,192,441084,1,8,0:0:0:0:
256,192,441159,1,0,0:0:0:0:
256,192,441234,1,0,0:0:0:0:
256,192,441309,1,8,0:0:0:0:
256,192,441384,1,8,0:0:0:0:
256,192,441459,1,0,0:0:0:0:
256,192,441534,1,0,0:0:0:0:
256,192,441609,1,12,0:0:0:0:
256,192,441759,1,0,0:0:0:0:
256,192,441834,1,0,0:0:0:0:
256,192,441909,1,0,0:0:0:0:
256,192,442059,1,0,0:0:0:0:
256,192,442209,1,12,0:0:0:0:
256,192,442359,1,0,0:0:0:0:
256,192,442434,1,0,0:0:0:0:
256,192,442509,1,0,0:0:0:0:
256,192,442659,1,0,0:0:0:0:
256,192,442809,1,0,0:0:0:0:
256,192,442884,1,0,0:0:0:0:
256,192,442959,1,8,0:0:0:0:
256,192,443034,1,8,0:0:0:0:
256,192,443109,1,0,0:0:0:0:
256,192,443184,1,0,0:0:0:0:
256,192,443259,1,8,0:0:0:0:
256,192,443334,1,8,0:0:0:0:
256,192,443409,1,0,0:0:0:0:
256,192,443484,1,0,0:0:0:0:
256,192,443559,1,0,0:0:0:0:
256,192,443634,1,0,0:0:0:0:
256,192,443709,1,12,0:0:0:0:
256,192,446115,12,0,447990,0:0:0:0:
256,192,448115,5,8,0:0:0:0:
256,192,448365,1,0,0:0:0:0:
256,192,448615,1,8,0:0:0:0:
256,192,448865,1,0,0:0:0:0:
256,192,449115,1,0,0:0:0:0:
256,192,449365,1,8,0:0:0:0:
256,192,449615,1,0,0:0:0:0:
256,192,449865,1,8,0:0:0:0:
256,192,450115,1,0,0:0:0:0:
256,192,450365,1,0,0:0:0:0:
256,192,450615,1,0,0:0:0:0:
256,192,450865,1,0,0:0:0:0:
256,192,451115,1,8,0:0:0:0:
256,192,451365,1,8,0:0:0:0:
256,192,451615,1,8,0:0:0:0:
256,192,451865,1,8,0:0:0:0:
256,192,452115,1,8,0:0:0:0:
256,192,452365,1,0,0:0:0:0:
256,192,452615,1,8,0:0:0:0:
256,192,452865,1,0,0:0:0:0:
256,192,453115,1,0,0:0:0:0:
256,192,453365,1,8,0:0:0:0:
256,192,453615,1,0,0:0:0:0:
256,192,453865,1,8,0:0:0:0:
256,192,454115,1,0,0:0:0:0:
256,192,454365,1,0,0:0:0:0:
256,192,454615,1,0,0:0:0:0:
256,192,454865,1,0,0:0:0:0:
256,192,455115,1,8,0:0:0:0:
256,192,455365,1,8,0:0:0:0:
256,192,455615,1,8,0:0:0:0:
256,192,455865,1,8,0:0:0:0:
256,192,456115,1,8,0:0:0:0:
256,192,456302,1,0,0:0:0:0:
256,192,456365,1,8,0:0:0:0:
256,192,456490,1,0,0:0:0:0:
256,192,456615,1,8,0:0:0:0:
256,192,456802,1,0,0:0:0:0:
256,192,456865,1,8,0:0:0:0:
256,192,456990,1,0,0:0:0:0:
256,192,457115,1,8,0:0:0:0:
256,192,457240,1,8,0:0:0:0:
256,192,457302,1,8,0:0:0:0:
256,192,457365,1,8,0:0:0:0:
256,192,457490,1,8,0:0:0:0:
256,192,457615,1,0,0:0:0:0:
256,192,457865,1,8,0:0:0:0:
256,192,458115,1,0,0:0:0:0:
256,192,458302,1,0,0:0:0:0:
256,192,458365,1,8,0:0:0:0:
256,192,458490,1,0,0:0:0:0:
256,192,458615,1,0,0:0:0:0:
256,192,458740,1,8,0:0:0:0:
256,192,458865,1,0,0:0:0:0:
256,192,458927,1,0,0:0:0:0:
256,192,458990,1,8,0:0:0:0:
256,192,459115,1,8,0:0:0:0:
256,192,459365,1,8,0:0:0:0:
256,192,459615,1,8,0:0:0:0:
256,192,459865,1,8,0:0:0:0:
256,192,460115,1,8,0:0:0:0:
256,192,460302,1,0,0:0:0:0:
256,192,460365,1,8,0:0:0:0:
256,192,460490,1,0,0:0:0:0:
256,192,460615,1,8,0:0:0:0:
256,192,460802,1,0,0:0:0:0:
256,192,460865,1,8,0:0:0:0:
256,192,460990,1,0,0:0:0:0:
256,192,461115,1,8,0:0:0:0:
256,192,461240,1,8,0:0:0:0:
256,192,461302,1,8,0:0:0:0:
256,192,461365,1,8,0:0:0:0:
256,192,461490,1,8,0:0:0:0:
256,192,461615,1,0,0:0:0:0:
256,192,461865,1,8,0:0:0:0:
256,192,462115,1,0,0:0:0:0:
256,192,462302,1,0,0:0:0:0:
256,192,462365,1,8,0:0:0:0:
256,192,462490,1,0,0:0:0:0:
256,192,462615,1,0,0:0:0:0:
256,192,462740,1,8,0:0:0:0:
256,192,462865,1,0,0:0:0:0:
256,192,462927,1,0,0:0:0:0:
256,192,462990,1,8,0:0:0:0:
256,192,463115,1,8,0:0:0:0:
256,192,463365,1,8,0:0:0:0:
256,192,463615,1,8,0:0:0:0:
256,192,463865,1,8,0:0:0:0:
256,192,464115,1,12,0:0:0:0:
256,192,464240,1,0,0:0:0:0:
256,192,464302,1,0,0:0:0:0:
256,192,464365,1,8,0:0:0:0:
256,192,464490,1,0,0:0:0:0:
256,192,464552,1,8,0:0:0:0:
256,192,464615,1,8,0:0:0:0:
256,192,464740,1,8,0:0:0:0:
256,192,464865,1,0,0:0:0:0:
256,192,464990,1,0,0:0:0:0:
256,192,465052,1,0,0:0:0:0:
256,192,465115,1,0,0:0:0:0:
256,192,465240,1,8,0:0:0:0:
256,192,465365,1,0,0:0:0:0:
256,192,465427,1,0,0:0:0:0:
256,192,465490,1,8,0:0:0:0:
256,192,465552,1,8,0:0:0:0:
256,192,465615,1,0,0:0:0:0:
256,192,465740,1,8,0:0:0:0:
256,192,465865,1,0,0:0:0:0:
256,192,465927,1,0,0:0:0:0:
256,192,465990,1,8,0:0:0:0:
256,192,466115,1,0,0:0:0:0:
256,192,466240,1,8,0:0:0:0:
256,192,466302,1,8,0:0:0:0:
256,192,466365,1,0,0:0:0:0:
256,192,466490,1,8,0:0:0:0:
256,192,466615,1,0,0:0:0:0:
256,192,466677,1,0,0:0:0:0:
256,192,466740,1,0,0:0:0:0:
256,192,466865,1,8,0:0:0:0:
256,192,466927,1,8,0:0:0:0:
256,192,466990,1,0,0:0:0:0:
256,192,467052,1,0,0:0:0:0:
256,192,467115,1,8,0:0:0:0:
256,192,467240,1,0,0:0:0:0:
256,192,467302,1,0,0:0:0:0:
256,192,467365,1,8,0:0:0:0:
256,192,467490,1,0,0:0:0:0:
256,192,467552,1,0,0:0:0:0:
256,192,467615,1,8,0:0:0:0:
256,192,467740,1,8,0:0:0:0:
256,192,467802,1,8,0:0:0:0:
256,192,467865,1,0,0:0:0:0:
256,192,467990,1,8,0:0:0:0:
256,192,468115,1,12,0:0:0:0:
256,192,468240,1,0,0:0:0:0:
256,192,468302,1,0,0:0:0:0:
256,192,468365,1,8,0:0:0:0:
256,192,468490,1,0,0:0:0:0:
256,192,468552,1,8,0:0:0:0:
256,192,468615,1,8,0:0:0:0:
256,192,468740,1,8,0:0:0:0:
256,192,468865,1,0,0:0:0:0:
256,192,468990,1,0,0:0:0:0:
256,192,469052,1,0,0:0:0:0:
256,192,469115,1,0,0:0:0:0:
256,192,469240,1,8,0:0:0:0:
256,192,469365,1,0,0:0:0:0:
256,192,469427,1,0,0:0:0:0:
256,192,469490,1,8,0:0:0:0:
256,192,469552,1,8,0:0:0:0:
256,192,469615,1,0,0:0:0:0:
256,192,469740,1,8,0:0:0:0:
256,192,469865,1,0,0:0:0:0:
256,192,469927,1,0,0:0:0:0:
256,192,469990,1,8,0:0:0:0:
256,192,470115,1,0,0:0:0:0:
256,192,470240,1,8,0:0:0:0:
256,192,470302,1,8,0:0:0:0:
256,192,470365,1,0,0:0:0:0:
256,192,470490,1,8,0:0:0:0:
256,192,470615,1,0,0:0:0:0:
256,192,470677,1,0,0:0:0:0:
256,192,470740,1,0,0:0:0:0:
256,192,470865,1,8,0:0:0:0:
256,192,470927,1,8,0:0:0:0:
256,192,470990,1,0,0:0:0:0:
256,192,471052,1,0,0:0:0:0:
256,192,471115,1,8,0:0:0:0:
256,192,471240,1,8,0:0:0:0:
256,192,471365,1,8,0:0:0:0:
256,192,471490,1,8,0:0:0:0:
256,192,471615,1,8,0:0:0:0:
256,192,471740,1,8,0:0:0:0:
256,192,471865,1,0,0:0:0:0:
256,192,472115,1,12,0:0:0:0:
256,192,472240,1,0,0:0:0:0:
256,192,472302,1,0,0:0:0:0:
256,192,472365,1,8,0:0:0:0:
256,192,472490,1,0,0:0:0:0:
256,192,472552,1,0,0:0:0:0:
256,192,472615,1,8,0:0:0:0:
256,192,472740,1,0,0:0:0:0:
256,192,472802,1,0,0:0:0:0:
256,192,472865,1,0,0:0:0:0:
256,192,472990,1,8,0:0:0:0:
256,192,473115,1,0,0:0:0:0:
256,192,473177,1,0,0:0:0:0:
256,192,473240,1,8,0:0:0:0:
256,192,473302,1,8,0:0:0:0:
256,192,473365,1,0,0:0:0:0:
256,192,473490,1,8,0:0:0:0:
256,192,473615,1,0,0:0:0:0:
256,192,473677,1,0,0:0:0:0:
256,192,473740,1,8,0:0:0:0:
256,192,473865,1,0,0:0:0:0:
256,192,473990,1,8,0:0:0:0:
256,192,474115,1,0,0:0:0:0:
256,192,474177,1,8,0:0:0:0:
256,192,474240,1,0,0:0:0:0:
256,192,474365,1,8,0:0:0:0:
256,192,474427,1,0,0:0:0:0:
256,192,474490,1,8,0:0:0:0:
256,192,474615,1,8,0:0:0:0:
256,192,474740,1,0,0:0:0:0:
256,192,474802,1,0,0:0:0:0:
256,192,474865,1,0,0:0:0:0:
256,192,474990,1,8,0:0:0:0:
256,192,475115,1,0,0:0:0:0:
256,192,475240,1,0,0:0:0:0:
256,192,475302,1,0,0:0:0:0:
256,192,475365,1,8,0:0:0:0:
256,192,475490,1,8,0:0:0:0:
256,192,475615,1,8,0:0:0:0:
256,192,475677,1,8,0:0:0:0:
256,192,475740,1,0,0:0:0:0:
256,192,475802,1,0,0:0:0:0:
256,192,475865,1,8,0:0:0:0:
256,192,475990,1,0,0:0:0:0:
256,192,476115,1,12,0:0:0:0:
256,192,476240,1,0,0:0:0:0:
256,192,476302,1,0,0:0:0:0:
256,192,476365,1,8,0:0:0:0:
256,192,476490,1,0,0:0:0:0:
256,192,476552,1,0,0:0:0:0:
256,192,476615,1,8,0:0:0:0:
256,192,476740,1,0,0:0:0:0:
256,192,476802,1,0,0:0:0:0:
256,192,476865,1,0,0:0:0:0:
256,192,476990,1,8,0:0:0:0:
256,192,477115,1,0,0:0:0:0:
256,192,477177,1,0,0:0:0:0:
256,192,477240,1,8,0:0:0:0:
256,192,477302,1,8,0:0:0:0:
256,192,477365,1,0,0:0:0:0:
256,192,477490,1,8,0:0:0:0:
256,192,477615,1,0,0:0:0:0:
256,192,477677,1,0,0:0:0:0:
256,192,477740,1,8,0:0:0:0:
256,192,477865,1,0,0:0:0:0:
256,192,477990,1,8,0:0:0:0:
256,192,478115,1,0,0:0:0:0:
256,192,478177,1,8,0:0:0:0:
256,192,478240,1,0,0:0:0:0:
256,192,478365,1,8,0:0:0:0:
256,192,478427,1,0,0:0:0:0:
256,192,478490,1,8,0:0:0:0:
256,192,478615,1,8,0:0:0:0:
256,192,478740,1,0,0:0:0:0:
256,192,478802,1,0,0:0:0:0:
256,192,478865,1,0,0:0:0:0:
256,192,478990,1,8,0:0:0:0:
256,192,479115,1,0,0:0:0:0:
256,192,479240,1,0,0:0:0:0:
256,192,479365,1,8,0:0:0:0:
256,192,479490,1,8,0:0:0:0:
256,192,479615,1,8,0:0:0:0:
256,192,479740,1,0,0:0:0:0:
256,192,479865,1,0,0:0:0:0:
256,192,479990,1,0,0:0:0:0:
256,192,480115,1,0,0:0:0:0:
256,192,480240,1,0,0:0:0:0:
256,192,480302,1,0,0:0:0:0:
256,192,480365,1,8,0:0:0:0:
256,192,480490,1,8,0:0:0:0:
256,192,480615,1,8,0:0:0:0:
256,192,480740,1,0,0:0:0:0:
256,192,480802,1,0,0:0:0:0:
256,192,480865,1,8,0:0:0:0:
256,192,480990,1,0,0:0:0:0:
256,192,481115,1,8,0:0:0:0:
256,192,481177,1,8,0:0:0:0:
256,192,481240,1,0,0:0:0:0:
256,192,481365,1,0,0:0:0:0:
256,192,481490,1,8,0:0:0:0:
256,192,481615,1,0,0:0:0:0:
256,192,481740,1,8,0:0:0:0:
256,192,481802,1,8,0:0:0:0:
256,192,481865,1,0,0:0:0:0:
256,192,481927,1,0,0:0:0:0:
256,192,481990,1,8,0:0:0:0:
256,192,482115,1,0,0:0:0:0:
256,192,482240,1,0,0:0:0:0:
256,192,482302,1,0,0:0:0:0:
256,192,482365,1,0,0:0:0:0:
256,192,482490,1,8,0:0:0:0:
256,192,482615,1,0,0:0:0:0:
256,192,482740,1,0,0:0:0:0:
256,192,482802,1,0,0:0:0:0:
256,192,482865,1,0,0:0:0:0:
256,192,482990,1,8,0:0:0:0:
256,192,483115,1,0,0:0:0:0:
256,192,483177,1,0,0:0:0:0:
256,192,483240,1,8,0:0:0:0:
256,192,483365,1,8,0:0:0:0:
256,192,483490,1,0,0:0:0:0:
256,192,483615,1,0,0:0:0:0:
256,192,483677,1,8,0:0:0:0:
256,192,483740,1,0,0:0:0:0:
256,192,483865,1,8,0:0:0:0:
256,192,484115,1,0,0:0:0:0:
256,192,484240,1,8,0:0:0:0:
256,192,484302,1,0,0:0:0:0:
256,192,484365,1,8,0:0:0:0:
256,192,484490,1,0,0:0:0:0:
256,192,484615,1,8,0:0:0:0:
256,192,484740,1,8,0:0:0:0:
256,192,484802,1,8,0:0:0:0:
256,192,484865,1,0,0:0:0:0:
256,192,484990,1,0,0:0:0:0:
256,192,485115,1,8,0:0:0:0:
256,192,485177,1,8,0:0:0:0:
256,192,485240,1,0,0:0:0:0:
256,192,485365,1,0,0:0:0:0:
256,192,485490,1,8,0:0:0:0:
256,192,485615,1,0,0:0:0:0:
256,192,485740,1,8,0:0:0:0:
256,192,485802,1,8,0:0:0:0:
256,192,485865,1,0,0:0:0:0:
256,192,485927,1,0,0:0:0:0:
256,192,485990,1,8,0:0:0:0:
256,192,486115,1,0,0:0:0:0:
256,192,486240,1,0,0:0:0:0:
256,192,486302,1,0,0:0:0:0:
256,192,486365,1,8,0:0:0:0:
256,192,486490,1,8,0:0:0:0:
256,192,486615,1,0,0:0:0:0:
256,192,486740,1,0,0:0:0:0:
256,192,486802,1,0,0:0:0:0:
256,192,486865,1,0,0:0:0:0:
256,192,486990,1,8,0:0:0:0:
256,192,487115,1,0,0:0:0:0:
256,192,487177,1,0,0:0:0:0:
256,192,487240,1,8,0:0:0:0:
256,192,487365,1,8,0:0:0:0:
256,192,487490,1,0,0:0:0:0:
256,192,487615,1,0,0:0:0:0:
256,192,487740,1,0,0:0:0:0:
256,192,487802,1,0,0:0:0:0:
256,192,487865,1,8,0:0:0:0:
256,192,487927,1,8,0:0:0:0:
256,192,487990,1,0,0:0:0:0:
256,192,488115,1,12,0:0:0:0:
256,192,488240,1,0,0:0:0:0:
256,192,488302,1,0,0:0:0:0:
256,192,488365,1,8,0:0:0:0:
256,192,488490,1,0,0:0:0:0:
256,192,488615,1,8,0:0:0:0:
256,192,488677,1,8,0:0:0:0:
256,192,488740,1,0,0:0:0:0:
256,192,488865,1,8,0:0:0:0:
256,192,488927,1,8,0:0:0:0:
256,192,488990,1,0,0:0:0:0:
256,192,489052,1,0,0:0:0:0:
256,192,489115,1,8,0:0:0:0:
256,192,489240,1,0,0:0:0:0:
256,192,489302,1,0,0:0:0:0:
256,192,489365,1,8,0:0:0:0:
256,192,489490,1,0,0:0:0:0:
256,192,489552,1,0,0:0:0:0:
256,192,489615,1,8,0:0:0:0:
256,192,489740,1,8,0:0:0:0:
256,192,489802,1,8,0:0:0:0:
256,192,489865,1,0,0:0:0:0:
256,192,489990,1,0,0:0:0:0:
256,192,490115,1,8,0:0:0:0:
256,192,490240,1,0,0:0:0:0:
256,192,490302,1,0,0:0:0:0:
256,192,490365,1,8,0:0:0:0:
256,192,490490,1,0,0:0:0:0:
256,192,490615,1,8,0:0:0:0:
256,192,490740,1,0,0:0:0:0:
256,192,490802,1,0,0:0:0:0:
256,192,490865,1,8,0:0:0:0:
256,192,490990,1,0,0:0:0:0:
256,192,491052,1,8,0:0:0:0:
256,192,491115,1,0,0:0:0:0:
256,192,491240,1,0,0:0:0:0:
256,192,491365,1,8,0:0:0:0:
256,192,491490,1,0,0:0:0:0:
256,192,491552,1,0,0:0:0:0:
256,192,491615,1,8,0:0:0:0:
256,192,491740,1,0,0:0:0:0:
256,192,491802,1,0,0:0:0:0:
256,192,491865,1,8,0:0:0:0:
256,192,492115,1,12,0:0:0:0:
256,192,492240,1,0,0:0:0:0:
256,192,492302,1,0,0:0:0:0:
256,192,492365,1,8,0:0:0:0:
256,192,492490,1,0,0:0:0:0:
256,192,492615,1,8,0:0:0:0:
256,192,492677,1,8,0:0:0:0:
256,192,492740,1,0,0:0:0:0:
256,192,492865,1,8,0:0:0:0:
256,192,492927,1,8,0:0:0:0:
256,192,492990,1,0,0:0:0:0:
256,192,493052,1,0,0:0:0:0:
256,192,493115,1,8,0:0:0:0:
256,192,493240,1,0,0:0:0:0:
256,192,493302,1,0,0:0:0:0:
256,192,493365,1,8,0:0:0:0:
256,192,493490,1,0,0:0:0:0:
256,192,493552,1,0,0:0:0:0:
256,192,493615,1,8,0:0:0:0:
256,192,493740,1,8,0:0:0:0:
256,192,493802,1,8,0:0:0:0:
256,192,493865,1,0,0:0:0:0:
256,192,493990,1,0,0:0:0:0:
256,192,494115,1,8,0:0:0:0:
256,192,494240,1,0,0:0:0:0:
256,192,494302,1,0,0:0:0:0:
256,192,494365,1,8,0:0:0:0:
256,192,494490,1,0,0:0:0:0:
256,192,494615,1,8,0:0:0:0:
256,192,494740,1,0,0:0:0:0:
256,192,494802,1,0,0:0:0:0:
256,192,494865,1,8,0:0:0:0:
256,192,494990,1,0,0:0:0:0:
256,192,495052,1,8,0:0:0:0:
256,192,495115,1,0,0:0:0:0:
256,192,495240,1,0,0:0:0:0:
256,192,495365,1,8,0:0:0:0:
256,192,495490,1,0,0:0:0:0:
256,192,495552,1,0,0:0:0:0:
256,192,495615,1,8,0:0:0:0:
256,192,495740,1,0,0:0:0:0:
256,192,495865,1,8,0:0:0:0:
256,192,495927,1,8,0:0:0:0:
256,192,495990,1,0,0:0:0:0:
256,192,496115,1,0,0:0:0:0:
256,192,496365,1,0,0:0:0:0:
256,192,496490,1,0,0:0:0:0:
256,192,496615,1,8,0:0:0:0:
256,192,496865,1,0,0:0:0:0:
256,192,496927,1,0,0:0:0:0:
256,192,496990,1,0,0:0:0:0:
256,192,497115,1,8,0:0:0:0:
256,192,497240,1,0,0:0:0:0:
256,192,497302,1,0,0:0:0:0:
256,192,497365,1,8,0:0:0:0:
256,192,497490,1,0,0:0:0:0:
256,192,497615,1,8,0:0:0:0:
256,192,497740,1,8,0:0:0:0:
256,192,497865,1,0,0:0:0:0:
256,192,497990,1,0,0:0:0:0:
256,192,498115,1,8,0:0:0:0:
256,192,498365,1,0,0:0:0:0:
256,192,498490,1,8,0:0:0:0:
256,192,498740,1,0,0:0:0:0:
256,192,498865,1,8,0:0:0:0:
256,192,498990,1,0,0:0:0:0:
256,192,499115,1,0,0:0:0:0:
256,192,499365,1,0,0:0:0:0:
256,192,499490,1,8,0:0:0:0:
256,192,499615,1,0,0:0:0:0:
256,192,499865,1,0,0:0:0:0:
256,192,499990,1,0,0:0:0:0:
256,192,500115,1,8,0:0:0:0:
256,192,500365,1,0,0:0:0:0:
256,192,500615,1,8,0:0:0:0:
256,192,500865,1,0,0:0:0:0:
256,192,500990,1,0,0:0:0:0:
256,192,501115,1,8,0:0:0:0:
256,192,501240,1,8,0:0:0:0:
256,192,501365,1,0,0:0:0:0:
256,192,501490,1,8,0:0:0:0:
256,192,501615,1,0,0:0:0:0:
256,192,501740,1,8,0:0:0:0:
256,192,501865,1,0,0:0:0:0:
256,192,501990,1,0,0:0:0:0:
256,192,502115,1,12,0:0:0:0:
256,192,502240,1,12,0:0:0:0:
256,192,502615,1,12,0:0:0:0:
256,192,502740,1,12,0:0:0:0:
256,192,502990,1,12,0:0:0:0:
256,192,503240,1,12,0:0:0:0:
256,192,503365,1,12,0:0:0:0:
256,192,503490,1,0,0:0:0:0:
256,192,503552,1,0,0:0:0:0:
256,192,503615,1,8,0:0:0:0:
256,192,503865,1,8,0:0:0:0:
256,192,504115,1,12,0:0:0:0:
256,192,504240,1,0,0:0:0:0:
256,192,504302,1,0,0:0:0:0:
256,192,504365,1,0,0:0:0:0:
256,192,504490,1,8,0:0:0:0:
256,192,504615,1,0,0:0:0:0:
256,192,504677,1,0,0:0:0:0:
256,192,504740,1,8,0:0:0:0:
256,192,504865,1,8,0:0:0:0:
256,192,504990,1,8,0:0:0:0:
256,192,505115,1,0,0:0:0:0:
256,192,505177,1,0,0:0:0:0:
256,192,505240,1,8,0:0:0:0:
256,192,505302,1,8,0:0:0:0:
256,192,505365,1,0,0:0:0:0:
256,192,505490,1,8,0:0:0:0:
256,192,505552,1,8,0:0:0:0:
256,192,505615,1,8,0:0:0:0:
256,192,505740,1,0,0:0:0:0:
256,192,505802,1,0,0:0:0:0:
256,192,505865,1,8,0:0:0:0:
256,192,505990,1,0,0:0:0:0:
256,192,506115,1,8,0:0:0:0:
256,192,506177,1,8,0:0:0:0:
256,192,506240,1,0,0:0:0:0:
256,192,506365,1,0,0:0:0:0:
256,192,506490,1,8,0:0:0:0:
256,192,506552,1,8,0:0:0:0:
256,192,506615,1,0,0:0:0:0:
256,192,506740,1,8,0:0:0:0:
256,192,506865,1,0,0:0:0:0:
256,192,506927,1,0,0:0:0:0:
256,192,506990,1,8,0:0:0:0:
256,192,507115,1,8,0:0:0:0:
256,192,507240,1,0,0:0:0:0:
256,192,507302,1,0,0:0:0:0:
256,192,507365,1,8,0:0:0:0:
256,192,507490,1,0,0:0:0:0:
256,192,507552,1,0,0:0:0:0:
256,192,507615,1,8,0:0:0:0:
256,192,507740,1,8,0:0:0:0:
256,192,507865,1,0,0:0:0:0:
256,192,507927,1,0,0:0:0:0:
256,192,507990,1,0,0:0:0:0:
256,192,508115,1,8,0:0:0:0:
256,192,508240,1,0,0:0:0:0:
256,192,508302,1,0,0:0:0:0:
256,192,508365,1,8,0:0:0:0:
256,192,508490,1,8,0:0:0:0:
256,192,508552,1,8,0:0:0:0:
256,192,508615,1,0,0:0:0:0:
256,192,508740,1,0,0:0:0:0:
256,192,508802,1,0,0:0:0:0:
256,192,508865,1,0,0:0:0:0:
256,192,508990,1,0,0:0:0:0:
256,192,509052,1,0,0:0:0:0:
256,192,509115,1,8,0:0:0:0:
256,192,509240,1,0,0:0:0:0:
256,192,509365,1,8,0:0:0:0:
256,192,509427,1,8,0:0:0:0:
256,192,509490,1,0,0:0:0:0:
256,192,509552,1,0,0:0:0:0:
256,192,509615,1,8,0:0:0:0:
256,192,509740,1,0,0:0:0:0:
256,192,509865,1,8,0:0:0:0:
256,192,509990,1,0,0:0:0:0:
256,192,510115,1,4,0:0:0:0:
256,192,510240,1,0,0:0:0:0:
256,192,510365,1,0,0:0:0:0:
256,192,510490,1,0,0:0:0:0:
256,192,510615,1,0,0:0:0:0:
256,192,510740,1,0,0:0:0:0:
256,192,510865,1,0,0:0:0:0:
256,192,510990,1,0,0:0:0:0:
256,192,511115,1,12,0:0:0:0:
256,192,511240,1,8,0:0:0:0:
256,192,511365,1,8,0:0:0:0:
256,192,511490,1,8,0:0:0:0:
256,192,511615,1,8,0:0:0:0:
256,192,511740,1,8,0:0:0:0:
256,192,511865,1,8,0:0:0:0:
256,192,511990,1,8,0:0:0:0:
256,192,512115,1,4,0:0:0:0:
256,192,512240,1,0,0:0:0:0:
256,192,512302,1,0,0:0:0:0:
256,192,512365,1,0,0:0:0:0:
256,192,512490,1,8,0:0:0:0:
256,192,512615,1,0,0:0:0:0:
256,192,512677,1,0,0:0:0:0:
256,192,512740,1,8,0:0:0:0:
256,192,512865,1,8,0:0:0:0:
256,192,512990,1,0,0:0:0:0:
256,192,513115,1,8,0:0:0:0:
256,192,513177,1,8,0:0:0:0:
256,192,513240,1,0,0:0:0:0:
256,192,513302,1,8,0:0:0:0:
256,192,513365,1,0,0:0:0:0:
256,192,513490,1,8,0:0:0:0:
256,192,513552,1,8,0:0:0:0:
256,192,513615,1,8,0:0:0:0:
256,192,513740,1,0,0:0:0:0:
256,192,513802,1,0,0:0:0:0:
256,192,513865,1,8,0:0:0:0:
256,192,513990,1,0,0:0:0:0:
256,192,514115,1,8,0:0:0:0:
256,192,514177,1,8,0:0:0:0:
256,192,514240,1,0,0:0:0:0:
256,192,514365,1,0,0:0:0:0:
256,192,514490,1,8,0:0:0:0:
256,192,514552,1,8,0:0:0:0:
256,192,514615,1,0,0:0:0:0:
256,192,514740,1,8,0:0:0:0:
256,192,514865,1,0,0:0:0:0:
256,192,514927,1,0,0:0:0:0:
256,192,514990,1,8,0:0:0:0:
256,192,515115,1,8,0:0:0:0:
256,192,515240,1,0,0:0:0:0:
256,192,515302,1,0,0:0:0:0:
256,192,515365,1,8,0:0:0:0:
256,192,515490,1,0,0:0:0:0:
256,192,515552,1,0,0:0:0:0:
256,192,515615,1,8,0:0:0:0:
256,192,515740,1,8,0:0:0:0:
256,192,515865,1,0,0:0:0:0:
256,192,515927,1,0,0:0:0:0:
256,192,515990,1,0,0:0:0:0:
256,192,516115,1,0,0:0:0:0:
256,192,516198,1,0,0:0:0:0:
256,192,516281,1,0,0:0:0:0:
256,192,516365,1,0,0:0:0:0:
256,192,516490,1,0,0:0:0:0:
256,192,516615,1,12,0:0:0:0:
256,192,517115,1,0,0:0:0:0:
256,192,517198,1,0,0:0:0:0:
256,192,517281,1,0,0:0:0:0:
256,192,517365,1,0,0:0:0:0:
256,192,517490,1,0,0:0:0:0:
256,192,517615,1,12,0:0:0:0:
256,192,518115,1,0,0:0:0:0:
256,192,518198,1,0,0:0:0:0:
256,192,518281,1,0,0:0:0:0:
256,192,518365,1,0,0:0:0:0:
256,192,518490,1,0,0:0:0:0:
256,192,518615,1,12,0:0:0:0:
256,192,519115,1,0,0:0:0:0:
256,192,519198,1,0,0:0:0:0:
256,192,519281,1,0,0:0:0:0:
256,192,519365,1,0,0:0:0:0:
256,192,519490,1,0,0:0:0:0:
256,192,519615,1,12,0:0:0:0:
256,192,520115,1,0,0:0:0:0:
256,192,520240,1,0,0:0:0:0:
256,192,520302,1,0,0:0:0:0:
256,192,520365,1,0,0:0:0:0:
256,192,520490,1,0,0:0:0:0:
256,192,520615,1,8,0:0:0:0:
256,192,520740,1,8,0:0:0:0:
256,192,520802,1,8,0:0:0:0:
256,192,520865,1,0,0:0:0:0:
256,192,520990,1,0,0:0:0:0:
256,192,521115,1,0,0:0:0:0:
256,192,521177,1,8,0:0:0:0:
256,192,521240,1,0,0:0:0:0:
256,192,521365,1,0,0:0:0:0:
256,192,521427,1,0,0:0:0:0:
256,192,521490,1,8,0:0:0:0:
256,192,521552,1,8,0:0:0:0:
256,192,521615,1,0,0:0:0:0:
256,192,521740,1,8,0:0:0:0:
256,192,521802,1,8,0:0:0:0:
256,192,521865,1,0,0:0:0:0:
256,192,521927,1,8,0:0:0:0:
256,192,521990,1,8,0:0:0:0:
256,192,522115,1,4,0:0:0:0:
256,192,523615,1,0,0:0:0:0:
256,192,523677,1,0,0:0:0:0:
256,192,523740,1,0,0:0:0:0:
256,192,523802,1,0,0:0:0:0:
256,192,523865,1,8,0:0:0:0:
256,192,523927,1,8,0:0:0:0:
256,192,523990,1,8,0:0:0:0:
256,192,524052,1,8,0:0:0:0:
256,192,524115,1,4,0:0:0:0:
256,192,524240,1,8,0:0:0:0:
256,192,524365,1,0,0:0:0:0:
256,192,524427,1,0,0:0:0:0:
256,192,524490,1,0,0:0:0:0:
256,192,524615,1,8,0:0:0:0:
256,192,524740,1,0,0:0:0:0:
256,192,524802,1,0,0:0:0:0:
256,192,524865,1,8,0:0:0:0:
256,192,524990,1,0,0:0:0:0:
256,192,525115,1,4,0:0:0:0:
256,192,525240,1,8,0:0:0:0:
256,192,525365,1,8,0:0:0:0:
256,192,525427,1,0,0:0:0:0:
256,192,525490,1,8,0:0:0:0:
256,192,525615,1,0,0:0:0:0:
256,192,525677,1,0,0:0:0:0:
256,192,525740,1,8,0:0:0:0:
256,192,525802,1,8,0:0:0:0:
256,192,525865,1,0,0:0:0:0:
256,192,525990,1,0,0:0:0:0:
256,192,526115,1,12,0:0:0:0:
256,192,526240,1,8,0:0:0:0:
256,192,526302,1,8,0:0:0:0:
256,192,526365,1,0,0:0:0:0:
256,192,526490,1,8,0:0:0:0:
256,192,526615,1,8,0:0:0:0:
256,192,526677,1,8,0:0:0:0:
256,192,526740,1,0,0:0:0:0:
256,192,526865,1,0,0:0:0:0:
256,192,526990,1,8,0:0:0:0:
256,192,527115,1,4,0:0:0:0:
256,192,527240,1,8,0:0:0:0:
256,192,527302,1,8,0:0:0:0:
256,192,527365,1,0,0:0:0:0:
256,192,527490,1,8,0:0:0:0:
256,192,527615,1,0,0:0:0:0:
256,192,527677,1,0,0:0:0:0:
256,192,527740,1,8,0:0:0:0:
256,192,527802,1,8,0:0:0:0:
256,192,527865,1,0,0:0:0:0:
256,192,527990,1,0,0:0:0:0:
256,192,528115,1,12,0:0:0:0:
256,192,528240,1,8,0:0:0:0:
256,192,528302,1,8,0:0:0:0:
256,192,528365,1,0,0:0:0:0:
256,192,528490,1,8,0:0:0:0:
256,192,528615,1,0,0:0:0:0:
256,192,528677,1,0,0:0:0:0:
256,192,528740,1,0,0:0:0:0:
256,192,528802,1,0,0:0:0:0:
256,192,528865,1,8,0:0:0:0:
256,192,528990,1,8,0:0:0:0:
256,192,529115,1,4,0:0:0:0:
256,192,529240,1,0,0:0:0:0:
256,192,529302,1,0,0:0:0:0:
256,192,529365,1,8,0:0:0:0:
256,192,529490,1,8,0:0:0:0:
256,192,529615,1,0,0:0:0:0:
256,192,529740,1,0,0:0:0:0:
256,192,529802,1,0,0:0:0:0:
256,192,529865,1,8,0:0:0:0:
256,192,529927,1,0,0:0:0:0:
256,192,529990,1,0,0:0:0:0:
256,192,530115,1,12,0:0:0:0:
256,192,530240,1,0,0:0:0:0:
256,192,530302,1,8,0:0:0:0:
256,192,530365,1,0,0:0:0:0:
256,192,530490,1,0,0:0:0:0:
256,192,530552,1,0,0:0:0:0:
256,192,530615,1,8,0:0:0:0:
256,192,530677,1,0,0:0:0:0:
256,192,530740,1,8,0:0:0:0:
256,192,530865,1,0,0:0:0:0:
256,192,530990,1,8,0:0:0:0:
256,192,531115,1,12,0:0:0:0:
256,192,531240,1,0,0:0:0:0:
256,192,531302,1,0,0:0:0:0:
256,192,531365,1,8,0:0:0:0:
256,192,531427,1,0,0:0:0:0:
256,192,531490,1,0,0:0:0:0:
256,192,531552,1,0,0:0:0:0:
256,192,531615,1,8,0:0:0:0:
256,192,531677,1,0,0:0:0:0:
256,192,531740,1,8,0:0:0:0:
256,192,531802,1,0,0:0:0:0:
256,192,531865,1,8,0:0:0:0:
256,192,531927,1,0,0:0:0:0:
256,192,531990,1,8,0:0:0:0:
256,192,532052,1,8,0:0:0:0:
256,192,532115,1,4,0:0:0:0:
256,192,532240,1,8,0:0:0:0:
256,192,532365,1,0,0:0:0:0:
256,192,532427,1,0,0:0:0:0:
256,192,532490,1,0,0:0:0:0:
256,192,532615,1,8,0:0:0:0:
256,192,532740,1,0,0:0:0:0:
256,192,532802,1,0,0:0:0:0:
256,192,532865,1,8,0:0:0:0:
256,192,532990,1,0,0:0:0:0:
256,192,533115,1,4,0:0:0:0:
256,192,533240,1,8,0:0:0:0:
256,192,533302,1,8,0:0:0:0:
256,192,533365,1,0,0:0:0:0:
256,192,533490,1,8,0:0:0:0:
256,192,533615,1,0,0:0:0:0:
256,192,533677,1,0,0:0:0:0:
256,192,533740,1,8,0:0:0:0:
256,192,533802,1,8,0:0:0:0:
256,192,533865,1,0,0:0:0:0:
256,192,533990,1,0,0:0:0:0:
256,192,534115,1,12,0:0:0:0:
256,192,534240,1,0,0:0:0:0:
256,192,534302,1,0,0:0:0:0:
256,192,534365,1,8,0:0:0:0:
256,192,534490,1,8,0:0:0:0:
256,192,534552,1,0,0:0:0:0:
256,192,534615,1,8,0:0:0:0:
256,192,534677,1,8,0:0:0:0:
256,192,534740,1,0,0:0:0:0:
256,192,534865,1,0,0:0:0:0:
256,192,534990,1,8,0:0:0:0:
256,192,535115,1,4,0:0:0:0:
256,192,535240,1,8,0:0:0:0:
256,192,535302,1,8,0:0:0:0:
256,192,535365,1,0,0:0:0:0:
256,192,535490,1,8,0:0:0:0:
256,192,535615,1,0,0:0:0:0:
256,192,535677,1,0,0:0:0:0:
256,192,535740,1,8,0:0:0:0:
256,192,535802,1,8,0:0:0:0:
256,192,535865,1,0,0:0:0:0:
256,192,535990,1,0,0:0:0:0:
256,192,536115,1,12,0:0:0:0:
256,192,536240,1,8,0:0:0:0:
256,192,536302,1,8,0:0:0:0:
256,192,536365,1,0,0:0:0:0:
256,192,536490,1,8,0:0:0:0:
256,192,536615,1,0,0:0:0:0:
256,192,536740,1,0,0:0:0:0:
256,192,536802,1,8,0:0:0:0:
256,192,536865,1,0,0:0:0:0:
256,192,536990,1,8,0:0:0:0:
256,192,537115,1,4,0:0:0:0:
256,192,537240,1,0,0:0:0:0:
256,192,537302,1,0,0:0:0:0:
256,192,537365,1,8,0:0:0:0:
256,192,537490,1,8,0:0:0:0:
256,192,537615,1,0,0:0:0:0:
256,192,537740,1,0,0:0:0:0:
256,192,537802,1,0,0:0:0:0:
256,192,537865,1,8,0:0:0:0:
256,192,537927,1,0,0:0:0:0:
256,192,537990,1,0,0:0:0:0:
256,192,538115,1,12,0:0:0:0:
256,192,538240,1,0,0:0:0:0:
256,192,538302,1,8,0:0:0:0:
256,192,538365,1,0,0:0:0:0:
256,192,538490,1,0,0:0:0:0:
256,192,538552,1,0,0:0:0:0:
256,192,538615,1,8,0:0:0:0:
256,192,538677,1,0,0:0:0:0:
256,192,538740,1,8,0:0:0:0:
256,192,538865,1,0,0:0:0:0:
256,192,538990,1,8,0:0:0:0:
256,192,539115,1,12,0:0:0:0:
256,192,539240,1,0,0:0:0:0:
256,192,539302,1,0,0:0:0:0:
256,192,539365,1,8,0:0:0:0:
256,192,539427,1,0,0:0:0:0:
256,192,539490,1,0,0:0:0:0:
256,192,539552,1,0,0:0:0:0:
256,192,539615,1,8,0:0:0:0:
256,192,539677,1,0,0:0:0:0:
256,192,539740,1,8,0:0:0:0:
256,192,539802,1,0,0:0:0:0:
256,192,539865,1,8,0:0:0:0:
256,192,539927,1,8,0:0:0:0:
256,192,539990,1,0,0:0:0:0:
256,192,540115,1,12,0:0:0:0:
256,192,540240,1,0,0:0:0:0:
256,192,540302,1,8,0:0:0:0:
256,192,540365,1,0,0:0:0:0:
256,192,540490,1,0,0:0:0:0:
256,192,540552,1,0,0:0:0:0:
256,192,540615,1,8,0:0:0:0:
256,192,540740,1,0,0:0:0:0:
256,192,540865,1,8,0:0:0:0:
256,192,540927,1,8,0:0:0:0:
256,192,540990,1,0,0:0:0:0:
256,192,541115,1,12,0:0:0:0:
256,192,541240,1,0,0:0:0:0:
256,192,541302,1,0,0:0:0:0:
256,192,541365,1,8,0:0:0:0:
256,192,541490,1,0,0:0:0:0:
256,192,541552,1,0,0:0:0:0:
256,192,541615,1,8,0:0:0:0:
256,192,541677,1,8,0:0:0:0:
256,192,541740,1,0,0:0:0:0:
256,192,541802,1,0,0:0:0:0:
256,192,541865,1,8,0:0:0:0:
256,192,541927,1,8,0:0:0:0:
256,192,541990,1,8,0:0:0:0:
256,192,542052,1,8,0:0:0:0:
256,192,542115,1,4,0:0:0:0:
256,192,543615,1,0,0:0:0:0:
256,192,543677,1,0,0:0:0:0:
256,192,543740,1,0,0:0:0:0:
256,192,543802,1,0,0:0:0:0:
256,192,543865,1,8,0:0:0:0:
256,192,543927,1,8,0:0:0:0:
256,192,543990,1,0,0:0:0:0:
256,192,544052,1,0,0:0:0:0:
256,192,544115,1,12,0:0:0:0:
256,192,544240,1,0,0:0:0:0:
256,192,544302,1,0,0:0:0:0:
256,192,544365,1,0,0:0:0:0:
256,192,544490,1,8,0:0:0:0:
256,192,544615,1,0,0:0:0:0:
256,192,544677,1,0,0:0:0:0:
256,192,544740,1,8,0:0:0:0:
256,192,544802,1,8,0:0:0:0:
256,192,544865,1,0,0:0:0:0:
256,192,544990,1,0,0:0:0:0:
256,192,545115,1,8,0:0:0:0:
256,192,545240,1,0,0:0:0:0:
256,192,545302,1,0,0:0:0:0:
256,192,545365,1,0,0:0:0:0:
256,192,545490,1,8,0:0:0:0:
256,192,545615,1,0,0:0:0:0:
256,192,545677,1,0,0:0:0:0:
256,192,545740,1,0,0:0:0:0:
256,192,545865,1,8,0:0:0:0:
256,192,545990,1,0,0:0:0:0:
256,192,546115,1,12,0:0:0:0:
256,192,546240,1,0,0:0:0:0:
256,192,546302,1,0,0:0:0:0:
256,192,546365,1,0,0:0:0:0:
256,192,546490,1,8,0:0:0:0:
256,192,546615,1,0,0:0:0:0:
256,192,546677,1,0,0:0:0:0:
256,192,546740,1,0,0:0:0:0:
256,192,546865,1,8,0:0:0:0:
256,192,546927,1,8,0:0:0:0:
256,192,546990,1,0,0:0:0:0:
256,192,547052,1,0,0:0:0:0:
256,192,547115,1,8,0:0:0:0:
256,192,547240,1,0,0:0:0:0:
256,192,547365,1,8,0:0:0:0:
256,192,547490,1,0,0:0:0:0:
256,192,547552,1,0,0:0:0:0:
256,192,547615,1,0,0:0:0:0:
256,192,547677,1,0,0:0:0:0:
256,192,547740,1,8,0:0:0:0:
256,192,547802,1,8,0:0:0:0:
256,192,547865,1,8,0:0:0:0:
256,192,547927,1,8,0:0:0:0:
256,192,547990,1,0,0:0:0:0:
256,192,548115,1,12,0:0:0:0:
256,192,548240,1,0,0:0:0:0:
256,192,548302,1,8,0:0:0:0:
256,192,548365,1,0,0:0:0:0:
256,192,548490,1,8,0:0:0:0:
256,192,548615,1,0,0:0:0:0:
256,192,548677,1,0,0:0:0:0:
256,192,548740,1,8,0:0:0:0:
256,192,548802,1,8,0:0:0:0:
256,192,548865,1,0,0:0:0:0:
256,192,548990,1,0,0:0:0:0:
256,192,549115,1,8,0:0:0:0:
256,192,549240,1,0,0:0:0:0:
256,192,549302,1,0,0:0:0:0:
256,192,549365,1,8,0:0:0:0:
256,192,549490,1,8,0:0:0:0:
256,192,549615,1,0,0:0:0:0:
256,192,549677,1,0,0:0:0:0:
256,192,549740,1,8,0:0:0:0:
256,192,549865,1,8,0:0:0:0:
256,192,549990,1,0,0:0:0:0:
256,192,550115,1,12,0:0:0:0:
256,192,550240,1,0,0:0:0:0:
256,192,550302,1,0,0:0:0:0:
256,192,550365,1,0,0:0:0:0:
256,192,550490,1,8,0:0:0:0:
256,192,550615,1,0,0:0:0:0:
256,192,550677,1,0,0:0:0:0:
256,192,550740,1,0,0:0:0:0:
256,192,550865,1,8,0:0:0:0:
256,192,550927,1,8,0:0:0:0:
256,192,550990,1,0,0:0:0:0:
256,192,551115,1,12,0:0:0:0:
256,192,551240,1,0,0:0:0:0:
256,192,551365,1,8,0:0:0:0:
256,192,551490,1,0,0:0:0:0:
256,192,551615,1,12,0:0:0:0:
256,192,551740,1,8,0:0:0:0:
256,192,551802,1,8,0:0:0:0:
256,192,551865,1,8,0:0:0:0:
256,192,551927,1,8,0:0:0:0:
256,192,551990,1,0,0:0:0:0:
256,192,552115,1,12,0:0:0:0:
256,192,552240,1,0,0:0:0:0:
256,192,552302,1,0,0:0:0:0:
256,192,552365,1,8,0:0:0:0:
256,192,552427,1,8,0:0:0:0:
256,192,552490,1,0,0:0:0:0:
256,192,552615,1,8,0:0:0:0:
256,192,552677,1,8,0:0:0:0:
256,192,552740,1,0,0:0:0:0:
256,192,552865,1,0,0:0:0:0:
256,192,552927,1,8,0:0:0:0:
256,192,552990,1,0,0:0:0:0:
256,192,553115,1,8,0:0:0:0:
256,192,553240,1,8,0:0:0:0:
256,192,553302,1,0,0:0:0:0:
256,192,553365,1,8,0:0:0:0:
256,192,553490,1,0,0:0:0:0:
256,192,553615,1,0,0:0:0:0:
256,192,553677,1,0,0:0:0:0:
256,192,553740,1,8,0:0:0:0:
256,192,553865,1,0,0:0:0:0:
256,192,553927,1,8,0:0:0:0:
256,192,553990,1,0,0:0:0:0:
256,192,554115,1,12,0:0:0:0:
256,192,554240,1,8,0:0:0:0:
256,192,554302,1,0,0:0:0:0:
256,192,554365,1,8,0:0:0:0:
256,192,554427,1,8,0:0:0:0:
256,192,554490,1,0,0:0:0:0:
256,192,554615,1,8,0:0:0:0:
256,192,554677,1,8,0:0:0:0:
256,192,554740,1,0,0:0:0:0:
256,192,554802,1,8,0:0:0:0:
256,192,554865,1,0,0:0:0:0:
256,192,554990,1,0,0:0:0:0:
256,192,555115,1,8,0:0:0:0:
256,192,555240,1,0,0:0:0:0:
256,192,555302,1,0,0:0:0:0:
256,192,555365,1,8,0:0:0:0:
256,192,555427,1,8,0:0:0:0:
256,192,555490,1,0,0:0:0:0:
256,192,555615,1,8,0:0:0:0:
256,192,555740,1,0,0:0:0:0:
256,192,555802,1,0,0:0:0:0:
256,192,555865,1,8,0:0:0:0:
256,192,555927,1,0,0:0:0:0:
256,192,555990,1,0,0:0:0:0:
256,192,556115,1,12,0:0:0:0:
256,192,556240,1,0,0:0:0:0:
256,192,556302,1,0,0:0:0:0:
256,192,556365,1,8,0:0:0:0:
256,192,556427,1,0,0:0:0:0:
256,192,556490,1,0,0:0:0:0:
256,192,556615,1,8,0:0:0:0:
256,192,556677,1,8,0:0:0:0:
256,192,556740,1,0,0:0:0:0:
256,192,556865,1,0,0:0:0:0:
256,192,556927,1,0,0:0:0:0:
256,192,556990,1,0,0:0:0:0:
256,192,557115,1,8,0:0:0:0:
256,192,557240,1,0,0:0:0:0:
256,192,557302,1,0,0:0:0:0:
256,192,557365,1,8,0:0:0:0:
256,192,557490,1,0,0:0:0:0:
256,192,557615,1,8,0:0:0:0:
256,192,557677,1,8,0:0:0:0:
256,192,557740,1,0,0:0:0:0:
256,192,557865,1,0,0:0:0:0:
256,192,557927,1,0,0:0:0:0:
256,192,557990,1,0,0:0:0:0:
256,192,558115,1,12,0:0:0:0:
256,192,558240,1,8,0:0:0:0:
256,192,558302,1,0,0:0:0:0:
256,192,558365,1,8,0:0:0:0:
256,192,558490,1,0,0:0:0:0:
256,192,558552,1,8,0:0:0:0:
256,192,558615,1,8,0:0:0:0:
256,192,558677,1,8,0:0:0:0:
256,192,558740,1,0,0:0:0:0:
256,192,558865,1,0,0:0:0:0:
256,192,558927,1,8,0:0:0:0:
256,192,558990,1,0,0:0:0:0:
256,192,559115,1,12,0:0:0:0:
256,192,559240,1,0,0:0:0:0:
256,192,559302,1,0,0:0:0:0:
256,192,559365,1,8,0:0:0:0:
256,192,559490,1,0,0:0:0:0:
256,192,559615,1,12,0:0:0:0:
256,192,559740,1,0,0:0:0:0:
256,192,559802,1,0,0:0:0:0:
256,192,559865,1,8,0:0:0:0:
256,192,559927,1,8,0:0:0:0:
256,192,559990,1,0,0:0:0:0:
256,192,560115,1,12,0:0:0:0:
256,192,560240,1,0,0:0:0:0:
256,192,560302,1,0,0:0:0:0:
256,192,560365,1,8,0:0:0:0:
256,192,560490,1,8,0:0:0:0:
256,192,560615,1,4,0:0:0:0:
256,192,560740,1,0,0:0:0:0:
256,192,560802,1,0,0:0:0:0:
256,192,560865,1,8,0:0:0:0:
256,192,560990,1,0,0:0:0:0:
256,192,561115,1,12,0:0:0:0:
256,192,561240,1,0,0:0:0:0:
256,192,561302,1,0,0:0:0:0:
256,192,561365,1,8,0:0:0:0:
256,192,561490,1,8,0:0:0:0:
256,192,561615,1,4,0:0:0:0:
256,192,561740,1,0,0:0:0:0:
256,192,561802,1,0,0:0:0:0:
256,192,561865,1,8,0:0:0:0:
256,192,561990,1,0,0:0:0:0:
256,192,562115,1,12,0:0:0:0:
256,192,562240,1,0,0:0:0:0:
256,192,562302,1,0,0:0:0:0:
256,192,562365,1,8,0:0:0:0:
256,192,562490,1,8,0:0:0:0:
256,192,562615,1,0,0:0:0:0:
256,192,562677,1,0,0:0:0:0:
256,192,562740,1,8,0:0:0:0:
256,192,562802,1,8,0:0:0:0:
256,192,562865,1,0,0:0:0:0:
256,192,562927,1,0,0:0:0:0:
256,192,562990,1,0,0:0:0:0:
256,192,563052,1,0,0:0:0:0:
256,192,563115,1,12,0:0:0:0:
256,192,563240,8,0,564990,0:0:0:0:
256,192,565115,5,8,0:0:0:0:
256,192,565240,1,8,0:0:0:0:
256,192,565490,1,8,0:0:0:0:
256,192,565615,1,8,0:0:0:0:
256,192,565865,1,8,0:0:0:0:
256,192,565990,1,8,0:0:0:0:
256,192,566115,1,8,0:0:0:0:
256,192,566365,1,0,0:0:0:0:
256,192,566615,1,12,0:0:0:0:
256,192,566865,1,0,0:0:0:0:
256,192,567115,1,0,0:0:0:0:
256,192,567365,1,12,0:0:0:0:
256,192,567615,1,0,0:0:0:0:
256,192,567865,1,0,0:0:0:0:
256,192,568115,1,12,0:0:0:0:
256,192,568490,1,0,0:0:0:0:
256,192,568740,1,0,0:0:0:0:
256,192,568865,1,12,0:0:0:0:
256,192,569365,1,0,0:0:0:0:
256,192,569615,1,0,0:0:0:0:
256,192,569740,1,0,0:0:0:0:
256,192,569865,1,8,0:0:0:0:
256,192,569990,1,0,0:0:0:0:
256,192,570115,1,8,0:0:0:0:
256,192,570240,1,0,0:0:0:0:
256,192,570365,1,8,0:0:0:0:
256,192,570490,1,0,0:0:0:0:
256,192,570615,1,0,0:0:0:0:
256,192,570740,1,0,0:0:0:0:
256,192,570865,1,0,0:0:0:0:
256,192,570990,1,0,0:0:0:0:
256,192,571115,1,8,0:0:0:0:
256,192,571240,1,0,0:0:0:0:
256,192,571365,1,8,0:0:0:0:
256,192,571490,1,0,0:0:0:0:
256,192,571615,1,8,0:0:0:0:
256,192,571740,1,0,0:0:0:0:
256,192,571865,1,8,0:0:0:0:
256,192,571990,1,8,0:0:0:0:
256,192,572115,1,0,0:0:0:0:
256,192,572240,1,0,0:0:0:0:
256,192,572365,1,0,0:0:0:0:
256,192,572490,1,0,0:0:0:0:
256,192,572615,1,12,0:0:0:0:
256,192,572740,1,0,0:0:0:0:
256,192,572802,1,0,0:0:0:0:
256,192,572865,1,8,0:0:0:0:
256,192,572990,1,0,0:0:0:0:
256,192,573115,1,8,0:0:0:0:
256,192,573177,1,8,0:0:0:0:
256,192,573240,1,0,0:0:0:0:
256,192,573365,1,12,0:0:0:0:
256,192,573490,1,0,0:0:0:0:
256,192,573552,1,0,0:0:0:0:
256,192,573615,1,8,0:0:0:0:
256,192,573740,1,0,0:0:0:0:
256,192,573865,1,0,0:0:0:0:
256,192,573927,1,0,0:0:0:0:
256,192,573990,1,0,0:0:0:0:
256,192,574115,1,12,0:0:0:0:
256,192,574240,1,0,0:0:0:0:
256,192,574302,1,0,0:0:0:0:
256,192,574365,1,0,0:0:0:0:
256,192,574490,1,8,0:0:0:0:
256,192,574615,1,8,0:0:0:0:
256,192,574677,1,8,0:0:0:0:
256,192,574740,1,0,0:0:0:0:
256,192,574865,1,12,0:0:0:0:
256,192,574990,1,0,0:0:0:0:
256,192,575052,1,0,0:0:0:0:
256,192,575115,1,0,0:0:0:0:
256,192,575240,1,8,0:0:0:0:
256,192,575365,1,8,0:0:0:0:
256,192,575427,1,0,0:0:0:0:
256,192,575490,1,8,0:0:0:0:
256,192,575615,1,12,0:0:0:0:
256,192,575740,1,8,0:0:0:0:
256,192,575802,1,0,0:0:0:0:
256,192,575865,1,8,0:0:0:0:
256,192,575990,1,8,0:0:0:0:
256,192,576115,1,0,0:0:0:0:
256,192,576177,1,0,0:0:0:0:
256,192,576240,1,8,0:0:0:0:
256,192,576365,1,12,0:0:0:0:
256,192,576490,1,0,0:0:0:0:
256,192,576552,1,0,0:0:0:0:
256,192,576615,1,8,0:0:0:0:
256,192,576740,1,8,0:0:0:0:
256,192,576865,1,0,0:0:0:0:
256,192,576927,1,8,0:0:0:0:
256,192,576990,1,8,0:0:0:0:
256,192,577115,1,12,0:0:0:0:
256,192,577240,1,0,0:0:0:0:
256,192,577302,1,0,0:0:0:0:
256,192,577365,1,0,0:0:0:0:
256,192,577490,1,8,0:0:0:0:
256,192,577615,1,8,0:0:0:0:
256,192,577677,1,0,0:0:0:0:
256,192,577740,1,8,0:0:0:0:
256,192,577865,1,12,0:0:0:0:
256,192,578115,1,0,0:0:0:0:
256,192,578240,1,0,0:0:0:0:
256,192,578302,1,0,0:0:0:0:
256,192,578365,1,0,0:0:0:0:
256,192,578490,1,0,0:0:0:0:
256,192,578615,1,12,0:0:0:0:
256,192,578740,1,0,0:0:0:0:
256,192,578865,1,0,0:0:0:0:
256,192,578927,1,0,0:0:0:0:
256,192,578990,1,8,0:0:0:0:
256,192,579115,1,0,0:0:0:0:
256,192,579240,1,8,0:0:0:0:
256,192,579365,1,4,0:0:0:0:
256,192,579490,1,8,0:0:0:0:
256,192,579552,1,8,0:0:0:0:
256,192,579615,1,8,0:0:0:0:
256,192,579740,1,0,0:0:0:0:
256,192,579865,1,8,0:0:0:0:
256,192,579927,1,8,0:0:0:0:
256,192,579990,1,0,0:0:0:0:
256,192,580115,1,12,0:0:0:0:
256,192,580240,1,0,0:0:0:0:
256,192,580302,1,0,0:0:0:0:
256,192,580365,1,8,0:0:0:0:
256,192,580490,1,0,0:0:0:0:
256,192,580552,1,0,0:0:0:0:
256,192,580615,1,0,0:0:0:0:
256,192,580740,1,8,0:0:0:0:
256,192,580865,1,12,0:0:0:0:
256,192,580990,1,8,0:0:0:0:
256,192,581115,1,0,0:0:0:0:
256,192,581177,1,0,0:0:0:0:
256,192,581240,1,8,0:0:0:0:
256,192,581302,1,8,0:0:0:0:
256,192,581365,1,0,0:0:0:0:
256,192,581490,1,0,0:0:0:0:
256,192,581615,1,12,0:0:0:0:
256,192,581740,1,0,0:0:0:0:
256,192,581802,1,0,0:0:0:0:
256,192,581865,1,8,0:0:0:0:
256,192,581990,1,0,0:0:0:0:
256,192,582115,1,8,0:0:0:0:
256,192,582177,1,8,0:0:0:0:
256,192,582240,1,0,0:0:0:0:
256,192,582365,1,12,0:0:0:0:
256,192,582490,1,0,0:0:0:0:
256,192,582552,1,0,0:0:0:0:
256,192,582615,1,8,0:0:0:0:
256,192,582740,1,0,0:0:0:0:
256,192,582865,1,0,0:0:0:0:
256,192,582927,1,0,0:0:0:0:
256,192,582990,1,0,0:0:0:0:
256,192,583115,1,12,0:0:0:0:
256,192,583240,1,0,0:0:0:0:
256,192,583302,1,0,0:0:0:0:
256,192,583365,1,0,0:0:0:0:
256,192,583490,1,8,0:0:0:0:
256,192,583615,1,8,0:0:0:0:
256,192,583677,1,8,0:0:0:0:
256,192,583740,1,0,0:0:0:0:
256,192,583865,1,12,0:0:0:0:
256,192,583990,1,0,0:0:0:0:
256,192,584052,1,0,0:0:0:0:
256,192,584115,1,8,0:0:0:0:
256,192,584177,1,0,0:0:0:0:
256,192,584240,1,8,0:0:0:0:
256,192,584302,1,8,0:0:0:0:
256,192,584365,1,0,0:0:0:0:
256,192,584427,1,0,0:0:0:0:
256,192,584490,1,0,0:0:0:0:
256,192,584552,1,0,0:0:0:0:
256,192,584615,1,12,0:0:0:0:
256,192,584745,8,0,586495,0:0:0:0:
256,192,586620,5,4,0:0:0:0:
256,192,587620,1,12,0:0:0:0:
256,192,587745,1,0,0:0:0:0:
256,192,587870,1,0,0:0:0:0:
256,192,587995,1,0,0:0:0:0:
256,192,588120,1,12,0:0:0:0:
256,192,588245,1,0,0:0:0:0:
256,192,588370,1,0,0:0:0:0:
256,192,588495,1,8,0:0:0:0:
256,192,588620,1,12,0:0:0:0:
256,192,588995,1,0,0:0:0:0:
256,192,589245,1,0,0:0:0:0:
256,192,589370,1,0,0:0:0:0:
256,192,589495,1,0,0:0:0:0:
256,192,589620,1,12,0:0:0:0:
256,192,589745,1,0,0:0:0:0:
256,192,589870,1,0,0:0:0:0:
256,192,589995,1,0,0:0:0:0:
256,192,590120,1,12,0:0:0:0:
256,192,590245,1,8,0:0:0:0:
256,192,590370,1,8,0:0:0:0:
256,192,590495,1,0,0:0:0:0:
256,192,590620,1,12,0:0:0:0:
256,192,590745,1,0,0:0:0:0:
256,192,590870,1,0,0:0:0:0:
256,192,590932,1,0,0:0:0:0:
256,192,590995,1,8,0:0:0:0:
256,192,591057,1,0,0:0:0:0:
256,192,591120,1,8,0:0:0:0:
256,192,591182,1,0,0:0:0:0:
256,192,591245,1,8,0:0:0:0:
256,192,591307,1,8,0:0:0:0:
256,192,591370,1,0,0:0:0:0:
256,192,591432,1,0,0:0:0:0:
256,192,591495,1,0,0:0:0:0:
256,192,591557,1,0,0:0:0:0:
256,192,591620,1,8,0:0:0:0:
256,192,591682,1,0,0:0:0:0:
256,192,591744,1,8,0:0:0:0:
256,192,591807,1,8,0:0:0:0:
256,192,591869,1,0,0:0:0:0:
256,192,591932,1,0,0:0:0:0:
256,192,591995,1,8,0:0:0:0:
256,192,592057,1,0,0:0:0:0:
256,192,592120,1,8,0:0:0:0:
256,192,592182,1,0,0:0:0:0:
256,192,592245,1,8,0:0:0:0:
256,192,592307,1,8,0:0:0:0:
256,192,592369,1,0,0:0:0:0:
256,192,592432,1,0,0:0:0:0:
256,192,592494,1,8,0:0:0:0:
256,192,592557,1,8,0:0:0:0:
256,192,592620,1,4,0:0:0:0:
256,192,592745,1,0,0:0:0:0:
256,192,592807,1,0,0:0:0:0:
256,192,592870,1,8,0:0:0:0:
256,192,592995,1,0,0:0:0:0:
256,192,593120,1,8,0:0:0:0:
256,192,593182,1,8,0:0:0:0:
256,192,593245,1,0,0:0:0:0:
256,192,593307,1,0,0:0:0:0:
256,192,593370,1,8,0:0:0:0:
256,192,593495,1,0,0:0:0:0:
256,192,593620,1,12,0:0:0:0:
256,192,593745,1,0,0:0:0:0:
256,192,593807,1,8,0:0:0:0:
256,192,593870,1,0,0:0:0:0:
256,192,593932,1,0,0:0:0:0:
256,192,593995,1,8,0:0:0:0:
256,192,594120,1,0,0:0:0:0:
256,192,594182,1,0,0:0:0:0:
256,192,594245,1,0,0:0:0:0:
256,192,594370,1,8,0:0:0:0:
256,192,594432,1,8,0:0:0:0:
256,192,594495,1,0,0:0:0:0:
256,192,594620,1,12,0:0:0:0:
256,192,594745,1,0,0:0:0:0:
256,192,594807,1,0,0:0:0:0:
256,192,594870,1,8,0:0:0:0:
256,192,594995,1,8,0:0:0:0:
256,192,595120,1,0,0:0:0:0:
256,192,595182,1,0,0:0:0:0:
256,192,595245,1,8,0:0:0:0:
256,192,595307,1,8,0:0:0:0:
256,192,595370,1,0,0:0:0:0:
256,192,595495,1,0,0:0:0:0:
256,192,595620,1,12,0:0:0:0:
256,192,595745,1,0,0:0:0:0:
256,192,595807,1,8,0:0:0:0:
256,192,595870,1,0,0:0:0:0:
256,192,595995,1,8,0:0:0:0:
256,192,596057,1,0,0:0:0:0:
256,192,596120,1,8,0:0:0:0:
256,192,596245,1,8,0:0:0:0:
256,192,596307,1,0,0:0:0:0:
256,192,596370,1,8,0:0:0:0:
256,192,596432,1,8,0:0:0:0:
256,192,596495,1,0,0:0:0:0:
256,192,596620,1,12,0:0:0:0:
256,192,596745,1,0,0:0:0:0:
256,192,596807,1,0,0:0:0:0:
256,192,596870,1,8,0:0:0:0:
256,192,596995,1,0,0:0:0:0:
256,192,597057,1,0,0:0:0:0:
256,192,597120,1,0,0:0:0:0:
256,192,597245,1,8,0:0:0:0:
256,192,597370,1,0,0:0:0:0:
256,192,597432,1,8,0:0:0:0:
256,192,597495,1,0,0:0:0:0:
256,192,597620,1,12,0:0:0:0:
256,192,597745,1,0,0:0:0:0:
256,192,597807,1,0,0:0:0:0:
256,192,597870,1,8,0:0:0:0:
256,192,597995,1,8,0:0:0:0:
256,192,598057,1,8,0:0:0:0:
256,192,598120,1,0,0:0:0:0:
256,192,598245,1,0,0:0:0:0:
256,192,598370,1,0,0:0:0:0:
256,192,598432,1,8,0:0:0:0:
256,192,598495,1,0,0:0:0:0:
256,192,598620,1,4,0:0:0:0:
256,192,598745,1,8,0:0:0:0:
256,192,598807,1,8,0:0:0:0:
256,192,598870,1,0,0:0:0:0:
256,192,598995,1,8,0:0:0:0:
256,192,599120,1,0,0:0:0:0:
256,192,599182,1,0,0:0:0:0:
256,192,599245,1,8,0:0:0:0:
256,192,599307,1,0,0:0:0:0:
256,192,599370,1,8,0:0:0:0:
256,192,599495,1,8,0:0:0:0:
256,192,599620,1,8,0:0:0:0:
256,192,599682,1,8,0:0:0:0:
256,192,599745,1,0,0:0:0:0:
256,192,599807,1,0,0:0:0:0:
256,192,599870,1,8,0:0:0:0:
256,192,599932,1,0,0:0:0:0:
256,192,599995,1,0,0:0:0:0:
256,192,600057,1,0,0:0:0:0:
256,192,600120,1,8,0:0:0:0:
256,192,600182,1,0,0:0:0:0:
256,192,600245,1,8,0:0:0:0:
256,192,600307,1,0,0:0:0:0:
256,192,600370,1,8,0:0:0:0:
256,192,600432,1,8,0:0:0:0:
256,192,600495,1,0,0:0:0:0:
256,192,600557,1,0,0:0:0:0:
256,192,600620,1,12,0:0:0:0:
256,192,600745,1,0,0:0:0:0:
256,192,600807,1,0,0:0:0:0:
256,192,600870,1,8,0:0:0:0:
256,192,600995,1,0,0:0:0:0:
256,192,601057,1,0,0:0:0:0:
256,192,601120,1,8,0:0:0:0:
256,192,601182,1,0,0:0:0:0:
256,192,601245,1,0,0:0:0:0:
256,192,601307,1,0,0:0:0:0:
256,192,601370,1,8,0:0:0:0:
256,192,601495,1,0,0:0:0:0:
256,192,601620,1,12,0:0:0:0:
256,192,601745,1,0,0:0:0:0:
256,192,601807,1,8,0:0:0:0:
256,192,601870,1,8,0:0:0:0:
272,192,601995,1,8,0:0:0:0:
256,192,602120,1,8,0:0:0:0:
256,192,602182,1,8,0:0:0:0:
256,192,602245,1,0,0:0:0:0:
256,192,602307,1,8,0:0:0:0:
256,192,602370,1,0,0:0:0:0:
256,192,602432,1,8,0:0:0:0:
256,192,602495,1,0,0:0:0:0:
256,192,602620,1,12,0:0:0:0:
256,192,602745,1,0,0:0:0:0:
256,192,602807,1,0,0:0:0:0:
256,192,602870,1,8,0:0:0:0:
256,192,602995,1,0,0:0:0:0:
256,192,603057,1,8,0:0:0:0:
256,192,603120,1,0,0:0:0:0:
256,192,603245,1,0,0:0:0:0:
256,192,603307,1,0,0:0:0:0:
256,192,603370,1,8,0:0:0:0:
256,192,603432,1,0,0:0:0:0:
256,192,603495,1,8,0:0:0:0:
256,192,603620,1,12,0:0:0:0:
256,192,603745,1,0,0:0:0:0:
256,192,603807,1,0,0:0:0:0:
256,192,603870,1,8,0:0:0:0:
256,192,603932,1,8,0:0:0:0:
256,192,603995,1,0,0:0:0:0:
256,192,604057,1,0,0:0:0:0:
256,192,604120,1,8,0:0:0:0:
256,192,604245,1,8,0:0:0:0:
256,192,604307,1,0,0:0:0:0:
256,192,604370,1,8,0:0:0:0:
256,192,604432,1,8,0:0:0:0:
256,192,604495,1,0,0:0:0:0:
256,192,604620,1,12,0:0:0:0:
256,192,604745,1,0,0:0:0:0:
256,192,604807,1,0,0:0:0:0:
256,192,604870,1,8,0:0:0:0:
256,192,604995,1,0,0:0:0:0:
256,192,605057,1,8,0:0:0:0:
256,192,605120,1,8,0:0:0:0:
256,192,605182,1,8,0:0:0:0:
256,192,605245,1,0,0:0:0:0:
256,192,605370,1,0,0:0:0:0:
256,192,605432,1,8,0:0:0:0:
256,192,605495,1,0,0:0:0:0:
256,192,605620,1,4,0:0:0:0:
256,192,605745,1,0,0:0:0:0:
256,192,605807,1,8,0:0:0:0:
256,192,605870,1,0,0:0:0:0:
256,192,605932,1,8,0:0:0:0:
256,192,605995,1,0,0:0:0:0:
256,192,606057,1,0,0:0:0:0:
256,192,606120,1,8,0:0:0:0:
256,192,606245,1,0,0:0:0:0:
256,192,606307,1,0,0:0:0:0:
256,192,606370,1,8,0:0:0:0:
256,192,606495,1,0,0:0:0:0:
256,192,606620,1,12,0:0:0:0:
256,192,606745,1,8,0:0:0:0:
256,192,606807,1,0,0:0:0:0:
256,192,606870,1,8,0:0:0:0:
256,192,606995,1,0,0:0:0:0:
256,192,607057,1,8,0:0:0:0:
256,192,607120,1,0,0:0:0:0:
256,192,607182,1,0,0:0:0:0:
256,192,607245,1,8,0:0:0:0:
256,192,607307,1,8,0:0:0:0:
256,192,607370,1,0,0:0:0:0:
256,192,607495,1,0,0:0:0:0:
256,192,607620,1,12,0:0:0:0:
256,192,607745,1,0,0:0:0:0:
256,192,607807,1,8,0:0:0:0:
256,192,607870,1,0,0:0:0:0:
256,192,607995,1,0,0:0:0:0:
256,192,608120,1,12,0:0:0:0:
256,192,608245,1,0,0:0:0:0:
256,192,608307,1,8,0:0:0:0:
256,192,608370,1,0,0:0:0:0:
256,192,608495,1,0,0:0:0:0:
256,192,608620,1,12,0:0:0:0:
256,192,608745,1,0,0:0:0:0:
256,192,608807,1,0,0:0:0:0:
256,192,608870,1,8,0:0:0:0:
256,192,608995,1,0,0:0:0:0:
256,192,609120,1,12,0:0:0:0:
256,192,609245,1,8,0:0:0:0:
256,192,609307,1,0,0:0:0:0:
256,192,609370,1,8,0:0:0:0:
256,192,609495,1,0,0:0:0:0:
256,192,609620,1,12,0:0:0:0:
256,192,609745,1,0,0:0:0:0:
256,192,609807,1,0,0:0:0:0:
256,192,609870,1,8,0:0:0:0:
256,192,609995,1,8,0:0:0:0:
256,192,610120,1,12,0:0:0:0:
256,192,610245,1,0,0:0:0:0:
256,192,610307,1,8,0:0:0:0:
256,192,610370,1,0,0:0:0:0:
256,192,610432,1,0,0:0:0:0:
256,192,610495,1,8,0:0:0:0:
256,192,610620,1,12,0:0:0:0:
256,192,610745,1,0,0:0:0:0:
256,192,610807,1,0,0:0:0:0:
256,192,610870,1,0,0:0:0:0:
256,192,610995,1,0,0:0:0:0:
256,192,611120,1,12,0:0:0:0:
256,192,611245,1,0,0:0:0:0:
256,192,611307,1,8,0:0:0:0:
256,192,611370,1,8,0:0:0:0:
256,192,611495,1,8,0:0:0:0:
256,192,611620,1,4,0:0:0:0:
256,192,611745,1,0,0:0:0:0:
256,192,611807,1,8,0:0:0:0:
256,192,611870,1,0,0:0:0:0:
256,192,611932,1,0,0:0:0:0:
256,192,611995,1,8,0:0:0:0:
256,192,612120,1,4,0:0:0:0:
256,192,612245,1,0,0:0:0:0:
256,192,612307,1,0,0:0:0:0:
256,192,612370,1,0,0:0:0:0:
256,192,612432,1,0,0:0:0:0:
256,192,612495,1,0,0:0:0:0:
256,192,612557,1,0,0:0:0:0:
256,192,612620,1,12,0:0:0:0:
256,192,613483,1,8,0:0:0:0:
256,192,613635,1,8,0:0:0:0:
256,192,613989,1,0,0:0:0:0:
256,192,614292,1,0,0:0:0:0:
256,192,614464,1,0,0:0:0:0:
256,192,614636,1,0,0:0:0:0:
256,192,614833,1,12,0:0:0:0:
256,192,615522,1,0,0:0:0:0:
256,192,616128,1,0,0:0:0:0:
256,192,616431,1,0,0:0:0:0:
256,192,616768,1,8,0:0:0:0:
256,192,617162,1,0,0:0:0:0:
256,192,617630,8,0,625445,0:0:0:0:
256,192,625697,5,12,0:0:0:0:
256,192,626201,1,0,0:0:0:0:
256,192,626327,1,8,0:0:0:0:
256,192,626484,1,8,0:0:0:0:
256,192,626681,1,8,0:0:0:0:
