osu file format v14

[General]
AudioFilename: audio.mp3
AudioLeadIn: 0
PreviewTime: 232508
Countdown: 0
SampleSet: Normal
StackLeniency: 0.4
Mode: 0
LetterboxInBreaks: 0
EpilepsyWarning: 1
WidescreenStoryboard: 1

[Editor]
Bookmarks: 10808,31358,39608,49208,92408,102008,111608,121208,130808,140408,150008,158408,175208,212408,222008,231608,242408,252008,261608,271208,280808,290408,300008,309608,319208,328808,338408,348008,357608,367208,375608,386408,396008,405608,415208,424808,433208,446108,504108,524108,544108,565108,584608
DistanceSpacing: 0.5
BeatDivisor: 4
GridSize: 16
TimelineZoom: 2.5

[Metadata]
Title:osu!favourites
TitleUnicode:osu!favourites
Artist:SakiZ
ArtistUnicode:SakiZ
Creator:NotABox
Version:<3 2break
Source:
Tags:osufavourites osu favourites songs compilation cold green eyes senketsu no chikai kira days holdin' on skrillex nero remix dopamine tsubaki helix the pretender gold dust nippon egao hyakkei asymmetry miraizu kimi shiranai monogatari dark flight dreamer exit this earth's atmosphere odoru mizushibuki tower of heaven you are slaves mythologia's end kokuhaku rival sengen daidai genome rubik's cube zen zense now loading caffeine fighter arousing koi hime pettanko blade dance stella-rium sakura uta deconstruction star kikoku doukoku jigokuraku scarlet rose shukusai no elementalia remote control tengaku defenders inferno road resistance
BeatmapID:1926803
BeatmapSetID:922154

[Difficulty]
HPDrainRate:5
CircleSize:4.2
OverallDifficulty:9.3
ApproachRate:9.7
SliderMultiplier:2
SliderTickRate:1

[Events]
//Background and Video events
0,0,"fav.png",0,0
//Break Periods
2,212608,221513
2,425008,432713
//Storyboard Layer 0 (Background)
//Storyboard Layer 1 (Fail)
//Storyboard Layer 2 (Pass)
//Storyboard Layer 3 (Foreground)
//Storyboard Layer 4 (Overlay)
//Storyboard Sound Samples

[TimingPoints]
1208,300,4,2,1,25,1,0
20408,-166.666666666667,4,2,1,35,0,0
23708,-250,4,2,1,35,0,0
24158,-166.666666666667,4,2,1,35,0,0
27608,-250,4,2,1,35,0,0
27908,-166.666666666667,4,2,1,35,0,0
37208,-142.857142857143,4,2,1,35,0,0
39608,-100,4,1,1,65,0,0
39833,-100,4,1,1,5,0,0
39908,-100,4,1,1,65,0,0
41708,-133.333333333333,4,1,1,65,0,0
42758,-100,4,1,1,65,0,0
46058,-133.333333333333,4,1,1,65,0,0
46508,-100,4,1,1,65,0,0
48908,-74.0740740740741,4,1,1,65,0,0
49133,-117.647058823529,4,1,1,5,0,0
49208,-117.647058823529,4,1,1,65,0,0
58808,-111.111111111111,4,1,1,65,0,0
63608,-117.647058823529,4,1,1,65,0,0
67283,-117.647058823529,4,1,1,5,0,0
67358,-117.647058823529,4,1,1,65,0,0
72083,-117.647058823529,4,1,1,5,0,0
72158,-117.647058823529,4,1,1,65,0,0
73208,-111.111111111111,4,1,1,65,0,0
78008,-153.846153846154,4,1,1,50,0,0
83933,-153.846153846154,4,1,1,5,0,0
84008,-153.846153846154,4,1,1,50,0,0
85133,-153.846153846154,4,1,1,5,0,0
85208,-117.64705882353,4,1,1,65,0,0
87608,-105.263157894737,4,1,1,65,0,0
91208,-500,4,1,1,65,0,0
91358,-333.333333333333,4,1,1,65,0,0
91508,-250,4,1,1,65,0,0
91658,-200,4,1,1,65,0,0
91808,-166.666666666667,4,1,1,65,0,0
91958,-142.857142857143,4,1,1,65,0,0
92108,-125,4,1,1,65,0,0
92258,-111.111111111111,4,1,1,65,0,0
92408,-100,4,1,1,65,0,1
92633,-100,4,1,1,5,0,1
92708,-100,4,1,1,65,0,1
93008,-50,4,1,1,65,0,1
93833,-50,4,1,1,5,0,1
93908,-50,4,1,1,65,0,1
94283,-50,4,1,1,5,0,1
94358,-50,4,1,1,65,0,1
94508,-100,4,1,1,65,0,1
94808,-100,4,1,1,65,0,1
95033,-100,4,1,1,5,0,1
95108,-100,4,1,1,65,0,1
95408,-50,4,1,1,65,0,1
96158,-86.9565217391304,4,1,1,65,0,1
96683,-86.9565217391304,4,1,1,5,0,1
96758,-86.9565217391304,4,1,1,65,0,1
96833,-86.9565217391304,4,1,1,5,0,1
96908,-100,4,1,1,65,0,1
97433,-100,4,1,1,5,0,1
97508,-100,4,1,1,65,0,1
97808,-50,4,1,1,65,0,1
98633,-50,4,1,1,5,0,1
98708,-50,4,1,1,65,0,1
99083,-50,4,1,1,5,0,1
99158,-100,4,1,1,65,0,1
99833,-100,4,1,1,5,0,1
99908,-100,4,1,1,65,0,1
100208,-50,4,1,1,65,0,1
100283,-100,4,1,1,5,0,1
100358,-100,4,1,1,65,0,1
102008,-76.9230769230769,4,1,1,65,0,0
102308,-90.9090909090909,4,1,1,65,0,0
102908,-71.4285714285714,4,1,1,65,0,0
103208,-90.9090909090909,4,1,1,65,0,0
103733,-90.9090909090909,4,1,1,5,0,0
103808,-90.9090909090909,4,1,1,65,0,0
105008,-80,4,1,1,65,0,0
105608,-90.9090909090909,4,1,1,65,0,0
105908,-74.0740740740741,4,1,1,65,0,0
106208,-74.0740740740741,4,1,1,65,0,0
106508,-111.111111111111,4,1,1,65,0,0
106808,-90.9090909090909,4,1,1,65,0,0
107708,-71.4285714285714,4,1,1,65,0,0
108008,-90.9090909090909,4,1,1,65,0,0
109808,-80,4,1,1,65,0,0
109883,-80,4,1,1,5,0,0
109958,-80,4,1,1,65,0,0
110108,-200,4,1,1,65,0,0
110408,-83.3333333333333,4,1,1,65,0,0
111608,-125,4,1,1,65,0,0
112358,-83.3333333333333,4,1,1,65,0,0
112458,-83.3333333333333,4,1,1,5,0,0
112508,-83.3333333333333,4,1,1,65,0,0
112608,-83.3333333333333,4,1,1,5,0,0
112658,-83.3333333333333,4,1,1,65,0,0
112758,-83.3333333333333,4,1,1,5,0,0
112808,-83.3333333333333,4,1,1,65,0,0
112958,-83.3333333333333,4,1,1,5,0,0
113108,-31.25,4,1,1,65,0,0
113333,-31.25,4,1,1,5,0,0
113408,-31.25,4,1,1,65,0,0
113633,-31.25,4,1,1,5,0,0
113708,-31.25,4,1,1,65,0,0
113933,-31.25,4,1,1,5,0,0
114008,-125,4,1,1,65,0,0
114608,-62.5,4,1,1,65,0,0
114683,-62.5,4,1,1,5,0,0
114758,-62.5,4,1,1,65,0,0
114833,-62.5,4,1,1,5,0,0
114908,-93.4579439252336,4,1,1,65,0,0
115208,-125,4,1,1,65,0,0
115358,-125,4,1,1,5,0,0
115433,-125,4,1,1,65,0,0
115583,-125,4,1,1,5,0,0
115658,-62.5,4,1,1,65,0,0
115733,-125,4,1,1,5,0,0
115808,-125,4,1,1,65,0,0
116108,-125,4,1,1,65,0,0
117008,-62.5,4,1,1,65,0,0
117608,-83.3333333333333,4,1,1,65,0,0
117758,-83.3333333333333,4,1,1,5,0,0
117908,-83.3333333333333,4,1,1,65,0,0
118058,-83.3333333333333,4,1,1,5,0,0
118208,-31.25,4,1,1,65,0,0
118283,-31.25,4,1,1,5,0,0
118358,-31.25,4,1,1,65,0,0
118433,-31.25,4,1,1,5,0,0
118508,-31.25,4,1,1,65,0,0
118583,-31.25,4,1,1,5,0,0
118658,-31.25,4,1,1,65,0,0
118733,-31.25,4,1,1,5,0,0
118808,-62.5,4,1,1,65,0,0
118883,-62.5,4,1,1,5,0,0
118958,-62.5,4,1,1,65,0,0
119033,-62.5,4,1,1,5,0,0
119108,-83.3333333333333,4,1,1,65,0,0
119258,-83.3333333333333,4,1,1,5,0,0
119408,-62.5,4,1,1,65,0,0
119483,-62.5,4,1,1,5,0,0
119558,-62.5,4,1,1,65,0,0
119633,-62.5,4,1,1,5,0,0
119708,-62.5,4,1,1,65,0,0
119783,-62.5,4,1,1,5,0,0
119858,-62.5,4,1,1,65,0,0
119933,-62.5,4,1,1,5,0,0
120008,-62.5,4,1,1,65,0,0
120308,-76.9230769230769,4,1,1,65,0,0
120608,-100,4,1,1,65,0,0
120908,-142.857142857143,4,1,1,65,0,0
121208,-200,4,1,1,65,0,0
121658,-200,4,1,1,65,0,0
121733,-200,4,1,1,5,0,0
121808,-200,4,1,1,65,0,0
121883,-200,4,1,1,5,0,0
121958,-200,4,1,1,65,0,0
122033,-200,4,1,1,5,0,0
122108,-200,4,1,1,65,0,0
122183,-200,4,1,1,5,0,0
122258,-200,4,1,1,65,0,0
122483,-200,4,1,1,5,0,0
122558,-200,4,1,1,65,0,0
122633,-200,4,1,1,5,0,0
122708,-200,4,1,1,65,0,0
122783,-200,4,1,1,5,0,0
122858,-200,4,1,1,65,0,0
122933,-200,4,1,1,5,0,0
123008,-400,4,1,1,65,0,0
123608,-200,4,1,1,65,0,0
124133,-200,4,1,1,5,0,0
124208,-200,4,1,1,65,0,0
124283,-200,4,1,1,5,0,0
124358,-200,4,1,1,65,0,0
124433,-200,4,1,1,5,0,0
124508,-200,4,1,1,65,0,0
124583,-200,4,1,1,5,0,0
124658,-200,4,1,1,65,0,0
125033,-200,4,1,1,5,0,0
125108,-200,4,1,1,65,0,0
125183,-200,4,1,1,5,0,0
125258,-200,4,1,1,65,0,0
125333,-200,4,1,1,5,0,0
125408,-400,4,1,1,65,0,0
126008,-200,4,1,1,65,0,0
126308,-200,4,1,1,5,0,0
126458,-200,4,1,1,65,0,0
126533,-200,4,1,1,5,0,0
126608,-200,4,1,1,65,0,0
126683,-200,4,1,1,5,0,0
126758,-200,4,1,1,65,0,0
126833,-200,4,1,1,5,0,0
126908,-200,4,1,1,65,0,0
126983,-200,4,1,1,5,0,0
127058,-200,4,1,1,65,0,0
127433,-200,4,1,1,5,0,0
127508,-200,4,1,1,65,0,0
127583,-200,4,1,1,5,0,0
127658,-200,4,1,1,65,0,0
127733,-200,4,1,1,5,0,0
127808,-400,4,1,1,65,0,0
128408,-133.333333333333,4,1,1,65,0,0
128633,-133.333333333333,4,1,1,5,0,0
128708,-133.333333333333,4,1,1,65,0,0
128783,-133.333333333333,4,1,1,5,0,0
128858,-133.333333333333,4,1,1,65,0,0
128933,-133.333333333333,4,1,1,5,0,0
129008,-133.333333333333,4,1,1,65,0,0
129083,-133.333333333333,4,1,1,5,0,0
129158,-133.333333333333,4,1,1,65,0,0
129233,-133.333333333333,4,1,1,5,0,0
129308,-133.333333333333,4,1,1,65,0,0
129383,-133.333333333333,4,1,1,5,0,0
129458,-133.333333333333,4,1,1,65,0,0
129533,-133.333333333333,4,1,1,5,0,0
129608,-133.333333333333,4,1,1,65,0,0
130208,-100,4,1,1,65,0,0
130808,-105.263157894737,4,1,1,65,0,0
140408,-100,4,1,1,65,0,0
150008,-76.9230769230769,4,1,1,65,0,0
158408,-90.9090909090909,4,1,1,65,0,0
158708,-83.3333333333333,4,1,1,65,0,0
159008,-76.9230769230769,4,1,1,65,0,0
159308,-71.4285714285714,4,1,1,65,0,0
159608,-90.9090909090908,4,1,1,65,0,1
172658,-200,4,1,1,65,0,0
173258,-100,4,1,1,65,0,0
173408,-90.9090909090909,4,1,1,65,0,0
173558,-83.3333333333333,4,1,1,65,0,0
173708,-230.94688221709,4,1,1,65,0,0
174008,-500,4,2,1,65,0,0
176408,-333.333333333333,4,2,1,65,0,0
177608,-666.666666666667,4,2,1,40,0,0
178808,-250,4,2,1,40,0,0
192908,-100,4,1,1,65,0,0
196583,-100,4,1,1,5,0,0
196658,-100,4,1,1,65,0,0
222008,-117.647058823529,4,1,1,65,0,0
223133,-117.647058823529,4,1,1,5,0,0
223208,-117.647058823529,4,1,1,65,0,0
226808,-105.263157894737,4,1,1,65,0,0
229808,-100,4,1,1,65,0,0
230408,-83.3333333333333,4,1,1,65,0,0
231008,-71.4285714285714,4,1,1,65,0,0
231608,-142.857142857143,4,1,1,65,0,0
231833,-142.857142857143,4,1,1,5,0,0
231908,-142.857142857143,4,1,1,65,0,0
232133,-142.857142857143,4,1,1,5,0,0
232208,-142.857142857143,4,1,1,65,0,0
232733,-142.857142857143,4,1,1,5,0,0
232808,-45.4545454545455,4,1,1,65,0,1
241208,-90.9090909090909,4,1,1,65,0,0
242408,-55.5555555555556,4,1,1,65,0,0
247358,-41.6666666666667,4,1,1,65,0,0
248408,-55.5555555555556,4,1,1,65,0,0
251108,-62.5,4,1,1,65,0,0
251408,-71.4285714285714,4,1,1,65,0,0
251708,-83.3333333333333,4,1,1,65,0,0
252008,-100,4,1,1,65,0,0
261608,-100,4,1,1,65,0,0
270008,-86.9565217391304,4,1,1,65,0,0
271208,-100,4,1,1,65,0,1
280808,-111.111111111111,4,1,1,65,0,0
300008,-95.2380952380952,4,1,1,65,0,0
309158,-125,4,1,1,65,0,0
309608,-111.111111111111,4,1,1,65,0,1
309833,-111.111111111111,4,1,1,5,0,1
309908,-111.111111111111,4,1,1,65,0,1
310133,-111.111111111111,4,1,1,5,0,1
310208,-111.111111111111,4,1,1,65,0,1
310433,-111.111111111111,4,1,1,5,0,1
310508,-111.111111111111,4,1,1,65,0,1
316733,-111.111111111111,4,1,1,5,0,1
316808,-111.111111111111,4,1,1,65,0,1
319208,-90.9090909090909,4,1,1,65,0,0
328508,-76.9230769230769,4,1,1,90,0,0
328808,-111.111111111111,4,1,1,65,0,0
338408,-58.8235294117647,4,1,1,65,0,0
341108,-66.6666666666667,4,1,1,65,0,0
341408,-76.9230769230769,4,1,1,65,0,0
341708,-90.9090909090909,4,1,1,65,0,0
342008,-58.8235294117647,4,1,1,65,0,0
342908,-71.4285714285714,4,1,1,65,0,0
343208,-58.8235294117647,4,1,1,65,0,0
348008,-90.9090909090909,4,1,1,65,0,1
357608,-125,4,1,1,65,0,0
367208,-90.9090909090909,4,1,1,65,0,0
376808,-111.111111111111,4,1,1,65,0,0
378533,-111.111111111111,4,1,1,5,0,0
378608,-111.111111111111,4,1,1,65,0,0
380033,-111.111111111111,4,1,1,5,0,0
380108,-111.111111111111,4,1,1,65,0,0
380933,-111.111111111111,4,1,1,5,0,0
381008,-111.111111111111,4,1,1,65,0,0
383933,-111.111111111111,4,1,1,5,0,0
384008,-111.111111111111,4,1,1,65,0,0
386408,-90.9090909090909,4,1,2,65,0,0
396008,-52.6315789473684,4,1,1,65,0,1
405608,-66.6666666666667,4,1,1,65,0,0
415208,-76.9230769230769,4,1,1,65,0,0
434408,-125,4,1,1,65,0,1
435158,-76.9230769230769,4,1,1,65,0,1
436208,-125,4,1,1,65,0,1
436658,-76.9230769230769,4,1,1,65,0,1
442808,300,3,1,1,65,1,1
442808,-76.9230769230769,3,1,1,65,0,1
446108,250,4,1,1,45,1,0
446108,-155.038759689922,4,1,1,45,0,0
456108,-116.279069767442,4,1,1,45,0,0
456608,-155.038759689922,4,1,1,45,0,0
460108,-116.279069767442,4,1,1,45,0,0
460608,-155.038759689922,4,1,1,45,0,0
464108,-116.279069767442,4,1,1,45,0,0
471858,-155.038759689922,4,1,1,45,0,0
472108,-97.0873786407767,4,1,1,45,0,0
480108,-116.279069767442,4,1,1,45,0,0
488108,-97.0873786407767,4,1,1,45,0,0
496108,-116.279069767442,4,1,1,45,0,0
504108,-90.9090909090909,4,1,1,65,0,1
516108,-133.333333333333,4,1,1,65,0,0
524108,-100,4,1,1,65,0,1
540108,-111.111111111111,4,1,1,65,0,1
542108,-131.578947368421,4,1,1,65,0,0
544108,-125,4,1,1,65,0,0
571858,-100,3,1,1,65,0,0
572608,-100,3,1,1,65,0,1
578608,-100,3,1,1,65,0,0
582358,-200,3,1,1,65,0,0
583858,-100,3,1,1,65,0,0
584608,250,4,1,1,65,1,0
584608,-302.114803625378,4,1,1,65,0,0
587608,-250,4,1,1,65,0,0
588108,-200,4,1,1,65,0,0
588608,-153.846153846154,4,1,1,65,0,0
589608,-133.333333333334,4,1,1,65,0,0
590108,-114.942528735632,4,1,1,65,0,0
592608,-100,4,1,1,65,0,0
600608,-83.3333333333333,4,1,1,65,0,1
606608,-71.4285714285714,4,1,1,65,0,1
607358,-76.9230769230769,4,1,1,65,0,1
607608,-100,4,1,1,65,0,1
608608,-111.111111111111,4,1,1,65,0,1
612108,-83.3333333333333,4,1,1,65,0,1
612358,-100,4,1,1,65,0,1
612608,-250,4,1,1,65,0,0
613358,241.745401801003,4,1,1,65,1,0
613358,-222.222222222222,4,1,1,65,0,0
613478,256.250373698462,4,1,1,65,1,0
613606,262.82014779253,4,1,1,65,1,0
613606,-250,4,1,1,65,0,0
613737,245.215237674869,4,1,1,65,1,0
613982,303.253914502613,4,1,1,65,1,0
613982,-266.666666666667,4,1,1,65,0,0
614285,334.967229039426,4,1,1,65,1,0
614452,376.837080768748,4,1,1,65,1,0
614452,-266.666666666667,4,1,1,65,0,0
614640,403.543108492565,4,1,1,65,1,0
614841,683.332384260577,4,1,1,65,1,0
614841,-166.666666666667,4,1,1,65,0,0
615524,601.172285957617,4,1,1,65,1,0
616125,625,4,1,1,65,1,0
616125,-200,4,1,1,60,0,0
616437,632.717839479484,4,1,1,65,1,0
616753,776.518092871564,4,1,1,65,1,0
616753,-200,4,1,1,60,0,0
617141,949.066751028156,4,1,1,65,1,0
617615,287.921685301598,4,1,1,65,1,0
617615,-438.59649122807,4,1,1,60,0,0
625676,512.820512820513,4,1,1,60,1,1
625804,-133.333333333333,4,1,1,60,0,0
626188,400,4,1,1,60,1,0
626288,392.156862745098,4,1,1,60,1,0
626288,-133.333333333333,4,1,1,60,0,0
626484,375,4,1,1,60,1,0

[Colours]
Combo1 : 189,47,225
Combo2 : 233,155,39
Combo3 : 114,200,77
Combo4 : 41,190,168

[HitObjects]
256,192,10808,5,0,0:0:0:0:
256,192,10958,12,0,14408,0:0:0:0:
256,192,15608,5,2,0:0:0:0:
256,192,15758,12,0,19208,0:0:0:0:
89,89,20408,38,0,L|100:216,1,119.999996337891,2|0,0:0|0:0,0:0:0:0:
236,221,20858,2,0,P|189:185|130:187,1,119.999996337891
162,262,21308,2,0,L|156:326,1,59.9999981689454
109,182,21608,5,2,0:0:0:0:
109,182,21908,5,0,0:0:0:0:
33,142,22058,1,0,0:0:0:0:
117,160,22208,1,0,0:0:0:0:
87,80,22358,1,0,0:0:0:0:
135,148,22508,1,0,0:0:0:0:
166,70,22658,1,0,0:0:0:0:
158,148,22808,38,0,L|147:275,1,119.999996337891,2|0,0:0|0:0,0:0:0:0:
263,318,23258,2,0,L|253:198,1,119.999996337891
291,107,23708,2,0,P|231:102|179:130,1,120
84,177,24308,2,0,P|110:190|132:210,1,59.9999981689454
150,285,24608,5,0,2:0:0:0:
54,276,24758,1,0,2:0:0:0:
164,291,24908,5,0,2:0:0:0:
68,300,25058,1,0,2:0:0:0:
216,361,25208,38,0,P|246:314|225:237,1,119.999996337891,2|0,0:0|0:0,0:0:0:0:
342,227,25658,2,0,P|294:197|281:118,1,119.999996337891,2|0,0:0|0:0,0:0:0:0:
363,88,26108,2,0,P|367:117|359:146,1,59.9999981689454,2|0,0:0|0:0,0:0:0:0:
263,208,26408,1,2,0:0:0:0:
263,208,26708,5,0,0:0:0:0:
291,114,26858,1,0,0:0:0:0:
273,224,27008,1,0,0:0:0:0:
204,129,27158,2,0,P|204:99|214:71,2,59.9999981689454
305,190,27608,6,0,P|304:160|276:108,1,80
223,173,28058,1,0,0:0:0:0:
94,230,28208,2,0,P|123:232|152:225,1,59.9999981689454
146,141,28508,2,0,P|116:138|87:145,1,59.9999981689454,0|0,0:0|0:0,0:0:0:0:
17,198,28808,6,0,L|22:257,1,59.9999981689454,2|0,0:0|0:0,0:0:0:0:
120,325,29108,2,0,L|125:265,1,59.9999981689454
168,167,29408,1,0,0:0:0:0:
214,287,29558,2,0,L|154:292,2,59.9999981689454
333,215,30008,38,0,L|214:205,1,119.999996337891,2|0,0:0|0:0,0:0:0:0:
354,203,30608,5,0,0:0:0:0:
421,255,30758,1,0,0:0:0:0:
397,336,30908,1,0,0:0:0:0:
343,180,31058,1,0,0:0:0:0:
411,357,31208,5,2,0:0:0:0:
482,156,31358,2,0,L|422:152,1,59.9999981689454
284,106,31658,2,0,L|344:102,1,59.9999981689454
503,136,31958,2,0,L|443:132,1,59.9999981689454
263,86,32258,1,0,0:0:0:0:
391,195,32408,38,0,P|415:141|400:84,1,119.999996337891,2|0,0:0|0:0,0:0:0:0:
336,135,33008,5,0,0:0:0:0:
250,108,33158,1,0,0:0:0:0:
360,143,33308,1,0,0:0:0:0:
206,181,33458,1,0,0:0:0:0:
381,230,33608,6,0,L|441:226,1,59.9999981689454,2|0,0:0|0:0,0:0:0:0:
300,265,33908,1,0,0:0:0:0:
300,265,34058,2,0,B|291:233|299:202,1,59.9999981689454
430,143,34358,2,0,B|437:170|428:202,1,59.9999981689454
371,319,34658,1,0,0:0:0:0:
277,183,34808,37,2,1:0:0:0:
148,140,35108,1,0,0:0:0:0:
277,183,35408,1,0,0:0:0:0:
131,158,35708,1,0,0:0:0:0:
277,183,36008,1,0,0:0:0:0:
64,200,36308,6,0,P|55:169|54:138,1,59.9999981689454
113,64,36608,1,0,0:0:0:0:
277,129,36758,1,0,0:0:0:0:
131,158,36908,1,0,0:0:0:0:
285,103,37058,1,0,0:0:0:0:
177,241,37208,38,0,L|32:228,1,139.999995727539
137,82,37658,2,0,L|143:154,1,69.9999978637696
203,311,37958,1,0,0:0:0:0:
203,311,38108,2,0,L|208:241,1,69.9999978637696
224,98,38408,5,0,0:0:0:0:
342,178,38558,1,0,0:0:0:0:
166,222,38708,1,0,0:0:0:0:
370,174,38858,1,0,0:0:0:0:
239,230,39008,1,0,0:0:0:0:
302,94,39158,37,0,0:0:0:0:
346,258,39308,1,0,0:0:0:0:
281,80,39458,1,0,0:0:0:0:
420,305,39608,22,0,B|371:339|371:339|251:327,1,150
218,270,39908,2,0,B|260:307|246:365,1,100
108,287,40208,2,0,B|95:233|137:196,1,100
292,143,40508,1,0,0:0:0:0:
189,267,40658,1,0,0:0:0:0:
309,121,40808,38,0,L|415:111,2,100
213,265,41258,2,0,L|107:275,2,100
144,101,41708,6,0,B|75:179|147:247|147:247,1,150.000005722046
276,293,42158,5,0,0:0:0:0:
190,172,42308,1,0,0:0:0:0:
329,225,42458,1,0,0:0:0:0:
159,310,42608,1,0,0:0:0:0:
304,144,42758,2,0,B|361:129|412:176,2,100
234,192,43208,6,0,B|266:152|254:96,1,100,0|0,0:0|0:0,0:0:0:0:
246,64,43433,1,0,0:0:0:0:
246,64,43508,1,0,0:0:0:0:
164,247,43658,6,0,B|132:207|144:151,1,100,0|0,0:0|0:0,0:0:0:0:
152,119,43883,1,0,0:0:0:0:
152,119,43958,1,0,0:0:0:0:
328,171,44108,2,0,B|282:194|282:194|232:191,1,100
137,131,44408,38,0,L|147:237,1,100
71,377,44708,2,0,L|81:271,1,100
144,126,45008,5,0,0:0:0:0:
199,214,45158,1,0,0:0:0:0:
52,185,45308,5,0,0:0:0:0:
218,219,45458,1,0,0:0:0:0:
46,297,45608,6,0,B|65:351|122:360,1,100
152,363,45833,1,0,0:0:0:0:
152,363,45908,1,0,0:0:0:0:
182,154,46058,6,0,B|98:201|128:292,1,150.000005722046
305,252,46508,38,0,L|205:242,1,100
89,228,46808,5,0,0:0:0:0:
276,219,46958,1,0,0:0:0:0:
152,298,47108,1,0,0:0:0:0:
245,131,47258,1,0,0:0:0:0:
261,343,47408,1,0,0:0:0:0:
186,81,47558,2,0,P|231:59|280:65,2,100
245,131,48008,5,0,0:0:0:0:
245,131,48458,5,0,0:0:0:0:
245,131,48908,6,0,B|221:110|201:87|213:22|258:-1|293:56|293:56|285:92|260:90,1,202.500000772476
286,77,49208,38,0,L|201:85,1,85.0000016212464,0|0,0:0|0:0,0:0:0:0:
107,95,49508,1,0,0:0:0:0:
197,175,49658,1,0,0:0:0:0:
115,10,49808,2,0,P|71:19|38:48,1,85.0000016212464
64,208,50108,1,0,0:0:0:0:
112,89,50258,1,0,0:0:0:0:
2,265,50408,6,0,P|41:289|82:290,1,85.0000016212464
163,235,50708,1,0,0:0:0:0:
57,125,50858,2,0,L|65:209,1,85.0000016212464,0|0,0:0|0:0,0:0:0:0:
144,365,51158,2,0,L|152:280,1,85.0000016212464,0|0,0:0|0:0,0:0:0:0:
170,147,51458,1,0,0:0:0:0:
42,277,51608,6,0,L|153:261,1,85.0000016212464
326,197,51908,2,0,L|215:181,1,85.0000016212464
44,102,52208,2,0,L|155:86,1,85.0000016212464
303,65,52508,1,0,0:0:0:0:
215,197,52658,6,0,B|195:151|195:151|225:30,1,170.000003242493
368,131,53108,2,0,L|279:144,1,85.0000016212464
120,171,53408,1,0,0:0:0:0:
267,280,53558,1,0,0:0:0:0:
273,71,53708,2,0,P|230:82|187:126,1,85.0000016212464,0|0,0:0|0:0,0:0:0:0:
129,212,54008,6,0,L|123:96,1,85.0000016212464,0|0,0:0|0:0,0:0:0:0:
110,19,54308,1,0,0:0:0:0:
35,172,54458,1,0,0:0:0:0:
204,107,54608,2,0,P|242:107|300:136,1,85.0000016212464
326,255,54908,1,0,0:0:0:0:
225,188,55058,1,0,0:0:0:0:
385,148,55208,5,0,0:0:0:0:
320,269,55358,1,0,0:0:0:0:
337,55,55508,1,0,0:0:0:0:
450,184,55658,2,0,L|361:197,1,85.0000016212464,0|0,0:0|0:0,0:0:0:0:
237,271,55958,2,0,L|326:284,1,85.0000016212464,0|0,0:0|0:0,0:0:0:0:
439,299,56258,1,0,0:0:0:0:
282,194,56408,6,0,P|237:190|177:199,1,85.0000016212464,0|0,0:0|0:0,0:0:0:0:
383,78,56708,2,0,P|426:66|487:64,1,85.0000016212464,0|0,0:0|0:0,0:0:0:0:
395,235,57008,2,0,L|382:324,1,85.0000016212464,0|0,0:0|0:0,0:0:0:0:
464,148,57308,1,0,0:0:0:0:
312,239,57458,6,0,B|269:258|228:239|228:239|183:219|142:238,1,170.000003242493
92,330,57908,1,0,0:0:0:0:
269,168,58058,1,0,0:0:0:0:
233,372,58208,2,0,P|200:341|186:299,1,85.0000016212464
158,181,58508,2,0,P|140:140|106:112,1,85.0000016212464,0|0,0:0|0:0,0:0:0:0:
61,208,58808,6,0,P|35:245|28:289,1,89.9999972534181,0|0,0:0|0:0,0:0:0:0:
133,285,59108,2,0,P|177:290|219:274,1,89.9999972534181,0|0,0:0|0:0,0:0:0:0:
296,180,59408,2,0,P|292:136|289:88,1,89.9999972534181,0|0,0:0|0:0,0:0:0:0:
391,224,59708,2,0,P|387:269|385:314,1,89.9999972534181,0|0,0:0|0:0,0:0:0:0:
454,115,60008,6,0,L|343:122,1,89.9999972534181,0|0,0:0|0:0,0:0:0:0:
161,162,60308,1,0,0:0:0:0:
329,206,60458,1,0,0:0:0:0:
280,91,60608,1,0,0:0:0:0:
139,165,60758,1,0,0:0:0:0:
346,219,60908,1,0,0:0:0:0:
286,75,61058,1,0,0:0:0:0:
97,233,61208,6,0,B|139:252|181:233|181:233|227:212|270:231,1,179.999994506836
359,310,61658,1,0,0:0:0:0:
311,150,61808,2,0,P|315:104|318:36,1,89.9999972534181,0|0,0:0|0:0,0:0:0:0:
201,142,62108,2,0,P|204:186|208:231,1,89.9999972534181,0|0,0:0|0:0,0:0:0:0:
275,351,62408,5,0,0:0:0:0:
348,202,62558,1,0,0:0:0:0:
468,309,62708,1,0,0:0:0:0:
247,259,62858,1,0,0:0:0:0:
378,93,63008,1,0,0:0:0:0:
369,310,63158,1,0,0:0:0:0:
258,101,63308,1,0,0:0:0:0:
443,200,63458,1,0,0:0:0:0:
198,277,63608,6,0,P|154:258|134:224,1,85.0000016212464,0|0,0:0|0:0,0:0:0:0:
144,79,63908,1,0,0:0:0:0:
203,199,64058,1,0,0:0:0:0:
56,156,64208,2,0,L|66:66,1,85.0000016212464,0|0,0:0|0:0,0:0:0:0:
172,11,64508,1,0,0:0:0:0:
234,155,64658,1,0,0:0:0:0:
94,100,64808,6,0,P|147:87|199:86,1,85.0000016212464,0|0,0:0|0:0,0:0:0:0:
318,155,65108,1,0,0:0:0:0:
170,250,65258,2,0,P|155:208|152:164,1,85.0000016212464,0|0,0:0|0:0,0:0:0:0:
284,277,65558,2,0,P|310:240|345:212,1,85.0000016212464,0|0,0:0|0:0,0:0:0:0:
470,204,65858,1,0,0:0:0:0:
424,347,66008,6,0,P|384:327|361:290,1,85.0000016212464,0|0,0:0|0:0,0:0:0:0:
280,179,66308,2,0,P|317:155|362:154,1,85.0000016212464,0|0,0:0|0:0,0:0:0:0:
442,264,66608,2,0,P|404:288|360:289,1,85.0000016212464,0|0,0:0|0:0,0:0:0:0:
203,214,66908,1,0,0:0:0:0:
323,113,67058,2,0,B|310:181|291:268,1,127.50000243187,0|0,0:0|0:0,0:0:0:0:
282,278,67358,6,0,P|234:301|185:296,1,85.0000016212464,0|0,0:0|0:0,0:0:0:0:
116,262,67658,1,0,0:0:0:0:
131,137,67808,1,0,0:0:0:0:
219,223,67958,1,0,0:0:0:0:
106,280,68108,1,0,0:0:0:0:
121,155,68258,1,0,0:0:0:0:
283,207,68408,6,0,P|329:203|370:175,1,85.0000016212464,0|0,0:0|0:0,0:0:0:0:
311,46,68708,2,0,L|301:136,1,85.0000016212464,0|0,0:0|0:0,0:0:0:0:
288,240,69008,1,0,0:0:0:0:
320,111,69158,1,0,0:0:0:0:
271,251,69308,2,0,L|149:237,1,85.0000016212464,0|0,0:0|0:0,0:0:0:0:
64,190,69608,6,0,L|70:280,1,85.0000016212464,0|0,0:0|0:0,0:0:0:0:
158,358,69908,1,0,0:0:0:0:
227,200,70058,2,0,P|260:169|322:160,1,85.0000016212464,0|0,0:0|0:0,0:0:0:0:
432,287,70358,2,0,L|342:279,1,85.0000016212464,0|0,0:0|0:0,0:0:0:0:
213,215,70658,1,0,0:0:0:0:
360,96,70808,6,0,P|391:126|406:183,1,85.0000016212464,0|0,0:0|0:0,0:0:0:0:
232,143,71108,2,0,P|274:153|315:194,1,85.0000016212464,0|0,0:0|0:0,0:0:0:0:
148,247,71408,2,0,P|190:234|246:249,1,85.0000016212464,0|0,0:0|0:0,0:0:0:0:
362,313,71708,1,0,0:0:0:0:
187,313,71858,2,0,B|153:328|153:328|103:319|103:319|67:335,1,127.50000243187
30,356,72158,6,0,L|42:271,1,85.0000016212464,0|0,0:0|0:0,0:0:0:0:
88,141,72458,1,0,0:0:0:0:
223,205,72608,1,0,0:0:0:0:
112,281,72758,1,0,0:0:0:0:
98,160,72908,1,0,0:0:0:0:
231,228,73058,1,0,0:0:0:0:
97,319,73208,6,0,P|28:285|30:185,1,179.999994506836,0|0,0:0|0:0,0:0:0:0:
137,89,73658,1,0,0:0:0:0:
263,239,73808,6,0,B|219:258|177:239|177:239|131:218|89:237,1,179.999994506836
133,307,74258,1,0,0:0:0:0:
221,174,74408,6,0,L|229:73,1,89.9999972534181
311,26,74708,1,0,0:0:0:0:
427,129,74858,1,0,0:0:0:0:
298,199,75008,1,0,0:0:0:0:
305,43,75158,1,0,0:0:0:0:
422,147,75308,1,0,0:0:0:0:
293,217,75458,1,0,0:0:0:0:
299,69,75608,6,0,P|388:142|366:218,1,179.999994506836
258,319,76058,1,0,0:0:0:0:
126,140,76208,2,0,L|305:154,1,179.999994506836
411,164,76658,1,0,0:0:0:0:
344,52,76808,5,0,0:0:0:0:
252,271,76958,1,0,0:0:0:0:
247,87,77108,5,0,0:0:0:0:
345,308,77258,1,0,0:0:0:0:
415,151,77408,5,0,0:0:0:0:
179,280,77558,1,0,0:0:0:0:
191,57,77708,5,0,0:0:0:0:
303,356,77858,1,0,0:0:0:0:
404,115,78008,6,0,P|342:79|274:90,1,129.999994049073
220,163,78458,1,0,0:0:0:0:
328,221,78608,2,0,L|325:153,1,64.9999970245363
409,76,78908,2,0,L|406:143,1,64.9999970245363,0|0,0:0|0:0,0:0:0:0:
373,216,79208,6,0,P|439:214|486:170,1,129.999994049073
466,97,79658,1,0,0:0:0:0:
344,127,79808,2,0,P|375:142|408:143,1,64.9999970245363,0|0,0:0|0:0,0:0:0:0:
445,22,80108,2,0,P|414:37|392:62,1,64.9999970245363,0|0,0:0|0:0,0:0:0:0:
345,168,80408,6,0,L|354:318,2,129.999994049073,0|0|0,0:0|0:0|0:0,0:0:0:0:
270,90,81158,1,0,0:0:0:0:
270,90,81308,2,0,L|202:86,1,64.9999970245363,0|0,0:0|0:0,0:0:0:0:
78,76,81608,5,0,0:0:0:0:
78,76,81758,2,0,L|82:144,1,64.9999970245363
128,221,82058,2,0,P|191:238|248:205,1,129.999994049073,0|0,0:0|0:0,0:0:0:0:
290,136,82508,1,0,0:0:0:0:
350,82,82658,1,0,0:0:0:0:
430,98,82808,6,0,P|463:145|441:223,1,129.999994049073,0|0,0:0|0:0,0:0:0:0:
387,270,83258,1,0,0:0:0:0:
298,292,83408,1,0,0:0:0:0:
224,249,83558,1,0,0:0:0:0:
135,271,83708,2,0,P|86:292|56:333,1,97.4999955368044,0|0,0:0|0:0,0:0:0:0:
55,369,84008,6,0,L|69:217,1,129.999994049073,0|0,0:0|0:0,0:0:0:0:
95,159,84458,1,0,0:0:0:0:
169,191,84608,1,0,0:0:0:0:
243,160,84758,1,0,0:0:0:0:
313,201,84908,2,0,L|440:212,1,97.4999955368044,0|0,0:0|0:0,0:0:0:0:
497,295,85208,6,0,B|381:299,1,85.0000016212464,0|0,0:0|0:0,0:0:0:0:
318,243,85508,2,0,B|202:239,1,85.0000016212464,0|0,0:0|0:0,0:0:0:0:
104,263,85808,2,0,L|94:352,1,85.0000016212464,0|0,0:0|0:0,0:0:0:0:
285,314,86108,2,0,L|275:224,1,85.0000016212464,0|0,0:0|0:0,0:0:0:0:
206,92,86408,6,0,P|200:141|194:211,1,85.0000016212464,0|0,0:0|0:0,0:0:0:0:
397,220,86708,2,0,P|391:167|387:131,1,85.0000016212464,0|0,0:0|0:0,0:0:0:0:
340,34,87008,2,0,P|294:36|232:44,1,85.0000016212464,0|0,0:0|0:0,0:0:0:0:
114,149,87308,2,0,P|158:154|203:158,1,85.0000016212464,0|0,0:0|0:0,0:0:0:0:
409,118,87608,5,0,0:0:0:0:
249,76,87758,1,0,0:0:0:0:
337,242,87908,2,0,L|326:125,1,94.9999974632264,0|0,0:0|0:0,0:0:0:0:
486,287,88208,2,0,P|447:310|381:298,1,94.9999974632264
231,183,88508,1,0,0:0:0:0:
428,238,88658,1,0,0:0:0:0:
291,108,88808,6,0,P|242:102|180:98,1,94.9999974632264
360,231,89108,1,0,0:0:0:0:
333,19,89258,1,0,0:0:0:0:
417,182,89408,2,0,L|399:277,1,94.9999974632264
292,358,89708,2,0,L|274:263,1,94.9999974632264
253,161,90008,5,0,0:0:0:0:
373,274,90158,1,0,0:0:0:0:
176,256,90308,1,0,0:0:0:0:
357,108,90458,1,0,0:0:0:0:
320,343,90608,5,0,0:0:0:0:
122,161,90758,1,0,0:0:0:0:
358,74,90908,1,0,0:0:0:0:
208,312,91058,1,0,0:0:0:0:
149,56,91208,6,0,L|145:41,1,10
163,77,91358,6,0,L|161:51,1,14.9999995422363
173,100,91508,6,0,L|176:74,1,20
178,123,91658,6,0,L|191:81,1,25
181,150,91808,6,0,L|204:103,1,29.9999990844727
178,175,91958,6,0,L|209:133,1,34.9999989318848
171,199,92108,6,0,L|209:163,1,40
160,222,92258,6,0,L|203:194,1,44.999998626709
146,243,92408,6,0,B|193:220|193:220|247:186|233:124,1,150
69,110,92708,2,0,P|112:141|167:145,1,100,0|0,0:0|0:0,0:0:0:0:
313,110,93008,6,0,B|367:113|367:113|411:144,1,100,0|0,0:0|0:0,0:0:0:0:
433,245,93158,1,0,0:0:0:0:
248,176,93308,1,0,0:0:0:0:
458,68,93458,1,0,0:0:0:0:
344,318,93608,1,0,0:0:0:0:
269,94,93758,6,0,B|214:97|214:97|170:128,1,100,0|0,0:0|0:0,0:0:0:0:
108,235,93908,1,0,0:0:0:0:
276,281,94058,1,0,0:0:0:0:
260,101,94208,6,0,B|206:109|206:109|164:144,1,100,0|0,0:0|0:0,0:0:0:0:
111,255,94358,1,0,0:0:0:0:
332,343,94508,2,0,P|356:287|340:227,1,100,0|0,0:0|0:0,0:0:0:0:
217,54,94808,6,0,P|186:141|220:207,1,150
356,164,95108,2,8,B|335:137|335:137|263:130,1,100,0|0,0:0|0:0,0:0:0:0:
29,177,95408,6,8,B|49:203|49:203|121:210,1,100,0|0,0:0|0:0,0:0:0:0:
290,217,95558,1,0,0:0:0:0:
95,124,95708,1,0,0:0:0:0:
197,308,95858,1,0,0:0:0:0:
281,103,96008,5,0,0:0:0:0:
102,299,96158,2,0,P|63:259|50:202,1,115.000002193451,0|0,0:0|0:0,0:0:0:0:
105,53,96458,1,0,0:0:0:0:
132,219,96608,6,0,P|132:185|146:157,1,57.5000010967255,0|0,0:0|0:0,0:0:0:0:
186,94,96758,2,0,P|210:69|239:60,1,57.5000010967255,0|0,0:0|0:0,0:0:0:0:
312,43,96908,1,0,0:0:0:0:
348,247,97058,1,0,0:0:0:0:
249,126,97208,6,0,P|166:115|101:170,1,150
140,272,97508,2,0,P|179:237|192:189,1,100
85,70,97808,6,0,B|199:80,1,100
364,97,97958,1,0,0:0:0:0:
183,178,98108,1,0,0:0:0:0:
264,13,98258,1,0,0:0:0:0:
332,243,98408,1,0,0:0:0:0:
143,335,98558,6,0,B|132:220,1,100,0|0,0:0|0:0,0:0:0:0:
188,117,98708,1,0,0:0:0:0:
309,246,98858,1,0,0:0:0:0:
115,312,99008,6,0,B|125:197,1,100,0|0,0:0|0:0,0:0:0:0:
197,105,99158,1,0,0:0:0:0:
264,309,99308,6,0,P|312:321|360:306,1,100,0|0,0:0|0:0,0:0:0:0:
327,103,99608,6,0,B|300:149|300:149|309:248,1,150
203,364,99908,2,0,B|212:264,1,100
183,137,100208,6,0,P|218:172|266:181,1,100,0|0,0:3|0:3,0:0:0:0:
375,161,100358,1,0,0:0:0:0:
181,241,100508,1,0,0:0:0:0:
330,30,100658,1,0,0:0:0:0:
267,182,100808,5,0,0:0:0:0:
298,201,100908,1,0,0:0:0:0:
299,166,101008,1,0,0:0:0:0:
268,175,101108,5,0,0:0:0:0:
314,189,101208,1,0,0:0:0:0:
304,144,101308,1,0,0:0:0:0:
266,166,101408,5,0,0:0:0:0:
330,169,101508,1,0,0:0:0:0:
302,114,101608,1,0,0:0:0:0:
261,156,101708,5,0,0:0:0:0:
344,137,101808,2,0,B|360:116|340:98|340:98|308:94|289:76,1,100
343,22,102008,6,0,B|388:30|413:68|413:68|429:61|429:61|413:68|413:68|432:103|423:156,1,194.999991073609
265,246,102308,6,0,B|233:238|233:238|209:228,1,55.0000016784668,0|0,0:0|0:0,0:0:0:0:
221,135,102458,2,0,B|250:140|250:140|272:152,1,55.0000016784668
367,255,102608,5,0,0:0:0:0:
128,136,102758,1,0,0:0:0:0:
442,249,102908,6,0,B|444:225|444:225|431:210|431:210|434:183,3,69.9999978637696,0|0|0|0,0:0|0:0|0:0|0:0,0:0:0:0:
413,78,103208,6,0,B|393:122|393:122|370:139|357:168|364:192,1,110.000003356934,0|0,0:0|0:0,0:0:0:0:
393,308,103433,1,0,0:0:0:0:
393,308,103508,6,0,P|373:284|370:244,1,55.0000016784668,0|0,0:0|0:0,0:0:0:0:
289,223,103658,2,0,P|269:247|266:287,1,55.0000016784668
238,355,103808,2,0,P|195:384|119:374,1,110.000003356934,0|0,0:0|0:0,0:0:0:0:
170,311,104108,5,0,0:0:0:0:
125,293,104183,1,0,0:0:0:0:
170,271,104258,1,0,0:0:0:0:
125,253,104333,1,0,0:0:0:0:
170,231,104408,6,0,B|148:212|148:212|148:129,1,110.000003356934,0|0,0:0|0:0,0:0:0:0:
148,48,104633,1,0,0:0:0:0:
148,48,104708,6,0,P|122:50|82:76,1,55.0000016784668,0|0,0:0|0:0,0:0:0:0:
143,219,104858,2,0,P|169:217|209:191,1,55.0000016784668,0|0,0:0|0:0,0:0:0:0:
148,131,105008,6,0,B|101:149|101:149|48:213,1,125,0|0,0:0|0:0,0:0:0:0:
48,292,105308,1,0,0:0:0:0:
52,300,105383,1,0,0:0:0:0:
56,308,105458,1,0,0:0:0:0:
60,316,105533,1,0,0:0:0:0:
120,370,105608,6,0,P|144:314|132:266,1,110.000003356934,0|0,0:0|0:0,0:0:0:0:
116,246,105833,1,0,0:0:0:0:
120,370,105908,6,0,B|153:355|185:370|185:370|220:385|252:370,1,135.000000514984
378,319,106208,6,0,L|307:314,1,67.5000002574921,0|0,0:0|0:0,0:0:0:0:
221,305,106358,6,0,P|210:279|236:285,1,67.5000002574921
448,345,106508,6,2,B|456:313|456:313|449:289|449:289|484:253|466:199,1,134.999995880127,0|0,0:0|0:0,0:0:0:0:
290,241,106808,6,0,L|399:234,1,110.000003356934
335,130,107108,6,0,B|327:102|327:102|331:74,1,55.0000016784668
467,202,107258,2,0,B|475:230|475:230|471:258,1,55.0000016784668,0|0,0:0|0:0,0:0:0:0:
400,97,107408,5,0,0:0:0:0:
188,85,107558,1,0,0:0:0:0:
400,97,107708,6,0,B|424:99|424:99|443:94|443:94|486:99,3,69.9999978637696,0|0|0|0,0:0|0:0|0:0|0:0,0:0:0:0:
455,165,108008,6,0,B|432:173|432:173|409:171|409:171|386:179|386:179|365:176|365:176|343:184|343:184,1,110.000003356934,0|0,0:0|0:0,0:0:0:0:
141,256,108308,1,0,0:0:0:0:
217,244,108383,1,0,0:0:0:0:
293,232,108458,1,0,0:0:0:0:
141,256,108608,5,0,0:0:0:0:
293,232,108758,1,0,0:0:0:0:
49,141,108908,1,0,0:0:0:0:
17,104,108983,1,0,0:0:0:0:
57,101,109058,1,0,0:0:0:0:
29,64,109133,1,0,0:0:0:0:
69,61,109208,6,0,B|120:56|120:56|171:84,1,110.000003356934,0|0,0:0|0:0,0:0:0:0:
245,132,109433,1,0,0:0:0:0:
245,132,109508,6,0,P|272:137|314:126,1,55.0000016784668,0|0,0:0|0:0,0:0:0:0:
461,89,109658,2,0,P|434:84|392:95,1,55.0000016784668,0|0,0:0|0:0,0:0:0:0:
236,208,109808,6,0,B|267:214|267:214|308:207,1,62.5,0|0,0:0|0:0,0:0:0:0:
466,165,109958,2,0,B|435:159|435:159|394:166,1,62.5,0|0,0:0|0:0,0:0:0:0:
365,258,110108,5,0,0:0:0:0:
369,266,110183,1,0,0:0:0:0:
373,274,110258,2,0,L|384:301,1,25
319,346,110408,5,0,0:0:0:0:
277,348,110483,1,0,0:0:0:0:
234,349,110558,2,0,L|157:353,1,59.9999981689454
18,350,110708,5,0,0:0:0:0:
59,347,110783,1,0,0:0:0:0:
101,345,110858,2,0,L|160:341,1,59.9999981689454
234,349,111008,5,0,0:0:0:0:
243,275,111083,1,0,0:0:0:0:
169,266,111158,1,0,0:0:0:0:
160,340,111232,1,0,0:0:0:0:
308,358,111308,6,0,L|316:298,1,59.9999981689454
346,85,111458,2,0,L|354:25,1,59.9999981689454
480,192,111608,6,0,L|320:192,1,160
200,192,112058,1,2,0:0:0:0:
80,192,112208,1,2,0:0:0:0:
480,192,112358,70,0,L|400:192,1,79.9999975585938
296,192,112508,2,0,L|216:192,1,79.9999975585938
112,192,112658,2,0,L|32:192,1,79.9999975585938
280,272,112808,22,0,L|400:272,1,119.999996337891,0|0,0:0|0:0,0:0:0:0:
496,192,113108,22,0,L|16:192,1,480,0|0,0:0|0:0,0:0:0:0:
16,112,113408,2,0,L|496:112,1,480,0|0,0:0|0:0,0:0:0:0:
496,272,113708,2,0,L|16:272,1,480,0|0,0:0|0:0,0:0:0:0:
16,192,114008,86,0,L|176:192,1,160,0|0,0:0|0:0,0:0:0:0:
336,192,114608,86,0,L|256:192,1,80,0|0,0:0|0:0,0:0:0:0:
24,192,114758,2,0,L|104:192,1,80
416,192,114908,2,0,L|224:192,1,160.499995101929,0|0,0:0|0:0,0:0:0:0:
32,192,115208,102,0,L|112:192,1,80
216,192,115433,2,0,L|296:192,1,80
480,192,115658,102,0,L|400:192,1,80
136,192,115808,22,0,L|296:192,1,160,0|0,0:0|0:0,0:0:0:0:
336,32,116408,102,0,L|176:32,1,160,0|0,0:0|0:0,0:0:0:0:
176,32,117008,86,0,L|96:32,1,80,0|0,0:0|0:0,0:0:0:0:
336,32,117158,2,0,L|416:32,1,80,0|0,0:0|0:0,0:0:0:0:
176,32,117308,2,0,L|96:32,1,80
336,32,117458,2,0,L|416:32,1,80
256,112,117608,22,0,L|376:112,1,119.999996337891
496,272,117908,6,0,L|376:272,1,119.999996337891,0|0,0:0|0:0,0:0:0:0:
336,192,118208,6,0,L|176:192,1,160,0|0,0:0|0:0,0:0:0:0:
96,112,118358,2,0,L|256:112,1,160,0|0,0:0|0:0,0:0:0:0:
496,192,118508,2,0,L|336:192,1,160,0|0,0:0|0:0,0:0:0:0:
256,32,118658,2,0,L|416:32,1,160,0|0,0:0|0:0,0:0:0:0:
496,112,118808,54,0,L|416:112,1,80,0|0,0:0|0:0,0:0:0:0:
304,112,118958,2,0,L|224:112,1,80,0|0,0:0|0:0,0:0:0:0:
128,112,119108,22,0,L|8:112,1,119.999996337891,0|0,0:0|0:0,0:0:0:0:
96,192,119408,102,0,L|176:192,1,80
176,272,119558,2,0,L|256:272,1,80,0|0,0:0|0:0,0:0:0:0:
256,192,119708,2,0,L|336:192,1,80,0|0,0:0|0:0,0:0:0:0:
336,272,119858,2,0,L|416:272,1,80
480,352,120008,6,0,L|400:352,1,80,0|0,3:0|3:0,3:0:0:0:
480,32,120158,2,0,L|400:32,1,80,0|0,3:0|3:0,3:0:0:0:
481,272,120308,6,0,L|401:272,1,64.9999970245363,0|0,3:0|3:0,3:0:0:0:
480,112,120458,2,0,L|400:112,1,64.9999970245363,0|0,3:0|3:0,3:0:0:0:
256,352,120608,6,0,L|332:330,1,50,0|0,3:0|3:0,3:0:0:0:
256,32,120758,2,0,L|178:51,1,50,0|0,3:0|3:0,3:0:0:0:
256,272,120908,6,0,L|311:259,1,34.9999989318848,0|0,3:0|3:0,3:0:0:0:
256,112,121058,2,0,L|217:120,1,34.9999989318848,0|0,3:0|3:0,3:0:0:0:
256,192,121208,6,0,L|364:163,1,100,4|0,0:0|1:0,0:0:0:0:
421,243,121658,6,0,L|422:218,1,25,2|0,0:1|0:0,0:0:0:0:
335,268,121808,2,0,L|336:243,1,25,2|0,0:1|0:0,0:0:0:0:
249,293,121958,2,0,L|250:268,1,25,0|0,0:1|0:0,0:0:0:0:
159,322,122108,2,0,L|161:297,1,25,2|0,1:0|0:0,0:0:0:0:
75,347,122258,2,8,L|77:322,1,25,0|0,0:1|0:0,0:0:0:0:
421,243,122408,6,0,L|422:218,1,25,2|0,0:1|0:0,0:0:0:0:
335,268,122558,2,0,L|336:243,1,25,2|0,0:1|0:0,0:0:0:0:
159,322,122708,2,0,L|161:297,1,25,2|0,1:0|0:0,0:0:0:0:
75,347,122858,2,8,L|77:322,1,25,0|0,0:1|0:0,0:0:0:0:
248,296,123008,6,0,L|249:270,1,25,0|0,0:1|0:0,0:0:0:0:
195,178,123308,2,0,L|193:151,1,25,0|0,1:0|0:0,0:0:0:0:
266,71,123608,2,0,P|284:37|239:46,1,100,0|0,1:2|1:0,0:0:0:0:
353,250,124058,22,0,L|331:262,1,25,2|0,0:1|0:0,0:0:0:0:
259,258,124208,2,0,L|234:258,1,25,2|0,0:1|0:0,0:0:0:0:
163,234,124358,2,0,L|140:224,1,25,0|0,0:0|0:0,0:0:0:0:
110,157,124508,2,0,L|94:137,1,25,2|0,1:0|0:0,0:0:0:0:
97,62,124658,2,8,L|95:37,1,25,0|0,0:0|0:0,0:0:0:0:
353,250,124808,22,0,L|332:263,1,25,2|0,0:1|0:0,0:0:0:0:
259,258,124958,2,0,L|234:258,1,25,2|0,0:1|0:0,0:0:0:0:
163,234,125108,2,0,L|140:224,1,25,2|0,1:0|0:0,0:0:0:0:
110,157,125258,2,0,L|94:137,1,25,2|0,0:1|0:0,0:0:0:0:
95,37,125408,6,8,L|97:62,1,25,2|0,1:0|0:0,0:0:0:0:
196,135,125708,2,8,L|198:160,1,25,0|0,1:0|0:0,0:0:0:0:
298,229,126008,6,0,P|331:211|291:204,1,100,0|0,1:2|1:0,0:0:0:0:
376,367,126458,6,0,L|402:356,1,25,2|0,0:1|0:0,0:0:0:0:
280,58,126608,2,0,L|315:67,1,25,2|0,0:1|0:0,0:0:0:0:
432,283,126758,2,0,L|446:255,1,25,0|0,0:0|0:0,0:0:0:0:
378,83,126908,2,0,L|404:109,1,25,2|0,1:0|0:0,0:0:0:0:
445,188,127058,2,8,L|442:164,1,25,0|0,0:0|0:0,0:0:0:0:
376,367,127208,6,0,L|398:357,1,25,2|0,0:1|0:0,0:0:0:0:
280,58,127358,2,0,L|315:67,1,25,2|0,0:1|0:0,0:0:0:0:
432,283,127508,2,0,L|443:260,1,25,2|0,1:0|0:0,0:0:0:0:
378,83,127658,2,0,L|404:109,1,25,2|0,0:1|0:0,0:0:0:0:
446,189,127808,6,0,L|441:164,1,25,2|0,1:0|0:0,0:0:0:0:
326,265,128108,2,0,L|326:240,1,25,0|0,1:0|0:0,0:0:0:0:
199,190,128408,6,8,L|208:70,1,112.500004291535,0|0,1:2|0:0,0:0:0:0:
75,32,128708,2,0,L|113:36,1,37.5000014305115,2|0,1:0|0:0,0:0:0:0:
83,106,128858,2,0,L|121:110,1,37.5000014305115,2|0,0:1|0:0,0:0:0:0:
313,190,129008,6,8,L|303:70,1,112.500004291535,2|0,0:1|0:0,0:0:0:0:
436,32,129308,2,0,L|399:36,1,37.5000014305115,2|0,1:0|0:0,0:0:0:0:
428,106,129458,2,0,L|391:110,1,37.5000014305115,0|0,0:0|0:0,0:0:0:0:
199,190,129608,6,0,L|146:184,1,37.5000014305115,0|0,3:2|3:2,3:0:0:0:
313,190,129758,2,0,L|365:184,1,37.5000014305115,2|0,3:2|3:2,3:0:0:0:
208,77,129908,6,0,L|155:71,1,37.5000014305115,2|0,3:2|3:2,3:0:0:0:
303,77,130058,2,0,L|355:71,1,37.5000014305115,2|0,3:2|3:2,3:0:0:0:
256,232,130208,5,2,3:2:0:0:
264,255,130283,1,0,3:2:0:0:
270,279,130358,1,0,3:2:0:0:
271,304,130433,1,0,3:2:0:0:
269,329,130508,1,0,3:2:0:0:
262,353,130583,1,0,3:2:0:0:
249,361,130658,1,0,3:2:0:0:
235,340,130733,1,0,3:2:0:0:
227,317,130808,6,0,B|219:271|219:271|236:203,1,94.9999974632264,0|0,3:0|3:0,3:0:0:0:
420,145,131108,2,8,B|416:191|416:191|382:252,1,94.9999974632264,0|0,0:0|0:0,0:0:0:0:
179,126,131408,2,8,B|195:82|195:82|243:31,1,95,0|0,0:0|0:0,0:0:0:0:
363,28,131708,1,0,0:0:0:0:
234,214,131858,54,0,P|167:224|78:127,1,189.999994926453
190,21,132308,1,0,0:0:0:0:
358,100,132458,1,0,0:0:0:0:
368,138,132533,1,0,0:0:0:0:
378,175,132608,1,0,0:0:0:0:
388,212,132683,1,0,0:0:0:0:
397,249,132758,1,0,0:0:0:0:
437,92,132908,1,0,0:0:0:0:
296,16,133058,1,0,0:0:0:0:
179,126,133208,53,0,0:0:0:0:
243,266,133358,1,0,0:0:0:0:
309,142,133508,2,0,B|321:95|321:95|305:40,1,95,0|0,0:0|0:0,0:0:0:0:
166,160,133808,2,0,B|154:207|154:207|170:262,1,95,0|0,0:0|0:0,0:0:0:0:
232,383,134108,1,0,0:0:0:0:
359,320,134258,54,8,P|329:241|210:215,1,189.999994926453,0|0,0:0|0:0,0:0:0:0:
131,220,134708,2,0,L|36:229,1,95
206,113,135008,2,8,L|112:95,1,95,0|0,0:0|0:0,0:0:0:0:
259,303,135308,2,0,L|184:362,1,94.9999974632264
469,200,135608,53,0,0:0:0:0:
362,325,135758,1,0,0:0:0:0:
301,174,135908,1,0,0:0:0:0:
472,213,136058,53,0,0:0:0:0:
346,319,136208,1,0,0:0:0:0:
313,160,136358,1,0,0:0:0:0:
474,230,136508,53,0,0:0:0:0:
331,314,136658,1,0,0:0:0:0:
326,152,136808,1,0,0:0:0:0:
472,248,136958,53,0,0:0:0:0:
319,305,137108,1,0,0:0:0:0:
342,143,137258,1,0,0:0:0:0:
381,235,137408,53,0,0:0:0:0:
242,130,137558,1,0,0:0:0:0:
412,62,137708,1,0,0:0:0:0:
284,273,137858,1,0,0:0:0:0:
301,37,138008,5,0,0:0:0:0:
301,37,138158,1,0,0:0:0:0:
426,53,138308,2,8,L|429:147,1,95,0|0,0:0|0:0,0:0:0:0:
308,16,138608,53,0,0:0:0:0:
308,16,138758,1,0,0:0:0:0:
424,64,138908,2,8,L|409:157,1,95,0|0,0:0|0:0,0:0:0:0:
400,317,139208,54,0,L|413:244,1,47.4999987316132,0|0,0:0|0:0,0:0:0:0:
325,209,139358,2,0,L|313:280,1,47.4999987316132,0|0,0:0|0:0,0:0:0:0:
391,334,139508,54,0,L|403:264,1,47.4999987316132,0|0,0:0|0:0,0:0:0:0:
317,226,139658,2,0,L|301:313,1,47.4999987316132,0|0,0:0|0:0,0:0:0:0:
381,349,139808,54,0,L|392:285,1,47.4999987316132,0|0,0:0|0:0,0:0:0:0:
306,241,139958,2,0,L|293:318,1,47.4999987316132,0|0,0:0|0:0,0:0:0:0:
381,349,140108,5,0,0:0:0:0:
387,319,140183,1,0,0:0:0:0:
392,289,140258,1,0,0:0:0:0:
397,260,140333,1,0,0:0:0:0:
402,230,140408,6,0,L|420:125,1,100,0|0,1:2|0:0,0:0:0:0:
437,38,140708,1,0,1:0:0:0:
437,38,140858,1,0,0:0:0:0:
110,154,141008,6,0,L|92:259,1,100,0|0,0:0|0:0,0:0:0:0:
75,346,141308,1,0,1:0:0:0:
75,346,141458,1,0,0:0:0:0:
196,231,141608,5,0,0:0:0:0:
315,152,141758,1,0,0:0:0:0:
292,284,141908,1,0,1:0:0:0:
219,99,142058,1,0,0:0:0:0:
214,346,142208,5,0,0:0:0:0:
297,37,142508,1,0,1:0:0:0:
109,111,142808,6,0,B|137:157|175:185,1,100,0|0,0:0|0:0,0:0:0:0:
265,231,143108,1,0,1:0:0:0:
256,133,143258,1,0,0:0:0:0:
174,185,143408,2,0,B|161:237|168:284,1,100,0|0,0:0|0:0,0:0:0:0:
219,359,143708,1,0,1:0:0:0:
76,239,143858,1,0,0:0:0:0:
244,243,144008,2,0,B|290:214|318:176,1,100,0|0,0:0|0:0,0:0:0:0:
361,68,144308,5,0,1:0:0:0:
256,316,144458,1,0,0:0:0:0:
150,68,144608,1,0,0:0:0:0:
440,192,144908,1,0,1:0:0:0:
72,192,145208,6,0,B|124:208|164:244,1,100,0|0,1:0|0:0,0:0:0:0:
156,334,145508,1,0,1:0:0:0:
72,282,145658,1,0,0:0:0:0:
196,161,145808,6,0,B|219:111|261:88,1,100,0|0,0:0|0:0,0:0:0:0:
209,236,146108,1,0,1:0:0:0:
121,192,146258,1,0,0:0:0:0:
256,67,146408,5,0,0:0:0:0:
390,192,146558,1,0,0:0:0:0:
256,321,146708,1,0,1:0:0:0:
121,192,146858,1,0,0:0:0:0:
121,192,147008,1,0,0:0:0:0:
416,56,147308,1,0,1:0:0:0:
68,276,147608,6,0,B|61:229|73:176,1,100,0|0,0:1|0:0,0:0:0:0:
206,86,147908,2,0,B|256:100|305:86,1,100,0|0,1:0|0:0,0:0:0:0:
438,176,148208,2,0,B|450:229|444:276,1,100,0|0,0:1|0:0,0:0:0:0:
244,248,148508,2,0,B|231:300|238:347,1,100,0|0,1:0|0:0,0:0:0:0:
268,136,148808,5,0,3:0:0:0:
273,106,148883,1,0,3:0:0:0:
276,76,148958,2,0,P|276:43|270:18,1,50,0|0,3:0|3:0,3:0:0:0:
312,204,149108,5,0,3:0:0:0:
341,209,149183,1,0,3:0:0:0:
371,212,149258,2,0,P|405:212|430:206,1,50,0|0,3:0|3:0,3:0:0:0:
200,180,149408,5,0,3:0:0:0:
170,174,149483,1,0,3:0:0:0:
140,171,149558,2,0,P|107:172|82:178,1,50,0|0,3:0|3:0,3:0:0:0:
236,308,149708,5,0,1:0:0:0:
276,77,149858,1,0,0:0:0:0:
122,243,150008,5,0,3:0:0:0:
299,187,150158,1,0,0:0:0:0:
337,185,150233,1,0,0:0:0:0:
372,201,150308,1,0,1:0:0:0:
424,344,150458,1,0,0:0:0:0:
262,261,150608,6,0,B|202:209|238:125,1,129.999994049073,0|0,3:0|0:0,0:0:0:0:
250,109,150833,1,0,0:0:0:0:
250,109,150908,1,0,1:0:0:0:
368,46,151058,1,0,0:0:0:0:
313,194,151208,5,0,3:0:0:0:
313,194,151283,1,0,0:0:0:0:
313,194,151358,1,0,0:0:0:0:
189,43,151508,1,0,1:0:0:0:
407,134,151658,1,0,0:0:0:0:
165,179,151808,5,0,3:0:0:0:
165,179,151883,1,0,0:0:0:0:
356,241,152033,5,0,0:0:0:0:
356,241,152108,2,0,B|288:277|220:225,1,129.999994049073,0|0,1:0|0:0,0:0:0:0:
134,100,152408,5,0,3:0:0:0:
134,100,152483,1,0,0:0:0:0:
134,100,152558,1,0,0:0:0:0:
301,169,152708,1,0,1:0:0:0:
255,36,152858,1,0,0:0:0:0:
128,204,153008,5,0,3:0:0:0:
128,204,153083,1,0,0:0:0:0:
128,204,153158,1,0,0:0:0:0:
307,227,153308,1,0,1:0:0:0:
228,110,153458,1,0,0:0:0:0:
245,293,153608,1,0,3:0:0:0:
280,308,153683,1,0,0:0:0:0:
319,308,153758,1,0,0:0:0:0:
354,293,153833,1,0,0:0:0:0:
378,262,153908,6,0,B|381:218,5,43.3333313496908,0|0|0|0|0|0,1:0|0:0|0:0|0:0|0:0|0:0,0:0:0:0:
299,205,154208,6,0,B|302:238,6,32.4999985122681,0|0|0|0|0|0|0,3:0|0:0|0:0|0:0|0:0|0:0|0:0,0:0:0:0:
439,160,154508,5,0,1:0:0:0:
404,336,154658,1,0,0:0:0:0:
306,126,154808,1,2,0:0:0:0:
306,126,155108,6,0,P|244:151|218:205,1,129.999994049073,2|0,0:0|0:0,0:0:0:0:
59,325,155408,2,0,P|121:300|146:246,1,129.999994049073,2|0,0:0|0:0,0:0:0:0:
115,128,155708,1,2,3:0:0:0:
244,301,155858,1,0,0:0:0:0:
56,240,156008,5,0,3:0:0:0:
228,133,156158,1,0,0:0:0:0:
228,133,156233,1,0,0:0:0:0:
228,133,156308,1,0,1:0:0:0:
170,332,156458,1,0,0:0:0:0:
105,144,156608,5,0,3:0:0:0:
255,239,156758,1,0,0:0:0:0:
255,239,156833,1,0,0:0:0:0:
255,239,156908,1,0,1:0:0:0:
194,54,157058,1,0,0:0:0:0:
157,168,157208,5,0,1:0:0:0:
143,213,157358,5,0,0:0:0:0:
260,195,157508,5,0,1:0:0:0:
254,279,157658,5,0,0:0:0:0:
365,180,157808,5,0,1:0:0:0:
370,218,157883,1,0,0:0:0:0:
375,257,157958,1,0,0:0:0:0:
313,326,158108,5,2,3:0:0:0:
308,287,158183,1,0,0:0:0:0:
303,249,158258,1,0,0:0:0:0:
209,135,158408,38,0,B|220:213,1,55.0000016784668,2|0,3:0|0:0,0:0:0:0:
303,249,158558,2,0,B|291:163,1,55.0000016784668,2|0,3:0|0:0,0:0:0:0:
194,125,158708,22,0,B|200:196,1,59.9999981689454,2|0,3:0|0:0,0:0:0:0:
318,259,158858,2,0,B|311:187,1,59.9999981689454,2|0,3:0|0:0,0:0:0:0:
179,115,159008,22,0,B|181:186,1,64.9999970245363,2|0,3:0|0:0,0:0:0:0:
333,269,159158,2,0,B|330:197,1,64.9999970245363,2|0,3:0|0:0,0:0:0:0:
163,104,159308,22,0,B|161:175,1,69.9999978637696,0|0,1:0|1:0,0:0:0:0:
349,280,159458,2,0,B|350:208,1,69.9999978637696,0|0,1:0|1:0,0:0:0:0:
148,91,159608,22,0,B|140:161|140:161|114:194|114:194|108:263,1,165.000005035401
213,350,159908,1,0,0:0:0:0:
300,219,160058,2,0,L|190:228,1,110.000003356934
140,229,160283,1,0,0:0:0:0:
97,208,160358,1,0,0:0:0:0:
74,167,160433,1,0,0:0:0:0:
77,119,160508,21,0,0:0:0:0:
170,307,160658,1,0,0:0:0:0:
170,307,160733,1,0,0:0:0:0:
170,307,160808,1,0,0:0:0:0:
153,151,160958,2,0,L|148:71,2,55.0000016784668
170,307,161258,1,0,0:0:0:0:
83,49,161408,21,0,0:0:0:0:
119,25,161483,1,0,0:0:0:0:
162,21,161558,1,0,0:0:0:0:
202,38,161633,1,0,0:0:0:0:
229,72,161708,1,0,0:0:0:0:
260,104,161783,1,0,0:0:0:0:
300,121,161858,1,0,0:0:0:0:
344,120,161933,1,0,0:0:0:0:
383,101,162008,21,0,0:0:0:0:
261,184,162158,1,0,0:0:0:0:
261,184,162233,1,0,0:0:0:0:
261,184,162308,2,0,L|199:194,2,55.0000016784668,0|0|0,0:0|0:0|0:0,0:0:0:0:
364,163,162608,1,0,0:0:0:0:
301,266,162758,1,0,0:0:0:0:
301,266,162833,1,0,0:0:0:0:
301,266,162908,2,0,L|355:274,1,55.0000016784668
459,296,163058,1,0,0:0:0:0:
239,329,163208,22,2,P|272:255|246:179,1,165.000005035401,0|0,0:0|0:0,0:0:0:0:
181,249,163508,1,0,0:0:0:0:
296,117,163658,6,0,P|268:102|230:102,1,55.0000016784668
174,124,163808,1,0,0:0:0:0:
288,33,163958,1,0,0:0:0:0:
307,16,164033,1,0,0:0:0:0:
332,4,164108,2,0,P|413:1|452:30,1,110.000003356934,0|0,0:0|0:0,0:0:0:0:
410,217,164408,21,0,0:0:0:0:
382,80,164558,1,0,0:0:0:0:
382,80,164633,1,0,0:0:0:0:
382,80,164708,1,0,0:0:0:0:
250,177,164858,1,0,0:0:0:0:
449,120,165008,21,0,0:0:0:0:
455,107,165083,1,0,0:0:0:0:
459,93,165158,1,0,0:0:0:0:
460,78,165233,1,0,0:0:0:0:
458,63,165308,1,0,0:0:0:0:
327,73,165458,1,0,0:0:0:0:
327,73,165533,1,0,0:0:0:0:
327,73,165608,22,0,L|391:81,1,55.0000016784668,0|0,0:0|0:0,0:0:0:0:
231,115,165758,2,0,L|173:122,1,55.0000016784668
342,198,165908,2,0,L|406:206,1,55.0000016784668
188,234,166058,2,0,L|130:241,1,55.0000016784668
362,326,166208,21,0,0:0:0:0:
371,298,166283,1,0,0:0:0:0:
380,270,166358,2,0,L|373:216,1,55.0000016784668,0|0,0:0|0:0,0:0:0:0:
320,40,166508,1,0,0:0:0:0:
311,68,166583,1,0,0:0:0:0:
302,96,166658,2,0,L|309:150,1,55.0000016784668,0|0,0:0|0:0,0:0:0:0:
372,215,166808,22,0,P|327:186|239:208,1,110.000003356934
245,264,167033,2,0,P|274:268|301:262,1,55.0000016784668
400,87,167258,2,0,L|390:207,1,110.000003356934
386,298,167558,1,0,0:0:0:0:
386,298,167633,1,0,0:0:0:0:
386,298,167708,1,0,0:0:0:0:
321,133,167858,1,0,0:0:0:0:
467,308,168008,21,0,0:0:0:0:
452,343,168083,1,0,0:0:0:0:
424,369,168158,1,0,0:0:0:0:
389,382,168233,1,0,0:0:0:0:
351,379,168308,2,2,P|321:365|299:340,3,55.0000016784668,0|0|0|2,0:0|0:0|0:0|0:0,0:0:0:0:
268,248,168608,22,0,L|264:189,1,55.0000016784668
156,310,168758,2,0,L|160:365,1,55.0000016784668
74,168,168908,1,0,0:0:0:0:
74,168,168983,1,0,0:0:0:0:
74,168,169058,2,0,L|6:162,1,55.0000016784668,0|0,0:0|0:0,0:0:0:0:
168,179,169208,21,0,0:0:0:0:
29,68,169358,1,0,0:0:0:0:
56,266,169508,1,0,0:0:0:0:
176,46,169658,1,0,0:0:0:0:
216,307,169808,21,0,0:0:0:0:
216,307,169883,1,0,0:0:0:0:
216,307,169958,1,0,0:0:0:0:
279,116,170108,1,0,0:0:0:0:
319,90,170183,1,0,0:0:0:0:
366,88,170258,1,0,0:0:0:0:
407,111,170333,1,0,0:0:0:0:
430,152,170408,5,0,0:0:0:0:
343,222,170558,2,0,L|352:167,2,55.0000016784668,0|0|0,0:0|0:0|0:0,0:0:0:0:
328,299,170858,1,0,0:0:0:0:
366,88,171008,1,0,0:0:0:0:
421,274,171158,21,0,0:0:0:0:
421,274,171233,1,0,0:0:0:0:
421,274,171308,1,0,0:0:0:0:
265,252,171458,2,0,L|200:243,1,55.0000016784668
140,189,171608,5,0,0:0:0:0:
140,189,171683,1,0,0:0:0:0:
140,189,171758,2,0,P|136:217|124:241,1,55.0000016784668
200,87,171908,2,0,P|203:113|216:137,1,55.0000016784668
245,304,172058,6,0,B|203:285|163:304|163:304|118:323|81:304,1,165.000005035401
58,287,172358,1,0,0:0:0:0:
202,370,172508,1,0,0:0:0:0:
135,108,172658,5,2,0:0:0:0:
124,240,172808,2,0,P|126:215|139:188,1,50
207,245,173108,1,0,0:0:0:0:
207,245,173183,1,0,0:0:0:0:
207,245,173258,22,0,L|256:238,1,50
327,262,173408,22,0,P|330:234|325:207,1,55.0000016784668
260,104,173558,22,0,P|256:133|263:162,1,59.9999981689454
397,137,173708,22,0,L|332:131,1,64.9499994549179
454,195,174008,6,0,P|477:139|456:82,1,120
397,137,175208,6,0,L|277:148,1,120
134,137,176408,6,0,L|193:131,1,59.9999981689454
331,214,177008,2,0,L|271:208,1,59.9999981689454
134,295,177608,6,0,L|193:290,1,59.9999981689454
293,282,178508,1,0,0:0:0:0:
384,272,178808,6,0,P|402:194|389:116,1,160,0|0,0:0|0:0,0:0:0:0:
310,49,179708,1,0,0:0:0:0:
223,104,180008,5,0,0:0:0:0:
185,199,180308,2,0,L|191:278,2,80,0|0|0,0:0|0:0|0:0,0:0:0:0:
115,92,181208,6,0,L|274:99,1,160,0|0,0:0|0:0,0:0:0:0:
398,103,182108,1,0,0:0:0:0:
438,168,182258,1,0,0:0:0:0:
423,242,182408,6,0,L|434:284,1,40,0|0,0:0|0:0,0:0:0:0:
358,182,182708,2,0,L|369:136,1,40,0|0,0:0|0:0,0:0:0:0:
341,267,183008,1,0,0:0:0:0:
258,251,183158,1,0,0:0:0:0:
204,187,183308,1,0,0:0:0:0:
205,103,183458,1,0,0:0:0:0:
254,40,183608,6,0,P|322:19|411:52,1,160
450,140,184508,1,0,0:0:0:0:
357,190,184808,6,0,L|197:196,1,160
99,226,185708,1,0,0:0:0:0:
202,340,186008,6,0,B|203:308|174:290|174:290|205:250|196:193,1,160
115,133,186908,1,0,0:0:0:0:
75,259,187208,6,0,L|203:284,1,120,0|0,0:0|0:0,0:0:0:0:
262,323,187808,2,0,P|271:270|256:234,1,80,0|0,0:0|0:0,0:0:0:0:
194,153,188408,5,0,0:0:0:0:
116,282,188708,2,0,P|169:273|205:289,1,80,0|0,0:0|0:0,0:0:0:0:
256,336,189308,1,0,0:0:0:0:
347,268,189608,6,0,L|426:256,1,80,0|0,0:0|0:0,0:0:0:0:
165,268,190209,2,0,L|85:256,1,80,0|0,0:0|0:0,0:0:0:0:
341,166,190808,6,0,P|344:126|335:88,1,80,0|0,0:0|0:0,0:0:0:0:
170,166,191408,2,0,P|166:126|176:88,1,80
300,303,192008,2,0,P|338:312|378:309,1,80,0|0,0:0|0:0,0:0:0:0:
211,303,192609,2,0,P|173:312|138:310,1,60,0|0,0:0|0:0,0:0:0:0:
123,306,192908,5,0,3:0:0:0:
100,298,192983,1,0,3:0:0:0:
79,284,193058,1,0,3:0:0:0:
63,266,193133,1,0,3:0:0:0:
53,243,193208,6,0,L|268:224,1,200,4|0,3:0|3:0,3:0:0:0:
388,219,193658,1,0,0:0:0:0:
388,219,193733,1,0,0:0:0:0:
388,219,193808,2,0,P|405:173|394:121,1,100,0|0,0:0|0:0,0:0:0:0:
335,15,194108,1,0,0:0:0:0:
242,74,194258,6,0,B|218:110|220:165|220:165|278:134|338:171,1,200
280,331,194708,2,8,L|271:231,1,100,0|0,0:0|0:0,0:0:0:0:
258,99,195008,1,0,0:0:0:0:
108,186,195158,1,0,0:0:0:0:
161,70,195308,1,0,0:0:0:0:
245,260,195458,1,0,0:0:0:0:
411,149,195608,6,0,L|195:130,1,200,0|0,0:0|0:0,0:0:0:0:
99,166,196058,1,0,3:0:0:0:
99,166,196133,1,0,3:0:0:0:
99,166,196208,1,0,3:0:0:0:
56,271,196358,2,0,P|109:277|184:217,1,150,0|0,0:0|0:0,0:0:0:0:
204,175,196658,6,0,L|178:375,1,200,0|0,0:0|0:0,0:0:0:0:
282,329,197108,2,0,L|274:221,1,100,0|0,0:0|0:0,0:0:0:0:
308,138,197408,2,0,P|354:132|414:155,1,100,0|0,0:0|0:0,0:0:0:0:
443,180,197633,1,0,0:0:0:0:
443,180,197708,1,0,0:0:0:0:
292,279,197858,1,0,0:0:0:0:
292,279,197933,1,0,0:0:0:0:
292,279,198008,6,0,L|93:304,2,200,0|0|0,0:0|0:0|0:0,0:0:0:0:
430,259,198758,1,0,0:0:0:0:
312,195,198908,1,0,0:0:0:0:
380,351,199058,1,0,0:0:0:0:
365,117,199208,6,0,P|282:113|217:214,1,200,0|0,0:0|0:0,0:0:0:0:
304,294,199658,2,0,L|311:188,1,100,0|0,0:0|0:0,0:0:0:0:
320,66,199958,1,0,0:0:0:0:
243,140,200108,1,0,0:0:0:0:
365,258,200258,1,0,0:0:0:0:
192,344,200408,6,0,L|167:145,1,200,0|0,0:0|0:0,0:0:0:0:
259,45,200858,1,0,0:0:0:0:
259,45,200933,1,0,0:0:0:0:
259,45,201008,2,0,P|316:35|357:55,1,100,0|0,0:0|0:0,0:0:0:0:
372,210,201308,1,0,0:0:0:0:
302,106,201458,1,0,0:0:0:0:
417,284,201608,6,0,L|313:288,1,100,0|0,0:0|0:0,0:0:0:0:
188,265,201908,1,0,0:0:0:0:
277,193,202058,1,0,0:0:0:0:
277,193,202133,1,0,0:0:0:0:
277,193,202208,1,0,0:0:0:0:
327,265,202358,5,0,0:0:0:0:
286,275,202433,1,0,0:0:0:0:
244,269,202508,1,0,0:0:0:0:
206,251,202583,1,0,0:0:0:0:
166,240,202658,1,0,0:0:0:0:
124,242,202733,1,0,0:0:0:0:
86,261,202808,6,0,P|46:311|42:359,1,100,0|0,0:0|0:0,0:0:0:0:
137,337,203108,1,0,0:0:0:0:
232,249,203258,6,0,P|255:213|253:150,1,100,0|0,0:0|0:0,0:0:0:0:
195,76,203558,1,0,0:0:0:0:
165,301,203708,6,0,P|200:325|261:329,1,100,0|0,0:0|0:0,0:0:0:0:
151,190,204008,1,0,0:0:0:0:
293,31,204158,6,0,L|313:136,1,100,0|0,0:0|0:0,0:0:0:0:
352,243,204458,2,0,B|285:211|226:258|226:258|195:237|200:183,1,200,0|0,0:0|0:0,0:0:0:0:
224,104,204908,1,0,0:0:0:0:
297,314,205058,1,0,0:0:0:0:
146,86,205208,6,0,P|175:44|239:33,1,100,0|0,0:0|0:0,0:0:0:0:
32,63,205508,1,0,0:0:0:0:
221,107,205658,1,0,3:0:0:0:
246,114,205733,1,0,3:0:0:0:
274,124,205808,1,0,3:0:0:0:
338,76,205958,6,0,P|355:127|341:173,1,100
158,291,206258,6,0,L|354:252,1,200,0|0,0:0|0:0,0:0:0:0:
480,189,206708,2,0,L|381:169,1,100,0|0,0:0|0:0,0:0:0:0:
208,98,207008,1,0,0:0:0:0:
290,38,207158,1,0,0:0:0:0:
302,70,207233,1,0,0:0:0:0:
306,103,207308,1,0,0:0:0:0:
299,136,207383,1,0,0:0:0:0:
293,169,207458,1,0,0:0:0:0:
302,201,207533,1,0,0:0:0:0:
315,232,207608,6,0,L|216:248,1,100
100,279,207908,1,0,0:0:0:0:
100,279,207983,1,0,0:0:0:0:
100,279,208058,1,0,0:0:0:0:
244,189,208208,1,0,0:0:0:0:
133,118,208358,1,0,0:0:0:0:
215,58,208508,1,0,0:0:0:0:
151,0,208658,5,0,0:0:0:0:
215,58,208808,1,0,0:0:0:0:
133,118,208958,1,0,0:0:0:0:
133,118,209033,1,0,0:0:0:0:
133,118,209108,2,0,L|83:125,1,50
236,147,209258,2,0,L|285:152,1,50
383,225,209408,6,0,L|326:231,1,50,0|0,0:0|0:0,0:0:0:0:
184,224,209558,2,0,L|244:233,1,50,0|0,0:0|0:0,0:0:0:0:
351,313,209708,6,0,L|299:318,1,50,0|0,0:0|0:0,0:0:0:0:
145,303,209858,2,0,L|205:312,1,50,0|0,0:0|0:0,0:0:0:0:
257,381,210008,6,0,L|272:282,1,100
204,230,210308,2,0,B|191:170|191:170|206:135|206:135|176:98|180:52|199:25,1,200
282,197,210758,1,0,0:0:0:0:
108,141,210908,1,0,0:0:0:0:
261,76,211058,1,0,0:0:0:0:
180,259,211208,5,0,0:0:0:0:
129,117,211358,1,0,3:0:0:0:
129,117,211433,1,0,3:0:0:0:
129,117,211508,1,0,3:0:0:0:
300,187,211658,1,0,3:0:0:0:
300,187,211733,1,0,3:0:0:0:
300,187,211808,6,0,L|304:237,3,50,0|0|0|0,3:0|3:0|3:0|3:0,3:0:0:0:
401,123,212108,2,0,L|397:172,3,50,0|0|0|0,3:0|3:0|3:0|3:0,3:0:0:0:
331,37,212408,5,4,3:0:0:0:
140,134,222008,5,0,3:0:0:0:
140,134,222308,1,0,3:0:0:0:
140,134,222608,1,0,3:0:0:0:
140,134,222908,5,0,3:0:0:0:
273,53,223058,1,0,0:0:0:0:
238,279,223208,5,0,3:0:0:0:
238,279,223508,1,0,3:0:0:0:
238,279,223808,1,0,0:0:0:0:
91,207,223958,5,0,0:0:0:0:
91,207,224033,1,0,0:0:0:0:
91,207,224108,1,0,3:0:0:0:
344,157,224258,1,0,0:0:0:0:
344,157,224333,1,0,0:0:0:0:
344,157,224408,6,0,P|354:208|363:262,1,85.0000016212464,0|0,3:0|0:0,0:0:0:0:
354,346,224708,2,0,P|284:314|213:331,1,127.50000243187,0|0,3:0|0:0,0:0:0:0:
199,343,225008,2,0,P|194:287|179:251,1,85.0000016212464,8|0,3:0|0:0,0:0:0:0:
118,196,225308,1,0,0:0:0:0:
109,313,225458,1,0,0:0:0:0:
37,167,225608,5,0,3:0:0:0:
53,142,225683,1,0,0:0:0:0:
77,125,225758,1,0,0:0:0:0:
104,115,225833,1,0,0:0:0:0:
134,115,225908,1,0,3:0:0:0:
272,226,226058,1,0,0:0:0:0:
118,196,226208,1,0,3:0:0:0:
224,86,226358,5,0,0:0:0:0:
231,114,226433,1,0,0:0:0:0:
227,144,226508,1,0,3:0:0:0:
215,171,226583,1,0,0:0:0:0:
202,198,226658,1,0,0:0:0:0:
197,227,226733,1,0,0:0:0:0:
200,256,226808,5,0,3:0:0:0:
168,118,226958,1,0,3:0:0:0:
295,231,227108,1,0,3:0:0:0:
118,189,227258,1,0,3:0:0:0:
300,141,227408,1,0,3:0:0:0:
119,277,227558,1,0,3:0:0:0:
231,101,227708,1,0,3:0:0:0:
272,331,227858,1,0,3:0:0:0:
103,127,228008,5,0,3:0:0:0:
381,218,228158,1,0,3:0:0:0:
156,278,228308,1,0,3:0:0:0:
276,61,228458,1,0,3:0:0:0:
343,339,228608,1,0,3:0:0:0:
113,141,228758,1,0,3:0:0:0:
386,102,228908,1,0,3:0:0:0:
149,300,229058,1,0,3:0:0:0:
256,32,229208,6,0,L|260:79,7,47.4999987316132,0|0|0|0|0|0|0|0,3:0|3:0|3:0|3:0|3:0|3:0|3:0|3:0,3:0:0:0:
319,138,229808,5,0,0:0:0:0:
275,161,229883,1,0,0:0:0:0:
226,155,229958,1,0,0:0:0:0:
178,148,230033,1,0,0:0:0:0:
134,171,230108,1,0,0:0:0:0:
118,217,230183,1,0,0:0:0:0:
140,261,230258,1,0,0:0:0:0:
186,277,230333,1,0,0:0:0:0:
238,264,230408,5,0,0:0:0:0:
238,264,230483,1,0,0:0:0:0:
238,264,230558,2,0,L|244:200,1,59.9999981689454,0|0,3:0|3:0,3:0:0:0:
149,220,230708,5,0,0:0:0:0:
149,220,230783,1,0,0:0:0:0:
149,220,230858,2,0,L|142:156,1,59.9999981689454,0|0,3:0|3:0,3:0:0:0:
213,82,231008,5,0,0:0:0:0:
252,48,231083,1,0,0:0:0:0:
303,40,231158,1,0,0:0:0:0:
350,63,231233,1,0,0:0:0:0:
376,107,231308,1,0,0:0:0:0:
373,159,231383,1,0,0:0:0:0:
341,200,231458,1,0,0:0:0:0:
292,217,231533,1,0,0:0:0:0:
243,204,231608,6,0,B|224:151|224:151|243:99,1,104.999996795654
373,159,231908,2,0,B|392:212|392:212|373:264,1,104.999996795654
167,282,232208,5,0,0:0:0:0:
155,282,232283,1,0,0:0:0:0:
143,283,232358,2,0,L|108:285,1,34.9999989318848,4|0,3:0|0:0,0:0:0:0:
243,203,232508,6,0,B|239:248|239:248|249:260|249:260|245:305,1,104.999996795654
109,286,232808,6,0,L|333:270,1,220.000006713867,4|0,3:0|0:0,0:0:0:0:
444,177,233108,2,0,L|220:161,1,220.000006713867
123,48,233333,6,0,P|144:109|135:157,1,110.000003356934
67,278,233483,1,0,0:0:0:0:
67,278,233558,1,0,0:0:0:0:
272,248,233708,2,0,B|112:237|112:237|44:299,1,220.000006713867
191,207,234008,6,0,B|351:218|351:218|419:156,1,220.000006713867
447,278,234308,2,0,L|423:38,1,220.000006713867
278,107,234533,6,0,B|246:120|246:120|319:137,1,110.000003356934
259,219,234683,1,0,0:0:0:0:
259,219,234758,1,0,0:0:0:0:
167,293,234908,2,0,B|109:263|109:263|284:210,1,220.000006713867
432,164,235208,6,0,B|487:146|487:146|456:330,1,220.000006713867
379,68,235508,2,0,B|323:50|323:50|354:234,1,220.000006713867
290,356,235733,6,0,L|275:246,1,110.000003356934
261,123,235883,1,0,0:0:0:0:
261,123,235958,1,0,0:0:0:0:
478,92,236108,2,0,L|253:122,1,220.000006713867
106,97,236408,5,0,0:0:0:0:
114,172,236558,1,0,0:0:0:0:
106,97,236708,1,0,0:0:0:0:
293,129,236858,5,0,0:0:0:0:
284,204,236933,1,0,0:0:0:0:
297,133,237083,5,0,0:0:0:0:
288,208,237158,1,0,0:0:0:0:
106,97,237308,5,0,0:0:0:0:
382,46,237458,1,0,0:0:0:0:
106,97,237608,6,0,P|189:148|313:117,1,220.000006713867,4|0,0:0|0:0,0:0:0:0:
502,155,237908,2,0,P|404:160|320:257,1,220.000006713867,4|0,3:0|3:0,3:0:0:0:
187,256,238133,6,0,B|107:272|107:272|125:245,1,110.000003356934
265,149,238283,1,0,0:0:0:0:
265,149,238358,1,0,0:0:0:0:
256,349,238508,2,0,P|299:261|257:141,1,220.000006713867,4|0,3:0|3:0,3:0:0:0:
71,129,238808,6,0,L|295:112,1,220.000006713867,4|0,0:0|0:0,0:0:0:0:
471,209,239108,2,0,L|252:194,1,220.000006713867
96,315,239333,6,0,B|123:285|123:285|195:279,1,110.000003356934
328,328,239483,1,0,0:0:0:0:
328,328,239558,1,0,0:0:0:0:
317,125,239708,2,0,B|280:228|280:228|334:341,1,220.000006713867
449,183,240008,6,0,B|517:203|517:203|369:221,1,220.000006713867
247,153,240308,2,0,B|179:133|179:133|326:114,1,220.000006713867
300,358,240533,2,0,B|270:334|270:334|258:246,1,110.000003356934
138,209,240683,5,0,0:0:0:0:
168,233,240758,2,0,B|184:353,1,110.000003356934
260,263,240908,2,0,L|247:153,1,110.000003356934
352,293,241058,1,0,0:0:0:0:
348,265,241133,1,0,0:0:0:0:
345,238,241208,5,0,0:0:0:0:
359,160,241358,1,0,0:0:0:0:
318,82,241508,1,0,0:0:0:0:
332,4,241658,1,0,0:0:0:0:
335,5,241808,6,0,L|398:-1,1,55.0000016784668
318,82,241958,2,0,L|254:76,1,55.0000016784668
359,160,242108,2,0,L|422:154,1,55.0000016784668
342,237,242258,2,0,L|278:231,1,55.0000016784668
383,314,242408,5,0,0:0:0:0:
223,140,242558,5,0,0:0:0:0:
473,229,242708,5,0,0:0:0:0:
180,268,242858,5,0,0:0:0:0:
188,352,242933,1,0,0:0:0:0:
89,216,243083,5,0,0:0:0:0:
81,300,243158,1,0,0:0:0:0:
160,124,243308,5,0,0:0:0:0:
284,353,243458,5,0,0:0:0:0:
238,63,243608,1,0,0:0:0:0:
155,34,243683,1,0,0:0:0:0:
74,67,243758,1,0,0:0:0:0:
322,2,243908,5,0,0:0:0:0:
171,217,244058,5,0,0:0:0:0:
331,127,244208,6,0,B|435:80|514:161|514:161|417:148|359:221,1,359.999989013672
468,266,244658,1,0,0:0:0:0:
456,83,244808,5,0,0:0:0:0:
367,76,244883,1,0,0:0:0:0:
284,110,244958,1,0,0:0:0:0:
173,332,245108,5,0,0:0:0:0:
332,228,245258,5,0,0:0:0:0:
340,312,245333,1,0,0:0:0:0:
448,180,245483,5,0,0:0:0:0:
440,264,245558,1,0,0:0:0:0:
371,100,245708,5,0,0:0:0:0:
288,377,245858,5,0,0:0:0:0:
100,185,246008,5,0,0:0:0:0:
174,155,246083,1,0,0:0:0:0:
254,163,246158,1,0,0:0:0:0:
320,208,246233,1,0,0:0:0:0:
358,278,246308,1,0,0:0:0:0:
398,82,246458,5,0,0:0:0:0:
198,243,246608,2,0,B|92:263|21:191|21:191|77:212|137:201|185:141,1,359.999989013672
78,95,247058,5,0,0:0:0:0:
88,211,247133,1,0,0:0:0:0:
98,328,247208,1,0,0:0:0:0:
34,158,247358,6,0,P|79:275|188:326,1,239.999992675781
231,32,247658,5,0,0:0:0:0:
221,148,247733,1,0,0:0:0:0:
211,265,247808,1,0,0:0:0:0:
144,115,247958,6,0,P|247:185|366:164,1,239.999992675781
437,119,248258,5,0,0:0:0:0:
407,231,248333,1,0,0:0:0:0:
376,344,248408,1,0,0:0:0:0:
223,195,248558,5,0,0:0:0:0:
476,321,248708,5,0,0:0:0:0:
505,158,248858,5,0,0:0:0:0:
233,297,249008,5,0,0:0:0:0:
153,259,249083,1,0,0:0:0:0:
125,176,249158,1,0,0:0:0:0:
180,28,249308,5,0,0:0:0:0:
60,320,249458,5,0,0:0:0:0:
217,199,249608,5,0,0:0:0:0:
306,191,249683,1,0,0:0:0:0:
396,183,249758,1,0,0:0:0:0:
173,291,249908,5,0,0:0:0:0:
217,199,250058,5,0,0:0:0:0:
306,191,250133,1,0,0:0:0:0:
396,183,250208,1,0,0:0:0:0:
173,291,250358,5,0,0:0:0:0:
317,217,250508,5,0,0:0:0:0:
304,151,250583,1,0,0:0:0:0:
268,94,250658,1,0,0:0:0:0:
213,56,250733,1,0,0:0:0:0:
148,41,250808,6,0,L|52:49,3,89.9999972534181,0|0|0|0,0:0|0:0|0:0|0:0,0:0:0:0:
268,94,251108,2,0,L|363:102,3,80
166,190,251408,5,0,0:0:0:0:
166,190,251483,1,0,0:0:0:0:
166,190,251558,2,0,P|119:183|81:190,1,69.9999978637696
240,267,251708,5,0,0:0:0:0:
240,267,251783,1,0,0:0:0:0:
240,267,251858,2,0,P|284:260|328:270,1,59.9999981689454
148,337,252008,6,0,B|107:310|107:310|46:314,1,100,0|0,0:0|0:0,0:0:0:0:
21,313,252233,2,0,B|37:263|37:263|22:218,1,100,0|0,0:0|0:0,0:0:0:0:
7,175,252458,1,0,0:0:0:0:
2,130,252533,1,0,0:0:0:0:
17,88,252608,1,0,0:0:0:0:
48,56,252683,1,0,0:0:0:0:
90,40,252758,1,0,0:0:0:0:
134,42,252833,1,0,0:0:0:0:
178,51,252908,2,0,L|232:59,3,50,0|0|0|0,0:0|0:0|0:0|0:0,0:0:0:0:
262,64,253208,6,0,B|295:70|295:70|331:129,1,100,0|0,0:0|0:0,0:0:0:0:
384,178,253433,2,0,P|339:199|291:189,1,100,0|0,0:0|0:0,0:0:0:0:
250,171,253658,1,0,0:0:0:0:
210,150,253733,1,0,0:0:0:0:
166,152,253808,1,0,0:0:0:0:
129,177,253883,1,0,0:0:0:0:
110,218,253958,1,0,0:0:0:0:
115,262,254033,1,0,0:0:0:0:
124,306,254108,2,0,L|132:360,1,50,0|0,0:0|0:0,0:0:0:0:
192,232,254258,2,0,L|183:177,1,50,0|0,0:0|0:0,0:0:0:0:
277,281,254408,6,0,B|286:328|286:328|329:367,1,100,0|0,0:0|0:0,0:0:0:0:
355,347,254633,2,0,B|386:317|386:317|444:307,1,100,0|0,0:0|0:0,0:0:0:0:
486,299,254858,1,0,0:0:0:0:
506,260,254933,1,0,0:0:0:0:
510,215,255008,1,0,0:0:0:0:
498,172,255083,1,0,0:0:0:0:
472,136,255158,1,0,0:0:0:0:
434,112,255233,1,0,0:0:0:0:
390,103,255308,1,0,0:0:0:0:
346,110,255383,1,0,0:0:0:0:
304,127,255458,1,0,0:0:0:0:
260,130,255533,1,0,0:0:0:0:
216,118,255608,6,0,B|170:101|170:101|117:120,1,100,0|0,0:0|0:0,0:0:0:0:
116,156,255833,2,0,B|134:191|134:191|194:213,1,100,0|0,0:0|0:0,0:0:0:0:
233,226,256058,1,0,0:0:0:0:
275,213,256133,1,0,0:0:0:0:
306,180,256208,1,0,0:0:0:0:
316,137,256283,1,0,0:0:0:0:
303,95,256358,1,0,0:0:0:0:
270,64,256433,1,0,0:0:0:0:
227,55,256508,1,0,0:0:0:0:
184,68,256583,1,0,0:0:0:0:
154,101,256658,1,0,0:0:0:0:
126,136,256733,1,0,0:0:0:0:
98,171,256808,6,0,B|74:211|74:211|81:267,1,100,0|0,0:0|0:0,0:0:0:0:
102,291,257033,2,0,B|137:291|162:260|162:260|199:274,1,100,0|0,0:0|0:0,0:0:0:0:
280,315,257258,1,0,0:0:0:0:
280,315,257333,1,0,0:0:0:0:
280,315,257408,2,0,L|297:257,1,50,0|0,0:0|0:0,0:0:0:0:
385,204,257558,1,0,0:0:0:0:
385,204,257633,1,0,0:0:0:0:
385,204,257708,2,0,L|368:146,1,50,0|0,0:0|0:0,0:0:0:0:
299,88,257858,2,0,L|282:146,1,50,0|0,0:0|0:0,0:0:0:0:
273,169,258008,6,0,B|237:197|237:197|176:196,1,100,0|0,0:0|0:0,0:0:0:0:
165,165,258233,2,0,B|131:132|131:132|63:124,1,100,0|0,0:0|0:0,0:0:0:0:
38,145,258458,1,0,0:0:0:0:
16,183,258533,1,0,0:0:0:0:
16,228,258608,1,0,0:0:0:0:
37,267,258683,1,0,0:0:0:0:
75,290,258758,1,0,0:0:0:0:
120,292,258833,1,0,0:0:0:0:
159,271,258908,1,0,0:0:0:0:
201,255,258983,1,0,0:0:0:0:
245,258,259058,1,0,0:0:0:0:
283,281,259133,1,0,0:0:0:0:
311,317,259208,6,0,P|354:339|417:335,1,100,0|0,0:0|0:0,0:0:0:0:
447,323,259433,2,0,P|429:282|426:223,1,100,0|0,0:0|0:0,0:0:0:0:
451,146,259658,1,0,0:0:0:0:
451,146,259733,1,0,0:0:0:0:
451,146,259808,2,0,L|431:88,1,50,0|0,0:0|0:0,0:0:0:0:
372,39,259958,2,0,L|347:84,1,50,0|0,0:0|0:0,0:0:0:0:
300,189,260108,2,0,L|280:137,1,50,0|0,0:0|0:0,0:0:0:0:
181,4,260258,2,0,L|157:56,1,50,0|0,0:0|0:0,0:0:0:0:
129,141,260408,5,0,0:0:0:0:
174,141,260483,1,0,0:0:0:0:
211,116,260558,1,0,0:0:0:0:
237,82,260633,1,0,0:0:0:0:
274,62,260708,1,0,0:0:0:0:
322,64,260783,1,0,0:0:0:0:
361,82,260858,1,0,0:0:0:0:
379,123,260933,1,0,0:0:0:0:
375,168,261008,1,0,0:0:0:0:
350,205,261083,1,0,0:0:0:0:
310,225,261158,1,0,0:0:0:0:
266,223,261233,1,0,0:0:0:0:
227,201,261308,1,0,0:0:0:0:
205,163,261383,1,0,0:0:0:0:
174,130,261458,1,0,0:0:0:0:
134,111,261533,1,0,0:0:0:0:
89,109,261608,6,0,B|73:160|119:222,1,100,0|0,0:0|0:0,0:0:0:0:
146,349,261908,2,0,B|206:281|206:281|166:241|190:177,1,200,0|0,0:0|0:0,0:0:0:0:
200,190,262283,1,0,0:0:0:0:
200,190,262358,1,0,0:0:0:0:
200,190,262433,1,0,0:0:0:0:
200,190,262508,2,0,B|240:148|228:77,1,100,0|0,0:0|0:0,0:0:0:0:
327,59,262808,1,0,0:0:0:0:
331,107,262883,1,0,0:0:0:0:
328,157,262958,1,0,0:0:0:0:
311,203,263033,1,0,0:0:0:0:
281,245,263108,2,8,B|182:296,1,100,0|0,0:0|0:0,0:0:0:0:
188,377,263408,5,0,0:0:0:0:
141,361,263483,1,0,0:0:0:0:
110,323,263558,1,0,0:0:0:0:
108,273,263633,1,0,0:0:0:0:
131,229,263708,1,0,0:0:0:0:
165,192,263783,1,0,0:0:0:0:
179,145,263858,1,0,0:0:0:0:
173,96,263933,1,0,0:0:0:0:
155,49,264008,6,0,B|119:4|39:20|10:89|72:146,1,200,0|0,0:0|0:0,0:0:0:0:
90,196,264383,1,0,0:0:0:0:
146,148,264458,2,0,B|206:112|254:140,1,100,0|0,0:0|0:0,0:0:0:0:
341,249,264758,1,0,0:0:0:0:
355,123,264908,5,0,0:0:0:0:
355,123,264983,1,0,0:0:0:0:
355,123,265058,1,0,0:0:0:0:
355,123,265133,1,0,0:0:0:0:
355,123,265208,2,0,B|283:141|218:213|218:290,1,200,0|0,0:0|0:0,0:0:0:0:
198,337,265583,1,0,0:0:0:0:
146,281,265658,2,0,B|131:232|78:213,1,100,0|0,0:0|0:0,0:0:0:0:
35,194,265883,1,0,0:0:0:0:
22,146,265958,1,0,0:0:0:0:
42,102,266033,1,0,0:0:0:0:
83,74,266108,1,0,0:0:0:0:
132,73,266183,1,0,0:0:0:0:
171,103,266258,1,0,0:0:0:0:
178,152,266333,1,0,0:0:0:0:
155,195,266408,6,0,B|383:203,1,200,0|0,0:0|0:0,0:0:0:0:
436,203,266783,1,0,0:0:0:0:
386,127,266858,2,0,B|347:104|336:71|334:23,1,100,0|0,0:0|0:0,0:0:0:0:
505,0,267158,1,0,0:0:0:0:
472,175,267308,1,0,0:0:0:0:
428,199,267383,1,0,0:0:0:0:
380,207,267458,1,0,0:0:0:0:
332,195,267533,1,0,0:0:0:0:
298,180,267608,6,0,B|350:212|382:276|348:364,1,200,0|0,0:0|0:0,0:0:0:0:
308,371,267983,1,0,0:0:0:0:
308,371,268058,2,0,B|278:317|191:315,1,100,0|0,0:0|0:0,0:0:0:0:
133,315,268358,1,0,0:0:0:0:
83,311,268433,1,0,0:0:0:0:
42,283,268508,1,0,0:0:0:0:
23,238,268583,1,0,0:0:0:0:
26,189,268658,1,0,0:0:0:0:
59,150,268733,1,0,0:0:0:0:
109,150,268808,6,0,B|145:244,1,100,0|0,0:0|0:0,0:0:0:0:
403,150,269108,2,0,B|367:244,1,100,0|0,0:0|0:0,0:0:0:0:
256,368,269408,2,0,B|256:248,1,100,0|0,0:0|0:0,0:0:0:0:
256,268,269633,1,0,0:0:0:0:
256,268,269708,1,0,0:0:0:0:
256,167,269858,1,0,0:0:0:0:
256,64,270008,6,0,L|318:41,1,57.5000010967255,0|0,0:0|0:0,0:0:0:0:
148,101,270158,2,0,L|93:120,1,57.5000010967255,0|0,0:0|0:0,0:0:0:0:
240,172,270308,2,0,L|302:149,1,57.5000010967255,0|0,0:0|0:0,0:0:0:0:
132,209,270458,2,0,L|77:228,1,57.5000010967255,0|0,0:0|0:0,0:0:0:0:
221,270,270608,2,0,L|283:247,1,57.5000010967255,0|0,0:0|0:0,0:0:0:0:
114,308,270758,2,0,L|59:327,1,57.5000010967255,0|0,0:0|0:0,0:0:0:0:
95,102,270908,5,0,0:0:0:0:
99,78,270983,1,0,0:0:0:0:
103,53,271058,1,0,0:0:0:0:
107,29,271133,1,0,0:0:0:0:
111,5,271208,6,0,L|93:119,1,100,0|0,0:0|0:0,0:0:0:0:
195,313,271508,2,0,L|213:199,1,100,0|0,0:0|0:0,0:0:0:0:
190,76,271808,6,0,P|239:69|286:92,1,100,0|0,0:0|0:0,0:0:0:0:
424,340,272108,2,0,P|374:346|328:324,1,100,0|0,0:0|0:0,0:0:0:0:
228,142,272408,5,0,0:0:0:0:
384,276,272558,1,0,0:0:0:0:
304,32,272708,1,0,0:0:0:0:
242,279,272858,5,0,0:0:0:0:
387,112,273008,1,0,0:0:0:0:
170,169,273158,1,0,0:0:0:0:
346,316,273308,5,0,0:0:0:0:
257,70,273458,1,0,0:0:0:0:
178,317,273608,6,0,P|220:342|270:343,1,100,0|0,0:0|0:0,0:0:0:0:
472,173,273908,2,0,P|429:147|380:146,1,100,0|0,0:0|0:0,0:0:0:0:
254,244,274208,6,0,L|272:363,1,100,0|0,0:0|0:0,0:0:0:0:
394,245,274508,2,0,L|377:127,1,100,0|0,0:0|0:0,0:0:0:0:
358,20,274808,5,0,0:0:0:0:
240,268,274958,1,0,0:0:0:0:
182,114,275108,1,0,0:0:0:0:
404,132,275258,6,0,P|435:236|382:310,1,200,0|0,0:0|0:0,0:0:0:0:
232,343,275708,1,0,0:0:0:0:
191,332,275783,1,0,0:0:0:0:
151,317,275858,1,0,0:0:0:0:
110,305,275933,1,0,0:0:0:0:
71,289,276008,5,0,0:0:0:0:
232,197,276158,1,0,0:0:0:0:
28,138,276308,1,0,0:0:0:0:
261,33,276458,6,0,P|386:41|432:94,1,200,0|0,0:0|0:0,0:0:0:0:
388,319,276908,2,0,L|382:212,1,100,0|0,0:0|0:0,0:0:0:0:
325,105,277208,5,0,0:0:0:0:
73,147,277358,1,0,0:0:0:0:
269,245,277508,1,0,0:0:0:0:
225,0,277658,6,0,P|195:15|159:165,1,200,0|0,0:0|0:0,0:0:0:0:
282,331,278108,1,0,0:0:0:0:
240,105,278258,1,0,0:0:0:0:
150,239,278408,6,0,P|99:268|56:266,1,100
317,40,278708,2,0,P|367:10|410:12,1,100,0|0,0:0|0:0,0:0:0:0:
458,233,279008,5,0,0:0:0:0:
379,84,279158,1,0,0:0:0:0:
308,306,279308,1,0,0:0:0:0:
456,92,279458,2,0,P|405:13|315:38,1,200,0|0,0:0|0:0,0:0:0:0:
237,343,279908,5,0,0:0:0:0:
374,82,280058,1,0,0:0:0:0:
319,356,280208,6,0,L|312:303,1,50,0|0,0:0|0:0,0:0:0:0:
279,49,280358,2,0,L|285:98,1,50,0|0,0:0|0:0,0:0:0:0:
393,319,280508,6,0,L|338:260,1,50,0|0,0:0|0:0,0:0:0:0:
173,79,280658,2,0,L|207:115,1,50,0|0,0:0|0:0,0:0:0:0:
432,246,280808,6,0,P|440:198|439:140,1,89.9999972534181,0|0,0:0|0:0,0:0:0:0:
333,17,281108,1,0,0:0:0:0:
305,217,281258,1,0,0:0:0:0:
444,84,281408,2,0,P|396:88|340:104,1,89.9999972534181,0|0,0:0|0:0,0:0:0:0:
254,183,281708,1,0,0:0:0:0:
274,37,281858,1,0,0:0:0:0:
343,231,282008,6,0,P|263:275|174:245,1,179.999994506836,0|0,0:0|0:0,0:0:0:0:
81,173,282458,1,0,0:0:0:0:
81,173,282533,1,0,0:0:0:0:
81,173,282608,2,0,P|77:225|81:273,1,89.9999972534181,0|0,0:0|0:0,0:0:0:0:
178,116,282908,2,0,P|182:64|178:16,1,89.9999972534181,0|0,0:0|0:0,0:0:0:0:
275,173,283208,5,0,0:0:0:0:
340,285,283358,1,0,0:0:0:0:
394,115,283508,2,0,B|350:91|350:91|290:87,1,89.9999972534181,0|0,0:0|0:0,0:0:0:0:
153,226,283808,2,0,B|197:250|197:250|247:254,2,89.9999972534181,0|0|0,0:0|0:0|0:0,0:0:0:0:
40,127,284258,1,0,0:0:0:0:
2,296,284408,6,0,P|54:296|102:280,1,89.9999972534181,0|0,0:0|0:0,0:0:0:0:
245,161,284708,1,0,0:0:0:0:
235,332,284858,1,0,0:0:0:0:
100,161,285008,1,0,0:0:0:0:
328,264,285158,1,0,0:0:0:0:
328,264,285233,1,0,0:0:0:0:
328,264,285308,1,0,0:0:0:0:
30,200,285458,1,0,0:0:0:0:
30,200,285533,1,0,0:0:0:0:
30,200,285608,6,0,P|34:140|50:100,1,89.9999972534181,0|0,0:0|0:0,0:0:0:0:
200,15,285908,2,0,P|212:57|208:106,1,89.9999972534181
180,235,286208,1,0,0:0:0:0:
128,68,286358,1,0,0:0:0:0:
293,139,286508,1,0,0:0:0:0:
78,201,286658,1,0,0:0:0:0:
349,80,286808,6,0,P|369:125|365:174,1,89.9999972534181
220,341,287108,2,0,P|201:295|205:246,1,89.9999972534181,0|0,0:0|0:0,0:0:0:0:
293,139,287408,1,0,0:0:0:0:
275,280,287558,1,0,0:0:0:0:
103,193,287708,2,0,P|126:154|164:132,1,89.9999972534181,0|0,0:0|0:0,0:0:0:0:
353,73,288008,6,0,P|305:49|261:53,1,89.9999972534181,0|0,0:0|0:0,0:0:0:0:
177,207,288308,1,0,0:0:0:0:
291,123,288458,1,0,0:0:0:0:
135,68,288608,1,0,0:0:0:0:
265,229,288758,1,0,0:0:0:0:
299,21,288908,2,0,P|347:23|396:55,1,89.9999972534181,0|0,0:0|0:0,0:0:0:0:
339,207,289208,5,0,3:0:0:0:
320,176,289283,1,0,3:0:0:0:
313,141,289358,2,0,P|314:116|328:74,1,44.999998626709,0|0,3:0|3:0,3:0:0:0:
493,91,289508,5,0,3:0:0:0:
468,117,289583,1,0,3:0:0:0:
436,133,289658,2,0,P|412:137|368:135,1,44.999998626709,0|0,3:0|3:0,3:0:0:0:
236,103,289808,6,0,P|213:103|191:107,1,44.999998626709,0|0,3:0|3:0,3:0:0:0:
85,175,289958,2,0,P|107:174|129:170,1,44.999998626709,0|0,3:0|3:0,3:0:0:0:
238,217,290108,2,0,P|215:217|193:221,1,44.999998626709,0|0,3:0|3:0,3:0:0:0:
87,289,290258,2,0,P|109:288|131:284,1,44.999998626709,0|0,3:0|3:0,3:0:0:0:
239,331,290408,6,0,P|324:345|384:283,1,179.999994506836,2|8,0:0|0:0,0:0:0:0:
250,88,290858,1,0,0:0:0:0:
214,244,291008,2,0,L|110:244,1,89.9999972534181,2|0,0:0|0:0,0:0:0:0:
358,197,291308,2,0,L|462:197,1,89.9999972534181,8|0,0:0|0:0,0:0:0:0:
184,153,291608,5,2,0:0:0:0:
297,261,291758,1,0,0:0:0:0:
335,110,291908,1,8,0:0:0:0:
272,175,292058,1,0,0:0:0:0:
398,45,292208,2,0,P|418:135|360:198,1,179.999994506836,2|8,0:0|0:0,0:0:0:0:
272,175,292658,1,0,0:0:0:0:
227,164,292733,1,0,0:0:0:0:
184,152,292808,5,2,0:0:0:0:
147,304,292958,1,0,0:0:0:0:
34,196,293108,1,8,0:0:0:0:
205,235,293258,5,0,0:0:0:0:
59,282,293408,1,2,0:0:0:0:
92,127,293558,1,0,0:0:0:0:
323,342,293708,5,8,0:0:0:0:
59,282,293858,1,0,0:0:0:0:
242,84,294008,1,2,0:0:0:0:
217,247,294158,5,0,0:0:0:0:
217,247,294233,1,0,0:0:0:0:
217,247,294308,1,8,0:0:0:0:
154,62,294458,1,0,0:0:0:0:
331,106,294608,5,2,0:0:0:0:
364,196,294758,1,0,0:0:0:0:
395,281,294908,1,8,0:0:0:0:
239,334,295058,1,0,0:0:0:0:
228,289,295133,1,0,0:0:0:0:
216,246,295208,5,2,0:0:0:0:
82,194,295358,1,0,0:0:0:0:
93,239,295433,1,0,0:0:0:0:
105,282,295508,1,8,0:0:0:0:
184,152,295658,1,0,0:0:0:0:
162,113,295733,1,0,0:0:0:0:
124,89,295808,2,0,P|84:81|17:98,1,89.9999972534181,2|0,0:0|0:0,0:0:0:0:
216,246,296108,2,0,P|253:222|277:184,1,89.9999972534181,8|0,0:0|0:0,0:0:0:0:
246,87,296408,5,2,0:0:0:0:
184,152,296558,1,0,0:0:0:0:
360,196,296708,5,8,0:0:0:0:
335,109,296858,1,0,0:0:0:0:
276,184,297008,6,0,P|308:263|393:280,1,179.999994506836,2|8,0:0|0:0,0:0:0:0:
452,218,297458,1,0,0:0:0:0:
408,207,297533,1,0,0:0:0:0:
364,196,297608,5,0,0:0:0:0:
250,97,297758,1,0,0:0:0:0:
402,54,297908,1,8,0:0:0:0:
276,184,298058,5,0,0:0:0:0:
161,81,298208,1,2,0:0:0:0:
312,32,298358,1,0,0:0:0:0:
187,168,298508,5,8,0:0:0:0:
79,72,298658,1,0,0:0:0:0:
79,72,298733,1,0,0:0:0:0:
79,72,298808,1,8,0:0:0:0:
230,23,298958,1,0,0:0:0:0:
230,23,299033,1,0,0:0:0:0:
230,23,299108,1,8,0:0:0:0:
361,199,299258,1,0,0:0:0:0:
247,91,299408,5,0,0:0:0:0:
235,133,299483,1,0,0:0:0:0:
226,172,299558,1,0,0:0:0:0:
218,210,299633,1,0,0:0:0:0:
210,248,299708,1,0,0:0:0:0:
247,236,299783,1,0,0:0:0:0:
285,224,299858,1,0,0:0:0:0:
323,211,299933,1,0,0:0:0:0:
361,199,300008,6,0,B|409:151|373:87,1,104.999996795654,0|0,0:0|0:0,0:0:0:0:
355,68,300233,1,0,0:0:0:0:
320,46,300308,1,0,0:0:0:0:
282,31,300383,1,0,0:0:0:0:
244,16,300458,1,0,0:0:0:0:
135,71,300608,5,0,0:0:0:0:
95,168,300758,1,0,0:0:0:0:
141,271,300908,1,0,0:0:0:0:
233,319,301058,2,0,B|325:352|401:306|421:211,1,209.999993591309,0|0,0:0|0:0,0:0:0:0:
440,156,301508,1,0,0:0:0:0:
348,68,301658,1,0,0:0:0:0:
320,192,301808,5,0,0:0:0:0:
368,320,301958,1,0,0:0:0:0:
144,320,302108,1,0,0:0:0:0:
176,192,302258,1,0,0:0:0:0:
288,96,302408,6,0,B|344:76|412:116,1,104.999996795654,0|0,0:0|0:0,0:0:0:0:
224,288,302708,2,0,B|168:308|100:268,1,104.999996795654,0|0,0:0|0:0,0:0:0:0:
208,144,303008,2,0,B|203:133|184:92|208:20,1,104.999996795654,0|0,0:0|0:0,0:0:0:0:
304,240,303308,2,0,B|308:250|328:292|304:364,1,104.999996795654,0|0,0:0|0:0,0:0:0:0:
256,160,303608,5,0,0:0:0:0:
188,92,303758,1,0,0:0:0:0:
256,24,303908,1,0,0:0:0:0:
324,92,304058,1,0,0:0:0:0:
342,245,304358,5,0,0:0:0:0:
306,221,304433,1,0,0:0:0:0:
266,209,304508,1,0,0:0:0:0:
226,217,304583,1,0,0:0:0:0:
190,237,304658,1,0,0:0:0:0:
158,265,304733,1,0,0:0:0:0:
125,295,304808,6,0,B|116:349|65:349|31:332|17:301|20:247|74:239,1,209.999993591309
387,295,305258,2,0,B|396:349|447:349|481:332|495:301|492:247|438:239,1,209.999993591309
70,144,305708,6,0,B|20:137|17:83|31:52|65:35|116:35|124:87,1,209.999993591309
441,144,306159,2,0,B|492:137|495:83|481:52|447:35|396:35|387:89,1,209.999993591309
294,272,306608,2,0,B|324:317|286:355|256:362|225:355|191:317|218:272,1,209.999993591309
152,74,307058,6,0,B|125:27|75:38|54:61|44:91|58:143|113:140,1,209.999993591309
398,140,307508,2,0,B|453:143|467:91|457:61|436:38|386:27|360:74,1,209.999993591309
150,341,307958,6,0,B|259:395|349:288,1,209.999993591309
381,222,308408,2,0,L|327:200,1,52.4999983978272,0|0,0:0|0:0,0:0:0:0:
236,300,308558,2,0,L|241:241,1,52.4999983978272,0|0,0:0|0:0,0:0:0:0:
117,189,308708,2,0,L|181:177,1,52.4999983978272,0|0,0:0|0:0,0:0:0:0:
186,40,308858,2,0,L|210:87,1,52.4999983978272,0|0,0:0|0:0,0:0:0:0:
348,60,309008,6,0,L|308:101,1,52.4999983978272
251,162,309158,1,0,0:0:0:0:
224,190,309233,1,0,0:0:0:0:
212,227,309308,1,0,0:0:0:0:
218,267,309383,1,0,0:0:0:0:
242,298,309458,1,0,0:0:0:0:
277,316,309533,1,0,0:0:0:0:
317,316,309608,6,0,L|450:293,1,134.999995880127
373,174,309908,2,0,L|325:300,1,134.999995880127,0|0,0:0|0:0,0:0:0:0:
252,177,310208,2,0,L|390:153,1,134.999995880127,0|0,0:0|0:0,0:0:0:0:
270,91,310508,1,0,0:0:0:0:
234,264,310658,1,0,0:0:0:0:
165,159,310808,5,0,0:0:0:0:
321,282,310958,1,0,0:0:0:0:
252,177,311108,1,0,0:0:0:0:
216,351,311258,2,0,L|127:332,1,89.9999972534181,0|0,0:0|0:0,0:0:0:0:
60,227,311558,5,0,0:0:0:0:
252,177,311708,1,0,0:0:0:0:
147,246,311858,1,0,0:0:0:0:
270,91,312008,5,0,0:0:0:0:
408,300,312158,2,0,P|453:275|481:224,1,89.9999972534181,0|0,0:0|0:0,0:0:0:0:
357,109,312458,1,0,0:0:0:0:
321,283,312608,1,0,0:0:0:0:
188,164,312758,1,0,0:0:0:0:
388,206,312908,1,0,0:0:0:0:
235,264,313058,6,0,L|146:245,1,89.9999972534181,0|0,0:0|0:0,0:0:0:0:
28,131,313358,1,0,0:0:0:0:
252,177,313508,1,0,0:0:0:0:
60,227,313658,1,0,0:0:0:0:
183,73,313808,1,0,0:0:0:0:
235,264,313958,1,0,0:0:0:0:
96,55,314108,1,0,0:0:0:0:
174,325,314258,6,0,P|211:346|260:345,1,89.9999972534181,0|0,0:0|0:0,0:0:0:0:
426,213,314558,1,0,0:0:0:0:
235,264,314708,1,0,0:0:0:0:
408,300,314858,1,0,0:0:0:0:
270,91,315008,1,0,0:0:0:0:
321,283,315158,1,0,0:0:0:0:
444,127,315308,1,0,0:0:0:0:
252,177,315458,6,0,L|162:201,1,89.9999972534181,0|0,0:0|0:0,0:0:0:0:
60,227,315758,1,0,0:0:0:0:
183,73,315908,1,0,0:0:0:0:
235,264,316058,1,0,0:0:0:0:
78,141,316208,1,0,0:0:0:0:
357,109,316358,1,0,0:0:0:0:
174,325,316508,2,0,P|150:286|146:242,1,89.9999972534181,0|0,0:0|0:0,0:0:0:0:
270,91,316808,6,0,P|332:161|299:253,1,179.999994506836,0|0,0:0|0:0,0:0:0:0:
162,168,317258,2,0,L|255:176,1,89.9999972534181,0|0,0:0|0:0,0:0:0:0:
408,300,317558,2,0,L|313:311,1,89.9999972534181,0|0,0:0|0:0,0:0:0:0:
174,325,317858,1,0,0:0:0:0:
250,129,318008,6,0,L|243:181,1,44.999998626709,0|0,0:0|0:0,0:0:0:0:
334,237,318158,2,0,L|280:230,1,44.999998626709,0|0,0:0|0:0,0:0:0:0:
244,107,318308,6,0,L|237:159,1,44.999998626709,0|0,0:0|0:0,0:0:0:0:
329,216,318458,2,0,L|275:209,1,44.999998626709,0|0,0:0|0:0,0:0:0:0:
239,85,318608,6,0,L|232:137,1,44.999998626709,0|0,0:0|0:0,0:0:0:0:
325,194,318758,2,0,L|271:187,1,44.999998626709,0|0,0:0|0:0,0:0:0:0:
222,40,318908,5,0,0:0:0:0:
224,62,318983,1,0,0:0:0:0:
227,84,319058,1,0,0:0:0:0:
230,106,319133,1,0,0:0:0:0:
233,129,319208,6,0,L|457:151,1,220.000006713867,0|8,1:0|1:0,0:0:0:0:
324,244,319658,1,0,0:0:0:0:
275,43,319808,1,0,1:0:0:0:
165,191,319958,1,0,0:0:0:0:
396,70,320108,1,8,1:0:0:0:
383,307,320258,6,0,L|275:282,1,110.000003356934,0|0,0:0|1:0,0:0:0:0:
109,227,320558,2,0,L|226:199,1,110.000003356934,0|10,0:0|1:0,0:0:0:0:
369,168,320858,1,0,0:0:0:0:
141,124,321008,1,2,1:0:0:0:
204,308,321158,1,0,0:0:0:0:
343,104,321308,1,10,1:0:0:0:
114,209,321458,1,0,0:0:0:0:
233,14,321608,6,0,P|273:115|228:222,1,220.000006713867,0|8,1:0|1:0,0:0:0:0:
128,113,322058,1,0,0:0:0:0:
348,164,322208,1,0,1:0:0:0:
156,244,322358,1,0,0:0:0:0:
346,18,322508,2,0,L|366:126,1,110.000003356934,8|0,1:0|0:0,0:0:0:0:
390,263,322808,5,0,1:0:0:0:
234,153,322958,1,0,0:0:0:0:
466,179,323108,1,10,1:0:0:0:
240,266,323258,1,0,0:0:0:0:
318,78,323408,2,0,P|372:70|426:75,1,110.000003356934,2|0,1:0|0:0,0:0:0:0:
270,202,323708,2,0,P|215:209|161:204,1,110.000003356934,10|0,1:0|0:0,0:0:0:0:
226,87,324008,6,0,L|209:308,1,220.000006713867,0|8,1:0|1:0,0:0:0:0:
310,369,324458,1,0,0:0:0:0:
299,189,324608,1,0,1:0:0:0:
119,311,324758,1,0,0:0:0:0:
376,242,324908,2,0,P|383:183|373:132,1,110.000003356934,8|0,1:0|0:0,0:0:0:0:
203,54,325208,6,0,L|227:275,1,220.000006713867,0|10,1:0|1:0,0:0:0:0:
190,364,325658,1,0,0:0:0:0:
100,184,325808,1,2,1:0:0:0:
318,231,325958,1,0,0:0:0:0:
93,326,326108,1,10,1:1:0:0:
236,154,326258,1,0,0:0:0:0:
389,340,326408,6,0,P|404:224|374:112,1,220.000006713867,0|8,2:0|1:0,0:0:0:0:
260,34,326858,1,0,0:0:0:0:
486,96,327008,1,0,1:2:0:0:
262,196,327158,1,0,0:0:0:0:
391,35,327308,1,0,0:0:0:0:
485,229,327458,1,0,3:0:0:0:
485,229,327533,1,0,3:0:0:0:
485,229,327608,6,0,L|420:215,1,55.0000016784668,0|0,3:0|3:0,3:0:0:0:
225,172,327758,2,0,L|278:183,1,55.0000016784668,0|0,3:0|3:0,3:0:0:0:
447,98,327908,6,8,L|408:140,1,55.0000016784668,0|0,3:0|3:0,3:0:0:0:
259,304,328058,2,8,L|297:261,1,55.0000016784668,0|0,3:0|3:0,3:0:0:0:
310,62,328208,6,8,L|328:119,1,55.0000016784668,0|0,3:0|3:0,3:0:0:0:
398,339,328358,2,8,L|379:281,1,55.0000016784668,0|0,3:0|3:0,3:0:0:0:
187,82,328508,6,0,B|121:90|81:139|81:139|124:145|151:117,1,194.999991073609,8|0,0:0|0:0,0:0:0:0:
187,82,328808,6,0,P|232:91|270:119,1,89.9999972534181,0|0,0:0|0:0,0:0:0:0:
328,277,329108,2,0,P|282:267|244:239,1,89.9999972534181,0|0,0:0|0:0,0:0:0:0:
354,107,329408,2,0,P|344:152|316:190,1,89.9999972534181,0|0,0:0|0:0,0:0:0:0:
193,127,329708,1,0,0:0:0:0:
375,5,329858,6,0,P|437:67|440:158,1,179.999994506836,0|0,0:0|0:0,0:0:0:0:
323,240,330308,1,0,0:0:0:0:
354,107,330458,1,0,0:0:0:0:
354,107,330758,5,8,2:0:0:0:
323,240,330908,1,8,2:0:0:0:
206,96,331058,1,0,0:0:0:0:
407,182,331208,6,0,P|451:182|507:166,1,89.9999972534181,0|0,0:0|0:0,0:0:0:0:
389,288,331508,2,0,P|344:288|300:299,1,89.9999972534181,0|0,0:0|0:0,0:0:0:0:
129,228,331808,2,0,P|173:228|229:212,1,89.9999972534181,0|0,0:0|0:0,0:0:0:0:
291,144,332108,1,0,0:0:0:0:
94,149,332258,6,0,P|41:216|72:298,1,179.999994506836,0|0,0:0|0:0,0:0:0:0:
187,340,332708,1,0,0:0:0:0:
249,190,332858,1,0,0:0:0:0:
249,190,333158,5,0,0:0:0:0:
187,340,333308,1,0,0:0:0:0:
129,228,333458,1,0,0:0:0:0:
321,326,333608,5,0,0:0:0:0:
194,169,333758,1,0,0:0:0:0:
207,364,333908,1,0,0:0:0:0:
319,148,334058,1,0,0:0:0:0:
337,339,334208,1,0,0:0:0:0:
354,167,334358,1,0,0:0:0:0:
130,255,334508,1,0,0:0:0:0:
368,252,334658,6,0,P|423:217|411:107,1,179.999994506836,0|0,0:0|0:0,0:0:0:0:
326,60,335108,1,0,0:0:0:0:
506,0,335258,1,0,0:0:0:0:
506,0,335558,5,0,0:0:0:0:
326,60,335708,1,0,0:0:0:0:
468,121,335858,1,0,0:0:0:0:
278,188,336008,5,4,0:0:0:0:
413,37,336158,1,0,0:0:0:0:
429,224,336308,1,0,0:0:0:0:
245,91,336458,1,0,0:0:0:0:
435,135,336608,5,4,0:0:0:0:
177,189,336758,1,0,0:0:0:0:
324,57,336908,1,0,0:0:0:0:
303,292,337058,1,0,0:0:0:0:
95,273,337208,5,0,3:0:0:0:
71,238,337283,1,0,3:0:0:0:
66,198,337358,1,0,3:0:0:0:
78,159,337433,1,0,3:0:0:0:
101,126,337508,2,0,P|126:109|151:100,1,44.999998626709,0|0,3:0|3:0,3:0:0:0:
256,119,337658,2,0,P|227:134|205:141,1,44.999998626709,0|0,3:0|3:0,3:0:0:0:
211,60,337808,5,0,3:0:0:0:
211,60,337883,1,0,3:0:0:0:
211,60,337958,1,0,3:0:0:0:
211,60,338033,1,0,3:0:0:0:
211,60,338108,5,0,3:0:0:0:
248,42,338183,1,0,3:0:0:0:
290,45,338258,1,0,3:0:0:0:
326,67,338333,1,0,3:0:0:0:
346,104,338408,6,0,P|333:187|217:212,1,170.000003242493
265,132,338708,1,0,0:0:0:0:
387,250,338858,2,0,P|285:301|201:299,1,170.000003242493
265,132,339158,1,0,0:0:0:0:
420,177,339308,1,0,0:0:0:0:
307,279,339458,2,0,L|335:180,1,85.0000016212464
357,107,339608,5,0,0:0:0:0:
386,287,339758,2,0,P|303:293|236:237,1,170.000003242493
366,85,340058,1,0,0:0:0:0:
293,316,340208,1,0,0:0:0:0:
417,170,340358,1,0,0:0:0:0:
202,281,340508,2,0,P|174:196|184:104,1,170.000003242493
222,44,340733,1,0,0:0:0:0:
222,44,340808,6,0,P|268:55|357:52,1,85.0000016212464
231,183,340958,2,0,P|279:173|339:147,1,85.0000016212464
215,113,341108,6,0,P|244:111|297:95,1,75.0000028610231
271,226,341258,2,0,P|304:207|345:176,1,75.0000028610231
231,183,341408,6,0,P|254:175|294:150,1,64.9999970245363
318,264,341558,2,0,P|339:244|362:213,1,64.9999970245363
266,248,341708,6,0,P|286:235|316:203,1,55.0000016784668
369,290,341858,2,0,P|385:264|399:227,1,55.0000016784668,0|0,0:0|0:0,0:0:0:0:
399,144,342008,6,0,P|357:79|275:41,1,170.000003242493
144,92,342233,1,0,0:0:0:0:
144,92,342308,2,0,L|219:148,1,85.0000016212464,0|0,0:0|0:0,0:0:0:0:
113,240,342458,2,0,P|160:309|236:342,1,170.000003242493
382,295,342758,1,0,0:0:0:0:
236,342,342908,6,0,P|137:247|139:130,1,209.999993591309
151,100,343208,1,0,0:0:0:0:
151,100,343508,5,0,0:0:0:0:
169,188,343658,2,0,L|212:384,1,170.000003242493
273,247,343958,1,0,0:0:0:0:
115,139,344108,2,0,L|158:335,1,170.000003242493
248,341,344333,1,0,0:0:0:0:
248,341,344408,6,0,P|302:277|303:189,1,170.000003242493
53,233,344708,2,0,P|81:311|152:355,1,170.000003242493
243,118,345008,2,0,P|161:104|88:143,1,170.000003242493
205,244,345308,1,0,0:0:0:0:
174,207,345383,1,0,0:0:0:0:
160,250,345458,1,0,0:0:0:0:
247,341,345608,6,0,P|311:240|251:123,1,255.000004863739
180,102,345908,1,0,0:0:0:0:
389,246,346058,1,0,0:0:0:0:
436,127,346208,1,0,0:0:0:0:
205,227,346358,1,0,0:0:0:0:
97,58,346508,2,0,P|165:13|247:32,1,170.000003242493
372,128,346808,6,0,L|455:111,1,85.0000016212464
295,209,346958,2,0,L|196:189,1,85.0000016212464
381,243,347108,2,0,L|504:219,1,85.0000016212464
304,324,347258,2,0,L|205:304,1,85.0000016212464
23,247,347408,5,0,0:0:0:0:
70,233,347483,1,0,0:0:0:0:
117,219,347558,1,0,0:0:0:0:
164,205,347633,1,0,0:0:0:0:
211,192,347708,2,0,P|241:158|244:91,1,85.0000016212464
130,57,347858,2,0,P|101:87|91:128,1,85.0000016212464
117,219,348008,5,0,0:0:0:0:
280,345,348158,2,0,L|267:235,1,110.000003356934,0|0,0:0|0:0,0:0:0:0:
172,126,348458,1,0,0:0:0:0:
149,328,348608,1,0,0:0:0:0:
329,192,348758,2,0,P|278:162|225:173,1,110.000003356934
105,229,349058,1,0,0:0:0:0:
387,142,349208,5,0,0:0:0:0:
126,237,349358,1,0,0:0:0:0:
318,56,349508,5,0,0:0:0:0:
194,321,349658,1,0,0:0:0:0:
204,45,349808,5,0,0:0:0:0:
309,333,349958,1,0,0:0:0:0:
123,126,350108,5,0,0:0:0:0:
388,251,350258,1,0,0:0:0:0:
204,45,350408,5,0,0:0:0:0:
249,304,350558,2,0,P|298:328|351:314,1,110.000003356934,0|0,0:0|0:0,0:0:0:0:
435,125,350858,1,0,0:0:0:0:
175,159,351008,1,0,0:0:0:0:
308,252,351158,2,0,B|330:228|330:228|324:150,1,110.000003356934,0|0,0:0|0:0,0:0:0:0:
230,24,351458,1,0,0:0:0:0:
150,237,351608,5,0,0:0:0:0:
403,181,351758,1,0,0:0:0:0:
135,244,351908,5,0,0:0:0:0:
433,280,352058,1,0,0:0:0:0:
120,251,352208,6,0,B|102:197|102:197|116:145,1,110.000003356934,0|0,0:0|0:0,0:0:0:0:
241,35,352508,1,0,0:0:0:0:
118,329,352658,1,0,0:0:0:0:
104,327,352733,1,0,0:0:0:0:
91,324,352808,5,0,0:0:0:0:
187,184,352958,1,0,0:0:0:0:
252,364,353108,1,0,0:0:0:0:
18,242,353258,1,0,0:0:0:0:
224,262,353408,1,0,0:0:0:0:
42,360,353558,1,0,0:0:0:0:
129,134,353708,2,0,B|152:108|152:108|232:114,1,110.000003356934,0|0,0:0|0:0,0:0:0:0:
332,204,354008,6,0,B|355:230|355:230|435:224,1,110.000003356934,0|0,0:0|0:0,0:0:0:0:
462,102,354308,1,0,0:0:0:0:
236,218,354458,1,0,0:0:0:0:
479,283,354608,2,0,P|505:234|494:181,1,110.000003356934,0|0,0:0|0:0,0:0:0:0:
338,33,354908,6,0,B|306:66|306:66|315:186,1,165.000005035401,0|0,0:0|0:0,0:0:0:0:
361,247,355208,2,0,P|308:262|258:240,1,110.000003356934,0|0,0:0|0:0,0:0:0:0:
379,269,355508,6,0,P|298:288|225:252,1,165.000005035401,0|0,0:0|0:0,0:0:0:0:
168,195,355808,1,0,0:0:0:0:
300,88,355958,2,0,L|307:199,2,110.000003356934,0|0|0,0:0|0:0|0:0,0:0:0:0:
214,27,356408,6,0,L|147:23,3,55.0000016784668,0|0|0|0,0:0|0:0|0:0|0:0,0:0:0:0:
144,110,356708,2,0,L|89:112,3,55.0000016784668,0|0|0|0,0:0|0:0|0:0|0:0,0:0:0:0:
107,213,357008,5,0,0:0:0:0:
123,263,357083,1,0,0:0:0:0:
165,297,357158,2,0,P|204:305|229:302,1,55.0000016784668
316,184,357308,2,0,P|302:146|287:125,1,55.0000016784668,0|0,0:0|0:0,0:0:0:0:
144,110,357458,2,0,P|117:139|106:162,1,55.0000016784668,0|0,0:0|0:0,0:0:0:0:
147,313,357608,6,0,P|199:327|237:323,1,80
402,222,357908,1,0,0:0:0:0:
379,215,357983,1,0,0:0:0:0:
357,214,358058,1,0,0:0:0:0:
332,215,358133,1,0,0:0:0:0:
310,221,358208,1,0,0:0:0:0:
157,346,358358,1,0,0:0:0:0:
352,296,358508,1,0,0:0:0:0:
248,171,358658,6,0,L|256:251,1,80
268,372,358958,1,0,0:0:0:0:
176,228,359108,1,0,0:0:0:0:
152,221,359183,1,0,0:0:0:0:
130,221,359258,1,0,0:0:0:0:
106,225,359333,1,0,0:0:0:0:
84,233,359408,1,0,0:0:0:0:
176,130,359558,1,0,0:0:0:0:
133,303,359708,1,0,0:0:0:0:
55,120,359858,70,0,L|135:112,1,80
247,100,360158,1,0,0:0:0:0:
95,284,360308,1,0,0:0:0:0:
97,261,360383,1,0,0:0:0:0:
99,238,360458,1,0,0:0:0:0:
101,213,360533,1,0,0:0:0:0:
102,193,360608,1,0,0:0:0:0:
269,224,360758,1,0,0:0:0:0:
139,347,360908,1,0,0:0:0:0:
159,136,361058,6,0,L|238:152,1,80
362,174,361358,1,0,0:0:0:0:
152,239,361508,1,0,0:0:0:0:
316,98,361658,1,0,0:0:0:0:
212,314,361808,1,0,0:0:0:0:
182,104,361958,1,0,0:0:0:0:
382,323,362108,2,0,P|349:345|310:354,1,80
244,213,362408,6,0,P|276:190|315:181,1,80
313,268,362708,1,0,0:0:0:0:
294,282,362783,1,0,0:0:0:0:
271,292,362858,1,0,0:0:0:0:
250,297,362933,1,0,0:0:0:0:
225,297,363008,1,0,0:0:0:0:
116,155,363158,1,0,0:0:0:0:
159,341,363308,1,0,0:0:0:0:
142,132,363458,6,0,P|182:124|222:124,1,80
293,197,363758,1,0,0:0:0:0:
220,30,363908,1,0,0:0:0:0:
244,34,363983,1,0,0:0:0:0:
268,37,364058,1,0,0:0:0:0:
292,41,364133,1,0,0:0:0:0:
316,43,364208,1,0,0:0:0:0:
395,174,364358,1,0,0:0:0:0:
251,125,364508,1,0,0:0:0:0:
484,111,364658,70,0,P|496:151|500:191,1,80,0|0,0:0|0:0,0:0:0:0:
461,357,364958,1,0,0:0:0:0:
353,253,365108,1,0,0:0:0:0:
354,232,365183,1,0,0:0:0:0:
356,209,365258,1,0,0:0:0:0:
358,186,365333,1,0,0:0:0:0:
361,163,365408,1,0,0:0:0:0:
395,38,365558,1,0,0:0:0:0:
490,204,365708,1,0,0:0:0:0:
371,30,365858,5,0,0:0:0:0:
259,131,366008,1,0,0:0:0:0:
257,154,366083,1,0,0:0:0:0:
256,175,366158,2,0,L|251:215,1,40,0|0,0:0|0:0,0:0:0:0:
159,384,366308,2,0,L|163:343,1,40,0|0,0:0|0:0,0:0:0:0:
276,151,366458,2,0,L|271:191,1,40,0|0,0:0|0:0,0:0:0:0:
241,312,366608,1,0,0:0:0:0:
264,310,366683,1,0,0:0:0:0:
285,309,366758,2,0,L|325:304,1,40,0|0,0:0|0:0,0:0:0:0:
460,225,366908,1,0,0:0:0:0:
437,223,366983,1,0,0:0:0:0:
416,222,367058,2,0,L|375:217,1,40,0|0,0:0|0:0,0:0:0:0:
208,197,367208,5,0,0:0:0:0:
313,53,367358,1,0,0:0:0:0:
313,231,367508,1,0,0:0:0:0:
208,87,367658,1,0,0:0:0:0:
377,142,367808,1,0,0:0:0:0:
187,102,367958,1,0,0:0:0:0:
406,65,368108,1,0,0:0:0:0:
292,246,368258,1,0,0:0:0:0:
321,31,368408,5,0,0:0:0:0:
168,203,368558,1,0,0:0:0:0:
399,221,368708,1,0,0:0:0:0:
170,74,368858,1,0,0:0:0:0:
286,274,369008,1,0,0:0:0:0:
308,44,369158,1,0,0:0:0:0:
155,216,369308,1,0,0:0:0:0:
384,170,369458,1,0,0:0:0:0:
384,170,369533,1,0,0:0:0:0:
384,170,369608,5,0,0:0:0:0:
159,93,369758,1,0,0:0:0:0:
254,256,369908,1,0,0:0:0:0:
364,107,370058,1,0,0:0:0:0:
115,168,370208,1,0,0:0:0:0:
320,207,370358,1,0,0:0:0:0:
220,7,370508,1,0,0:0:0:0:
457,69,370658,1,0,0:0:0:0:
297,218,370808,5,0,0:0:0:0:
198,19,370958,1,0,0:0:0:0:
435,80,371108,1,0,0:0:0:0:
273,231,371258,1,0,0:0:0:0:
273,231,371333,1,0,0:0:0:0:
273,231,371408,1,0,0:0:0:0:
320,12,371558,1,0,0:0:0:0:
390,184,371708,1,0,0:0:0:0:
218,46,371858,1,0,0:0:0:0:
382,271,372008,6,0,P|433:254|470:214,1,110.000003356934,0|0,0:0|0:0,0:0:0:0:
151,262,372309,2,0,P|103:235|74:189,1,110.000003356934,0|0,0:0|0:0,0:0:0:0:
264,350,372608,2,0,L|269:240,1,110.000003356934,0|0,0:0|0:0,0:0:0:0:
80,79,372908,2,0,L|74:188,1,110.000003356934,0|0,0:0|0:0,0:0:0:0:
392,140,373208,6,0,P|439:166|468:212,1,110.000003356934,0|0,0:0|0:0,0:0:0:0:
162,131,373509,2,0,P|110:148|73:188,1,110.000003356934,0|0,0:0|0:0,0:0:0:0:
280,52,373808,2,0,L|274:161,1,110.000003356934,0|0,0:0|0:0,0:0:0:0:
464,323,374108,2,0,L|470:214,1,110.000003356934,0|0,0:0|0:0,0:0:0:0:
398,35,374408,5,0,0:0:0:0:
484,187,374558,1,0,0:0:0:0:
398,35,374708,2,0,L|275:44,1,110.000003356934,0|0,0:0|0:0,0:0:0:0:
138,167,375008,1,0,0:0:0:0:
52,15,375158,1,0,0:0:0:0:
138,167,375308,2,0,L|261:158,1,110.000003356934,0|0,0:0|0:0,0:0:0:0:
329,211,375608,5,0,0:0:0:0:
331,249,375683,1,0,0:0:0:0:
319,285,375758,1,0,0:0:0:0:
294,314,375833,1,0,0:0:0:0:
260,332,375908,2,0,P|235:338|198:328,1,55.0000016784668,0|0,0:0|0:0,0:0:0:0:
106,248,376058,1,0,0:0:0:0:
106,248,376133,1,0,0:0:0:0:
106,248,376208,6,0,L|108:175,1,55.0000016784668,0|0,0:0|0:0,0:0:0:0:
215,239,376358,2,0,L|312:248,1,55.0000016784668,0|0,0:0|0:0,0:0:0:0:
256,124,376508,2,0,L|158:115,1,55.0000016784668,0|0,0:0|0:0,0:0:0:0:
366,116,376658,2,0,L|365:177,1,55.0000016784668,0|0,0:0|0:0,0:0:0:0:
424,325,376808,6,0,B|427:254|427:254|453:214|453:214|453:151,1,179.999994506836
320,92,377258,2,0,P|343:135|364:170,1,89.9999972534181,0|0,0:0|0:0,0:0:0:0:
506,285,377558,1,0,0:0:0:0:
341,268,377708,2,0,P|296:273|252:282,1,89.9999972534181,0|0,0:0|0:0,0:0:0:0:
100,342,378008,6,0,L|118:253,1,89.9999972534181,0|0,0:0|0:0,0:0:0:0:
192,102,378308,2,0,P|240:56|306:52,1,134.999995880127,0|0,0:0|0:0,0:0:0:0:
331,60,378608,2,0,L|350:148,1,89.9999972534181,0|0,0:0|0:0,0:0:0:0:
166,286,378908,2,0,L|147:198,1,89.9999972534181,0|0,0:0|0:0,0:0:0:0:
232,0,379208,6,0,P|280:84|253:166,1,179.999994506836,0|0,0:0|0:0,0:0:0:0:
156,93,379658,1,0,0:0:0:0:
354,22,379808,2,0,P|367:88|357:155,1,134.999995880127
345,179,380108,2,0,P|303:168|248:157,1,89.9999972534181
105,291,380408,6,0,L|194:273,1,89.9999972534181,0|0,0:0|0:0,0:0:0:0:
374,192,380708,2,0,L|402:344,1,134.999995880127,0|0,0:0|0:0,0:0:0:0:
402,351,381008,2,0,L|314:331,1,89.9999972534181,0|0,0:0|0:0,0:0:0:0:
162,205,381308,2,0,L|249:184,1,89.9999972534181,0|0,0:0|0:0,0:0:0:0:
417,238,381608,6,0,B|383:244|357:257|357:257|306:248|306:248|279:269|235:270,1,179.999994506836,0|0,0:0|0:0,0:0:0:0:
355,172,382058,2,0,P|366:128|374:84,1,89.9999972534181,0|0,0:0|0:0,0:0:0:0:
242,41,382358,1,0,0:0:0:0:
268,193,382508,1,0,0:0:0:0:
383,97,382658,1,0,0:0:0:0:
191,144,382808,6,0,L|102:160,1,89.9999972534181,0|0,0:0|0:0,0:0:0:0:
414,105,383108,1,0,0:0:0:0:
319,289,383258,1,0,0:0:0:0:
302,281,383333,1,0,0:0:0:0:
285,270,383408,2,0,P|272:227|268:183,1,89.9999972534181,0|0,0:0|0:0,0:0:0:0:
393,341,383708,2,0,B|350:329|350:329|309:366|249:353,1,134.999995880127,0|0,0:0|0:0,0:0:0:0:
205,287,384008,6,0,B|157:292|125:316|125:316|79:318|23:290,1,179.999994506836,0|0,0:0|0:0,0:0:0:0:
192,374,384458,1,0,0:0:0:0:
102,236,384608,2,0,P|91:192|85:147,1,89.9999972534181,0|0,0:0|0:0,0:0:0:0:
246,7,384908,2,0,P|256:50|262:95,1,89.9999972534181,0|0,0:0|0:0,0:0:0:0:
74,126,385208,5,0,0:0:0:0:
118,133,385283,1,0,0:0:0:0:
162,140,385358,2,0,L|208:147,1,44.999998626709,0|0,0:0|0:0,0:0:0:0:
353,93,385508,1,0,0:0:0:0:
338,135,385583,1,0,0:0:0:0:
328,179,385658,2,0,P|323:200|321:223,1,44.999998626709,0|0,0:0|0:0,0:0:0:0:
280,301,385808,1,0,0:0:0:0:
324,309,385883,1,0,0:0:0:0:
366,293,385958,1,0,0:0:0:0:
393,258,386033,1,0,0:0:0:0:
399,214,386108,6,0,L|399:150,1,44.999998626709,0|0,0:0|0:0,0:0:0:0:
301,39,386258,2,0,L|301:103,1,44.999998626709,0|0,0:0|0:0,0:0:0:0:
216,312,386408,6,0,L|216:201,1,110.000003356934,0|0,0:0|0:0,0:0:0:0:
217,121,386708,37,0,0:0:0:0:
217,121,386783,1,0,0:0:0:0:
114,70,386858,5,0,0:0:0:0:
114,70,386933,1,0,0:0:0:0:
114,70,387008,2,0,L|114:180,1,110.000003356934,0|0,0:0|0:0,0:0:0:0:
292,144,387308,5,0,0:0:0:0:
292,144,387383,1,0,0:0:0:0:
438,119,387458,5,0,0:0:0:0:
438,119,387533,1,0,0:0:0:0:
438,119,387608,2,0,L|438:229,1,110.000003356934,0|0,0:0|0:0,0:0:0:0:
496,367,387908,37,0,0:0:0:0:
428,358,387983,1,0,0:0:0:0:
360,349,388058,1,0,0:0:0:0:
292,340,388133,1,0,0:0:0:0:
224,331,388208,1,0,0:0:0:0:
156,322,388283,1,0,0:0:0:0:
88,313,388358,1,0,0:0:0:0:
20,304,388433,1,0,0:0:0:0:
61,249,388508,2,0,L|61:138,1,110.000003356934,0|0,0:0|0:0,0:0:0:0:
142,53,388733,1,0,0:0:0:0:
142,53,388808,6,0,L|142:164,1,110.000003356934,0|0,0:0|0:0,0:0:0:0:
265,276,389033,1,0,0:0:0:0:
265,276,389108,2,0,L|265:165,1,110.000003356934,0|0,0:0|0:0,0:0:0:0:
390,46,389333,1,0,0:0:0:0:
390,46,389408,2,0,L|390:157,1,110.000003356934,0|0,0:0|0:0,0:0:0:0:
336,312,389708,5,0,0:0:0:0:
336,312,389783,1,0,0:0:0:0:
172,14,389858,5,0,0:0:0:0:
172,14,389933,1,0,0:0:0:0:
172,14,390008,2,0,L|172:136,1,110.000003356934,0|0,0:0|0:0,0:0:0:0:
46,379,390308,37,0,0:0:0:0:
114,370,390383,1,0,0:0:0:0:
182,361,390458,1,0,0:0:0:0:
250,352,390533,1,0,0:0:0:0:
318,343,390608,1,0,0:0:0:0:
250,334,390683,1,0,0:0:0:0:
182,325,390758,1,0,0:0:0:0:
114,316,390833,1,0,0:0:0:0:
182,307,390908,1,0,0:0:0:0:
250,298,390983,1,0,0:0:0:0:
318,289,391058,1,0,0:0:0:0:
386,280,391133,1,0,0:0:0:0:
455,270,391208,6,0,L|455:158,1,110.000003356934,0|0,0:0|0:0,0:0:0:0:
175,189,391508,5,0,0:0:0:0:
175,189,391583,1,0,0:0:0:0:
317,170,391658,5,0,0:0:0:0:
317,170,391733,1,0,0:0:0:0:
317,170,391808,2,0,L|317:280,1,110.000003356934,0|0,0:0|0:0,0:0:0:0:
421,34,392108,5,0,0:0:0:0:
421,34,392183,1,0,0:0:0:0:
250,116,392258,5,0,0:0:0:0:
250,116,392333,1,0,0:0:0:0:
250,116,392408,2,0,L|250:226,1,110.000003356934,0|0,0:0|0:0,0:0:0:0:
17,318,392708,37,0,0:0:0:0:
85,309,392783,1,0,0:0:0:0:
153,300,392858,1,0,0:0:0:0:
221,291,392933,1,0,0:0:0:0:
289,282,393008,1,0,0:0:0:0:
357,273,393083,1,0,0:0:0:0:
425,264,393158,1,0,0:0:0:0:
493,255,393233,1,0,0:0:0:0:
452,200,393308,2,0,L|452:85,1,110.000003356934,0|0,0:0|0:0,0:0:0:0:
372,25,393533,1,0,0:0:0:0:
372,25,393608,6,0,L|372:136,1,110.000003356934,0|0,0:0|0:0,0:0:0:0:
300,228,393833,1,0,0:0:0:0:
300,228,393908,2,0,L|300:161,1,55.0000016784668,0|0,0:0|0:0,0:0:0:0:
187,214,394058,2,0,L|187:139,1,55.0000016784668,0|0,0:0|0:0,0:0:0:0:
69,198,394208,2,0,L|69:85,1,110.000003356934,0|0,0:0|0:0,0:0:0:0:
254,325,394508,5,0,0:0:0:0:
254,325,394583,1,0,0:0:0:0:
497,271,394658,5,0,0:0:0:0:
497,271,394733,1,0,0:0:0:0:
497,271,394808,37,0,0:0:0:0:
429,262,394883,1,0,0:0:0:0:
361,253,394958,1,0,0:0:0:0:
293,244,395033,1,0,0:0:0:0:
225,235,395108,1,0,0:0:0:0:
157,226,395183,1,0,0:0:0:0:
89,217,395258,6,0,L|89:162,1,55.0000016784668,0|0,0:0|0:0,0:0:0:0:
171,122,395408,2,0,L|171:177,1,55.0000016784668,0|0,0:0|0:0,0:0:0:0:
7,232,395558,6,0,L|7:177,1,55.0000016784668,0|0,0:0|0:0,0:0:0:0:
89,26,395708,2,0,L|89:81,1,55.0000016784668,0|0,0:0|0:0,0:0:0:0:
171,177,395858,2,0,L|171:232,1,55.0000016784668,0|0,0:0|0:0,0:0:0:0:
92,346,396008,6,0,B|30:239|57:58|57:58|139:135|205:157|228:158|228:158|198:66|223:23|223:23|305:106|415:41|415:41|335:238|244:256|187:232|125:202|125:202|137:282|184:349|184:349|339:331|440:160|440:160|399:268|466:368,1,1899.99994926453
443,328,397658,5,0,0:0:0:0:
443,328,397808,1,0,0:0:0:0:
346,312,397958,1,0,0:0:0:0:
259,222,398108,1,0,0:0:0:0:
273,68,398258,1,0,0:0:0:0:
413,21,398408,6,0,B|476:101|462:233|462:233|382:138|239:130|239:130|309:87|359:76|359:76|231:0|51:80|51:80|157:122|153:214|153:214|284:184|375:233|426:329|426:329|221:257|88:348|88:348|100:269|60:219,1,1899.99994926453
71,235,400058,5,0,0:0:0:0:
71,235,400208,1,0,0:0:0:0:
160,155,400358,1,0,0:0:0:0:
300,121,400508,1,0,0:0:0:0:
435,190,400658,1,0,0:0:0:0:
458,319,400808,6,0,B|249:361|138:267|138:267|243:267|322:227|322:227|328:88|183:30|183:30|169:131|250:187|250:187,1,949.999974632264
238,177,401708,1,0,0:0:0:0:
398,234,401858,1,0,0:0:0:0:
327,89,402008,6,0,B|288:29|218:17|218:17|225:147|322:228|322:228|205:201|109:273,1,569.999984779358
80,318,402608,2,0,B|27:252|80:187|80:187|132:122|80:57,1,284.999992389679
10,13,402908,2,0,B|-21:68|24:126|24:126|102:68|206:73,1,284.999992389679
227,2,403208,6,0,B|291:48|277:163|161:165|161:165|224:242|302:200|302:200|385:158|466:223,1,569.999984779358
373,277,403808,6,0,B|356:168|374:60|443:11|443:11|492:58|474:136|474:136|387:100|319:113,1,569.999984779358
204,175,404408,5,4,3:0:0:0:
204,175,404483,1,0,3:0:0:0:
204,175,404557,2,0,B|255:196|295:178,1,94.9999974632264,0|0,3:0|3:0,3:0:0:0:
464,217,404708,5,4,3:0:0:0:
464,217,404783,1,0,3:0:0:0:
464,217,404858,2,0,B|426:176|382:175,1,94.9999974632264,0|0,3:0|3:0,3:0:0:0:
274,43,405008,5,4,3:0:0:0:
274,43,405083,1,0,3:0:0:0:
274,43,405157,2,0,B|304:80|304:80|347:98,1,94.9999974632264,0|0,3:0|3:0,3:0:0:0:
478,102,405308,5,4,3:0:0:0:
478,102,405383,1,0,3:0:0:0:
478,102,405457,2,0,B|466:55|466:55|434:20,1,94.9999974632264,0|0,3:0|3:0,3:0:0:0:
363,23,405608,5,4,0:0:0:0:
363,23,405683,1,0,0:0:0:0:
363,23,405758,2,0,B|259:23,1,75.0000028610231,0|0,0:0|0:0,0:0:0:0:
236,91,405908,2,0,B|220:139|172:155,1,75.0000028610231,0|0,0:0|0:0,0:0:0:0:
59,202,406058,2,0,B|71:162|127:142,1,75.0000028610231,0|0,0:0|0:0,0:0:0:0:
149,75,406208,2,0,B|149:-17,2,75.0000028610231
189,147,406433,2,0,B|255:147|255:147|288:182|330:172,1,150.000005722046
414,189,406658,1,0,0:0:0:0:
386,108,406733,1,0,0:0:0:0:
330,171,406808,6,0,B|270:231,1,75.0000028610231
216,274,406958,2,0,B|216:349,1,75.0000028610231,0|0,0:0|0:0,0:0:0:0:
246,138,407108,2,0,B|192:191,1,75.0000028610231,0|0,0:0|0:0,0:0:0:0:
132,241,407258,2,0,B|132:341,1,75.0000028610231,0|0,0:0|0:0,0:0:0:0:
96,384,407408,2,0,B|144:404|180:376,2,75.0000028610231,0|0|0,0:0|0:0|0:0,0:0:0:0:
132,316,407633,2,0,B|154:262|154:218|130:170,1,150.000005722046,0|0,0:0|0:0,0:0:0:0:
57,210,407858,1,0,0:0:0:0:
57,210,407933,1,0,0:0:0:0:
57,210,408008,6,0,B|37:166|69:114,1,75.0000028610231,0|0,0:0|0:0,0:0:0:0:
118,73,408158,2,0,B|158:49|202:73,1,75.0000028610231,0|0,0:0|0:0,0:0:0:0:
272,100,408308,2,0,B|319:119|319:119|359:75|424:95,1,150.000005722046,0|0,0:0|0:0,0:0:0:0:
466,156,408533,1,0,0:0:0:0:
383,170,408608,2,0,B|400:199|388:243,2,75.0000028610231,0|0|0,0:0|0:0|0:0,0:0:0:0:
312,214,408833,2,0,B|293:259|297:307|333:355,1,150.000005722046,0|0,0:0|0:0,0:0:0:0:
427,342,409058,1,0,0:0:0:0:
436,268,409133,1,0,0:0:0:0:
406,200,409208,5,0,0:0:0:0:
266,61,409358,1,0,0:0:0:0:
211,256,409508,1,0,0:0:0:0:
406,200,409658,2,0,B|378:168|322:176,1,75.0000028610231,0|0,0:0|0:0,0:0:0:0:
255,175,409808,2,0,B|163:175,2,75.0000028610231,0|0|0,0:0|0:0|0:0,0:0:0:0:
338,174,410033,2,0,B|352:209|356:269|336:321,1,150.000005722046,0|0,0:0|0:0,0:0:0:0:
273,369,410258,1,0,0:0:0:0:
229,301,410333,1,0,0:0:0:0:
193,373,410408,70,0,B|105:373,1,75.0000028610231,0|0,0:0|0:0,0:0:0:0:
145,301,410558,2,0,B|101:258|41:277|41:277|-7:237,2,150.000005722046
75,359,410933,1,0,0:0:0:0:
150,380,411008,2,0,B|194:396|242:376,2,75.0000028610231,0|0|0,0:0|0:0|0:0,0:0:0:0:
186,306,411233,2,0,B|186:146,1,150.000005722046,0|0,0:0|0:0,0:0:0:0:
227,82,411458,1,0,0:0:0:0:
266,154,411533,1,0,0:0:0:0:
309,83,411608,2,0,B|350:113|348:167,1,75.0000028610231,0|0,0:0|0:0,0:0:0:0:
299,230,411758,2,0,B|231:249|191:193|191:193|149:193,2,150.000005722046
266,154,412133,1,0,0:0:0:0:
214,94,412208,5,0,0:0:0:0:
214,94,412283,2,0,B|162:86|106:98,1,75.0000028610231,0|0,0:0|0:0,0:0:0:0:
55,84,412433,2,0,B|56:152|117:172|117:172|117:205,1,150.000005722046
116,289,412658,2,0,B|116:343,2,37.5000014305115,0|0|0,0:0|0:0|0:0,0:0:0:0:
117,206,412808,6,0,B|158:182|193:207,1,75.0000028610231
272,208,412958,2,0,B|295:249|270:284,1,75.0000028610231,0|0,0:0|0:0,0:0:0:0:
187,287,413108,2,0,B|145:310|110:285,1,75.0000028610231
32,286,413258,2,0,B|8:244|30:215,1,75.0000028610231,0|0,0:0|0:0,0:0:0:0:
117,207,413408,2,0,B|117:112,2,75.0000028610231,0|0|0,0:0|0:0|0:0,0:0:0:0:
116,290,413633,2,0,B|152:322|152:322|216:322|216:322|247:345,1,150.000005722046,0|0,0:0|0:0,0:0:0:0:
255,354,413858,1,0,0:0:0:0:
255,354,413933,1,0,0:0:0:0:
255,354,414008,6,8,B|255:262,1,75.0000028610231,0|0,0:0|0:0,0:0:0:0:
336,240,414158,2,0,B|336:212|336:212|344:200|344:200|344:148,1,75.0000028610231,0|0,0:0|0:0,0:0:0:0:
176,240,414308,2,0,B|176:212|176:212|168:200|168:200|168:148,1,75.0000028610231,0|0,0:0|0:0,0:0:0:0:
256,40,414458,2,0,B|256:72|256:72|252:80|252:80|260:80|260:80|256:88|256:88|256:140,1,75.0000028610231,0|0,0:0|0:0,0:0:0:0:
256,192,414608,69,0,0:0:0:0:
256,192,414683,1,0,0:0:0:0:
256,192,414758,2,8,B|164:192,1,75.0000028610231,0|0,0:0|0:0,0:0:0:0:
344,192,414908,2,0,B|376:200|388:160|388:160|423:173|428:216|383:234,1,150.000005722046
296,256,415208,6,0,P|269:191|296:128,1,129.999994049073
350,89,415433,1,0,0:0:0:0:
425,97,415508,1,0,0:0:0:0:
478,152,415583,1,0,0:0:0:0:
482,229,415658,1,0,0:0:0:0:
436,289,415733,1,0,0:0:0:0:
361,306,415808,6,0,P|297:299|243:333,1,129.999994049073
316,375,416033,1,0,0:0:0:0:
361,306,416108,2,0,P|379:266|373:228,1,64.9999970245363
380,102,416258,2,0,P|361:141|367:179,1,64.9999970245363,0|0,0:0|0:0,0:0:0:0:
456,210,416408,6,0,P|447:166|421:139,1,64.9999970245363
351,107,416558,1,0,0:0:0:0:
281,138,416633,1,0,0:0:0:0:
254,209,416708,1,0,0:0:0:0:
283,279,416783,1,0,0:0:0:0:
354,308,416858,1,0,0:0:0:0:
424,279,416933,1,0,0:0:0:0:
455,209,417008,5,0,0:0:0:0:
455,209,417083,1,0,0:0:0:0:
455,209,417158,2,0,L|447:144,1,64.9999970245363,0|0,0:0|0:0,0:0:0:0:
361,76,417308,1,0,0:0:0:0:
360,76,417383,1,0,0:0:0:0:
360,76,417458,2,0,L|352:141,1,64.9999970245363,0|0,0:0|0:0,0:0:0:0:
338,224,417608,6,0,P|311:153|237:135,1,129.999994049073
189,170,417833,1,0,0:0:0:0:
192,254,417908,2,0,P|222:282|262:293,1,64.9999970245363
312,333,418058,2,0,P|342:305|382:294,1,64.9999970245363
382,370,418208,6,0,P|350:317|357:235,1,129.999994049073,0|0,0:0|0:0,0:0:0:0:
379,166,418433,1,0,0:0:0:0:
379,166,418508,2,0,L|314:174,1,64.9999970245363,0|0,0:0|0:0,0:0:0:0:
253,59,418658,2,0,L|332:70,1,64.9999970245363
403,84,418808,5,0,0:0:0:0:
256,312,418958,1,0,0:0:0:0:
109,84,419108,1,0,0:0:0:0:
430,213,419258,1,0,0:0:0:0:
184,264,419408,6,0,L|158:103,1,129.999994049073
328,264,419633,2,0,L|354:103,1,129.999994049073
256,40,419858,5,0,0:0:0:0:
256,344,420008,1,0,0:0:0:0:
343,40,420158,5,0,0:0:0:0:
343,40,420233,1,0,0:0:0:0:
342,40,420308,2,0,P|375:40|405:56,1,64.9999970245363
495,137,420458,2,0,P|462:137|432:121,1,64.9999970245363
357,113,420608,6,0,P|359:169|321:233,1,129.999994049073
256,272,420833,1,0,0:0:0:0:
203,213,420908,1,0,0:0:0:0:
128,191,420983,1,0,0:0:0:0:
203,169,421058,1,0,0:0:0:0:
256,110,421133,1,0,0:0:0:0:
282,36,421208,6,0,P|215:47|178:98,1,129.999994049073
96,288,421508,1,0,0:0:0:0:
383,229,421658,1,0,0:0:0:0:
62,115,421808,6,0,P|114:82|182:96,1,129.999994049073
450,269,422033,6,0,P|398:302|330:288,1,129.999994049073
136,216,422258,2,0,P|123:183|131:152,1,64.9999970245363
162,284,422408,6,0,P|77:283|26:244,2,129.999994049073
215,222,422783,1,0,0:0:0:0:
238,147,422858,1,0,0:0:0:0:
178,100,422933,1,0,0:0:0:0:
114,141,423008,6,0,P|87:198|139:214,1,129.999994049073
195,160,423233,1,0,0:0:0:0:
270,146,423308,1,0,0:0:0:0:
333,190,423383,1,0,0:0:0:0:
346,264,423458,1,0,0:0:0:0:
302,327,423533,1,0,0:0:0:0:
225,344,423608,6,0,L|188:289,1,64.9999970245363,0|0,3:0|3:0,3:0:0:0:
104,161,423758,2,0,L|159:124,1,64.9999970245363,0|0,3:0|3:0,3:0:0:0:
287,40,423908,2,0,L|324:95,1,64.9999970245363,0|0,3:0|3:0,3:0:0:0:
408,223,424058,2,0,L|353:260,1,64.9999970245363,0|0,3:0|3:0,3:0:0:0:
104,237,424208,6,0,P|72:230|44:210,2,64.9999970245363,0|0|0,3:0|3:0|3:0,3:0:0:0:
407,146,424433,2,0,P|440:154|468:174,2,64.9999970245363,0|0|0,3:0|3:0|3:0,3:0:0:0:
256,192,424658,1,0,3:0:0:0:
256,192,424733,1,0,3:0:0:0:
256,192,424808,1,0,3:0:0:0:
316,153,433208,6,0,P|303:237|333:264,1,129.999994049073,0|0,0:0|0:0,0:0:0:0:
469,292,433508,1,0,0:0:0:0:
107,242,433658,1,0,0:0:0:0:
340,8,433808,6,0,L|327:92,1,64.9999970245363,0|0,0:0|0:0,0:0:0:0:
177,99,433958,2,0,L|190:183,1,64.9999970245363,0|0,0:0|0:0,0:0:0:0:
327,218,434108,2,0,P|388:231|418:287,1,129.999994049073,0|0,0:0|0:0,0:0:0:0:
195,206,434408,6,0,P|197:332|346:274,1,320
347,135,435158,5,0,0:0:0:0:
256,268,435308,1,0,0:0:0:0:
165,135,435458,1,0,0:0:0:0:
425,237,435608,5,0,0:0:0:0:
87,237,435758,1,0,0:0:0:0:
256,40,435908,2,0,L|256:104,1,64.9999970245363
256,352,436058,1,0,0:0:0:0:
255,104,436208,6,0,P|362:110|346:216,1,240
223,351,436808,6,0,P|230:317|223:262,1,64.9999970245363,4|0,0:0|0:0,0:0:0:0:
157,152,436958,1,0,0:0:0:0:
207,211,437033,1,0,0:0:0:0:
283,228,437108,2,0,P|317:226|353:213,1,64.9999970245363,0|0,0:0|0:0,0:0:0:0:
428,125,437258,2,0,P|394:127|358:140,1,64.9999970245363,0|0,0:0|0:0,0:0:0:0:
207,211,437408,6,0,P|219:273|272:307,1,129.999994049073,4|0,0:0|0:0,0:0:0:0:
490,180,437708,1,0,0:0:0:0:
283,228,437858,1,0,0:0:0:0:
401,334,438008,5,4,0:0:0:0:
293,95,438158,1,0,0:0:0:0:
457,259,438308,5,4,0:0:0:0:
139,152,438458,1,0,0:0:0:0:
381,149,438608,5,4,0:0:0:0:
88,281,438758,1,0,0:0:0:0:
275,326,438908,5,4,0:0:0:0:
218,60,439058,1,0,0:0:0:0:
348,362,439208,6,0,P|354:330|352:297,1,64.9999970245363,0|0,0:0|0:0,0:0:0:0:
281,217,439358,2,0,P|343:212|380:160,2,129.999994049073,0|4|0,0:0|0:0|0:0,0:0:0:0:
305,145,439733,5,0,0:0:0:0:
280,302,439808,2,0,P|247:356|186:372,1,129.999994049073,0|0,0:0|0:0,0:0:0:0:
202,296,440033,5,0,0:0:0:0:
352,343,440108,2,0,P|414:328|452:277,1,129.999994049073,4|0,0:0|0:0,0:0:0:0:
367,263,440333,5,0,0:0:0:0:
512,324,440408,2,0,P|519:244|467:200,2,129.999994049073
452,277,440783,5,0,0:0:0:0:
390,325,440858,1,0,0:0:0:0:
313,313,440933,1,0,0:0:0:0:
258,257,441008,2,0,P|182:243|134:276,2,129.999994049073,0|0|0,0:0|0:0|0:0,0:0:0:0:
206,319,441383,1,0,0:0:0:0:
137,348,441458,1,0,0:0:0:0:
73,308,441533,1,0,0:0:0:0:
73,234,441608,6,0,P|74:201|54:156,1,64.9999970245363,4|0,0:0|0:0,0:0:0:0:
4,120,441758,2,0,P|67:122|121:87,2,129.999994049073,0|0|0,0:0|0:0|0:0,0:0:0:0:
47,43,442133,5,0,0:0:0:0:
117,8,442208,2,0,P|151:13|190:41,1,64.9999970245363,4|0,0:0|0:0,0:0:0:0:
199,102,442358,2,0,P|227:117|259:122,1,64.9999970245363,0|0,0:0|0:0,0:0:0:0:
337,110,442508,1,0,0:0:0:0:
411,135,442583,1,0,0:0:0:0:
475,180,442658,2,0,P|495:209|500:252,1,64.9999970245363,0|0,0:0|0:0,0:0:0:0:
459,362,442808,5,4,0:0:0:0:
459,362,442883,1,0,0:0:0:0:
459,362,442958,2,0,P|438:332|433:289,1,64.9999970245363,0|0,0:0|0:0,0:0:0:0:
350,162,443108,5,4,0:0:0:0:
350,162,443183,1,0,0:0:0:0:
350,162,443258,2,0,P|329:191|290:211,1,64.9999970245363,0|0,0:0|0:0,0:0:0:0:
208,205,443408,5,4,0:0:0:0:
121,158,443483,1,0,0:0:0:0:
138,62,443558,1,0,0:0:0:0:
234,49,443633,1,0,0:0:0:0:
277,136,443708,1,4,0:0:0:0:
27,114,446108,6,0,P|87:106|127:145,1,96.7500014762879,0|0,0:0|0:0,0:0:0:0:
217,155,446358,2,0,P|116:127|252:82,1,354.750005413056,0|0,0:0|0:0,0:0:0:0:
293,136,447108,6,0,P|330:141|374:134,1,64.5000009841919,0|0,0:0|0:0,0:0:0:0:
435,118,447295,2,0,L|430:220,1,96.7500014762879,0|0,0:0|0:0,0:0:0:0:
339,289,447608,6,0,L|335:214,1,64.5000009841919,0|0,0:0|0:0,0:0:0:0:
293,136,447795,2,0,P|241:129|195:140,1,96.7500014762879
101,200,448108,5,0,0:0:0:0:
156,343,448358,1,0,0:0:0:0:
244,144,448608,5,0,0:0:0:0:
299,287,448858,1,0,0:0:0:0:
411,200,449108,5,0,0:0:0:0:
356,343,449358,1,0,0:0:0:0:
268,144,449608,5,0,0:0:0:0:
213,287,449858,1,0,0:0:0:0:
72,200,450108,6,0,B|86:169|86:169|190:157,1,129.000001968384,0|0,0:0|0:0,0:0:0:0:
440,200,450608,2,0,B|426:169|426:169|322:157,1,129.000001968384,0|0,0:0|0:0,0:0:0:0:
112,272,451108,5,0,0:0:0:0:
400,272,451358,1,0,0:0:0:0:
256,80,451608,5,0,0:0:0:0:
256,344,451858,1,0,0:0:0:0:
104,67,452108,5,0,0:0:0:0:
256,104,452358,1,0,0:0:0:0:
408,139,452608,5,0,0:0:0:0:
256,176,452858,1,0,0:0:0:0:
74,204,453108,5,0,0:0:0:0:
256,248,453358,1,0,0:0:0:0:
438,276,453607,5,0,0:0:0:0:
256,320,453858,1,0,0:0:0:0:
152,280,454108,6,0,B|121:266|121:266|109:162,1,129.000001968384,0|0,0:0|0:0,0:0:0:0:
360,280,454608,2,0,B|391:266|391:266|403:162,1,129.000001968384,0|0,0:0|0:0,0:0:0:0:
256,40,455108,5,0,0:0:0:0:
256,344,455358,1,0,0:0:0:0:
348,113,455608,5,0,0:0:0:0:
162,269,455858,1,0,0:0:0:0:
162,269,456108,6,0,L|170:173,1,86.0000013122559,0|0,0:0|0:0,0:0:0:0:
277,69,456358,2,0,L|281:117,1,43.0000006561279,0|0,0:0|0:0,0:0:0:0:
290,185,456483,1,0,0:0:0:0:
192,246,456608,6,0,L|197:175,1,64.5000009841919,0|0,0:0|0:0,0:0:0:0:
260,108,456858,2,0,L|263:147,1,32.250000492096,0|0,0:0|0:0,0:0:0:0:
272,212,456983,1,0,0:0:0:0:
223,315,457108,6,0,P|193:321|156:315,1,64.5000009841919,0|0,0:0|0:0,0:0:0:0:
91,275,457296,1,0,0:0:0:0:
80,259,457358,2,0,L|82:193,1,64.5000009841919,0|0,0:0|0:0,0:0:0:0:
148,69,457608,1,0,0:0:0:0:
148,69,457733,2,0,L|149:133,1,64.5000009841919,0|0,0:0|0:0,0:0:0:0:
196,217,457983,1,0,0:0:0:0:
269,162,458108,6,0,P|299:156|334:160,1,64.5000009841919,0|0,0:0|0:0,0:0:0:0:
405,208,458295,1,0,0:0:0:0:
416,224,458358,2,0,L|414:290,1,64.5000009841919,0|0,0:0|0:0,0:0:0:0:
310,352,458608,2,0,L|308:286,1,64.5000009841919,0|0,0:0|0:0,0:0:0:0:
303,126,458858,1,0,0:0:0:0:
294,142,459108,6,0,L|173:153,1,96.7500014762879,0|0,0:0|0:0,0:0:0:0:
151,166,459358,2,0,P|149:201|156:235,1,64.5000009841919,0|0,0:0|0:0,0:0:0:0:
225,302,459545,1,0,0:0:0:0:
239,288,459608,2,0,P|241:253|234:219,2,64.5000009841919,0|0|0,0:0|0:0|0:0,0:0:0:0:
160,347,460108,6,0,P|155:304|165:262,1,86.0000013122559,0|0,0:0|0:0,0:0:0:0:
307,212,460358,2,0,P|310:237|311:265,1,43.0000006561279,0|0,0:0|0:0,0:0:0:0:
299,329,460483,1,0,0:0:0:0:
118,298,460608,6,0,P|121:257|135:227,1,64.5000009841919,0|0,0:0|0:0,0:0:0:0:
244,179,460858,2,0,P|247:198|245:223,1,32.250000492096,0|0,0:0|0:0,0:0:0:0:
223,279,460983,1,0,0:0:0:0:
85,233,461108,6,0,P|95:193|114:166,1,64.5000009841919,0|0,0:0|0:0,0:0:0:0:
172,118,461296,1,0,0:0:0:0:
190,112,461358,2,0,L|254:114,1,64.5000009841919,0|0,0:0|0:0,0:0:0:0:
382,190,461608,1,0,0:0:0:0:
382,190,461733,2,0,L|318:192,1,64.5000009841919,0|0,0:0|0:0,0:0:0:0:
226,220,461983,1,0,0:0:0:0:
297,293,462108,6,0,P|328:296|361:294,1,64.5000009841919,0|0,0:0|0:0,0:0:0:0:
445,242,462296,1,0,0:0:0:0:
455,225,462358,2,0,L|459:156,1,64.5000009841919,0|0,0:0|0:0,0:0:0:0:
415,81,462608,2,0,P|384:78|351:80,1,64.5000009841919,0|0,0:0|0:0,0:0:0:0:
272,128,462858,1,0,0:0:0:0:
272,128,463108,6,0,L|275:236,1,96.7500014762879,0|0,0:0|0:0,0:0:0:0:
252,268,463358,2,0,P|221:273|189:270,1,64.5000009841919
83,150,463608,2,0,P|102:174|116:203,1,64.5000009841919
66,356,463858,1,0,0:0:0:0:
39,221,464108,6,0,L|124:229,1,86.0000013122559,0|0,0:0|0:0,0:0:0:0:
241,244,464358,1,0,0:0:0:0:
241,244,464420,1,0,0:0:0:0:
241,244,464483,2,0,L|234:171,1,43.0000006561279,0|0,0:0|0:0,0:0:0:0:
227,108,464608,1,0,0:0:0:0:
147,221,464733,1,0,0:0:0:0:
340,263,464858,1,0,0:0:0:0:
337,230,464921,1,0,0:0:0:0:
333,198,464983,1,0,0:0:0:0:
329,166,465046,1,0,0:0:0:0:
325,134,465108,5,0,0:0:0:0:
220,59,465233,2,0,P|203:97|204:142,1,86.0000013122559
273,253,465483,1,0,0:0:0:0:
399,146,465608,2,0,P|338:115|273:116,2,129.000001968384
457,231,466108,6,0,B|424:245|424:245|369:241,1,86.0000013122559
195,224,466358,1,0,0:0:0:0:
187,203,466421,1,0,0:0:0:0:
178,182,466483,2,0,L|240:187,1,43.0000006561279,0|0,0:0|0:0,0:0:0:0:
314,197,466608,1,0,0:0:0:0:
224,301,466733,1,0,0:0:0:0:
149,101,466858,1,0,0:0:0:0:
182,104,466920,1,0,0:0:0:0:
214,107,466983,1,0,0:0:0:0:
246,111,467046,1,0,0:0:0:0:
278,114,467109,5,0,0:0:0:0:
382,156,467233,2,0,P|390:210|364:261,1,86.0000013122559,0|0,0:0|0:0,0:0:0:0:
281,316,467483,5,0,0:0:0:0:
281,316,467546,1,0,0:0:0:0:
281,316,467608,1,0,0:0:0:0:
314,197,467733,2,0,L|399:188,2,86.0000013122559,0|0|0,0:0|0:0|0:0,0:0:0:0:
231,204,468108,5,0,0:0:0:0:
466,285,468233,1,0,0:0:0:0:
463,264,468295,1,0,0:0:0:0:
461,242,468358,1,0,0:0:0:0:
476,214,468421,1,0,0:0:0:0:
480,183,468484,1,0,0:0:0:0:
473,151,468546,1,0,0:0:0:0:
455,125,468608,6,0,L|352:123,1,86.0000013122559,0|0,0:0|0:0,0:0:0:0:
347,122,468796,1,0,0:0:0:0:
325,120,468859,1,0,0:0:0:0:
305,95,468921,1,0,0:0:0:0:
277,81,468984,1,0,0:0:0:0:
245,82,469046,1,0,0:0:0:0:
216,96,469109,6,0,P|189:137|191:185,1,86.0000013122559,0|0,0:0|0:0,0:0:0:0:
328,297,469358,1,0,0:0:0:0:
261,154,469483,1,0,0:0:0:0:
190,289,469608,5,0,0:0:0:0:
372,161,469733,1,0,0:0:0:0:
368,139,469796,1,0,0:0:0:0:
363,118,469858,1,0,0:0:0:0:
351,88,469920,1,0,0:0:0:0:
329,64,469983,1,0,0:0:0:0:
299,51,470045,1,0,0:0:0:0:
267,51,470108,6,0,P|219:64|174:53,1,86.0000013122559,0|0,0:0|0:0,0:0:0:0:
96,10,470358,2,0,L|94:69,1,43.0000006561279,0|0,0:0|0:0,0:0:0:0:
91,140,470483,1,0,0:0:0:0:
169,282,470608,6,0,P|179:240|173:197,1,86.0000013122559,0|0,0:0|0:0,0:0:0:0:
2,166,470858,1,0,0:0:0:0:
17,194,470920,1,0,0:0:0:0:
39,217,470983,1,0,0:0:0:0:
67,232,471045,1,0,0:0:0:0:
99,239,471108,5,0,0:0:0:0:
275,205,471232,1,0,0:0:0:0:
138,130,471357,1,0,0:0:0:0:
138,130,471482,1,0,0:0:0:0:
151,350,471607,5,0,0:0:0:0:
260,229,471732,1,0,0:0:0:0:
99,239,471858,2,0,P|48:265|14:306,1,96.7500014762879,0|0,0:0|0:0,0:0:0:0:
21,293,472108,6,0,L|13:189,1,102.99999913559,0|0,0:0|0:0,0:0:0:0:
86,103,472295,1,0,0:0:0:0:
86,103,472358,2,0,P|161:90|207:104,1,102.99999913559,0|0,0:0|0:0,0:0:0:0:
264,191,472608,2,0,P|339:204|385:189,1,102.99999913559,0|0,0:0|0:0,0:0:0:0:
466,127,472858,1,0,0:0:0:0:
468,165,472920,1,0,0:0:0:0:
471,204,472983,1,0,0:0:0:0:
472,243,473045,1,0,0:0:0:0:
474,283,473108,6,0,P|407:282|361:297,1,102.99999913559,0|0,0:0|0:0,0:0:0:0:
253,359,473358,2,0,P|259:308|249:258,1,102.99999913559,0|0,0:0|0:0,0:0:0:0:
193,183,473608,1,0,0:0:0:0:
294,308,473733,1,0,0:0:0:0:
255,134,473858,2,0,L|149:129,1,102.99999913559,0|0,0:0|0:0,0:0:0:0:
64,209,474107,6,0,P|62:260|67:282,2,51.4999995677948,0|0|0,0:0|0:0|0:0,0:0:0:0:
202,51,474358,2,0,P|204:0|199:-22,2,51.4999995677948,0|0|0,0:0|0:0|0:0,0:0:0:0:
300,232,474608,2,0,P|352:235|401:220,1,102.99999913559,0|0,0:0|0:0,0:0:0:0:
237,164,474858,1,0,0:0:0:0:
217,196,474921,1,0,0:0:0:0:
211,234,474983,1,0,0:0:0:0:
220,271,475046,1,0,0:0:0:0:
243,302,475108,6,0,P|292:319|343:322,1,102.99999913559,0|0,0:0|0:0,0:0:0:0:
454,269,475358,1,0,0:0:0:0:
285,166,475483,1,0,0:0:0:0:
390,53,475608,2,0,L|389:188,1,102.99999913559,0|0,0:0|0:0,0:0:0:0:
325,317,475858,1,0,0:0:0:0:
289,329,475921,1,0,0:0:0:0:
251,333,475984,1,0,0:0:0:0:
212,330,476046,1,0,0:0:0:0:
175,319,476108,6,0,L|173:200,1,102.99999913559,0|0,0:0|0:0,0:0:0:0:
231,133,476295,1,0,0:0:0:0:
231,133,476358,2,0,P|315:124|351:135,1,102.99999913559,0|0,0:0|0:0,0:0:0:0:
340,290,476608,2,0,P|290:221|281:185,1,102.99999913559,0|0,0:0|0:0,0:0:0:0:
412,66,476858,1,0,0:0:0:0:
419,104,476921,1,0,0:0:0:0:
415,142,476983,1,0,0:0:0:0:
399,177,477046,1,0,0:0:0:0:
375,207,477108,6,0,L|256:209,1,102.99999913559,0|0,0:0|0:0,0:0:0:0:
128,179,477358,2,8,P|164:218|188:267,1,102.99999913559,0|0,0:0|0:0,0:0:0:0:
178,369,477608,1,0,0:0:0:0:
77,275,477733,1,0,0:0:0:0:
244,168,477858,2,0,L|346:172,1,102.99999913559,0|0,0:0|0:0,0:0:0:0:
431,254,478108,6,0,L|434:306,2,51.4999995677948,0|0|0,0:0|0:0|0:0,0:0:0:0:
341,77,478358,2,0,L|343:26,2,51.4999995677948,0|0|0,0:0|0:0|0:0,0:0:0:0:
236,268,478608,2,0,P|183:286|129:269,1,102.99999913559,0|0,0:0|0:0,0:0:0:0:
173,55,478858,1,0,0:0:0:0:
176,94,478920,1,0,0:0:0:0:
178,133,478983,1,0,0:0:0:0:
180,171,479045,1,0,0:0:0:0:
183,210,479108,5,0,0:0:0:0:
354,272,479233,1,0,0:0:0:0:
252,120,479358,1,0,0:0:0:0:
246,302,479483,1,0,0:0:0:0:
358,158,479608,1,0,0:0:0:0:
144,209,479733,5,0,0:0:0:0:
367,318,479858,1,0,0:0:0:0:
351,67,479983,1,0,0:0:0:0:
195,273,480108,5,0,0:0:0:0:
195,273,480233,2,0,P|155:287|112:283,1,86.0000013122559,0|0,0:0|0:0,0:0:0:0:
41,196,480482,1,0,0:0:0:0:
138,123,480608,2,0,L|147:229,1,86.0000013122559,0|0,0:0|0:0,0:0:0:0:
195,304,480858,1,0,0:0:0:0:
263,197,480983,1,0,0:0:0:0:
208,96,481108,6,0,L|102:87,1,86.0000013122559,0|0,0:0|0:0,0:0:0:0:
44,133,481358,1,0,0:0:0:0:
44,133,481483,2,0,P|36:176|46:217,1,86.0000013122559,0|0,0:0|0:0,0:0:0:0:
141,276,481733,2,0,L|133:361,2,86.0000013122559,0|0|0,0:0|0:0|0:0,0:0:0:0:
185,168,482108,6,0,P|244:109|327:114,1,172.000002624512,0|0,0:0|0:0,0:0:0:0:
383,198,482483,1,0,0:0:0:0:
399,305,482608,2,0,P|318:282|281:208,1,172.000002624512,0|0,0:0|0:0,0:0:0:0:
329,114,482983,1,0,0:0:0:0:
383,198,483108,5,0,0:0:0:0:
275,284,483233,2,0,B|216:278|216:278|167:299|167:299|108:294,1,172.000002624512,0|0,0:0|0:0,0:0:0:0:
235,378,483608,2,0,L|321:385,1,86.0000013122559,0|0,0:0|0:0,0:0:0:0:
143,199,483858,2,0,L|57:192,1,86.0000013122559,0|0,0:0|0:0,0:0:0:0:
231,77,484108,6,0,P|298:67|340:81,1,86.0000013122559,0|0,0:0|0:0,0:0:0:0:
395,191,484358,1,0,0:0:0:0:
278,146,484483,1,0,0:0:0:0:
469,143,484608,2,0,P|479:210|465:252,1,86.0000013122559,0|0,0:0|0:0,0:0:0:0:
393,308,484858,2,0,L|307:301,1,86.0000013122559,0|0,0:0|0:0,0:0:0:0:
200,255,485108,5,0,0:0:0:0:
434,384,485233,2,0,P|479:313|436:231,1,172.000002624512,0|0,0:0|0:0,0:0:0:0:
318,108,485608,2,0,L|311:194,1,86.0000013122559,0|0,0:0|0:0,0:0:0:0:
299,298,485858,1,0,0:0:0:0:
406,164,485983,1,0,0:0:0:0:
246,60,486108,6,0,P|160:55|78:80,1,172.000002624512
40,206,486483,1,0,0:0:0:0:
174,296,486608,2,0,L|183:188,1,86.0000013122559,0|0,0:0|0:0,0:0:0:0:
183,107,486858,1,0,0:0:0:0:
95,256,486983,1,0,0:0:0:0:
252,351,487108,6,0,P|294:350|335:337,1,86.0000013122559
471,315,487358,2,0,P|434:292|393:279,1,86.0000013122559
282,267,487607,5,0,0:0:0:0:
267,121,487733,1,0,0:0:0:0:
303,290,487858,5,0,0:0:0:0:
284,102,487983,1,0,0:0:0:0:
253,358,488108,6,0,P|300:374|355:359,1,102.99999913559,0|0,0:0|0:0,0:0:0:0:
371,346,488295,1,0,0:0:0:0:
387,326,488358,2,0,L|382:211,1,102.99999913559,0|0,0:0|0:0,0:0:0:0:
362,83,488608,1,0,0:0:0:0:
270,262,488733,1,0,0:0:0:0:
464,270,488858,1,0,0:0:0:0:
468,233,488920,1,0,0:0:0:0:
468,194,488983,1,0,0:0:0:0:
461,155,489046,1,0,0:0:0:0:
449,119,489108,6,0,L|314:130,1,102.99999913559,0|0,0:0|0:0,0:0:0:0:
180,206,489358,2,0,L|282:214,1,102.99999913559,0|0,0:0|0:0,0:0:0:0:
416,228,489607,1,0,0:0:0:0:
255,70,489733,1,0,0:0:0:0:
180,290,489858,2,0,P|102:292|68:281,1,102.99999913559,0|0,0:0|0:0,0:0:0:0:
20,192,490108,6,0,P|13:167|14:141,2,51.4999995677948,0|0|0,0:0|0:0|0:0,0:0:0:0:
143,333,490358,2,0,P|137:357|138:383,2,51.4999995677948,0|0|0,0:0|0:0|0:0,0:0:0:0:
235,157,490608,2,0,P|279:131|330:131,1,102.99999913559,0|0,0:0|0:0,0:0:0:0:
400,216,490858,1,0,0:0:0:0:
401,255,490920,1,0,0:0:0:0:
403,294,490982,1,0,0:0:0:0:
405,332,491044,1,0,0:0:0:0:
407,371,491107,5,0,0:0:0:0:
274,252,491233,1,0,0:0:0:0:
483,152,491358,2,0,L|479:282,1,102.99999913559
388,351,491608,2,0,L|385:248,1,102.99999913559
338,156,491858,1,0,0:0:0:0:
300,147,491920,1,0,0:0:0:0:
261,146,491983,1,0,0:0:0:0:
223,152,492046,1,0,0:0:0:0:
187,165,492108,6,0,P|135:170|85:162,1,102.99999913559,0|0,0:0|0:0,0:0:0:0:
62,150,492296,1,0,0:0:0:0:
40,136,492358,2,0,L|45:269,1,102.99999913559,0|0,0:0|0:0,0:0:0:0:
146,369,492608,2,0,L|149:266,1,102.99999913559,0|0,0:0|0:0,0:0:0:0:
193,130,492858,1,0,0:0:0:0:
226,111,492921,1,0,0:0:0:0:
264,103,492983,1,0,0:0:0:0:
303,105,493046,1,0,0:0:0:0:
339,118,493108,6,0,L|328:253,1,102.99999913559,0|0,0:0|0:0,0:0:0:0:
253,344,493358,2,0,L|244:241,1,102.99999913559,0|0,0:0|0:0,0:0:0:0:
221,118,493608,1,0,0:0:0:0:
140,257,493733,1,0,0:0:0:0:
328,298,493858,2,0,P|406:300|440:289,1,102.99999913559,0|0,0:0|0:0,0:0:0:0:
473,205,494108,6,0,P|475:179|479:153,2,51.4999995677948,0|0|0,0:0|0:0|0:0,0:0:0:0:
377,333,494358,2,0,P|381:358|383:384,2,51.4999995677948
262,182,494608,1,0,0:0:0:0:
467,299,494733,1,0,0:0:0:0:
336,118,494858,1,0,0:0:0:0:
300,104,494920,1,0,0:0:0:0:
262,98,494983,1,0,0:0:0:0:
224,101,495045,1,0,0:0:0:0:
187,113,495108,6,0,P|197:192|155:259,1,154.499998703384
111,328,495358,2,0,P|121:249|79:182,1,154.499998703384
30,120,495608,5,0,0:0:0:0:
12,273,495733,1,0,0:0:0:0:
58,92,495858,5,0,0:0:0:0:
34,307,495983,1,0,0:0:0:0:
90,65,496108,6,0,P|119:54|177:56,1,86.0000013122559,0|0,0:0|0:0,0:0:0:0:
271,123,496358,2,0,P|341:126|382:107,1,86.0000013122559,0|0,0:0|0:0,0:0:0:0:
440,41,496608,2,0,P|454:110|483:145,1,86.0000013122559,0|0,0:0|0:0,0:0:0:0:
512,222,496858,2,0,L|405:227,1,86.0000013122559,0|0,0:0|0:0,0:0:0:0:
299,236,497108,5,0,0:0:0:0:
408,129,497233,1,0,0:0:0:0:
397,337,497358,1,0,0:0:0:0:
268,169,497483,1,0,0:0:0:0:
401,45,497608,2,0,P|414:85|409:128,1,86.0000013122559,0|0,0:0|0:0,0:0:0:0:
339,207,497858,2,0,P|333:249|346:290,1,86.0000013122559,0|0,0:0|0:0,0:0:0:0:
400,375,498108,6,0,L|314:366,1,86.0000013122559,0|0,0:0|0:0,0:0:0:0:
232,263,498358,2,0,L|318:272,1,86.0000013122559,0|0,0:0|0:0,0:0:0:0:
217,355,498608,2,0,L|131:346,1,86.0000013122559,0|0,0:0|0:0,0:0:0:0:
49,243,498858,2,0,L|135:252,1,86.0000013122559,0|0,0:0|0:0,0:0:0:0:
205,298,499108,6,0,P|173:326|131:331,1,86.0000013122559,0|0,0:0|0:0,0:0:0:0:
288,267,499358,2,0,P|296:309|279:348,1,86.0000013122559,0|0,0:0|0:0,0:0:0:0:
218,210,499608,2,0,P|250:183|292:178,1,86.0000013122559,0|0,0:0|0:0,0:0:0:0:
135,242,499858,2,0,P|127:200|144:161,1,86.0000013122559,0|0,0:0|0:0,0:0:0:0:
244,112,500108,6,0,L|330:109,1,86.0000013122559,0|0,0:0|0:0,0:0:0:0:
289,204,500358,2,0,L|203:207,1,86.0000013122559,0|0,0:0|0:0,0:0:0:0:
107,159,500608,2,0,P|95:117|106:76,1,86.0000013122559,0|0,0:0|0:0,0:0:0:0:
288,121,500858,2,0,P|299:162|289:204,1,86.0000013122559,0|0,0:0|0:0,0:0:0:0:
192,304,501108,5,0,0:0:0:0:
355,277,501233,1,0,0:0:0:0:
168,278,501357,5,0,0:0:0:0:
368,243,501483,1,0,0:0:0:0:
144,252,501608,6,0,P|136:202|137:160,1,86.0000013122559
381,209,501858,2,0,P|389:159|388:117,1,86.0000013122559
113,36,502108,5,0,0:0:0:0:
430,49,502233,1,0,0:0:0:0:
129,177,502608,5,0,0:0:0:0:
435,194,502734,1,0,0:0:0:0:
129,177,502983,5,0,0:0:0:0:
103,179,503045,1,0,0:0:0:0:
81,193,503108,1,0,0:0:0:0:
68,214,503170,1,0,0:0:0:0:
65,240,503233,1,0,0:0:0:0:
74,263,503295,1,0,0:0:0:0:
92,282,503358,1,0,0:0:0:0:
115,290,503420,1,0,0:0:0:0:
141,286,503483,1,0,0:0:0:0:
162,272,503545,1,0,0:0:0:0:
175,250,503608,6,0,P|73:263|128:176,1,258.000003936768,0|0,0:0|0:0,0:0:0:0:
207,339,504108,6,0,P|249:277|253:223,1,110.000003356934,0|0,0:0|0:0,0:0:0:0:
170,74,504358,2,0,L|128:176,1,110.000003356934,0|0,0:0|0:0,0:0:0:0:
342,310,504608,2,0,L|384:208,1,110.000003356934,0|0,0:0|0:0,0:0:0:0:
305,44,504858,2,0,P|270:87|257:140,1,110.000003356934,0|0,0:0|0:0,0:0:0:0:
393,258,505108,6,0,L|510:251,1,110.000003356934,0|0,0:0|0:0,0:0:0:0:
205,88,505358,1,0,0:0:0:0:
151,72,505421,1,0,0:0:0:0:
97,84,505483,2,0,P|59:113|31:177,2,110.000003356934,0|0|0,0:0|0:0|0:0,0:0:0:0:
415,293,505858,2,0,P|453:264|481:200,1,110.000003356934,0|0,0:0|0:0,0:0:0:0:
467,111,506108,6,0,L|380:39,1,110.000003356934,0|0,0:0|0:0,0:0:0:0:
375,195,506358,1,0,0:0:0:0:
65,162,506483,2,0,L|152:90,1,110.000003356934,0|0,0:0|0:0,0:0:0:0:
157,246,506733,1,0,0:0:0:0:
392,336,506858,2,0,L|457:244,1,110.000003356934,0|0,0:0|0:0,0:0:0:0:
120,336,507108,6,0,L|55:244,1,110.000003356934,0|0,0:0|0:0,0:0:0:0:
355,246,507358,2,0,L|420:154,1,110.000003356934,0|0,0:0|0:0,0:0:0:0:
157,246,507608,2,0,L|92:154,1,110.000003356934,0|0,0:0|0:0,0:0:0:0:
318,156,507858,2,0,L|383:64,1,110.000003356934,0|0,0:0|0:0,0:0:0:0:
194,156,508108,2,0,L|129:64,1,110.000003356934,0|0,0:0|0:0,0:0:0:0:
256,264,508358,5,0,0:0:0:0:
318,156,508483,1,0,0:0:0:0:
194,156,508608,1,0,0:0:0:0:
346,243,508733,5,0,0:0:0:0:
256,88,508858,1,0,0:0:0:0:
165,244,508983,1,0,0:0:0:0:
260,238,509108,6,0,P|237:188|193:155,1,110.000003356934
70,250,509358,2,0,P|92:299|136:332,1,110.000003356934
450,222,509608,6,0,P|427:172|383:139,1,110.000003356934
260,238,509858,2,0,P|282:287|326:320,1,110.000003356934
162,153,510108,5,0,0:0:0:0:
355,229,510233,1,0,0:0:0:0:
171,126,510358,5,8,0:0:0:0:
347,257,510483,1,8,0:0:0:0:
187,102,510608,5,8,0:0:0:0:
330,282,510733,1,8,0:0:0:0:
209,80,510858,5,0,0:0:0:0:
307,306,510983,1,0,0:0:0:0:
239,62,511108,5,0,3:0:0:0:
278,326,511233,1,0,3:0:0:0:
179,44,511358,5,0,3:0:0:0:
340,341,511483,1,0,3:0:0:0:
105,75,511608,5,0,3:0:0:0:
416,307,511733,1,0,3:0:0:0:
42,144,511858,5,0,3:0:0:0:
478,233,511983,1,0,3:0:0:0:
10,246,512108,6,0,L|121:228,1,110.000003356934
340,109,512358,2,0,P|294:79|269:32,1,110.000003356934
170,273,512608,2,0,P|216:303|242:351,1,110.000003356934
502,138,512858,2,0,L|391:156,1,110.000003356934
354,28,513108,6,0,L|465:10,1,110.000003356934
393,155,513358,1,0,0:0:0:0:
158,356,513483,2,0,L|47:374,1,110.000003356934
119,229,513733,1,0,0:0:0:0:
189,85,513858,2,0,L|297:67,1,110.000003356934
401,207,514108,6,0,P|409:301|348:340,1,165.000005035401,0|0,0:0|0:0,0:0:0:0:
277,355,514358,1,0,0:0:0:0:
112,300,514483,2,0,L|62:203,1,110.000003356934
188,42,514733,1,0,0:0:0:0:
403,87,514858,2,0,L|453:184,1,110.000003356934,0|0,0:0|0:0,0:0:0:0:
112,300,515108,6,0,L|62:203,1,110.000003356934,0|0,0:0|0:0,0:0:0:0:
314,114,515358,2,0,L|364:211,1,110.000003356934,0|0,0:0|0:0,0:0:0:0:
203,265,515608,2,0,L|153:168,1,110.000003356934,0|0,0:0|0:0,0:0:0:0:
179,30,515858,2,0,L|229:127,1,110.000003356934,0|0,0:0|0:0,0:0:0:0:
344,286,516108,5,0,0:0:0:0:
376,290,516191,5,0,0:0:0:0:
407,279,516274,5,0,0:0:0:0:
429,254,516357,5,0,0:0:0:0:
340,77,516483,1,0,0:0:0:0:
340,77,516608,2,0,P|324:129|371:216,1,150.000005722046
293,356,517108,5,0,0:0:0:0:
257,360,517191,5,0,0:0:0:0:
223,348,517274,5,0,0:0:0:0:
199,320,517357,5,0,0:0:0:0:
283,143,517483,1,0,0:0:0:0:
283,143,517608,2,0,P|300:200|248:295,1,150.000005722046
210,56,518108,5,0,0:0:0:0:
244,58,518191,5,0,0:0:0:0:
277,61,518274,5,0,0:0:0:0:
310,64,518357,5,0,0:0:0:0:
203,187,518483,1,0,0:0:0:0:
203,187,518608,2,0,P|175:119|208:55,1,150.000005722046
364,112,519108,5,0,0:0:0:0:
327,115,519191,5,0,0:0:0:0:
291,118,519274,5,0,0:0:0:0:
254,121,519357,5,0,0:0:0:0:
361,247,519483,1,0,0:0:0:0:
361,247,519608,2,0,P|391:172|354:101,1,150.000005722046
233,188,520108,5,0,0:0:0:0:
469,147,520233,1,0,0:0:0:0:
231,111,520358,5,0,0:0:0:0:
470,223,520483,1,0,0:0:0:0:
278,41,520608,5,8,0:0:0:0:
423,293,520733,1,8,0:0:0:0:
365,8,520858,6,0,P|415:8|452:22,1,75.0000028610231
368,369,521108,5,8,0:0:0:0:
393,80,521233,1,8,0:0:0:0:
265,379,521358,5,8,0:3:0:0:
460,145,521483,1,8,0:3:0:0:
172,321,521608,5,0,0:3:0:0:
480,237,521733,1,0,0:3:0:0:
126,208,521858,5,0,0:3:0:0:
441,321,521983,1,0,0:3:0:0:
209,72,522108,5,0,0:0:0:0:
256,192,522233,12,0,523358,0:0:0:0:
401,19,523608,5,0,3:0:0:0:
404,45,523670,1,0,3:0:0:0:
406,71,523733,1,0,3:0:0:0:
408,97,523795,1,0,3:0:0:0:
380,121,523858,5,0,3:0:0:0:
377,147,523920,1,0,3:0:0:0:
375,173,523983,1,0,3:0:0:0:
373,199,524045,1,0,3:0:0:0:
345,223,524108,6,0,B|319:258|265:257|232:231|232:231|189:233|162:271,1,200,4|0,0:0|0:0,0:0:0:0:
277,369,524483,2,0,B|303:327|282:278|282:278|292:259|294:235|294:235|281:204|288:176,1,200
453,267,524858,2,0,P|410:290|362:279,1,99.7499969558717
288,177,525108,6,0,P|228:154|163:259,1,200,4|0,0:0|0:0,0:0:0:0:
343,240,525483,1,0,0:0:0:0:
343,240,525545,1,0,0:0:0:0:
343,240,525608,2,0,P|366:197|358:146,1,100
167,132,525858,1,0,0:0:0:0:
167,132,525920,1,0,0:0:0:0:
167,132,525983,1,0,0:0:0:0:
167,132,526045,1,0,0:0:0:0:
167,132,526108,6,0,B|175:181|236:206|289:175|289:175|267:198|267:225,1,200,4|0,0:0|0:0,0:0:0:0:
368,79,526483,2,0,B|334:117|269:110|245:65|245:65|228:89|241:122,1,200
422,236,526858,2,0,P|434:187|410:141,1,99.7499969558717
312,30,527108,6,0,B|314:57|296:86|296:86|287:132|308:181|308:181|297:203|295:228,1,200,4|0,0:0|0:0,0:0:0:0:
383,128,527483,1,0,0:0:0:0:
383,128,527545,1,0,0:0:0:0:
383,128,527608,1,0,0:0:0:0:
233,36,527733,1,0,0:0:0:0:
248,285,527858,2,0,P|287:298|347:281,1,100
488,213,528108,6,0,B|462:188|412:194|389:220|389:220|369:204|343:201|343:201|323:213|303:212,1,200,4|0,0:0|0:0,0:0:0:0:
168,242,528483,2,0,P|142:275|241:289,1,199.499993911743
198,153,528858,2,0,P|150:130|100:141,1,99.7499969558717,0|0,0:0|0:0,0:0:0:0:
247,219,529108,6,0,B|291:189|296:123|248:86|248:86|264:73|292:75,1,199.499993911743,4|0,0:0|0:0,0:0:0:0:
359,163,529483,2,0,B|361:208|336:243|336:243|344:254|347:274|347:274|319:302|311:352,1,200
439,195,529858,2,0,P|440:161|404:90,1,100
237,64,530108,6,0,B|202:101|217:165|217:165|167:141|172:81,1,199.499993911743,4|0,0:0|0:0,0:0:0:0:
296,135,530483,2,0,B|330:171|315:235|315:235|365:211|360:161,1,199.499993911743,0|0,0:0|0:0,0:0:0:0:
218,24,530858,2,0,P|169:12|121:27,1,100
43,173,531108,5,4,3:0:0:0:
296,135,531233,1,0,3:0:0:0:
296,135,531295,1,0,3:0:0:0:
296,135,531358,2,0,P|330:98|341:49,1,100,0|0,3:3|3:3,3:3:0:0:
160,147,531608,2,0,P|174:195|211:229,1,100,0|0,3:3|3:3,3:3:0:0:
261,62,531858,5,0,3:0:0:0:
214,58,531920,1,0,3:0:0:0:
168,53,531983,1,0,3:0:0:0:
122,50,532045,1,0,3:0:0:0:
75,45,532108,6,0,B|80:86|50:120|50:120|72:160|72:160|63:208|87:248,1,200,4|0,3:0|0:0,0:0:0:0:
270,226,532483,2,0,B|274:172|235:145|235:145|202:199|145:194,1,200
256,310,532858,2,0,P|321:286|347:249,1,100
430,124,533108,6,8,B|402:138|391:160|391:160|351:181|310:181|310:181|283:194|269:225,1,200,4|0,0:0|0:0,0:0:0:0:
468,199,533483,1,0,0:0:0:0:
468,199,533545,1,0,0:0:0:0:
468,199,533608,1,0,0:0:0:0:
340,99,533733,1,0,0:0:0:0:
281,314,533858,2,0,P|223:292|179:254,1,100
226,99,534108,6,0,P|328:137|406:205,1,200
174,161,534483,2,0,P|150:71|228:19,1,200
426,78,534858,1,0,0:0:0:0:
226,99,534983,1,0,0:0:0:0:
471,9,535108,6,0,B|509:45|508:98|508:98|468:142|480:201,1,199.499993911743
370,304,535483,1,0,0:0:0:0:
370,304,535545,1,0,0:0:0:0:
370,304,535608,2,0,P|322:319|270:300,1,100
143,138,535858,2,0,P|191:123|243:142,1,100
137,213,536108,6,0,P|85:188|111:68,1,200
299,95,536483,2,0,B|317:121|318:148|318:148|297:186|295:241|295:241|308:260|312:286,1,199.499993911743
462,212,536858,2,0,P|415:199|372:220,1,99.7499969558717
369,325,537108,6,0,B|344:365|291:367|255:338|255:338|227:362|189:354,1,199.499993911743,0|0,0:0|0:0,0:0:0:0:
47,223,537483,2,0,B|73:184|126:182|162:211|162:211|190:187|228:195,1,199.499993911743,0|0,0:0|0:0,0:0:0:0:
120,357,537858,2,0,P|97:310|111:264,1,99.7499969558717
212,115,538108,6,0,B|256:116|283:140|283:140|294:166|317:181|317:181|353:179|384:198,1,200,0|0,3:3|3:3,3:0:0:0:
216,191,538483,2,0,P|157:169|172:53,1,199.499993911743
288,226,538858,2,0,P|258:256|194:263,1,100
41,136,539108,5,0,0:0:0:0:
178,60,539233,1,0,0:0:0:0:
178,60,539295,1,0,0:0:0:0:
178,59,539358,2,0,P|225:72|254:112,1,100,0|0,3:0|3:0,3:0:0:0:
89,238,539608,2,0,P|77:197|103:138,1,100
248,50,539858,5,0,3:0:0:0:
294,55,539920,1,0,3:0:0:0:
332,79,539983,1,0,3:0:0:0:
357,117,540045,1,0,3:0:0:0:
375,155,540108,6,0,P|380:84|471:27,1,179.999994506836
456,118,540483,1,0,0:0:0:0:
447,208,540608,2,0,P|388:239|323:228,2,134.999995880127
437,44,541108,6,0,P|381:80|357:142,1,134.999995880127
374,163,541358,2,0,L|362:298,1,134.999995880127
376,320,541608,1,0,0:0:0:0:
354,292,541670,1,0,0:0:0:0:
329,269,541733,1,0,0:0:0:0:
293,273,541795,1,0,0:0:0:0:
256,276,541858,2,0,L|189:283,1,44.999998626709,0|0,0:0|0:0,0:0:0:0:
23,224,541983,2,0,L|91:231,1,44.999998626709
143,318,542108,6,0,B|127:287|135:248|166:224|166:224|132:205|130:167|130:167|164:153|177:123|177:123|162:94|172:60,1,303.999996289063
293,281,542858,5,0,0:0:0:0:
293,281,543108,2,0,B|251:254|202:275|202:275|176:261|166:226|166:226|133:241|94:227,1,227.999997216797
246,341,543608,5,0,0:0:0:0:
280,355,543670,1,0,0:0:0:0:
317,351,543733,1,0,0:0:0:0:
348,330,543795,1,0,0:0:0:0:
364,296,543858,1,0,0:0:0:0:
362,258,543920,1,0,0:0:0:0:
359,220,543982,1,0,0:0:0:0:
376,186,544045,1,0,0:0:0:0:
409,165,544108,6,0,P|450:162|498:198,1,80,6|0,0:0|0:0,0:0:0:0:
309,126,544358,1,2,0:0:0:0:
309,126,544421,1,0,0:0:0:0:
309,126,544483,1,0,0:0:0:0:
329,197,544608,2,0,P|288:200|240:164,1,80,0|0,0:0|0:0,0:0:0:0:
201,121,544858,1,2,0:0:0:0:
183,43,544983,1,0,0:0:0:0:
122,161,545108,6,0,P|97:200|53:221,1,80,0|0,0:0|0:0,0:0:0:0:
46,141,545358,1,2,0:0:0:0:
162,252,545483,2,2,L|241:253,1,80,0|0,0:0|0:0,0:0:0:0:
331,218,545733,1,0,0:0:0:0:
332,122,545858,1,2,0:0:0:0:
243,87,545982,1,0,0:0:0:0:
184,162,546108,6,0,P|150:70|192:6,1,160,0|0,0:0|0:0,0:0:0:0:
277,172,546483,2,0,P|214:247|137:243,1,160,0|0,0:0|0:0,0:0:0:0:
65,197,546858,1,0,0:0:0:0:
124,331,546983,1,0,0:0:0:0:
149,82,547108,5,0,0:0:0:0:
184,162,547233,1,0,0:0:0:0:
264,127,547358,1,0,0:0:0:0:
299,207,547483,1,0,0:0:0:0:
393,186,547608,5,0,0:0:0:0:
393,186,547671,1,0,0:0:0:0:
393,186,547733,1,0,0:0:0:0:
393,186,547795,1,0,0:0:0:0:
393,186,547858,5,2,0:0:0:0:
407,148,547920,1,0,0:0:0:0:
404,108,547983,1,0,0:0:0:0:
380,75,548046,1,0,0:0:0:0:
349,49,548108,6,0,P|300:35|245:46,1,80,0|0,0:0|0:0,0:0:0:0:
201,151,548358,1,0,0:0:0:0:
304,211,548483,2,0,P|318:162|307:107,2,80,0|0|0,0:0|0:0|0:0,0:0:0:0:
212,287,548858,1,0,0:0:0:0:
237,163,548983,1,0,0:0:0:0:
259,350,549108,6,0,L|177:330,1,80,0|0,0:0|0:0,0:0:0:0:
88,302,549358,1,0,0:0:0:0:
352,275,549483,2,0,L|270:255,1,80,2|0,0:0|0:0,0:0:0:0:
181,227,549733,1,0,0:0:0:0:
445,200,549858,2,0,L|363:180,1,80,0|0,0:0|0:0,0:0:0:0:
271,108,550108,6,0,P|283:145|276:195,1,80,0|0,0:0|0:0,0:0:0:0:
192,290,550358,1,0,0:0:0:0:
125,160,550483,2,0,P|162:147|212:155,1,80,0|0,0:0|0:0,0:0:0:0:
288,216,550733,1,0,0:0:0:0:
335,127,550858,2,0,P|358:95|403:73,1,80,0|0,0:0|0:0,0:0:0:0:
422,166,551108,5,0,0:0:0:0:
422,166,551170,1,0,0:0:0:0:
422,166,551233,1,0,0:0:0:0:
422,166,551295,1,0,0:0:0:0:
422,166,551357,5,2,0:0:0:0:
416,205,551420,1,0,0:0:0:0:
390,234,551483,1,0,0:0:0:0:
352,245,551545,1,0,0:0:0:0:
314,233,551608,5,0,0:0:0:0:
276,218,551670,1,0,0:0:0:0:
237,219,551733,1,0,0:0:0:0:
199,233,551795,1,0,0:0:0:0:
170,260,551858,5,0,0:0:0:0:
130,254,551920,1,0,0:0:0:0:
97,233,551983,1,0,0:0:0:0:
77,198,552045,1,0,0:0:0:0:
74,159,552108,6,0,P|71:114|35:68,1,80,0|0,0:0|0:0,0:0:0:0:
151,18,552358,1,0,0:0:0:0:
154,178,552483,2,0,P|157:223|193:269,1,80,0|0,0:0|0:0,0:0:0:0:
287,299,552733,1,0,0:0:0:0:
254,143,552858,1,0,0:0:0:0:
232,109,552920,1,0,0:0:0:0:
200,85,552983,1,0,0:0:0:0:
162,75,553045,1,0,0:0:0:0:
121,78,553108,6,0,P|77:104|49:138,1,80,0|0,0:0|0:0,0:0:0:0:
107,228,553358,1,0,0:0:0:0:
188,117,553483,2,0,P|196:56|185:30,1,80,2|0,0:0|0:0,0:0:0:0:
258,165,553732,1,0,0:0:0:0:
121,78,553858,1,0,0:0:0:0:
88,101,553921,1,0,0:0:0:0:
69,136,553983,1,0,0:0:0:0:
68,176,554045,1,0,0:0:0:0:
90,210,554108,6,0,P|154:242|190:235,1,80,0|0,0:0|0:0,0:0:0:0:
247,197,554358,1,2,0:0:0:0:
123,90,554483,2,0,L|168:193,1,80,0|0,0:0|0:0,0:0:0:0:
205,254,554733,1,0,0:0:0:0:
263,158,554858,5,0,0:0:0:0:
289,128,554920,1,0,0:0:0:0:
326,114,554983,1,0,0:0:0:0:
365,118,555045,1,0,0:0:0:0:
427,167,555108,5,0,0:0:0:0:
427,167,555170,1,0,0:0:0:0:
427,167,555233,1,0,0:0:0:0:
427,167,555295,1,0,0:0:0:0:
427,167,555358,5,0,0:0:0:0:
427,167,555420,1,0,0:0:0:0:
427,167,555483,1,0,0:0:0:0:
427,167,555545,1,0,0:0:0:0:
427,167,555608,5,0,0:0:0:0:
442,203,555670,1,0,0:0:0:0:
441,243,555733,1,0,0:0:0:0:
423,278,555795,1,0,0:0:0:0:
392,303,555858,5,0,0:0:0:0:
356,284,555920,1,0,0:0:0:0:
317,277,555983,1,0,0:0:0:0:
278,282,556045,1,0,0:0:0:0:
241,298,556108,6,0,P|194:314|158:309,1,80,0|0,0:0|0:0,0:0:0:0:
83,268,556358,1,0,0:0:0:0:
164,132,556483,6,0,P|201:164|215:198,1,80,0|0,0:0|0:0,0:0:0:0:
217,283,556733,1,0,0:0:0:0:
73,143,556858,1,0,0:0:0:0:
77,104,556920,1,0,0:0:0:0:
98,71,556983,1,0,0:0:0:0:
130,49,557045,1,0,0:0:0:0:
169,45,557108,6,0,P|217:50|252:76,1,80,0|0,0:0|0:0,0:0:0:0:
323,145,557358,1,0,0:0:0:0:
398,33,557483,2,0,P|358:34|323:53,1,80,2|0,0:0|0:0,0:0:0:0:
225,176,557733,1,0,0:0:0:0:
299,305,557859,1,0,0:0:0:0:
339,310,557921,1,0,0:0:0:0:
379,298,557984,1,0,0:0:0:0:
409,272,558046,1,0,0:0:0:0:
425,234,558108,6,0,P|430:157|375:103,1,160,0|0,0:0|0:0,0:0:0:0:
351,190,558483,2,0,P|288:197|215:127,1,160,2|0,0:0|0:0,0:0:0:0:
169,74,558858,1,0,0:0:0:0:
107,123,558983,1,0,0:0:0:0:
116,229,559108,5,0,0:0:0:0:
116,229,559170,1,0,0:0:0:0:
116,229,559233,1,0,0:0:0:0:
116,229,559295,1,0,0:0:0:0:
116,229,559358,5,0,0:0:0:0:
116,229,559420,1,0,0:0:0:0:
116,229,559483,1,0,0:0:0:0:
116,229,559545,1,0,0:0:0:0:
116,229,559607,5,0,0:0:0:0:
156,232,559670,1,0,0:0:0:0:
191,251,559732,1,0,0:0:0:0:
213,285,559795,1,0,0:0:0:0:
223,333,559857,5,2,0:0:0:0:
259,366,559921,1,0,0:0:0:0:
307,373,559983,1,0,0:0:0:0:
353,359,560046,1,0,0:0:0:0:
382,321,560108,6,0,L|428:242,1,80,0|0,0:0|0:0,0:0:0:0:
456,179,560358,1,2,0:0:0:0:
390,132,560483,2,0,P|349:146|281:123,1,80,0|0,0:0|0:0,0:0:0:0:
247,95,560733,1,0,0:0:0:0:
91,127,560858,1,2,0:0:0:0:
198,246,560983,1,0,0:0:0:0:
96,42,561108,6,0,P|58:49|25:72,1,80,0|0,0:0|0:0,0:0:0:0:
12,166,561358,1,2,0:0:0:0:
91,127,561483,2,0,P|129:134|162:157,1,80,0|0,0:0|0:0,0:0:0:0:
219,316,561733,1,0,0:0:0:0:
101,208,561858,1,2,0:0:0:0:
209,89,561983,1,0,0:0:0:0:
328,198,562108,6,0,P|271:225|219:222,1,80,0|0,0:0|0:0,0:0:0:0:
137,216,562358,1,2,0:0:0:0:
263,145,562483,1,0,0:0:0:0:
151,289,562608,5,0,0:0:0:0:
103,282,562670,1,0,0:0:0:0:
69,247,562733,1,0,0:0:0:0:
63,198,562795,1,0,0:0:0:0:
89,156,562858,1,0,0:0:0:0:
135,139,562920,1,0,0:0:0:0:
182,153,562983,1,0,0:0:0:0:
210,193,563045,1,0,0:0:0:0:
209,242,563108,1,0,0:0:0:0:
256,192,563233,12,0,564858,0:0:0:0:
336,206,565108,5,0,0:0:0:0:
153,166,565233,1,0,0:0:0:0:
414,171,565483,5,0,0:0:0:0:
101,230,565608,1,0,0:0:0:0:
452,265,565858,5,0,0:0:0:0:
46,104,566108,1,0,0:0:0:0:
484,180,566358,1,0,0:0:0:0:
484,180,566608,6,0,P|459:271|386:145,1,320,0|0,0:0|0:0,0:0:0:0:
418,210,567358,2,0,P|417:304|314:201,1,320,0|0,0:0|0:0,0:0:0:0:
362,256,568108,2,0,P|385:347|259:274,1,320,0|0,0:0|0:0,0:0:0:0:
322,155,568858,6,0,L|319:322,1,160,0|0,0:0|0:0,0:0:0:0:
236,128,569233,1,0,0:0:0:0:
236,128,569295,1,0,0:0:0:0:
236,128,569357,1,0,0:0:0:0:
236,128,569608,5,0,0:0:0:0:
458,215,569733,1,0,0:0:0:0:
269,362,569858,1,0,0:0:0:0:
373,108,569983,1,0,0:0:0:0:
406,342,570108,6,0,P|391:294|402:248,1,80
447,137,570358,5,0,0:0:0:0:
269,362,570483,1,0,0:0:0:0:
299,79,570608,1,0,0:0:0:0:
469,293,570733,1,0,0:0:0:0:
258,284,570858,6,0,L|162:281,1,80
47,275,571108,5,0,0:0:0:0:
236,128,571233,1,0,0:0:0:0:
132,382,571358,1,0,0:0:0:0:
25,119,571483,1,0,0:0:0:0:
258,284,571608,1,0,0:0:0:0:
151,21,571733,1,0,0:0:0:0:
384,186,571858,6,0,L|290:150,1,100
150,89,572108,2,0,L|166:187,1,100
183,341,572358,2,0,L|260:277,1,100
321,84,572608,6,0,P|271:80|229:105,1,100,0|0,0:0|0:0,0:0:0:0:
91,362,572858,2,0,P|140:365|182:340,1,100,0|0,0:0|0:0,0:0:0:0:
273,249,573108,2,0,L|290:151,1,100,0|0,0:0|0:0,0:0:0:0:
139,197,573358,2,0,L|122:295,1,100,0|0,0:0|0:0,0:0:0:0:
273,249,573608,2,0,L|372:265,1,100
76,102,573858,2,0,L|59:200,1,100,0|0,0:0|0:0,0:0:0:0:
210,154,574108,6,0,L|309:170,1,100
394,186,574358,1,0,0:0:0:0:
149,286,574483,2,0,L|248:270,1,100
333,254,574733,1,0,0:0:0:0:
33,187,574858,6,0,L|132:203,1,100
189,266,575108,2,0,P|214:224|210:175,1,100
62,139,575358,2,0,P|85:181|130:202,1,100
221,68,575608,6,0,B|205:101|205:101|138:120,1,100
55,40,575858,2,0,B|86:20|86:20|153:39,1,100
212,286,576108,2,0,B|189:169,1,100
306,50,576358,6,0,B|283:168,1,100,0|0,0:0|0:0,0:0:0:0:
346,309,576608,2,0,P|367:264|360:215,1,100,0|0,0:0|0:0,0:0:0:0:
192,187,576858,2,0,P|220:229|265:248,1,100,0|0,0:0|0:0,0:0:0:0:
423,137,577108,6,0,B|360:215,1,100,0|0,0:0|0:0,0:0:0:0:
266,158,577358,2,0,B|328:79,1,100,0|0,0:0|0:0,0:0:0:0:
428,37,577608,2,0,B|422:137,1,100
260,257,577858,6,0,B|266:157,1,100
178,36,578108,2,0,B|184:136,1,100
282,379,578358,1,0,0:0:0:0:
285,355,578421,1,0,0:0:0:0:
287,330,578483,1,0,0:0:0:0:
289,305,578546,1,0,0:0:0:0:
293,282,578608,6,0,P|317:237|372:216,1,100
502,234,578858,1,0,0:0:0:0:
270,178,578983,1,0,0:0:0:0:
485,82,579108,1,0,0:0:0:0:
368,291,579233,1,0,0:0:0:0:
366,39,579358,6,0,L|352:158,1,100,0|0,0:0|0:0,0:0:0:0:
445,255,579608,2,0,L|431:135,1,100,0|0,0:0|0:0,0:0:0:0:
288,47,579858,1,0,0:0:0:0:
263,49,579920,1,0,0:0:0:0:
238,52,579983,1,0,0:0:0:0:
213,55,580045,1,0,0:0:0:0:
188,60,580108,6,0,B|126:70|126:70|83:104,1,100
47,228,580358,1,0,0:0:0:0:
247,252,580483,1,0,0:0:0:0:
159,140,580608,1,0,0:0:0:0:
135,340,580733,1,0,0:0:0:0:
195,71,580858,5,0,3:0:0:0:
180,66,580921,1,0,3:0:0:0:
165,63,580983,1,0,3:0:0:0:
148,65,581046,1,0,3:0:0:0:
132,70,581108,1,0,3:0:0:0:
117,77,581171,1,0,3:0:0:0:
105,89,581233,1,0,3:0:0:0:
94,100,581296,1,0,3:0:0:0:
79,109,581358,1,0,3:0:0:0:
63,113,581421,1,0,3:0:0:0:
46,114,581483,1,0,3:0:0:0:
30,112,581546,1,0,3:0:0:0:
15,106,581608,5,0,3:0:0:0:
159,140,581858,5,0,0:0:0:0:
303,174,582108,5,0,0:0:0:0:
201,292,582358,6,0,L|250:301,1,50,0|0,0:0|0:0,0:0:0:0:
180,216,582608,5,0,0:0:0:0:
159,140,582858,5,0,0:0:0:0:
138,64,583108,5,0,0:0:0:0:
115,73,583170,1,0,0:0:0:0:
96,90,583233,1,0,0:0:0:0:
83,111,583295,1,0,0:0:0:0:
78,135,583358,1,0,0:0:0:0:
80,160,583420,1,0,0:0:0:0:
90,183,583483,5,0,0:0:0:0:
114,185,583545,1,0,0:0:0:0:
139,188,583608,1,0,0:0:0:0:
164,191,583670,1,0,0:0:0:0:
189,194,583733,1,0,0:0:0:0:
214,197,583795,1,0,0:0:0:0:
238,200,583858,6,0,L|319:187,1,50,0|0,3:0|3:0,3:0:0:0:
422,128,583983,2,0,L|373:120,1,50,0|0,3:0|3:0,3:0:0:0:
264,103,584108,5,0,3:0:0:0:
197,113,584170,1,0,3:0:0:0:
150,163,584233,1,0,3:0:0:0:
146,229,584295,1,0,3:0:0:0:
185,284,584358,1,0,3:0:0:0:
250,299,584420,6,0,P|286:293|320:269,1,50,0|0,3:0|3:0,3:0:0:0:
411,208,584545,1,0,3:0:0:0:
411,208,584608,6,0,B|283:208|311:248|275:309|188:307|143:244|142:167|191:112|273:111|316:170|303:208,1,463.399994626099,12|0,3:0|3:0,3:0:0:0:
161,314,586608,6,0,P|111:230|130:132,1,198.599997696899,12|0,3:0|0:0,0:0:0:0:
300,31,587608,6,0,L|309:87,1,40,12|0,3:0|0:0,0:0:0:0:
380,101,587858,1,0,3:0:0:0:
367,180,587983,1,0,3:0:0:0:
354,259,588108,6,0,L|363:315,1,50,0|0,0:0|0:0,0:0:0:0:
446,193,588358,1,0,3:0:0:0:
367,180,588483,1,0,3:0:0:0:
288,167,588608,6,0,L|150:148,1,129.999994049073,12|0,3:0|0:0,0:0:0:0:
38,251,588983,2,0,L|176:232,1,129.999994049073,0|0,0:0|0:0,0:0:0:0:
263,327,589358,2,0,L|187:313,1,64.9999970245363,0|0,0:0|3:0,0:0:0:0:
94,26,589608,6,0,P|87:63|95:99,1,75.0000028610231
258,241,589858,1,0,0:0:0:0:
166,68,589983,1,0,0:0:0:0:
107,315,590108,6,0,L|95:357,3,43.5000003650665
148,184,590358,2,0,L|160:142,3,43.5000003650665
107,315,590608,5,0,3:0:0:0:
115,339,590670,1,0,3:0:0:0:
131,359,590733,1,0,3:0:0:0:
153,373,590795,1,0,3:0:0:0:
179,379,590858,1,0,3:0:0:0:
204,376,590920,1,0,3:0:0:0:
228,364,590983,1,0,3:0:0:0:
246,346,591045,1,0,3:0:0:0:
257,322,591108,1,0,3:0:0:0:
259,297,591170,1,0,3:0:0:0:
253,271,591233,1,0,3:0:0:0:
239,250,591295,1,0,3:0:0:0:
218,234,591358,5,0,3:0:0:0:
205,275,591420,1,0,3:0:0:0:
216,316,591483,1,0,3:0:0:0:
247,345,591545,1,0,3:0:0:0:
289,353,591608,6,0,L|331:341,3,43.5000003650665,0|0|0|0,3:0|3:0|3:0|3:0,3:0:0:0:
145,228,591858,2,0,L|103:216,3,43.5000003650665,0|0|0|0,3:0|3:0|3:0|3:0,3:0:0:0:
343,157,592108,2,0,L|385:145,3,43.5000003650665,0|0|0|0,3:0|3:0|3:0|3:0,3:0:0:0:
203,30,592358,2,0,L|161:18,1,43.5000003650665,0|0,3:0|3:0,3:0:0:0:
132,92,592483,2,0,L|90:80,1,43.5000003650665,0|0,3:0|3:0,3:0:0:0:
24,33,592608,6,0,P|11:80|27:127,1,100,12|0,3:0|3:0,3:0:0:0:
42,225,592858,2,0,P|84:200|133:201,1,100,0|0,3:0|3:0,3:0:0:0:
262,323,593108,1,0,3:0:0:0:
103,275,593233,1,0,3:0:0:0:
290,155,593358,1,0,3:0:0:0:
68,355,593483,6,0,L|50:226,1,100,0|12,3:0|3:0,3:0:0:0:
39,122,593733,1,0,0:0:0:0:
39,122,593795,1,0,0:0:0:0:
39,122,593858,2,0,L|97:128,3,50,0|0|0|0,3:0|3:0|3:0|3:0,3:0:0:0:
163,186,594108,2,0,L|221:192,3,50,0|0|0|0,3:0|3:0|3:0|3:0,3:0:0:0:
287,250,594358,2,0,L|345:256,3,50,0|0|0|0,3:0|3:0|3:0|3:0,3:0:0:0:
429,267,594608,5,12,3:0:0:0:
408,311,594670,1,0,3:0:0:0:
367,339,594733,1,0,3:0:0:0:
318,341,594795,1,0,3:0:0:0:
275,317,594858,1,0,3:0:0:0:
250,274,594920,1,0,3:0:0:0:
252,225,594983,1,0,3:0:0:0:
279,184,595045,1,0,3:0:0:0:
324,163,595108,5,0,3:0:0:0:
372,153,595170,1,0,3:0:0:0:
407,119,595233,1,0,3:0:0:0:
419,71,595295,1,0,3:0:0:0:
402,24,595358,1,0,3:0:0:0:
362,0,595420,1,0,3:0:0:0:
313,0,595483,1,0,3:0:0:0:
270,15,595545,1,0,3:0:0:0:
246,58,595608,5,12,3:0:0:0:
249,95,595671,1,0,3:0:0:0:
252,133,595733,1,0,3:0:0:0:
255,170,595796,1,0,3:0:0:0:
258,208,595858,1,0,3:0:0:0:
261,245,595921,1,0,3:0:0:0:
264,282,595983,1,0,3:0:0:0:
267,320,596046,1,0,3:0:0:0:
270,357,596108,5,0,3:0:0:0:
253,323,596170,1,0,3:0:0:0:
228,295,596233,1,0,3:0:0:0:
197,275,596295,1,0,3:0:0:0:
161,265,596358,1,0,3:0:0:0:
123,265,596420,1,0,3:0:0:0:
87,275,596483,1,0,3:0:0:0:
56,294,596545,1,0,3:0:0:0:
30,322,596608,6,0,P|94:311|130:278,1,100,12|0,3:0|3:0,3:0:0:0:
137,198,596858,1,0,3:0:0:0:
214,305,596983,1,0,3:0:0:0:
197,123,597108,1,0,3:0:0:0:
121,289,597233,1,0,3:0:0:0:
229,212,597358,1,0,3:0:0:0:
48,231,597483,1,0,3:0:0:0:
303,272,597608,5,12,3:0:0:0:
81,120,597733,1,0,3:0:0:0:
155,377,597858,1,0,3:0:0:0:
305,156,597983,1,0,3:0:0:0:
48,231,598108,1,0,3:0:0:0:
269,382,598233,1,0,3:0:0:0:
197,123,598358,1,0,3:0:0:0:
44,345,598483,1,0,3:0:0:0:
287,77,598607,5,12,3:0:0:0:
336,78,598669,1,0,3:0:0:0:
375,108,598732,1,0,3:0:0:0:
392,154,598794,1,0,3:0:0:0:
380,202,598857,1,0,3:0:0:0:
343,234,598919,1,0,3:0:0:0:
295,242,598982,1,0,3:0:0:0:
251,221,599045,1,0,3:0:0:0:
206,197,599107,5,0,3:0:0:0:
157,200,599170,1,0,3:0:0:0:
116,227,599232,1,0,3:0:0:0:
93,270,599295,1,0,3:0:0:0:
96,320,599357,1,0,3:0:0:0:
123,362,599420,1,0,3:0:0:0:
168,383,599482,1,0,3:0:0:0:
217,380,599545,1,0,3:0:0:0:
264,362,599608,6,0,L|269:312,3,50,0|0|0|0,3:0|3:0|3:0|3:0,3:0:0:0:
302,191,599858,6,0,L|307:240,3,50,0|0|0|0,3:0|3:0|3:0|3:0,3:0:0:0:
360,351,600108,6,0,L|365:301,3,50,0|0|0|0,3:0|3:0|3:0|3:0,3:0:0:0:
398,180,600358,6,0,L|403:229,3,50,0|0|0|0,3:0|3:0|3:0|3:0,3:0:0:0:
478,290,600608,6,0,B|446:310|446:310|364:301,1,119.999996337891,12|0,3:0|3:0,3:0:0:0:
163,205,600858,1,0,3:0:0:0:
300,80,600983,1,0,3:0:0:0:
358,80,601045,1,0,3:0:0:0:
402,119,601108,1,0,3:0:0:0:
411,177,601170,1,0,3:0:0:0:
381,227,601233,1,0,3:0:0:0:
327,247,601295,1,0,3:0:0:0:
270,227,601358,1,0,3:0:0:0:
218,197,601420,1,0,3:0:0:0:
161,204,601483,1,0,3:0:0:0:
117,244,601545,1,0,3:0:0:0:
106,302,601608,5,12,3:0:0:0:
131,355,601670,1,0,3:0:0:0:
183,383,601733,1,0,3:0:0:0:
242,374,601795,1,0,3:0:0:0:
283,331,601858,1,0,3:0:0:0:
286,271,601920,1,0,3:0:0:0:
254,219,601983,1,0,3:0:0:0:
225,167,602045,1,0,3:0:0:0:
240,111,602108,1,0,3:0:0:0:
289,80,602170,1,0,3:0:0:0:
347,92,602233,1,0,3:0:0:0:
380,140,602295,1,0,3:0:0:0:
370,198,602358,6,0,P|343:231|316:240,3,59.9999981689454,0|0|0|0,3:0|3:0|3:0|3:0,3:0:0:0:
277,290,602608,6,0,P|287:228|245:166,1,119.999996337891,12|0,3:0|3:0,3:0:0:0:
46,198,602858,1,0,3:0:0:0:
102,367,602983,1,0,3:0:0:0:
158,379,603045,1,0,3:0:0:0:
217,367,603108,1,0,3:0:0:0:
263,331,603170,1,0,3:0:0:0:
287,277,603233,1,0,3:0:0:0:
285,217,603295,1,0,3:0:0:0:
256,166,603358,1,0,3:0:0:0:
207,133,603420,1,0,3:0:0:0:
147,126,603483,1,0,3:0:0:0:
91,147,603545,1,0,3:0:0:0:
52,190,603608,5,0,3:0:0:0:
97,228,603670,1,0,3:0:0:0:
154,243,603733,1,0,3:0:0:0:
213,233,603795,1,0,3:0:0:0:
262,199,603858,1,0,3:0:0:0:
291,147,603920,1,0,3:0:0:0:
325,99,603982,1,0,3:0:0:0:
381,81,604045,1,0,3:0:0:0:
435,103,604107,1,0,3:0:0:0:
464,155,604170,1,0,3:0:0:0:
454,213,604232,1,0,3:0:0:0:
410,252,604295,1,0,3:0:0:0:
351,254,604358,6,0,P|317:236|300:212,3,59.9999981689454,0|0|0|0,3:0|3:0|3:0|3:0,3:0:0:0:
307,145,604608,6,0,P|275:195|220:217,1,119.999996337891,12|0,3:0|3:0,3:0:0:0:
67,140,604858,1,0,3:0:0:0:
267,42,604983,1,0,3:0:0:0:
326,37,605045,1,0,3:0:0:0:
378,65,605108,1,0,3:0:0:0:
409,115,605170,1,0,3:0:0:0:
409,174,605233,1,0,3:0:0:0:
379,225,605295,1,0,3:0:0:0:
326,252,605358,1,0,3:0:0:0:
267,248,605420,1,0,3:0:0:0:
218,214,605483,1,0,3:0:0:0:
191,162,605545,1,0,3:0:0:0:
196,103,605608,5,0,3:0:0:0:
234,148,605670,1,0,3:0:0:0:
239,207,605733,1,0,3:0:0:0:
210,258,605795,1,0,3:0:0:0:
157,284,605858,1,0,3:0:0:0:
99,274,605920,1,0,3:0:0:0:
56,233,605983,1,0,3:0:0:0:
45,175,606045,1,0,3:0:0:0:
69,121,606108,6,0,L|128:110,1,59.9999981689454,0|0,3:0|3:0,3:0:0:0:
143,190,606233,2,0,L|202:200,1,59.9999981689454,0|0,3:0|3:0,3:0:0:0:
157,284,606358,6,0,P|71:256|48:213,1,119.999996337891
71,72,606608,5,0,3:0:0:0:
113,18,606670,1,0,3:0:0:0:
180,9,606733,1,0,3:0:0:0:
236,50,606795,1,0,3:0:0:0:
248,117,606858,1,0,3:0:0:0:
210,174,606920,1,0,3:0:0:0:
143,190,606983,1,0,3:0:0:0:
76,175,607045,1,0,3:0:0:0:
18,211,607108,1,0,3:0:0:0:
1,277,607170,1,0,3:0:0:0:
33,336,607233,1,0,3:0:0:0:
98,357,607295,1,0,3:0:0:0:
158,327,607358,6,0,P|166:228|67:179,1,194.999991073609,0|0,3:0|3:0,3:0:0:0:
92,268,607608,6,0,L|232:261,1,100,12|0,3:0|3:0,3:0:0:0:
226,242,607795,1,0,3:0:0:0:
261,220,607858,1,0,3:0:0:0:
240,361,607983,1,0,3:0:0:0:
186,167,608108,1,12,3:0:0:0:
226,137,608170,1,0,3:0:0:0:
275,130,608233,1,0,3:0:0:0:
321,147,608295,1,0,3:0:0:0:
353,185,608358,2,0,P|407:221|446:218,1,100,0|0,3:0|3:0,3:0:0:0:
370,91,608608,6,12,P|329:167|243:181,1,179.999994506836,12|0,3:0|3:0,3:0:0:0:
186,108,608983,1,0,3:0:0:0:
253,9,609108,2,0,L|286:128,1,89.9999972534181,4|0,3:0|3:0,3:0:0:0:
123,172,609358,2,0,L|187:108,1,89.9999972534181,0|0,3:0|3:0,3:0:0:0:
329,204,609546,1,0,3:0:0:0:
329,204,609608,6,0,L|242:181,1,89.9999972534181,4|0,3:0|3:0,3:0:0:0:
392,145,609858,2,0,P|369:190|378:246,1,89.9999972534181,0|0,3:0|3:0,3:0:0:0:
412,381,610108,2,0,P|383:338|331:318,1,89.9999972534181,0|0,3:0|3:0,3:0:0:0:
197,280,610358,2,0,P|247:276|291:241,1,89.9999972534181,0|0,3:0|3:0,3:0:0:0:
194,112,610608,6,0,L|216:198,1,89.9999972534181,4|0,3:0|3:0,3:0:0:0:
248,309,610858,1,0,3:0:0:0:
174,38,610983,1,0,3:0:0:0:
67,263,611108,2,0,P|106:283|151:284,1,89.9999972534181,4|0,3:0|3:0,3:0:0:0:
343,138,611358,1,0,3:0:0:0:
128,206,611483,1,0,3:0:0:0:
295,358,611608,6,0,L|335:182,1,179.999994506836,4|0,3:0|3:0,3:0:0:0:
233,54,611983,5,0,3:0:0:0:
239,83,612045,1,0,3:0:0:0:
246,112,612108,2,0,L|263:190,3,59.9999981689454,0|0|0|0,3:0|3:0|3:0|3:0,3:0:0:0:
334,182,612358,2,0,L|323:230,3,50,0|0|0|0,3:0|3:0|3:0|3:0,3:0:0:0:
242,256,612608,6,0,P|308:315|378:302,1,160,12|0,3:0|3:0,3:0:0:0:
327,110,613358,6,0,L|334:154,1,44.999998626709,0|0,3:0|3:0,3:0:0:0:
325,174,613542,1,0,3:0:0:0:
317,191,613606,2,0,L|323:230,1,40,0|0,3:0|3:0,3:0:0:0:
248,373,613982,6,0,P|210:372|177:355,1,75.0000028610231,4|0,3:0|3:0,3:0:0:0:
235,260,614452,6,0,L|229:305,1,37.5000014305115,0|0,3:0|3:0,3:0:0:0:
193,195,614841,6,0,P|251:185|301:215,1,119.999996337891,4|0,3:0|3:0,3:0:0:0:
335,312,616125,6,0,L|347:384,1,50,8|0,3:0|3:0,3:0:0:0:
193,195,616753,6,0,L|181:267,1,50,8|0,3:0|3:0,3:0:0:0:
273,73,617615,6,0,B|339:5|420:3|457:64|464:144|456:241|291:367|291:367|106:271|68:186|42:66|92:-29|176:-10|310:26|319:92|303:137|292:189|233:213|187:193|154:151|182:111|182:111,1,1276.79998441406,4|4,3:0|3:0,0:0:0:0:
275,73,626188,5,0,3:0:0:0:
275,73,626288,2,0,L|282:177,1,75.0000028610231,0|0,3:0|3:0,3:0:0:0:
289,269,626671,1,0,3:0:0:0:
