osu file format v14

[General]
AudioFilename: audio.mp3
AudioLeadIn: 0
PreviewTime: 565100
Countdown: 1
SampleSet: None
StackLeniency: 0.4
Mode: 0
LetterboxInBreaks: 0
WidescreenStoryboard: 0

[Editor]
Bookmarks: 39599,48899,100799,111599,121199,130798,140398,149848,158698,173998,205798,212398,230998,232798,242098,261600,270000,271200,280800,290400,300000,309150,319200,328800,337950,347400,357900,367050,376200,385950,395250,405600,414750,446100,503600,523600,544100,565100,584600
DistanceSpacing: 1.5
BeatDivisor: 4
GridSize: 4
TimelineZoom: 4.600004

[Metadata]
Title:osu!favourites
TitleUnicode:osu!favourites
Artist:SakiZ
ArtistUnicode:SakiZ
Creator:MaddaFakka-sama
Version:xd
Source:YouTube
Tags:osu! compilation best songs and maps cold green eyes senketsu no chikai kira kira days holdin on skrillex remix dopamine tsubaki helix the pretender gold dust nippon egau hyakkei reol asymmetry honeyworks miraizu supercell kimi no shiranai monogatari dark flight dreamer camellia exit this earth's atmosphere odoru mizushibuki tower of heaven mythologia's end HAITAI kokuhaku rival sengen daidai genome rubik's cube hatsune miku zen zen zense now loading!!!! caffeine fighter arousing HIME HIME blade dance stella-rium sakura no uta deconstruction star kikoku doukoku jigokuraku notch hell lily scarlet rose shukusai no elementalia remote control kill me please wagakki band tengaku imperial dead bicycle uta defenders inferno babymetal road of resistance
BeatmapID:1869102
BeatmapSetID:894442

[Difficulty]
HPDrainRate:5
CircleSize:3.5
OverallDifficulty:8
ApproachRate:9.5
SliderMultiplier:1.4
SliderTickRate:1

[Events]
//Background and Video events
0,0,"osu! Spring Fanart 2017 - suiseki.jpg",0,0
//Break Periods
2,174200,187798
//Storyboard Layer 0 (Background)
//Storyboard Layer 1 (Fail)
//Storyboard Layer 2 (Pass)
//Storyboard Layer 3 (Foreground)
//Storyboard Sound Samples

[TimingPoints]
1200,300,4,2,1,70,1,0
30599,-80,4,2,1,70,0,0
77999,-133.333333333333,4,2,1,70,0,0
85349,-80,4,2,1,70,0,0
92399,-50,4,2,1,70,0,0
100799,-66.6666666666667,4,2,1,70,0,0
108899,-50,4,2,1,70,0,0
110399,-66.6666666666667,4,2,1,70,0,0
110699,-71.4285714285714,4,2,1,70,0,0
110999,-71.4285714285714,4,2,1,70,0,0
111599,-100,4,2,1,70,0,0
112199,-40,4,2,1,70,0,0
112799,-100,4,2,1,70,0,0
113099,-23,4,2,1,70,0,0
113999,-100,4,2,1,70,0,0
114599,-50,4,2,1,70,0,0
115199,-100,4,2,1,70,0,0
115649,-50,4,2,1,70,0,0
115799,-100,4,2,1,70,0,0
116999,-50,4,2,1,70,0,0
117599,-100,4,2,1,70,0,0
118199,-25,4,2,1,70,0,0
118799,-50,4,2,1,70,0,0
119099,-100,4,2,1,70,0,0
119399,-50,4,2,1,70,0,0
126449,-100,4,2,1,70,0,0
128699,-40,4,2,1,70,0,0
130198,-66.6666666666667,4,2,1,70,0,0
130798,-100,4,2,1,70,0,0
137998,-33.3333333333333,4,2,1,70,0,0
140098,-100,4,2,1,70,0,0
140398,-66.6666666666667,4,2,1,70,0,0
161098,-133.333333333333,4,2,1,70,0,0
161998,-66.6666666666667,4,2,1,70,0,0
173998,-133.333333333333,4,2,1,5,0,0
174000,-133.333333333333,4,2,1,70,0,0
192748,-133.333333333333,4,2,1,5,0,0
192749,-66.6666666666667,4,2,1,70,0,0
212398,-80,4,2,1,70,0,0
220648,-57.1428571428571,4,2,1,70,0,0
221248,-80,4,2,1,70,0,0
232798,-33.3333333333333,4,2,1,70,0,0
248700,-28.5714285714286,4,2,1,70,0,0
249000,-25,4,2,1,70,0,0
249600,-33.3333333333333,4,2,1,70,0,0
250800,-100,4,2,1,70,0,0
252000,-66.6666666666667,4,2,1,70,0,0
261600,-80,4,2,1,70,0,0
268800,-50,4,2,1,70,0,0
270900,-40,4,2,1,70,0,0
271200,-66.6666666666667,4,2,1,70,0,0
336000,-50,4,2,1,70,0,0
337950,-50,4,2,1,70,0,0
340800,-33.3333333333333,4,2,1,70,0,0
343500,-50,4,2,1,70,0,0
348000,-66.6666666666667,4,2,1,70,0,0
385950,-80,4,2,1,70,0,0
391200,-40,4,2,1,70,0,0
391500,-80,4,2,1,70,0,0
393600,-40,4,2,1,70,0,0
396000,-33.3333333333333,4,2,1,70,0,0
414750,-57.1428571428571,4,2,1,70,0,0
446100,250,4,2,1,70,1,0
464100,-66.6666666666667,4,2,1,70,0,0
504100,-50,4,2,1,70,0,0
525600,-40,4,2,1,70,0,0
526850,-50,4,2,1,70,0,0
543100,-66.6666666666667,4,2,1,70,0,0
564975,-66.6666666666667,4,2,1,5,0,0
565037,-66.6666666666667,4,2,1,70,0,0
600600,-50,4,2,1,70,0,1
612600,-57.1428571428571,4,2,1,70,0,1
617600,-50,4,2,1,70,0,0

[HitObjects]
256,192,10800,12,0,14400,0:0:0:0:
256,192,15600,12,0,19200,0:0:0:0:
104,104,20400,6,0,P|55:125|44:208,1,140
104,296,20850,2,0,P|153:275|164:192,1,140
232,300,21300,2,0,P|268:328|296:316,1,70
256,192,21600,1,0,0:0:0:0:
376,92,21900,5,0,0:0:0:0:
257,191,22050,1,0,0:0:0:0:
364,280,22200,5,0,0:0:0:0:
296,120,22350,1,0,0:0:0:0:
292,252,22500,5,0,0:0:0:0:
432,144,22650,1,0,0:0:0:0:
292,252,22800,2,0,L|208:108,1,140
100,72,23250,2,0,L|184:216,1,140
221,131,23700,2,0,L|300:88,1,70
372,48,24000,1,0,0:0:0:0:
488,132,24300,5,0,0:0:0:0:
508,252,24450,1,0,0:0:0:0:
412,200,24600,5,0,0:0:0:0:
392,308,24750,1,0,0:0:0:0:
308,248,24900,5,0,0:0:0:0:
336,372,25050,1,0,0:0:0:0:
256,344,25200,6,0,P|212:296|212:196,1,140
236,92,25650,2,0,P|172:48|100:68,1,140
72,184,26100,2,0,L|108:260,1,70
32,104,26400,5,0,0:0:0:0:
224,192,26700,1,0,0:0:0:0:
309,114,26850,1,0,0:0:0:0:
262,9,27000,1,0,0:0:0:0:
147,21,27150,1,0,0:0:0:0:
123,134,27300,1,0,0:0:0:0:
108,160,27450,1,0,0:0:0:0:
92,184,27600,6,0,P|44:208|80:208,1,140
164,360,28050,1,0,0:0:0:0:
284,160,28200,2,0,P|303:211|253:189,1,140
164,296,28650,5,0,0:0:0:0:
56,156,28800,1,0,0:0:0:0:
164,280,28950,5,0,0:0:0:0:
140,88,29100,1,0,0:0:0:0:
164,264,29250,5,0,0:0:0:0:
236,40,29400,1,0,0:0:0:0:
112,208,29550,1,0,0:0:0:0:
340,180,29700,1,0,0:0:0:0:
100,224,29850,1,0,0:0:0:0:
336,100,30000,6,0,P|344:60|352:112,1,140
64,272,30600,6,0,L|180:292,1,87.5
192,188,30900,2,0,L|296:188,1,87.5
336,100,31200,2,0,P|452:72|344:280,1,525
245,227,32400,2,0,L|433:183,1,175
156,284,32850,1,0,0:0:0:0:
20,236,33000,6,0,P|4:188|36:144,1,87.5
92,28,33300,2,0,P|128:68|132:120,1,87.5
112,232,33600,2,0,P|88:292|200:336,1,175
312,160,34050,2,0,P|316:240|216:224,2,175
196,32,34800,5,0,0:0:0:0:
64,104,34950,1,0,0:0:0:0:
216,72,35100,1,0,0:0:0:0:
156,168,35250,1,0,0:0:0:0:
260,96,35400,1,0,0:0:0:0:
260,192,35550,1,0,0:0:0:0:
304,72,35700,1,0,0:0:0:0:
368,168,35850,1,0,0:0:0:0:
332,36,36000,6,0,P|412:104|480:140,1,175
512,224,36450,1,0,0:0:0:0:
400,272,36600,2,0,L|296:308,1,87.5
161,266,36900,2,0,L|222:204,1,87.5
40,240,37200,6,0,P|48:144|112:88,1,175
200,0,37650,2,0,P|239:74|322:93,1,175
308,224,38100,2,0,P|245:281|162:267,1,175
188,72,38550,1,0,0:0:0:0:
316,116,38700,5,0,0:0:0:0:
152,144,38850,1,0,0:0:0:0:
352,108,39000,1,0,0:0:0:0:
212,28,39150,5,0,0:0:0:0:
256,196,39300,1,0,0:0:0:0:
208,12,39450,1,0,0:0:0:0:
264,216,39600,6,0,P|292:268|276:316,1,87.5
132,208,39900,1,0,0:0:0:0:
128,200,40050,1,0,0:0:0:0:
376,152,40200,6,0,P|375:195|400:230,1,87.5
248,136,40500,1,0,0:0:0:0:
244,128,40650,1,0,0:0:0:0:
476,88,40800,6,0,P|504:140|488:188,1,87.5
384,28,41100,1,0,0:0:0:0:
384,28,41250,2,0,P|316:12|176:44,1,175
88,256,41700,2,0,P|100:180|80:144,1,87.5
52,24,42000,6,0,L|164:40,1,87.5
232,108,42300,2,0,L|340:96,1,87.5
432,48,42600,1,0,0:0:0:0:
432,48,42750,1,0,0:0:0:0:
368,200,42900,1,0,0:0:0:0:
368,200,43050,1,0,0:0:0:0:
464,184,43200,6,0,P|440:252|332:292,1,175
238,235,43650,1,0,0:0:0:0:
368,200,43800,1,0,0:0:0:0:
232,360,43950,1,0,0:0:0:0:
160,196,44100,1,0,0:0:0:0:
368,200,44250,1,0,0:0:0:0:
351,293,44400,5,0,0:0:0:0:
238,235,44550,2,0,L|142:187,1,87.5
48,140,44850,1,0,0:0:0:0:
160,88,45000,2,0,L|256:40,1,87.5
368,200,45300,1,0,0:0:0:0:
240,236,45450,1,0,0:0:0:0:
300,120,45600,2,0,L|396:72,1,87.5
196,204,45900,1,0,0:0:0:0:
308,88,46050,6,0,P|240:40|144:64,1,175
56,152,46500,1,0,0:0:0:0:
56,152,46650,1,0,0:0:0:0:
196,204,46800,2,0,L|308:248,1,87.5
396,292,47100,1,0,0:0:0:0:
268,324,47250,2,0,L|152:348,1,87.5
84,356,47550,1,0,0:0:0:0:
140,272,47700,2,0,L|206:186,1,87.5
264,0,48000,5,0,0:0:0:0:
352,44,48450,5,0,0:0:0:0:
432,112,48900,6,0,P|420:184|404:128,1,175
352,44,49350,2,0,P|296:60|252:92,1,87.5
200,224,49650,2,0,P|256:208|300:176,1,87.5
152,108,49950,1,0,0:0:0:0:
48,264,50100,2,0,P|80:312|140:324,1,87.5
224,147,50400,6,0,P|180:111|120:115,1,87.5
308,324,50700,2,0,P|372:316|400:296,1,87.5
316,156,51000,1,0,0:0:0:0:
380,24,51150,1,0,0:0:0:0:
316,156,51300,1,0,0:0:0:0:
380,24,51450,1,0,0:0:0:0:
448,196,51600,6,0,P|424:256|388:300,1,87.5
224,328,51900,2,0,B|308:308|308:308|352:208,1,175
380,24,52350,1,0,0:0:0:0:
168,148,52500,1,0,0:0:0:0:
316,156,52650,1,0,0:0:0:0:
164,56,52800,6,0,L|64:76,1,87.5
88,168,53100,2,0,L|-24:192,1,87.5
44,348,53400,1,0,0:0:0:0:
224,276,53550,1,0,0:0:0:0:
224,276,53625,1,0,0:0:0:0:
224,276,53700,1,0,0:0:0:0:
168,148,53850,1,0,0:0:0:0:
248,48,54000,6,0,L|316:128,1,87.5
168,148,54300,1,0,0:0:0:0:
384,36,54450,1,0,0:0:0:0:
248,192,54600,2,0,L|216:288,1,87.5
384,192,54900,1,0,0:0:0:0:
268,336,55050,1,0,0:0:0:0:
132,226,55200,6,0,P|144:182|179:137,1,87.5
248,44,55500,2,0,P|292:33|348:43,1,87.5
448,124,55800,2,0,P|472:160|483:202,1,87.5
268,336,56100,2,0,P|212:328|160:352,1,87.5
64,236,56400,5,0,0:0:0:0:
104,104,56550,1,0,0:0:0:0:
104,104,56625,1,0,0:0:0:0:
104,104,56700,1,0,0:0:0:0:
240,88,56850,1,0,0:0:0:0:
228,228,57000,2,0,P|192:284|192:320,1,87.5
336,172,57300,1,0,0:0:0:0:
440,64,57450,6,0,P|488:128|472:228,1,175
320,328,57900,1,0,0:0:0:0:
408,156,58050,1,0,0:0:0:0:
228,228,58200,1,0,0:0:0:0:
96,144,58350,1,0,0:0:0:0:
124,108,58425,1,0,0:0:0:0:
160,80,58500,1,0,0:0:0:0:
200,64,58575,1,0,0:0:0:0:
244,64,58650,1,0,0:0:0:0:
284,76,58725,1,0,0:0:0:0:
320,104,58800,5,0,0:0:0:0:
144,228,58950,1,0,0:0:0:0:
288,176,59100,5,0,0:0:0:0:
320,328,59250,1,0,0:0:0:0:
460,120,59400,5,0,0:0:0:0:
288,256,59550,1,0,0:0:0:0:
476,216,59700,5,0,0:0:0:0:
332,52,59850,1,0,0:0:0:0:
120,24,60000,6,0,B|64:32|64:32|136:136,1,175
144,152,60375,1,0,0:0:0:0:
152,176,60450,1,0,0:0:0:0:
152,204,60525,1,0,0:0:0:0:
144,228,60600,1,0,0:0:0:0:
40,344,60750,1,0,0:0:0:0:
368,264,60900,5,0,0:0:0:0:
372,272,61050,1,0,0:0:0:0:
244,376,61200,2,0,P|252:328|244:280,1,87.5
84,104,61500,5,0,0:0:0:0:
80,96,61650,1,0,0:0:0:0:
228,36,61800,2,0,P|205:72|199:115,1,87.5
172,328,62100,1,0,0:0:0:0:
368,264,62250,5,0,0:0:0:0:
452,136,62400,2,0,P|404:96|356:84,1,87.5
256,240,62700,5,0,0:0:0:0:
276,64,62850,2,0,P|213:62|168:82,1,87.5
144,264,63150,5,0,0:0:0:0:
96,120,63300,2,0,P|47:165|28:196,1,87.5
116,332,63600,1,0,0:0:0:0:
190,69,63750,2,0,L|158:165,1,87.5
268,180,64050,2,0,L|308:292,1,87.5
198,361,64350,2,0,L|86:321,1,87.5
56,184,64650,1,0,0:0:0:0:
190,69,64800,5,0,0:0:0:0:
202,209,64950,1,0,0:0:0:0:
322,53,65100,1,0,0:0:0:0:
302,217,65250,1,0,0:0:0:0:
186,57,65400,5,0,0:0:0:0:
202,221,65550,1,0,0:0:0:0:
326,45,65700,1,0,0:0:0:0:
306,229,65850,1,0,0:0:0:0:
456,272,66000,6,0,P|424:320|360:328,1,87.5
368,332,66225,1,0,0:0:0:0:
332,320,66300,1,0,0:0:0:0:
202,221,66450,1,0,0:0:0:0:
380,252,66600,2,0,B|420:200|420:200|348:88,1,175
280,0,67050,1,0,0:0:0:0:
160,56,67200,5,0,0:0:0:0:
272,256,67350,1,0,0:0:0:0:
96,128,67500,5,0,0:0:0:0:
332,184,67650,1,0,0:0:0:0:
92,220,67800,5,0,0:0:0:0:
320,92,67950,1,0,0:0:0:0:
176,276,68100,5,0,0:0:0:0:
240,56,68250,1,0,0:0:0:0:
336,260,68400,6,0,P|270:246|278:226,1,87.5
174,51,68700,2,0,P|240:65|232:85,1,87.5
176,276,69000,2,0,P|122:234|138:220,1,87.5
320,92,69300,2,0,P|373:133|357:147,1,87.5
140,172,69600,2,0,L|235:180,1,87.5
372,196,69900,1,0,0:0:0:0:
56,224,70050,2,0,P|40:170|136:74,1,175
220,324,70500,1,0,0:0:0:0:
220,324,70650,1,0,0:0:0:0:
384,212,70800,6,0,L|304:272,1,87.5
148,368,71100,1,0,0:0:0:0:
148,368,71250,1,0,0:0:0:0:
0,176,71400,6,0,L|64:260,1,87.5
148,368,71700,1,0,0:0:0:0:
184,168,71850,2,0,B|200:116|200:116|40:92,1,175
53,245,72300,1,0,0:0:0:0:
220,324,72450,1,0,0:0:0:0:
272,112,72600,1,0,0:0:0:0:
148,368,72750,1,0,0:0:0:0:
352,200,72900,5,0,0:0:0:0:
116,108,73050,1,0,0:0:0:0:
116,108,73125,1,0,0:0:0:0:
116,108,73200,1,0,0:0:0:0:
220,324,73350,2,0,P|288:344|332:336,1,87.5
380,72,73650,1,0,0:0:0:0:
380,72,73725,1,0,0:0:0:0:
380,72,73800,1,0,0:0:0:0:
128,184,73950,2,0,P|156:236|192:260,1,87.5
416,248,74250,5,0,0:0:0:0:
416,248,74325,1,0,0:0:0:0:
416,248,74400,1,0,0:0:0:0:
180,16,74550,2,0,P|136:56|128:108,1,87.5
160,288,74850,1,0,0:0:0:0:
316,76,75000,2,0,P|260:92|232:124,1,87.5
324,192,75300,1,0,0:0:0:0:
36,96,75450,1,0,0:0:0:0:
36,96,75525,1,0,0:0:0:0:
36,96,75600,5,0,0:0:0:0:
159,288,75750,2,0,P|118:275|91:242,1,87.5
112,32,76050,1,0,0:0:0:0:
112,32,76125,1,0,0:0:0:0:
112,32,76200,1,0,0:0:0:0:
276,293,76350,2,0,P|333:279|357:246,1,87.5
272,196,76650,1,0,0:0:0:0:
200,36,76800,5,0,0:0:0:0:
424,208,76950,1,0,0:0:0:0:
280,0,77100,5,0,0:0:0:0:
352,260,77250,1,0,0:0:0:0:
368,4,77400,5,0,0:0:0:0:
256,268,77550,1,0,0:0:0:0:
448,40,77700,5,0,0:0:0:0:
176,240,77850,1,0,0:0:0:0:
72,336,78000,6,0,P|120:372|176:372,1,105.000004005432
256,268,78450,1,0,0:0:0:0:
176,240,78600,2,0,L|108:208,1,52.5000020027161
16,160,78900,1,0,0:0:0:0:
208,128,79050,1,0,0:0:0:0:
44,64,79200,2,0,P|94:44|159:55,1,105.000004005432
368,48,79800,5,0,0:0:0:0:
408,168,80100,1,0,0:0:0:0:
144,48,80400,5,0,0:0:0:0:
104,168,80700,1,0,0:0:0:0:
256,336,81000,5,0,0:0:0:0:
256,184,81300,1,0,0:0:0:0:
256,32,81600,5,0,0:0:0:0:
256,32,81750,1,0,0:0:0:0:
44,132,82050,2,0,P|44:208|128:232,1,157.500006008148
392,76,82800,6,0,L|336:120,1,52.5000020027161
44,132,83100,1,0,0:0:0:0:
110,237,83250,1,0,0:0:0:0:
44,132,83400,1,0,0:0:0:0:
110,237,83550,1,0,0:0:0:0:
20,284,83700,2,0,B|32:328|32:328|96:352,1,105.000004005432
352,40,84300,5,0,0:0:0:0:
252,116,84450,1,0,0:0:0:0:
352,40,84600,1,0,0:0:0:0:
252,116,84750,1,0,0:0:0:0:
364,164,84900,2,0,B|368:208|368:208|304:232,1,105.000004005432
175,295,85350,6,0,L|103:231,1,87.5
8,152,85650,1,0,0:0:0:0:
220,24,85800,1,0,0:0:0:0:
236,172,85950,5,0,0:0:0:0:
40,12,86100,1,0,0:0:0:0:
288,84,86250,1,0,0:0:0:0:
175,295,86400,5,0,0:0:0:0:
152,72,86550,1,0,0:0:0:0:
392,220,86700,1,0,0:0:0:0:
88,168,86850,5,0,0:0:0:0:
288,84,87000,2,0,L|372:16,1,87.5
280,312,87300,2,0,L|356:384,1,87.5
80,92,87600,5,0,0:0:0:0:
80,92,87900,5,0,0:0:0:0:
180,348,88050,1,0,0:0:0:0:
292,24,88200,5,0,0:0:0:0:
88,224,88350,1,0,0:0:0:0:
424,92,88500,5,0,0:0:0:0:
144,36,88650,1,0,0:0:0:0:
464,196,88800,5,0,0:0:0:0:
160,288,88950,1,0,0:0:0:0:
448,136,89100,5,0,0:0:0:0:
132,156,89250,1,0,0:0:0:0:
460,76,89400,5,0,0:0:0:0:
144,36,89550,1,0,0:0:0:0:
348,316,89700,2,0,P|308:268|328:332,1,175
144,36,90150,5,0,0:0:0:0:
84,296,90300,1,0,0:0:0:0:
288,40,90450,5,0,0:0:0:0:
216,308,90600,1,0,0:0:0:0:
428,48,90750,5,0,0:0:0:0:
348,316,90900,1,0,0:0:0:0:
288,40,91050,6,0,L|424:168,1,175
348,316,91425,2,0,L|315:286,1,43.75
248,148,91575,2,0,L|260:204,1,43.75
264,348,91725,2,0,L|231:318,1,43.75
168,172,91875,2,0,L|180:228,1,43.75
176,376,92025,2,0,L|120:320,1,43.75
32,140,92250,1,0,0:0:0:0:
168,52,92400,6,0,L|340:64,1,140
464,216,92700,2,0,L|308:208,1,140
44,256,93000,2,0,P|92:204|184:204,1,140
148,308,93300,2,0,L|216:292,1,70
328,344,93450,2,0,L|260:360,1,70
300,260,93600,2,0,L|368:244,1,70
480,296,93750,2,0,L|412:312,1,70
464,216,93900,2,0,L|480:148,1,70
440,28,94050,2,0,L|424:96,1,70
300,260,94200,6,0,B|344:232|344:232|344:104,1,140
140,0,94500,2,0,B|96:28|96:28|96:156,1,140
186,294,94800,2,0,B|194:314|194:314|310:254,1,140
488,192,95100,2,0,P|448:100|392:72,1,140
96,80,95400,6,0,L|196:80,1,70
256,80,95550,2,0,L|356:80,1,70
488,80,95700,2,0,L|388:80,1,70
256,80,95850,2,0,L|156:80,1,70
16,184,96000,5,0,0:0:0:0:
288,184,96150,1,0,0:0:0:0:
152,184,96300,5,0,0:0:0:0:
424,184,96450,1,0,0:0:0:0:
472,324,96600,2,0,L|360:324,1,70
280,324,96750,2,0,L|152:324,1,70
72,324,96900,2,0,P|32:308|88:252,1,140
424,184,97200,6,0,L|304:68,1,140
57,129,97500,2,0,L|181:253,1,140
368,24,97800,1,0,0:0:0:0:
156,228,97950,1,0,0:0:0:0:
480,116,98100,1,0,0:0:0:0:
144,32,98250,1,0,0:0:0:0:
320,264,98400,5,0,0:0:0:0:
456,28,98550,1,0,0:0:0:0:
57,129,98700,1,0,0:0:0:0:
472,208,98850,1,0,0:0:0:0:
256,8,99000,5,0,0:0:0:0:
248,304,99150,1,0,0:0:0:0:
500,96,99300,1,0,0:0:0:0:
136,60,99450,1,0,0:0:0:0:
388,308,99600,6,0,B|432:300|432:300|392:201,1,140
160,232,99900,1,0,0:0:0:0:
456,28,100050,1,0,0:0:0:0:
136,52,100200,6,0,B|92:68|92:68|131:166,1,140
456,136,100500,1,0,0:0:0:0:
160,232,100650,1,0,0:0:0:0:
256,32,100800,6,0,L|196:84,2,70.0000026702882
272,116,101100,6,0,L|332:168,2,70.0000026702882
256,208,101400,6,0,L|196:260,2,70.0000026702882
276,292,101700,6,0,L|336:344,2,70.0000026702882
112,64,102000,6,0,B|68:104|68:104|72:180,1,105.000004005432
84,324,102300,1,0,0:0:0:0:
112,308,102375,1,0,0:0:0:0:
136,328,102450,1,0,0:0:0:0:
160,308,102525,1,0,0:0:0:0:
188,320,102600,1,0,0:0:0:0:
220,184,102750,5,0,0:0:0:0:
352,72,102900,1,0,0:0:0:0:
328,51,102975,1,0,0:0:0:0:
299,63,103050,1,0,0:0:0:0:
275,48,103125,1,0,0:0:0:0:
251,69,103200,1,0,0:0:0:0:
108,144,103350,1,0,0:0:0:0:
300,172,103500,6,0,P|336:180|376:152,3,52.5000020027161
376,264,103800,6,0,P|394:296|441:307,3,52.5000020027161
312,332,104100,5,0,0:0:0:0:
304,300,104175,1,0,0:0:0:0:
292,272,104250,1,0,0:0:0:0:
256,264,104325,1,0,0:0:0:0:
224,260,104400,1,0,0:0:0:0:
96,320,104550,1,0,0:0:0:0:
136,136,104700,5,0,0:0:0:0:
104,132,104775,1,0,0:0:0:0:
68,124,104850,1,0,0:0:0:0:
60,96,104925,1,0,0:0:0:0:
52,64,105000,1,0,0:0:0:0:
168,0,105150,1,0,0:0:0:0:
356,52,105300,6,0,L|324:104,3,52.5000020027161
312,128,105600,1,0,0:0:0:0:
296,160,105675,1,0,0:0:0:0:
288,196,105750,1,0,0:0:0:0:
288,232,105825,1,0,0:0:0:0:
296,268,105900,1,0,0:0:0:0:
420,212,106050,1,0,0:0:0:0:
236,76,106200,6,0,L|200:140,1,52.5000020027161
84,228,106350,2,0,L|116:176,1,52.5000020027161
176,24,106500,2,0,P|232:-4|288:16,1,105.000004005432
440,88,106800,6,0,B|424:128|424:128|392:152|392:152|372:204,1,105.000004005432
176,24,107100,1,0,0:0:0:0:
144,40,107175,1,0,0:0:0:0:
144,76,107250,1,0,0:0:0:0:
108,84,107325,1,0,0:0:0:0:
104,120,107400,1,0,0:0:0:0:
192,232,107550,1,0,0:0:0:0:
312,104,107700,5,0,0:0:0:0:
324,68,107775,1,0,0:0:0:0:
292,52,107850,1,0,0:0:0:0:
260,36,107925,1,0,0:0:0:0:
272,0,108000,1,0,0:0:0:0:
456,24,108150,1,0,0:0:0:0:
352,208,108300,6,0,L|404:176,3,52.5000020027161
184,96,108600,2,0,L|132:64,3,52.5000020027161
36,280,108900,2,0,L|152:308,1,70
176,184,109050,2,0,L|244:167,1,70
380,44,109200,6,0,P|444:120|436:180,1,140
192,312,109500,2,0,L|136:236,1,70
200,112,109650,2,0,L|236:20,1,70
380,44,109800,6,0,P|391:111|443:155,1,140
225,46,110100,2,0,L|200:112,1,70
150,255,110250,2,0,L|191:311,1,70
48,372,110400,2,0,B|16:344|16:344|20:312|20:312|-12:280,1,105.000004005432
96,152,110700,2,0,B|74:173|74:173|78:205|78:205|52:232,1,97.9999970092774
52,84,111000,2,0,B|20:56|20:56|24:24|24:24|-4:0,1,97.9999970092774
302,23,111300,5,0,0:0:0:0:
310,35,111375,1,0,0:0:0:0:
318,47,111450,1,0,0:0:0:0:
326,59,111525,1,0,0:0:0:0:
333,70,111600,2,0,L|476:70,1,140
226,70,112050,1,0,0:0:0:0:
113,70,112200,1,0,0:0:0:0:
510,70,112350,6,0,L|409:70,1,87.5
313,70,112500,2,0,L|204:70,1,87.5
113,70,112650,2,0,L|4:70,1,87.5
28,152,112800,6,0,L|152:152,1,105
28,228,113100,6,0,L|536:228,1,456.521739130435
484,304,113400,2,0,L|28:304,1,456.521739130435
28,152,113700,2,0,L|536:152,1,456.521739130435
28,228,114000,6,0,L|170:228,1,140
280,228,114600,2,0,L|384:228,1,70
484,152,114750,2,0,L|414:152,1,70
168,304,114900,2,0,L|28:304,1,140
412,304,115200,6,0,L|482:304,1,70
280,228,115425,2,0,L|350:228,1,70
148,152,115650,2,0,L|224:152,1,70
496,228,115800,2,0,L|336:228,1,140
164,44,116400,6,0,L|324:44,1,140
304,44,117000,6,0,L|384:44,1,70
164,44,117150,2,0,L|76:44,1,70
374,44,117300,2,0,L|286:44,1,70
94,44,117450,2,0,L|166:44,1,70
304,44,117600,6,0,L|440:44,1,105
464,128,117900,6,0,L|344:128,1,105
276,128,118200,6,0,L|116:128,1,140
94,44,118350,2,0,L|234:44,1,140
300,212,118500,2,0,L|144:212,1,140
304,44,118650,2,0,L|464:44,1,140
456,212,118800,6,0,L|344:212,1,70
280,128,118950,2,0,L|192:128,1,70
20,212,119100,6,0,L|152:212,1,105
132,128,119400,2,0,L|208:128,1,70
288,304,119550,2,0,L|380:304,1,70
280,128,119700,2,0,L|352:128,1,70
132,300,119850,2,0,L|216:300,1,70
416,224,120000,5,0,0:0:0:0:
196,64,120150,1,0,0:0:0:0:
108,224,120300,5,0,0:0:0:0:
316,64,120450,1,0,0:0:0:0:
256,232,120600,5,0,0:0:0:0:
424,64,120750,1,0,0:0:0:0:
80,64,120900,1,0,0:0:0:0:
256,232,121050,1,0,0:0:0:0:
256,232,121200,6,0,B|152:216|96:268|96:268|228:316,1,280
320,52,121650,1,0,0:0:0:0:
96,268,121800,1,0,0:0:0:0:
420,208,121950,5,0,0:0:0:0:
112,64,122100,1,0,0:0:0:0:
296,320,122250,1,0,0:0:0:0:
232,12,122400,5,0,0:0:0:0:
192,312,122550,1,0,0:0:0:0:
392,56,122700,1,0,0:0:0:0:
88,184,122850,5,0,0:0:0:0:
397,192,123000,2,0,B|334:197|302:149|302:149|339:28|238:-11,1,280
180,100,123450,1,0,0:0:0:0:
88,184,123600,2,0,B|136:264|237:226|237:226|285:258|280:321,1,280
464,156,124050,5,0,0:0:0:0:
208,308,124200,1,0,0:0:0:0:
464,80,124350,5,0,0:0:0:0:
128,308,124500,1,0,0:0:0:0:
148,112,124650,1,0,0:0:0:0:
148,112,124725,1,0,0:0:0:0:
148,112,124800,1,0,0:0:0:0:
480,264,124950,5,0,0:0:0:0:
372,72,125100,1,0,0:0:0:0:
328,340,125250,5,0,0:0:0:0:
372,72,125400,2,0,P|300:188|392:200,1,280
352,140,125850,1,0,0:0:0:0:
140,312,126000,2,0,P|212:196|120:184,1,280
160,244,126450,6,0,L|216:220,1,35
160,96,126600,2,0,L|219:109,1,35
352,244,126750,2,0,L|296:220,1,35
352,96,126900,2,0,L|292:109,1,35
96,276,127050,6,0,L|152:252,1,35
96,68,127200,2,0,L|155:81,1,35
416,276,127350,2,0,L|360:252,1,35
416,68,127500,2,0,L|356:81,1,35
72,172,127650,2,0,L|112:172,1,35
448,172,127800,2,0,L|224:172,1,210
448,172,128400,5,0,0:0:0:0:
72,172,128550,1,0,0:0:0:0:
72,64,128700,6,0,L|276:64,1,175
72,172,129000,5,0,0:0:0:0:
448,172,129150,1,0,0:0:0:0:
448,280,129300,6,0,L|244:280,1,175
448,172,129600,5,0,0:0:0:0:
404,172,129675,1,0,0:0:0:0:
360,172,129750,1,0,0:0:0:0:
316,172,129825,1,0,0:0:0:0:
272,172,129900,1,0,0:0:0:0:
228,172,129975,1,0,0:0:0:0:
184,172,130050,1,0,0:0:0:0:
140,172,130125,1,0,0:0:0:0:
96,172,130200,6,0,B|8:252|8:252|56:240,2,157.500006008148
216,312,130800,6,0,P|181:317|147:310,1,70
344,232,131100,2,0,P|379:227|413:234,1,70
184,184,131400,2,0,P|179:149|186:115,1,70
328,88,131700,1,0,0:0:0:0:
348,0,131850,2,0,P|416:40|408:116,2,140
248,148,132600,1,0,0:0:0:0:
248,148,132750,1,0,0:0:0:0:
68,60,133200,6,0,L|164:96,1,70
314,170,133500,2,0,L|222:138,1,70
124,196,133800,2,0,L|84:272,1,70
216,44,134100,1,0,0:0:0:0:
324,44,134250,2,0,P|304:116|228:148,2,140
392,208,135000,1,0,0:0:0:0:
488,192,135150,1,0,0:0:0:0:
464,292,135300,6,0,P|408:336|332:328,1,140
248,224,135750,1,0,0:0:0:0:
392,208,135900,1,0,0:0:0:0:
300,344,136050,5,0,0:0:0:0:
156,188,136200,1,0,0:0:0:0:
368,136,136350,1,0,0:0:0:0:
256,352,136500,5,0,0:0:0:0:
48,172,136650,1,0,0:0:0:0:
348,64,136800,1,0,0:0:0:0:
128,284,136950,5,0,0:0:0:0:
176,28,137100,1,0,0:0:0:0:
396,208,137250,1,0,0:0:0:0:
139,145,137400,5,0,0:0:0:0:
296,108,137550,1,0,0:0:0:0:
248,260,137700,1,0,0:0:0:0:
248,260,137850,1,0,0:0:0:0:
152,348,138000,6,0,P|124:268|145:134,1,210.000008010865
256,68,138300,1,0,0:0:0:0:
256,68,138450,1,0,0:0:0:0:
360,348,138600,6,0,P|388:268|367:134,1,210.000008010865
256,68,138900,1,0,0:0:0:0:
256,68,139050,1,0,0:0:0:0:
163,141,139200,5,0,0:0:0:0:
184,104,139275,1,0,0:0:0:0:
216,76,139350,1,0,0:0:0:0:
256,68,139425,1,0,0:0:0:0:
296,80,139500,1,0,0:0:0:0:
328,104,139575,1,0,0:0:0:0:
360,132,139650,1,0,0:0:0:0:
400,140,139725,1,0,0:0:0:0:
440,136,139800,5,0,0:0:0:0:
476,112,139875,1,0,0:0:0:0:
488,72,139950,1,0,0:0:0:0:
480,32,140025,1,0,0:0:0:0:
460,16,140100,2,0,L|400:24,3,35
296,80,140400,6,0,B|152:36,1,105.000004005432
55,89,140700,2,0,B|199:133,1,105.000004005432
392,128,141000,1,0,0:0:0:0:
336,252,141150,1,0,0:0:0:0:
156,120,141300,1,0,0:0:0:0:
284,168,141450,1,0,0:0:0:0:
144,284,141600,6,0,P|80:240|80:200,1,105.000004005432
104,32,141900,1,0,0:0:0:0:
104,32,142050,1,0,0:0:0:0:
216,48,142200,2,0,L|336:116,1,105.000004005432
284,168,142500,2,0,L|404:236,1,105.000004005432
144,284,142800,5,0,0:0:0:0:
84,120,142950,1,0,0:0:0:0:
284,168,143100,1,0,0:0:0:0:
312,16,143250,1,0,0:0:0:0:
132,308,143400,5,0,0:0:0:0:
64,104,143550,1,0,0:0:0:0:
304,188,143700,1,0,0:0:0:0:
336,0,143850,1,0,0:0:0:0:
492,56,144000,2,0,B|404:72|404:72|412:96,1,105.000004005432
220,218,144300,2,0,B|308:202|308:202|300:178,1,105.000004005432
204,40,144600,2,0,L|100:112,1,105.000004005432
192,148,144900,2,0,L|88:220,1,105.000004005432
332,312,145200,5,0,0:0:0:0:
492,204,145350,1,0,0:0:0:0:
296,288,145500,5,0,0:0:0:0:
396,88,145650,1,0,0:0:0:0:
256,272,145800,5,0,0:0:0:0:
252,40,145950,1,0,0:0:0:0:
216,288,146100,5,0,0:0:0:0:
116,88,146250,1,0,0:0:0:0:
180,312,146400,5,0,0:0:0:0:
20,204,146550,1,0,0:0:0:0:
252,40,146700,1,0,0:0:0:0:
100,296,146850,1,0,0:0:0:0:
29,132,147000,2,0,P|85:88|145:100,1,105.000004005432
160,188,147300,2,0,P|216:200|264:236,1,105.000004005432
464,48,147600,6,0,B|408:120|408:120|408:144,1,105.000004005432
256,88,147900,1,0,0:0:0:0:
104,48,148050,1,0,0:0:0:0:
48,188,148200,6,0,B|104:260|104:260|104:284,1,105.000004005432
256,228,148500,1,0,0:0:0:0:
408,188,148650,1,0,0:0:0:0:
464,284,148800,6,0,B|408:356|408:356|408:380,1,105.000004005432
256,324,149100,1,0,0:0:0:0:
104,273,149250,1,0,0:0:0:0:
256,88,149400,1,0,0:0:0:0:
256,136,149475,1,0,0:0:0:0:
256,184,149550,1,0,0:0:0:0:
256,228,149625,1,0,0:0:0:0:
256,276,149700,1,0,0:0:0:0:
256,324,149775,1,0,0:0:0:0:
256,372,149850,5,0,0:0:0:0:
104,273,150000,2,0,P|92:197|132:141,1,105.000004005432
200,28,150300,1,0,0:0:0:0:
101,173,150450,1,0,0:0:0:0:
200,28,150600,2,0,P|256:12|316:28,1,105.000004005432
432,136,150900,1,0,0:0:0:0:
300,20,151050,1,0,0:0:0:0:
432,136,151200,6,0,B|448:116|448:116|488:204,1,105.000004005432
332,236,151500,2,0,B|316:216|316:216|276:304,1,105.000004005432
456,336,151800,2,0,B|392:372|392:372|324:368,1,105.000004005432
128,192,152100,5,0,0:0:0:0:
264,96,152250,1,0,0:0:0:0:
128,192,152400,2,0,P|92:252|88:292,1,105.000004005432
432,136,152700,5,0,0:0:0:0:
332,236,152850,1,0,0:0:0:0:
432,136,153000,2,0,P|468:76|468:36,1,105.000004005432
144,32,153300,5,0,0:0:0:0:
336,28,153450,1,0,0:0:0:0:
144,32,153600,2,0,L|20:32,1,105.000004005432
327,136,153900,2,0,L|455:136,1,105.000004005432
164,200,154200,2,0,L|92:280,1,105.000004005432
296,8,154500,2,0,P|372:32|408:72,1,105.000004005432
257,160,154800,2,0,P|181:184|145:224,1,105.000004005432
104,356,155100,5,0,0:0:0:0:
420,356,155250,1,0,0:0:0:0:
104,356,155400,1,0,0:0:0:0:
420,356,155550,1,0,0:0:0:0:
163,199,155700,2,0,P|205:170|257:160,1,105.000004005432
389,47,156000,2,0,P|347:18|296:8,1,105.000004005432
184,8,156300,1,0,0:0:0:0:
64,100,156450,1,0,0:0:0:0:
64,100,156525,1,0,0:0:0:0:
64,100,156600,1,0,0:0:0:0:
163,199,156750,1,0,0:0:0:0:
296,24,156900,5,0,0:0:0:0:
432,160,157050,1,0,0:0:0:0:
296,24,157200,2,0,L|376:104,1,105.000004005432
216,24,157500,5,0,0:0:0:0:
80,160,157650,1,0,0:0:0:0:
216,24,157800,2,0,L|136:104,1,105.000004005432
148,276,158100,5,0,0:0:0:0:
364,276,158250,1,0,0:0:0:0:
148,276,158400,2,0,L|280:276,1,105.000004005432
148,276,158700,2,0,L|212:176,1,105.000004005432
148,276,159000,2,0,L|84:176,1,105.000004005432
148,276,159300,2,0,L|16:276,1,105.000004005432
312,172,159600,5,0,0:0:0:0:
312,172,159675,1,0,0:0:0:0:
312,172,159750,2,0,L|364:192,1,52.5000020027161
408,84,159900,1,0,0:0:0:0:
292,24,160050,5,0,0:0:0:0:
248,40,160125,1,0,0:0:0:0:
200,28,160200,1,0,0:0:0:0:
152,32,160275,1,0,0:0:0:0:
116,60,160350,1,0,0:0:0:0:
96,104,160425,1,0,0:0:0:0:
92,152,160500,1,0,0:0:0:0:
220,360,160650,5,0,0:0:0:0:
264,344,160725,1,0,0:0:0:0:
312,356,160800,1,0,0:0:0:0:
360,352,160875,1,0,0:0:0:0:
396,324,160950,1,0,0:0:0:0:
416,280,161025,1,0,0:0:0:0:
396,236,161100,2,0,L|372:272,3,26.2500010013581
372,148,161400,2,0,L|396:112,3,26.2500010013581
284,168,161700,2,0,L|264:196,3,26.2500010013581
208,36,162000,6,0,B|168:36|168:36|140:96,1,105.000004005432
72,308,162300,1,0,0:0:0:0:
284,168,162450,2,0,L|184:232,1,105.000004005432
284,168,162750,2,0,L|180:112,1,105.000004005432
284,168,163050,2,0,L|308:48,1,105.000004005432
284,168,163350,2,0,L|408:144,1,105.000004005432
336,280,163650,5,0,0:0:0:0:
336,280,163725,1,0,0:0:0:0:
336,280,163800,2,0,L|292:312,1,52.5000020027161
292,180,163950,1,0,0:0:0:0:
292,180,164025,1,0,0:0:0:0:
292,180,164100,2,0,L|249:149,1,52.5000020027161
336,8,164250,1,0,0:0:0:0:
336,8,164325,1,0,0:0:0:0:
336,8,164400,6,0,B|284:48|284:48|224:32,1,105.000004005432
120,4,164700,1,0,0:0:0:0:
4,136,164850,1,0,0:0:0:0:
4,136,164925,1,0,0:0:0:0:
4,136,165000,1,0,0:0:0:0:
168,156,165150,1,0,0:0:0:0:
112,324,165300,1,0,0:0:0:0:
112,324,165450,6,0,P|260:304|328:152,1,315.000012016297
244,24,166050,1,0,0:0:0:0:
244,24,166125,1,0,0:0:0:0:
244,24,166200,1,0,0:0:0:0:
76,44,166350,1,0,0:0:0:0:
168,156,166500,2,0,B|200:156|200:156|160:228,1,105.000004005432
20,320,166800,5,0,0:0:0:0:
20,320,166950,1,0,0:0:0:0:
256,320,167100,2,0,B|224:320|224:320|264:248,1,105.000004005432
260,40,167400,5,0,0:0:0:0:
260,40,167550,1,0,0:0:0:0:
412,24,167700,2,0,B|444:24|444:24|404:96,1,105.000004005432
184,216,168000,2,0,L|80:284,1,105.000004005432
284,136,168300,2,0,L|332:32,1,105.000004005432
308,256,168600,2,0,L|356:372,1,105.000004005432
256,204,168900,1,0,0:0:0:0:
256,204,169050,1,0,0:0:0:0:
256,204,169200,6,0,B|184:212|184:212|216:152|168:124|168:124|120:140,1,210.000008010865
32,220,169650,1,0,0:0:0:0:
56,40,169800,1,0,0:0:0:0:
100,24,169875,1,0,0:0:0:0:
148,16,169950,1,0,0:0:0:0:
196,20,170025,1,0,0:0:0:0:
236,32,170100,1,0,0:0:0:0:
256,204,170250,1,0,0:0:0:0:
256,204,170400,6,0,L|364:156,1,105.000004005432
360,276,170700,2,0,L|480:216,1,105.000004005432
256,120,171000,2,0,L|148:72,1,105.000004005432
152,192,171300,2,0,L|32:132,1,105.000004005432
256,192,171600,5,0,0:0:0:0:
176,308,171750,1,0,0:0:0:0:
336,308,171900,1,0,0:0:0:0:
256,120,172050,5,0,0:0:0:0:
120,356,172200,1,0,0:0:0:0:
392,356,172350,1,0,0:0:0:0:
448,76,172500,5,0,0:0:0:0:
64,76,172650,1,0,0:0:0:0:
256,192,172800,1,0,0:0:0:0:
256,192,172950,12,0,174000,0:0:0:0:
256,192,189600,12,0,192750,0:0:0:0:
156,132,192900,5,0,0:0:0:0:
180,144,192975,1,0,0:0:0:0:
204,152,193050,1,0,0:0:0:0:
232,156,193125,1,0,0:0:0:0:
260,156,193200,2,0,B|304:172|304:172|316:120|340:108|340:108|356:140|376:148|376:148|440:112,2,210.000008010865
156,132,193950,1,0,0:0:0:0:
48,16,194100,1,0,0:0:0:0:
32,172,194250,6,0,B|16:216|16:216|48:248|76:256|76:256|92:284|72:300|72:300|80:324|80:324|68:364,1,210.000008010865
200,228,194700,2,0,P|268:248|308:236,1,105.000004005432
260,156,195000,2,0,P|326:132|352:98,1,105.000004005432
228,40,195300,2,0,P|148:20|100:56,1,105.000004005432
48,100,195600,2,0,B|80:128|80:128|80:212,1,105.000004005432
56,360,195900,1,0,0:0:0:0:
56,360,196050,1,0,0:0:0:0:
304,288,196200,2,0,B|232:328|232:328|208:312,1,105.000004005432
128,232,196500,1,0,0:0:0:0:
48,100,196650,6,0,P|144:72|244:140,1,210.000008010865
432,56,197100,1,0,0:0:0:0:
444,36,197250,1,0,0:0:0:0:
464,248,197400,1,0,0:0:0:0:
480,264,197550,1,0,0:0:0:0:
284,184,197700,1,0,0:0:0:0:
260,192,197850,1,0,0:0:0:0:
196,28,198000,6,0,P|112:52|72:168,2,210.000008010865
356,24,198750,1,0,0:0:0:0:
284,184,198900,1,0,0:0:0:0:
216,328,199050,2,0,B|252:360|252:360|296:344|296:344|340:360|340:360|384:344|384:344|432:360|432:360|476:344|476:344|520:360,1,315.000012016297
508,160,199650,2,0,L|396:220,1,105.000004005432
348,100,199950,2,0,L|280:188,1,105.000004005432
152,56,200250,1,0,0:0:0:0:
32,100,200400,6,0,P|60:152|104:176,1,105.000004005432
283,183,200700,2,0,P|260:136|216:108,1,105.000004005432
176,252,201000,2,0,L|168:356,1,105.000004005432
372,268,201300,1,0,0:0:0:0:
397,101,201450,2,0,B|145:9|145:9|157:89,1,315.000012016297
372,268,202050,2,0,P|348:320|296:316,1,105.000004005432
176,252,202350,1,0,0:0:0:0:
88,348,202500,1,0,0:0:0:0:
88,348,202575,1,0,0:0:0:0:
88,348,202650,1,0,0:0:0:0:
36,72,202800,5,0,0:0:0:0:
108,220,202950,1,0,0:0:0:0:
184,72,203100,1,0,0:0:0:0:
456,312,203250,5,0,0:0:0:0:
384,164,203400,1,0,0:0:0:0:
308,312,203550,1,0,0:0:0:0:
460,48,203700,5,0,0:0:0:0:
312,120,203850,1,0,0:0:0:0:
460,196,204000,1,0,0:0:0:0:
88,348,204150,5,0,0:0:0:0:
236,272,204300,1,0,0:0:0:0:
88,200,204450,1,0,0:0:0:0:
88,348,204600,6,0,B|134:326|134:326|158:374,2,105.000004005432
88,200,205050,1,0,0:0:0:0:
336,252,205200,2,0,P|364:196|352:140,1,105.000004005432
276,32,205500,1,0,0:0:0:0:
248,184,205650,2,0,P|184:220|160:256,1,105.000004005432
5,260,205950,2,0,P|69:224|93:188,1,105.000004005432
256,304,206250,6,0,P|356:340|432:260,1,210.000008010865
424,36,206700,5,0,0:0:0:0:
424,36,206850,1,0,0:0:0:0:
232,64,207000,2,0,L|144:140,1,105.000004005432
128,160,207225,1,0,0:0:0:0:
124,184,207300,1,0,0:0:0:0:
124,212,207375,1,0,0:0:0:0:
136,236,207450,1,0,0:0:0:0:
152,256,207525,1,0,0:0:0:0:
176,268,207600,5,0,0:0:0:0:
324,160,207750,1,0,0:0:0:0:
460,260,207900,2,0,P|432:304|364:340,1,105.000004005432
200,364,208200,1,0,0:0:0:0:
208,192,208350,1,0,0:0:0:0:
68,216,208500,2,0,P|68:156|88:104,1,105.000004005432
100,92,208725,1,0,0:0:0:0:
120,76,208800,5,0,0:0:0:0:
144,64,208875,1,0,0:0:0:0:
168,56,208950,1,0,0:0:0:0:
192,52,209025,1,0,0:0:0:0:
220,52,209100,1,0,0:0:0:0:
244,60,209175,1,0,0:0:0:0:
268,68,209250,1,0,0:0:0:0:
292,80,209325,2,0,L|252:128,3,52.5000020027161
324,116,209625,2,0,L|364:68,4,52.5000020027161
428,160,210000,2,0,B|460:312|460:312|412:348,1,210.000008010865
220,300,210450,5,0,0:0:0:0:
72,44,210600,1,0,0:0:0:0:
424,88,210750,1,0,0:0:0:0:
76,244,210900,5,0,0:0:0:0:
256,20,211050,1,0,0:0:0:0:
388,248,211200,1,0,0:0:0:0:
128,328,211350,5,0,0:0:0:0:
144,68,211500,1,0,0:0:0:0:
408,184,211650,1,0,0:0:0:0:
92,172,211800,5,0,0:0:0:0:
360,332,211950,1,0,0:0:0:0:
344,36,212100,1,0,0:0:0:0:
200,320,212250,1,0,0:0:0:0:
172,160,212400,6,0,P|216:136|264:144,2,87.5
72,264,212850,1,0,0:0:0:0:
320,192,213000,2,0,P|288:220|232:220,2,87.5
232,56,213450,6,0,P|148:32|60:104,1,175
72,264,213900,1,0,0:0:0:0:
52,344,214050,1,0,0:0:0:0:
156,240,214200,1,0,0:0:0:0:
136,320,214350,1,0,0:0:0:0:
240,212,214500,1,0,0:0:0:0:
220,292,214650,1,0,0:0:0:0:
116,136,214800,6,0,P|140:88|176:64,2,87.5
240,212,215250,1,0,0:0:0:0:
352,308,215400,6,0,P|385:280|402:240,2,87.5
124,332,215850,1,0,0:0:0:0:
284,160,216000,1,0,0:0:0:0:
244,172,216075,1,0,0:0:0:0:
240,212,216150,1,0,0:0:0:0:
200,208,216225,1,0,0:0:0:0:
196,248,216300,1,0,0:0:0:0:
124,332,216450,1,0,0:0:0:0:
240,348,216600,6,0,L|348:360,1,87.5
440,248,216900,2,0,L|402:224,3,43.75
360,200,217200,5,0,0:0:0:0:
452,124,217350,1,0,0:0:0:0:
328,88,217500,2,0,P|272:96|248:140,1,87.5
232,240,217800,5,0,0:0:0:0:
104,264,217950,1,0,0:0:0:0:
148,144,218100,1,0,0:0:0:0:
232,240,218250,2,0,P|200:292|100:256,1,175
56,64,218700,5,0,0:0:0:0:
220,48,218850,1,0,0:0:0:0:
148,144,219000,5,0,0:0:0:0:
312,128,219150,1,0,0:0:0:0:
240,224,219300,5,0,0:0:0:0:
404,208,219450,1,0,0:0:0:0:
344,308,219600,6,0,L|436:300,1,87.5
512,344,219900,2,0,P|500:236|476:172,1,175
404,84,220350,1,0,0:0:0:0:
300,36,220500,1,0,0:0:0:0:
188,24,220650,2,0,P|160:64|208:56,1,122.500001168251
168,212,220950,2,0,P|196:172|148:180,1,122.500001168251
104,284,221250,1,0,0:0:0:0:
256,300,221400,1,0,0:0:0:0:
256,300,221475,1,0,0:0:0:0:
256,300,221550,1,0,0:0:0:0:
256,300,221625,1,0,0:0:0:0:
256,300,221700,1,0,0:0:0:0:
256,300,221775,1,0,0:0:0:0:
256,300,221850,1,0,0:0:0:0:
388,284,222000,5,0,0:0:0:0:
88,132,222300,5,0,0:0:0:0:
424,84,222600,5,0,0:0:0:0:
120,312,222900,5,0,0:0:0:0:
220,20,223200,5,0,0:0:0:0:
468,240,223500,5,0,0:0:0:0:
84,236,223800,5,0,0:0:0:0:
360,20,224100,5,0,0:0:0:0:
276,344,224400,5,0,0:0:0:0:
120,56,224700,5,0,0:0:0:0:
420,304,225000,5,0,0:0:0:0:
100,304,225300,5,0,0:0:0:0:
408,36,225600,5,0,0:0:0:0:
56,152,225900,5,0,0:0:0:0:
444,208,226200,5,0,0:0:0:0:
24,356,226500,5,0,0:0:0:0:
212,52,226800,5,0,0:0:0:0:
56,264,226950,5,0,0:0:0:0:
408,116,227100,5,0,0:0:0:0:
80,112,227250,5,0,0:0:0:0:
372,304,227400,5,0,0:0:0:0:
304,40,227550,5,0,0:0:0:0:
136,320,227700,5,0,0:0:0:0:
456,192,227850,5,0,0:0:0:0:
120,28,228000,5,0,0:0:0:0:
60,300,228150,5,0,0:0:0:0:
432,264,228300,5,0,0:0:0:0:
220,16,228450,5,0,0:0:0:0:
32,176,228600,5,0,0:0:0:0:
476,96,228750,5,0,0:0:0:0:
60,96,228900,5,0,0:0:0:0:
344,324,229050,5,0,0:0:0:0:
328,80,229200,5,0,0:0:0:0:
280,80,229275,1,0,0:0:0:0:
232,84,229350,1,0,0:0:0:0:
188,104,229425,1,0,0:0:0:0:
152,136,229500,1,0,0:0:0:0:
128,176,229575,1,0,0:0:0:0:
124,224,229650,1,0,0:0:0:0:
148,264,229725,1,0,0:0:0:0:
188,288,229800,5,0,0:0:0:0:
236,296,229875,1,0,0:0:0:0:
280,280,229950,1,0,0:0:0:0:
320,252,230025,1,0,0:0:0:0:
360,228,230100,1,0,0:0:0:0:
408,220,230175,1,0,0:0:0:0:
452,236,230250,1,0,0:0:0:0:
472,280,230325,1,0,0:0:0:0:
468,328,230400,5,0,0:0:0:0:
432,364,230475,1,0,0:0:0:0:
384,376,230550,1,0,0:0:0:0:
336,368,230625,1,0,0:0:0:0:
288,352,230700,1,0,0:0:0:0:
240,340,230775,1,0,0:0:0:0:
192,344,230850,1,0,0:0:0:0:
144,352,230925,1,0,0:0:0:0:
100,336,231000,6,0,L|112:288,3,43.75
72,264,231300,2,0,L|84:216,3,43.75
20,172,231600,2,0,P|44:120|84:100,1,87.5
256,32,231900,2,0,P|241:72|207:99,1,87.5
82,221,232200,1,0,0:0:0:0:
252,264,232350,1,0,0:0:0:0:
424,304,232500,1,0,0:0:0:0:
420,36,232800,6,0,L|196:116,1,210.000008010865
155,343,233100,2,0,P|56:299|92:200,1,210.000008010865
212,112,233325,2,0,L|150:226,1,105.000004005432
132,272,233475,1,0,0:0:0:0:
132,272,233550,1,0,0:0:0:0:
348,64,233700,2,0,P|328:120|456:192,1,210.000008010865
0,104,234000,6,0,L|224:184,1,210.000008010865
348,64,234300,2,0,P|447:108|411:207,1,210.000008010865
356,152,234525,2,0,L|294:266,1,105.000004005432
248,188,234675,2,0,L|186:302,1,105.000004005432
32,28,234900,2,0,B|24:120|24:120|132:188,1,210.000008010865
448,340,235200,6,0,L|224:260,1,210.000008010865
444,36,235500,2,0,P|345:80|381:179,1,210.000008010865
232,44,235725,2,0,L|170:158,1,105.000004005432
136,208,235875,1,0,0:0:0:0:
136,208,235950,1,0,0:0:0:0:
24,240,236100,2,0,P|35:295|181:311,1,210.000008010865
432,52,236400,6,0,L|256:100,1,105.000004005432
24,120,236550,2,0,L|196:188,1,105.000004005432
420,252,236700,2,0,L|232:292,1,105.000004005432
128,244,236850,2,0,P|201:178|162:88,1,210.000008010865
121,158,237075,1,0,0:0:0:0:
268,352,237150,2,0,P|260:236|268:224,1,105.000004005432
296,96,237300,2,0,B|404:116|404:116|477:43,1,210.000008010865
0,8,237600,6,0,L|19:234,1,210.000008010865
209,261,237900,2,0,L|192:52,1,210.000008010865
296,96,238125,2,0,L|308:288,1,105.000004005432
308,296,238275,1,0,0:0:0:0:
308,296,238350,2,0,L|301:192,1,105.000004005432
424,12,238500,2,0,B|420:55|420:55|408:71|408:71|412:91|412:91|400:108|400:108|408:224,1,210.000008010865
416,320,238800,6,0,L|397:94,1,210.000008010865
290,86,239100,2,0,L|307:295,1,210.000008010865
208,260,239325,2,0,L|196:68,1,105.000004005432
196,60,239475,1,0,0:0:0:0:
196,60,239550,2,0,L|203:164,1,105.000004005432
100,332,239700,2,0,B|103:288|103:288|115:272|115:272|111:252|111:252|124:236|124:236|116:120,1,210.000008010865
448,68,240000,6,0,P|308:76|244:120,1,210.000008010865
125,232,240300,1,0,0:0:0:0:
100,332,240600,6,0,P|240:324|304:280,1,210.000008010865
392,148,240900,1,0,0:0:0:0:
125,232,241200,5,0,0:0:0:0:
161,180,241350,1,0,0:0:0:0:
217,152,241500,1,0,0:0:0:0:
281,152,241650,1,0,0:0:0:0:
337,180,241800,1,0,0:0:0:0:
380,224,241950,1,0,0:0:0:0:
352,344,242100,5,0,0:0:0:0:
344,348,242175,1,0,0:0:0:0:
336,352,242250,1,0,0:0:0:0:
328,356,242325,1,0,0:0:0:0:
320,360,242400,6,0,P|180:368|124:292,1,210.000008010865
52,136,242700,1,0,0:0:0:0:
440,112,242850,1,0,0:0:0:0:
412,64,242925,1,0,0:0:0:0:
96,264,243075,1,0,0:0:0:0:
128,308,243150,1,0,0:0:0:0:
200,40,243300,1,0,0:0:0:0:
360,320,243450,1,0,0:0:0:0:
412,64,243600,6,0,P|284:64|236:152,1,210.000008010865
360,319,243900,2,0,P|304:238|364:160,1,210.000008010865
412,244,244200,2,0,P|468:144|256:184,1,420.000016021729
256,292,244650,1,0,0:0:0:0:
100,244,244800,2,0,P|44:144|256:184,1,420.000016021729
256,292,245250,1,0,0:0:0:0:
432,152,245400,5,0,0:0:0:0:
200,228,245550,1,0,0:0:0:0:
404,284,245700,5,0,0:0:0:0:
208,108,245850,1,0,0:0:0:0:
312,364,246000,5,0,0:0:0:0:
296,16,246150,1,0,0:0:0:0:
472,28,246300,1,0,0:0:0:0:
168,344,246450,1,0,0:0:0:0:
320,312,246600,5,0,0:0:0:0:
308,76,246750,1,0,0:0:0:0:
416,100,246900,1,0,0:0:0:0:
224,280,247050,1,0,0:0:0:0:
200,72,247200,6,0,B|112:32|112:32|-16:8|-56:104|-56:104|112:240,1,420.000016021729
224,280,247650,1,0,0:0:0:0:
336,80,247800,1,0,0:0:0:0:
372,60,247875,1,0,0:0:0:0:
412,64,247950,1,0,0:0:0:0:
444,88,248025,1,0,0:0:0:0:
452,128,248100,1,0,0:0:0:0:
224,280,248250,1,0,0:0:0:0:
180,104,248400,6,0,B|78:62|78:62|96:165,1,210.000008010865
96,164,248700,6,0,B|68:48|68:48|180:104,1,245.000002336502
180,104,249000,6,0,B|56:32|56:32|96:165,1,280
416,176,249300,1,0,0:0:0:0:
256,324,249450,1,0,0:0:0:0:
396,72,249600,6,0,P|364:44|280:60,2,105.000004005432
256,324,249900,1,0,0:0:0:0:
116,72,250050,6,0,P|148:44|232:60,2,105.000004005432
256,324,250350,1,0,0:0:0:0:
464,188,250500,1,0,0:0:0:0:
444,152,250575,1,0,0:0:0:0:
416,120,250650,1,0,0:0:0:0:
380,100,250725,1,0,0:0:0:0:
340,96,250800,2,0,L|284:116,3,35
104,108,251100,5,0,0:0:0:0:
136,128,251175,1,0,0:0:0:0:
160,156,251250,1,0,0:0:0:0:
176,188,251325,1,0,0:0:0:0:
192,220,251400,2,0,L|159:231,3,35
136,268,251700,1,0,0:0:0:0:
168,276,251775,1,0,0:0:0:0:
204,280,251850,1,0,0:0:0:0:
240,280,251925,1,0,0:0:0:0:
276,276,252000,6,0,P|340:256|360:192,1,105.000004005432
284,200,252225,2,0,P|302:152|285:103,1,105.000004005432
260,80,252450,1,0,0:0:0:0:
232,60,252525,1,0,0:0:0:0:
196,48,252600,1,0,0:0:0:0:
160,48,252675,1,0,0:0:0:0:
128,64,252750,1,0,0:0:0:0:
100,88,252825,1,0,0:0:0:0:
84,120,252900,2,0,P|76:156|80:188,3,52.5000020027161
208,176,253200,6,0,P|280:192|304:224,1,105.000004005432
416,188,253425,2,0,B|377:184|377:184|329:124,1,105.000004005432
316,104,253650,1,0,0:0:0:0:
312,68,253725,1,0,0:0:0:0:
332,36,253800,1,0,0:0:0:0:
364,20,253875,1,0,0:0:0:0:
400,16,253950,1,0,0:0:0:0:
432,32,254025,1,0,0:0:0:0:
460,56,254100,2,0,P|480:116|476:140,3,52.5000020027161
416,188,254400,6,0,P|384:252|348:268,1,105.000004005432
212,260,254625,2,0,B|248:192|248:192|284:188,1,105.000004005432
300,184,254850,1,0,0:0:0:0:
332,168,254925,1,0,0:0:0:0:
356,140,255000,1,0,0:0:0:0:
372,108,255075,1,0,0:0:0:0:
376,72,255150,1,0,0:0:0:0:
360,40,255225,1,0,0:0:0:0:
332,20,255300,2,0,P|312:4|284:0,3,52.5000020027161
248,4,255600,5,0,0:0:0:0:
216,24,255675,1,0,0:0:0:0:
188,48,255750,1,0,0:0:0:0:
168,80,255825,1,0,0:0:0:0:
156,116,255900,1,0,0:0:0:0:
152,152,255975,1,0,0:0:0:0:
160,188,256050,1,0,0:0:0:0:
176,220,256125,1,0,0:0:0:0:
200,248,256200,5,0,0:0:0:0:
224,272,256275,1,0,0:0:0:0:
256,292,256350,1,0,0:0:0:0:
292,304,256425,1,0,0:0:0:0:
328,308,256500,2,0,P|376:300|408:276,3,52.5000020027161
340,192,256800,6,0,L|420:124,1,105.000004005432
368,24,257025,2,0,B|380:48|380:48|316:104,1,105.000004005432
292,124,257250,1,0,0:0:0:0:
272,156,257325,1,0,0:0:0:0:
268,192,257400,1,0,0:0:0:0:
280,228,257475,1,0,0:0:0:0:
308,252,257550,1,0,0:0:0:0:
344,264,257625,1,0,0:0:0:0:
380,256,257700,2,0,P|408:240|436:212,3,52.5000020027161
296,336,258000,6,0,L|184:280,1,105.000004005432
96,188,258225,2,0,B|168:216|168:216|204:216,1,105.000004005432
232,216,258450,1,0,0:0:0:0:
268,204,258525,1,0,0:0:0:0:
296,180,258600,5,0,0:0:0:0:
316,148,258675,1,0,0:0:0:0:
320,112,258750,1,0,0:0:0:0:
312,76,258825,1,0,0:0:0:0:
292,48,258900,1,0,0:0:0:0:
260,32,258975,1,0,0:0:0:0:
224,24,259050,1,0,0:0:0:0:
188,28,259125,1,0,0:0:0:0:
164,56,259200,5,0,0:0:0:0:
192,80,259275,1,0,0:0:0:0:
216,108,259350,1,0,0:0:0:0:
228,144,259425,1,0,0:0:0:0:
232,180,259500,1,0,0:0:0:0:
224,216,259575,1,0,0:0:0:0:
216,252,259650,1,0,0:0:0:0:
196,284,259725,1,0,0:0:0:0:
172,292,259800,5,0,0:0:0:0:
156,272,259875,1,0,0:0:0:0:
148,248,259950,1,0,0:0:0:0:
136,224,260025,1,0,0:0:0:0:
116,208,260100,1,0,0:0:0:0:
92,200,260175,1,0,0:0:0:0:
68,196,260250,1,0,0:0:0:0:
44,200,260325,1,0,0:0:0:0:
24,216,260400,6,0,L|40:276,3,52.5000020027161
0,312,260700,2,0,L|16:372,3,52.5000020027161
20,132,261000,2,0,L|6:81,3,52.5000020027161
8,56,261300,1,0,0:0:0:0:
28,40,261375,1,0,0:0:0:0:
52,36,261450,1,0,0:0:0:0:
76,44,261525,1,0,0:0:0:0:
96,60,261600,6,0,P|156:92|196:88,1,87.5
312,136,261900,2,0,B|316:180|304:200|304:200|244:152|192:212,1,175
188,228,262275,1,0,0:0:0:0:
172,260,262350,1,0,0:0:0:0:
168,296,262425,1,0,0:0:0:0:
176,328,262500,2,0,P|256:352|280:344,1,87.5
396,120,262800,5,0,0:0:0:0:
408,164,262875,1,0,0:0:0:0:
420,204,262950,1,0,0:0:0:0:
428,248,263025,1,0,0:0:0:0:
436,292,263100,2,0,P|396:328|356:304,1,87.5
252,84,263400,5,0,0:0:0:0:
212,68,263475,1,0,0:0:0:0:
168,68,263550,1,0,0:0:0:0:
128,88,263625,1,0,0:0:0:0:
104,124,263700,1,0,0:0:0:0:
92,168,263775,1,0,0:0:0:0:
96,212,263850,1,0,0:0:0:0:
116,252,263925,1,0,0:0:0:0:
152,276,264000,6,0,B|196:252|196:252|200:340|292:348,1,175
312,280,264375,1,0,0:0:0:0:
356,216,264450,2,0,P|416:256|428:280,1,87.5
444,48,264750,1,0,0:0:0:0:
188,48,264900,5,0,0:0:0:0:
216,76,264975,1,0,0:0:0:0:
232,112,265050,1,0,0:0:0:0:
228,152,265125,1,0,0:0:0:0:
208,188,265200,2,0,P|144:256|72:240,1,175
28,224,265575,1,0,0:0:0:0:
0,264,265650,2,0,P|4:307|24:345,1,87.5
72,356,265875,1,0,0:0:0:0:
120,348,265950,1,0,0:0:0:0:
156,316,266025,1,0,0:0:0:0:
184,276,266100,1,0,0:0:0:0:
224,248,266175,1,0,0:0:0:0:
272,236,266250,1,0,0:0:0:0:
316,256,266325,1,0,0:0:0:0:
336,300,266400,6,0,P|396:252|500:276,1,175
440,44,266850,1,0,0:0:0:0:
424,88,266925,1,0,0:0:0:0:
400,128,267000,1,0,0:0:0:0:
364,160,267075,1,0,0:0:0:0:
320,184,267150,2,0,P|252:212|216:204,1,87.5
256,116,267450,1,0,0:0:0:0:
72,24,267600,5,0,0:0:0:0:
108,52,267675,1,0,0:0:0:0:
124,96,267750,1,0,0:0:0:0:
104,140,267825,1,0,0:0:0:0:
72,176,267900,1,0,0:0:0:0:
40,212,267975,1,0,0:0:0:0:
12,252,268050,1,0,0:0:0:0:
12,300,268125,1,0,0:0:0:0:
36,344,268200,1,0,0:0:0:0:
80,360,268275,1,0,0:0:0:0:
128,348,268350,1,0,0:0:0:0:
164,316,268425,1,0,0:0:0:0:
176,268,268500,1,0,0:0:0:0:
256,192,268650,1,0,0:0:0:0:
440,328,268800,6,0,P|420:256|480:188,1,140
308,252,269100,2,0,P|328:180|268:112,1,140
172,24,269400,2,0,L|52:116,1,140
44,264,269700,2,0,B|40:236|40:236|152:152,1,140
380,84,270000,5,0,0:0:0:0:
284,24,270150,1,0,0:0:0:0:
172,24,270300,1,0,0:0:0:0:
88,96,270450,1,0,0:0:0:0:
56,204,270600,1,0,0:0:0:0:
88,312,270750,1,0,0:0:0:0:
192,192,270900,6,0,L|384:192,1,175
252,268,271200,6,0,P|264:332|244:380,1,105.000004005432
260,116,271500,2,0,P|248:52|268:4,1,105.000004005432
356,244,271800,2,0,P|432:324|436:336,1,105.000004005432
155,139,272100,2,0,P|112:110|83:67,1,105.000004005432
328,179,272400,5,0,0:0:0:0:
232,263,272550,1,0,0:0:0:0:
207,137,272700,1,0,0:0:0:0:
305,249,272850,5,0,0:0:0:0:
184,207,273000,1,0,0:0:0:0:
280,123,273150,1,0,0:0:0:0:
256,192,273300,5,0,0:0:0:0:
256,192,273450,1,0,0:0:0:0:
328,179,273600,6,0,P|384:167|440:183,1,105.000004005432
184,207,273900,2,0,P|128:219|72:203,1,105.000004005432
348,84,274200,2,0,P|392:40|432:12,1,105.000004005432
160,292,274500,2,0,P|116:336|76:364,1,105.000004005432
184,120,274800,1,0,0:0:0:0:
256,192,274950,1,0,0:0:0:0:
332,264,275100,1,0,0:0:0:0:
408,336,275250,6,0,P|348:368|232:304,1,210.000008010865
220,264,275625,1,0,0:0:0:0:
204,224,275700,1,0,0:0:0:0:
164,208,275775,1,0,0:0:0:0:
124,216,275850,1,0,0:0:0:0:
96,248,275925,1,0,0:0:0:0:
88,288,276000,2,0,P|60:232|76:176,1,105.000004005432
128,24,276300,2,0,P|156:80|140:136,1,105.000004005432
168,296,276600,5,0,0:0:0:0:
244,192,276750,1,0,0:0:0:0:
264,312,276900,1,0,0:0:0:0:
352,208,277050,1,0,0:0:0:0:
424,280,277200,2,0,P|452:224|444:168,1,105.000004005432
392,8,277500,2,0,P|364:64|372:120,1,105.000004005432
352,208,277800,5,0,0:0:0:0:
264,312,277950,1,0,0:0:0:0:
244,192,278100,1,0,0:0:0:0:
168,296,278250,1,0,0:0:0:0:
52,188,278400,6,0,P|88:136|136:120,1,105.000004005432
256,104,278700,1,0,0:0:0:0:
256,104,278850,1,0,0:0:0:0:
460,188,279000,6,0,P|424:136|376:120,1,105.000004005432
256,104,279300,1,0,0:0:0:0:
256,104,279450,1,0,0:0:0:0:
188,256,279600,5,0,0:0:0:0:
360,92,279750,1,0,0:0:0:0:
352,300,279900,5,0,0:0:0:0:
176,64,280050,1,0,0:0:0:0:
152,332,280200,5,0,0:0:0:0:
384,20,280350,1,0,0:0:0:0:
256,348,280500,5,0,0:0:0:0:
256,20,280650,1,0,0:0:0:0:
80,192,280800,6,0,P|128:208|200:176,1,105.000004005432
368,96,281100,2,0,P|320:80|248:112,1,105.000004005432
253,291,281400,2,0,P|269:243|237:171,1,105.000004005432
184,16,281700,2,0,P|168:64|200:136,1,105.000004005432
256,192,282000,1,0,0:0:0:0:
256,192,282150,1,0,0:0:0:0:
124,284,282300,1,0,0:0:0:0:
124,284,282450,1,0,0:0:0:0:
72,152,282600,6,0,L|160:64,1,105.000004005432
212,132,282900,2,0,L|300:44,1,105.000004005432
440,52,283200,2,0,L|365:126,1,105.000004005432
420,192,283500,2,0,L|345:266,1,105.000004005432
240,360,283800,1,0,0:0:0:0:
440,52,283950,1,0,0:0:0:0:
120,48,284250,5,0,0:0:0:0:
256,68,284400,2,0,B|216:80|216:80|196:168,1,105.000004005432
96,220,284700,2,0,B|136:232|136:232|156:320,1,105.000004005432
224,192,285000,1,0,0:0:0:0:
432,96,285150,1,0,0:0:0:0:
224,192,285300,1,0,0:0:0:0:
380,304,285450,1,0,0:0:0:0:
224,192,285600,6,0,P|208:128|240:76,1,105.000004005432
288,240,285900,2,0,P|304:304|272:356,1,105.000004005432
192,284,286200,1,0,0:0:0:0:
324,140,286350,1,0,0:0:0:0:
120,256,286500,1,0,0:0:0:0:
324,140,286650,2,0,P|260:48|292:148,1,315.000012016297
32,48,287400,6,0,L|140:112,1,105.000004005432
68,160,287700,2,0,L|176:224,1,105.000004005432
256,268,288000,1,0,0:0:0:0:
68,160,288150,1,0,0:0:0:0:
348,144,288300,1,0,0:0:0:0:
88,280,288450,1,0,0:0:0:0:
296,54,288600,2,0,P|328:122|360:154,1,105.000004005432
488,244,288900,1,0,0:0:0:0:
292,368,289050,1,0,0:0:0:0:
256,192,289200,5,0,0:0:0:0:
140,272,289350,1,0,0:0:0:0:
216,100,289500,1,0,0:0:0:0:
264,308,289650,1,0,0:0:0:0:
100,160,289800,1,0,0:0:0:0:
396,120,289950,1,0,0:0:0:0:
140,272,290100,1,0,0:0:0:0:
296,24,290250,1,0,0:0:0:0:
100,160,290400,6,0,P|180:172|228:152,1,105.000004005432
396,120,290700,1,0,0:0:0:0:
156,80,290850,1,0,0:0:0:0:
412,240,291000,2,0,P|332:228|284:248,1,105.000004005432
116,280,291300,1,0,0:0:0:0:
356,320,291450,1,0,0:0:0:0:
176,164,291600,5,0,0:0:0:0:
388,48,291750,1,0,0:0:0:0:
252,248,291900,1,0,0:0:0:0:
212,8,292050,1,0,0:0:0:0:
348,208,292200,2,0,P|424:116|388:48,1,210.000008010865
100,224,292650,5,0,0:0:0:0:
244,260,292800,1,0,0:0:0:0:
216,116,292950,1,0,0:0:0:0:
144,336,293100,5,0,0:0:0:0:
384,164,293250,1,0,0:0:0:0:
116,48,293400,1,0,0:0:0:0:
376,344,293550,5,0,0:0:0:0:
264,0,293700,1,0,0:0:0:0:
32,296,293850,1,0,0:0:0:0:
384,164,294000,5,0,0:0:0:0:
116,48,294150,1,0,0:0:0:0:
96,96,294225,1,0,0:0:0:0:
92,148,294300,1,0,0:0:0:0:
300,288,294450,1,0,0:0:0:0:
396,16,294600,2,0,P|340:24|408:32,1,210.000008010865
196,320,295200,6,0,P|144:314|97:291,1,105.000004005432
256,192,295500,2,0,P|307:197|354:220,1,105.000004005432
148,172,295800,2,0,P|153:120|176:73,1,105.000004005432
284,276,296100,2,0,P|278:327|255:374,1,105.000004005432
256,68,296400,1,0,0:0:0:0:
148,172,296550,1,0,0:0:0:0:
256,8,296700,1,0,0:0:0:0:
364,172,296850,1,0,0:0:0:0:
255,374,297000,1,0,0:0:0:0:
144,88,297450,5,0,0:0:0:0:
344,120,297600,1,0,0:0:0:0:
144,272,297750,5,0,0:0:0:0:
432,216,297900,1,0,0:0:0:0:
72,188,298050,5,0,0:0:0:0:
456,136,298200,1,0,0:0:0:0:
56,280,298350,5,0,0:0:0:0:
464,52,298500,1,0,0:0:0:0:
56,72,298650,5,0,0:0:0:0:
508,232,298800,1,0,0:0:0:0:
164,144,298950,1,0,0:0:0:0:
192,188,299025,1,0,0:0:0:0:
208,240,299100,1,0,0:0:0:0:
316,28,299250,1,0,0:0:0:0:
408,316,299400,1,0,0:0:0:0:
408,316,299700,1,0,0:0:0:0:
392,136,300000,6,0,P|304:120|276:128,1,105.000004005432
272,132,300225,1,0,0:0:0:0:
256,144,300300,1,0,0:0:0:0:
32,40,300450,2,0,P|120:56|148:48,1,105.000004005432
152,44,300675,1,0,0:0:0:0:
168,32,300750,1,0,0:0:0:0:
256,144,300900,1,0,0:0:0:0:
64,160,301050,2,0,P|76:276|196:308,1,210.000008010865
168,32,301500,5,0,0:0:0:0:
144,216,301650,1,0,0:0:0:0:
236,328,301800,5,0,0:0:0:0:
260,144,301950,1,0,0:0:0:0:
384,64,302100,5,0,0:0:0:0:
360,248,302250,1,0,0:0:0:0:
144,216,302400,5,0,0:0:0:0:
260,144,302550,1,0,0:0:0:0:
360,248,302700,5,0,0:0:0:0:
168,32,302850,1,0,0:0:0:0:
236,328,303000,5,0,0:0:0:0:
384,64,303150,1,0,0:0:0:0:
236,328,303300,5,0,0:0:0:0:
168,32,303450,1,0,0:0:0:0:
84,268,303600,5,0,0:0:0:0:
384,64,303750,1,0,0:0:0:0:
428,304,303900,5,0,0:0:0:0:
168,32,304050,2,0,P|88:60|124:168,1,210.000008010865
140,176,304425,1,0,0:0:0:0:
172,184,304500,1,0,0:0:0:0:
204,188,304575,1,0,0:0:0:0:
236,184,304650,1,0,0:0:0:0:
268,176,304725,1,0,0:0:0:0:
400,24,304800,5,0,0:0:0:0:
396,56,304875,1,0,0:0:0:0:
392,88,304950,1,0,0:0:0:0:
388,120,305025,1,0,0:0:0:0:
384,152,305100,1,0,0:0:0:0:
284,304,305250,5,0,0:0:0:0:
280,272,305325,1,0,0:0:0:0:
276,240,305400,1,0,0:0:0:0:
272,208,305475,1,0,0:0:0:0:
268,176,305550,1,0,0:0:0:0:
156,48,305700,5,0,0:0:0:0:
152,80,305775,1,0,0:0:0:0:
148,112,305850,1,0,0:0:0:0:
144,144,305925,1,0,0:0:0:0:
140,176,306000,1,0,0:0:0:0:
40,332,306150,5,0,0:0:0:0:
36,300,306225,1,0,0:0:0:0:
32,268,306300,1,0,0:0:0:0:
28,236,306375,1,0,0:0:0:0:
24,204,306450,1,0,0:0:0:0:
240,296,306600,5,0,0:0:0:0:
212,308,306675,1,0,0:0:0:0:
184,324,306750,1,0,0:0:0:0:
156,340,306825,1,0,0:0:0:0:
128,356,306900,1,0,0:0:0:0:
252,152,307050,5,0,0:0:0:0:
280,140,307125,1,0,0:0:0:0:
308,124,307200,1,0,0:0:0:0:
336,108,307275,1,0,0:0:0:0:
364,92,307350,1,0,0:0:0:0:
144,40,307500,5,0,0:0:0:0:
116,52,307575,1,0,0:0:0:0:
88,68,307650,1,0,0:0:0:0:
60,84,307725,1,0,0:0:0:0:
32,100,307800,1,0,0:0:0:0:
259,6,307950,2,0,P|342:-10|362:94,1,210.000008010865
232,284,308400,1,0,0:0:0:0:
312,52,308550,1,0,0:0:0:0:
124,292,308700,1,0,0:0:0:0:
408,192,308850,6,0,P|464:212|392:212,1,210.000008010865
240,332,309300,1,0,0:0:0:0:
312,52,309450,1,0,0:0:0:0:
24,136,309600,2,0,L|182:104,1,157.500006008148
184,132,309900,2,0,P|136:236|92:288,1,157.500006008148
96,296,310200,2,0,L|248:260,1,157.500006008148
280,64,310500,5,0,0:0:0:0:
249,259,310650,1,0,0:0:0:0:
340,8,310800,1,0,0:0:0:0:
288,328,310950,1,0,0:0:0:0:
400,64,311100,1,0,0:0:0:0:
188,312,311250,2,0,B|112:352|112:352|68:304,1,105.000004005432
112,168,311550,5,0,0:0:0:0:
244,72,311700,1,0,0:0:0:0:
248,220,311850,1,0,0:0:0:0:
244,72,312000,2,0,P|292:40|352:76,1,105.000004005432
201,148,312300,2,0,P|160:178|111:167,1,105.000004005432
336,52,312600,1,0,0:0:0:0:
248,220,312750,1,0,0:0:0:0:
444,120,312900,1,0,0:0:0:0:
200,148,313050,2,0,P|120:148|176:240,1,210.000008010865
316,60,313500,5,0,0:0:0:0:
200,148,313650,1,0,0:0:0:0:
444,120,313800,1,0,0:0:0:0:
208,0,313950,1,0,0:0:0:0:
312,252,314100,1,0,0:0:0:0:
420,28,314250,1,0,0:0:0:0:
150,241,314400,1,0,0:0:0:0:
444,120,314550,2,0,P|448:64|412:24,1,105.000004005432
372,180,314850,2,0,P|368:236|404:276,1,105.000004005432
492,352,315150,1,0,0:0:0:0:
256,296,315300,5,0,0:0:0:0:
256,296,315450,2,0,B|284:256|284:256|252:164,2,105.000004005432
120,184,315900,1,0,0:0:0:0:
120,184,316050,2,0,B|101:130|101:130|129:90,2,105.000004005432
44,328,316500,2,0,L|160:364,1,105.000004005432
364,336,316800,6,0,B|400:284|400:284|376:208,1,105.000004005432
336,136,317100,1,0,0:0:0:0:
212,0,317250,6,0,B|176:52|176:52|200:128,1,105.000004005432
240,200,317550,1,0,0:0:0:0:
432,136,317700,1,0,0:0:0:0:
364,328,317850,1,0,0:0:0:0:
336,136,318000,1,0,0:0:0:0:
484,256,318150,1,0,0:0:0:0:
252,304,318300,1,0,0:0:0:0:
384,64,318450,1,0,0:0:0:0:
364,328,318600,1,0,0:0:0:0:
356,336,318900,1,0,0:0:0:0:
348,344,319200,6,0,P|280:364|176:256,1,210.000008010865
312,164,319650,1,0,0:0:0:0:
276,276,319800,1,0,0:0:0:0:
224,88,319950,1,0,0:0:0:0:
312,164,320100,1,0,0:0:0:0:
120,116,320250,1,0,0:0:0:0:
224,88,320400,1,0,0:0:0:0:
96,224,320550,1,0,0:0:0:0:
120,116,320700,1,0,0:0:0:0:
188,300,320850,2,0,P|192:228|116:112,2,210.000008010865
76,232,321600,6,0,P|12:228|84:216,1,210.000008010865
56,356,322050,1,0,0:0:0:0:
120,115,322200,1,0,0:0:0:0:
196,328,322350,1,0,0:0:0:0:
16,184,322500,1,0,0:0:0:0:
300,96,322650,1,0,0:0:0:0:
172,220,322800,1,0,0:0:0:0:
208,32,322950,1,0,0:0:0:0:
289,233,323100,1,0,0:0:0:0:
120,115,323250,2,0,P|244:184|300:248,1,210.000008010865
336,104,323700,5,0,0:0:0:0:
336,104,324000,2,0,P|280:60|356:84,1,210.000008010865
220,256,324450,1,0,0:0:0:0:
456,160,324600,1,0,0:0:0:0:
188,148,324750,1,0,0:0:0:0:
288,348,324900,1,0,0:0:0:0:
384,120,325050,1,0,0:0:0:0:
404,368,325200,2,0,P|456:304|392:328,2,210.000008010865
124,144,326100,6,0,B|152:116|152:116|236:160,1,105.000004005432
364,232,326400,1,0,0:0:0:0:
404,60,326550,1,0,0:0:0:0:
364,232,326700,6,0,B|336:204|336:204|252:248,1,105.000004005432
124,320,327000,1,0,0:0:0:0:
84,148,327150,1,0,0:0:0:0:
124,320,327300,6,0,B|146:287|146:287|236:314,1,105.000004005432
376,360,327600,1,0,0:0:0:0:
84,148,327900,1,0,0:0:0:0:
424,112,328200,1,0,0:0:0:0:
124,320,328500,1,0,0:0:0:0:
88,64,328800,6,0,P|152:48|208:72,1,105.000004005432
208,216,329100,2,0,P|258:226|308:210,1,105.000004005432
336,64,329400,2,0,P|400:48|456:72,1,105.000004005432
500,196,329700,1,0,0:0:0:0:
436,60,329850,2,0,P|364:52|288:160,1,210.000008010865
304,328,330300,1,0,0:0:0:0:
200,52,330450,1,0,0:0:0:0:
60,16,330600,5,0,0:0:0:0:
72,120,330750,1,0,0:0:0:0:
160,180,330900,1,0,0:0:0:0:
264,168,331050,1,0,0:0:0:0:
224,264,331200,6,0,P|152:304|136:336,1,105.000004005432
324,248,331500,1,0,0:0:0:0:
428,268,331650,1,0,0:0:0:0:
392,160,331800,6,0,P|352:126|334:77,1,105.000004005432
432,4,332100,1,0,0:0:0:0:
264,168,332250,2,0,P|192:216|268:200,1,210.000008010865
148,348,332700,1,0,0:0:0:0:
324,248,332850,1,0,0:0:0:0:
88,72,333150,5,0,0:0:0:0:
208,16,333300,1,0,0:0:0:0:
112,168,333450,1,0,0:0:0:0:
32,300,333600,2,0,P|104:356|128:388,1,105.000004005432
168,220,333900,2,0,P|234:234|284:249,1,105.000004005432
300,120,334200,2,0,P|368:120|420:112,1,105.000004005432
504,16,334500,1,0,0:0:0:0:
296,28,334650,6,0,P|204:124|232:184,1,210.000008010865
464,192,335100,1,0,0:0:0:0:
270,244,335250,1,0,0:0:0:0:
424,288,335400,5,0,0:0:0:0:
340,352,335550,1,0,0:0:0:0:
236,364,335700,1,0,0:0:0:0:
152,304,335850,1,0,0:0:0:0:
24,204,336000,2,0,P|112:188|188:184,1,140
252,144,336300,5,0,0:0:0:0:
340,104,336450,1,0,0:0:0:0:
412,28,336600,2,0,P|343:14|273:8,1,140
176,8,336900,1,0,0:0:0:0:
80,4,337050,6,0,B|28:8|28:8|48:144|180:196,1,280
356,236,337500,1,0,0:0:0:0:
176,8,337650,1,0,0:0:0:0:
236,216,337800,1,0,0:0:0:0:
316,84,337950,6,0,P|392:52|448:16,2,140
136,164,338400,2,0,P|124:256|160:296,1,140
333,295,338700,2,0,P|300:234|235:215,1,140
236,324,339000,2,0,P|304:388|436:284,1,280
436,120,339450,1,0,0:0:0:0:
336,296,339600,1,0,0:0:0:0:
496,208,339750,1,0,0:0:0:0:
264,208,339900,1,0,0:0:0:0:
435,297,340050,1,0,0:0:0:0:
312,104,340200,6,0,B|288:52|288:52|248:96|164:104|164:104|164:52|112:36,1,280
56,296,340650,2,0,P|128:288|144:280,1,70
280,284,340800,6,0,P|334:243|364:188,1,105.000004005432
164,216,340950,2,0,P|203:160|212:100,1,105.000004005432
260,256,341100,6,0,P|307:206|328:148,1,105.000004005432
126,211,341250,2,0,P|155:149|160:88,1,105.000004005432
232,240,341400,6,0,P|269:182|288:128,1,105.000004005432
84,221,341550,2,0,P|102:155|104:88,1,105.000004005432
204,232,341700,6,0,P|230:168|240:112,1,105.000004005432
47,241,341850,2,0,P|53:172|56:104,1,105.000004005432
92,56,342000,1,0,0:0:0:0:
168,8,342150,2,0,B|256:0|276:72|276:72|344:132,1,210.000008010865
448,208,342450,1,0,0:0:0:0:
176,320,342600,1,0,0:0:0:0:
312,188,342750,2,0,P|232:208|160:112,1,210.000008010865
28,184,343050,1,0,0:0:0:0:
176,320,343200,5,0,0:0:0:0:
176,320,343500,2,0,P|296:280|128:144,1,420
20,184,344100,1,0,0:0:0:0:
284,36,344250,1,0,0:0:0:0:
4,100,344400,5,0,0:0:0:0:
484,148,344700,5,0,0:0:0:0:
104,316,345000,6,0,P|208:324|240:312,1,140
172,252,345225,2,0,P|136:192|160:160,1,70
256,24,345450,1,0,0:0:0:0:
256,100,345600,2,0,L|256:256,1,140
252,320,345900,1,0,0:0:0:0:
252,320,346050,1,0,0:0:0:0:
256,240,346200,2,0,L|256:100,1,140
256,24,346500,1,0,0:0:0:0:
256,24,346650,1,0,0:0:0:0:
116,100,346800,6,0,P|44:100|16:176,1,140
61,266,347100,6,0,P|127:263|163:319,1,140
164,320,347400,1,0,0:0:0:0:
192,212,347550,5,0,0:0:0:0:
223,198,347625,1,0,0:0:0:0:
257,194,347700,1,0,0:0:0:0:
293,199,347775,1,0,0:0:0:0:
327,212,347850,1,0,0:0:0:0:
432,312,348000,6,0,P|440:232|424:180,1,105.000004005432
368,8,348300,2,0,P|360:88|376:140,1,105.000004005432
88,308,348600,6,0,P|80:228|96:176,1,105.000004005432
152,4,348900,2,0,P|160:84|144:136,1,105.000004005432
88,308,349200,5,0,0:0:0:0:
432,60,349350,1,0,0:0:0:0:
208,368,349500,5,0,0:0:0:0:
304,8,349650,1,0,0:0:0:0:
344,356,349800,5,0,0:0:0:0:
152,4,349950,1,0,0:0:0:0:
452,268,350100,5,0,0:0:0:0:
80,124,350250,1,0,0:0:0:0:
316,228,350400,2,0,B|306:235|306:235|214:219,1,105.000004005432
88,308,350700,5,0,0:0:0:0:
456,136,350850,1,0,0:0:0:0:
212,164,351000,2,0,B|221:156|221:156|313:172,1,105.000004005432
452,268,351300,5,0,0:0:0:0:
84,108,351450,1,0,0:0:0:0:
448,124,351600,1,0,0:0:0:0:
80,296,351750,1,0,0:0:0:0:
304,8,351900,1,0,0:0:0:0:
268,320,352050,2,0,P|300:356|324:320,2,105.000004005432
84,108,352500,2,0,P|152:92|200:112,1,105.000004005432
208,124,352725,1,0,0:0:0:0:
236,148,352800,1,0,0:0:0:0:
268,320,352950,1,0,0:0:0:0:
72,300,353100,6,0,P|128:252|200:228,1,105.000004005432
440,84,353400,2,0,P|384:132|312:156,1,105.000004005432
36,156,353700,2,0,P|109:151|181:175,1,105.000004005432
476,228,354000,2,0,P|402:232|330:208,1,105.000004005432
144,16,354300,2,0,P|208:51|248:112,1,105.000004005432
368,368,354600,2,0,P|303:332|264:272,1,105.000004005432
228,74,354900,5,0,0:0:0:0:
283,309,355050,1,0,0:0:0:0:
324,48,355200,2,0,P|304:140|272:164,1,105.000004005432
138,164,355500,1,0,0:0:0:0:
373,219,355650,1,0,0:0:0:0:
100,272,355800,2,0,P|145:246|196:247,1,105.000004005432
283,309,356100,1,0,0:0:0:0:
138,164,356250,2,0,P|84:156|152:148,1,210.000008010865
32,36,356700,1,0,0:0:0:0:
32,36,356850,1,0,0:0:0:0:
324,68,357000,5,0,0:0:0:0:
188,308,357150,1,0,0:0:0:0:
196,68,357300,5,0,0:0:0:0:
304,308,357450,1,0,0:0:0:0:
252,8,357600,1,0,0:0:0:0:
49,357,357900,6,0,P|133:353|201:280,1,157.500006008148
256,192,358200,1,0,0:0:0:0:
56,24,358350,1,0,0:0:0:0:
88,224,358500,1,0,0:0:0:0:
224,44,358650,2,0,P|180:24|184:44,1,105.000004005432
88,224,358950,1,0,0:0:0:0:
256,192,359100,5,0,0:0:0:0:
292,180,359175,1,0,0:0:0:0:
324,164,359250,1,0,0:0:0:0:
356,144,359325,1,0,0:0:0:0:
380,116,359400,1,0,0:0:0:0:
440,0,359550,1,0,0:0:0:0:
280,100,359700,1,0,0:0:0:0:
492,168,359850,2,0,P|512:212|492:208,1,105.000004005432
256,360,360150,1,0,0:0:0:0:
256,192,360300,5,0,0:0:0:0:
220,180,360375,1,0,0:0:0:0:
188,164,360450,1,0,0:0:0:0:
156,144,360525,1,0,0:0:0:0:
132,116,360600,1,0,0:0:0:0:
72,0,360750,1,0,0:0:0:0:
232,100,360900,1,0,0:0:0:0:
56,216,361050,6,0,P|125:298|137:257,1,210.000008010865
232,100,361500,1,0,0:0:0:0:
56,216,361650,1,0,0:0:0:0:
348,128,361800,1,0,0:0:0:0:
88,52,361950,1,0,0:0:0:0:
332,256,362100,1,0,0:0:0:0:
88,52,362400,6,0,P|8:88|0:128,1,105.000004005432
332,256,362700,1,0,0:0:0:0:
360,280,362775,1,0,0:0:0:0:
392,296,362850,1,0,0:0:0:0:
428,304,362925,1,0,0:0:0:0:
464,304,363000,1,0,0:0:0:0:
444,104,363150,1,0,0:0:0:0:
276,340,363300,1,0,0:0:0:0:
344,60,363450,6,0,P|284:60|296:84,1,105.000004005432
464,304,363750,1,0,0:0:0:0:
220,160,363900,1,0,0:0:0:0:
196,136,363975,1,0,0:0:0:0:
164,112,364050,1,0,0:0:0:0:
128,100,364125,1,0,0:0:0:0:
92,96,364200,1,0,0:0:0:0:
40,280,364350,1,0,0:0:0:0:
176,20,364500,1,0,0:0:0:0:
136,324,364650,2,0,P|156:375|176:356,1,105.000004005432
488,92,365100,6,0,P|392:60|376:60,1,105.000004005432
256,64,365400,1,0,0:0:0:0:
24,292,365700,6,0,P|120:324|136:324,1,105.000004005432
256,320,366000,1,0,0:0:0:0:
256,64,366300,5,0,0:0:0:0:
256,192,366600,5,0,0:0:0:0:
256,320,366900,5,0,0:0:0:0:
368,292,367050,2,0,P|396:236|396:180,1,105.000004005432
172,144,367350,2,0,P|144:88|144:32,1,105.000004005432
356,28,367650,2,0,P|361:79|345:129,1,105.000004005432
172,236,367950,2,0,P|146:281|141:333,1,105.000004005432
336,100,368250,5,0,0:0:0:0:
316,296,368400,1,0,0:0:0:0:
404,160,368550,5,0,0:0:0:0:
172,144,368700,1,0,0:0:0:0:
416,76,368850,5,0,0:0:0:0:
416,76,368925,1,0,0:0:0:0:
416,76,369000,1,0,0:0:0:0:
324,304,369150,1,0,0:0:0:0:
324,304,369225,1,0,0:0:0:0:
324,304,369300,1,0,0:0:0:0:
172,144,369450,1,0,0:0:0:0:
404,156,369600,6,0,P|452:224|372:200,1,210.000008010865
172,144,370050,1,0,0:0:0:0:
324,304,370200,1,0,0:0:0:0:
248,44,370350,1,0,0:0:0:0:
248,44,370425,1,0,0:0:0:0:
248,44,370500,1,0,0:0:0:0:
404,156,370650,5,0,0:0:0:0:
192,216,370800,1,0,0:0:0:0:
428,248,370950,5,0,0:0:0:0:
100,112,371100,1,0,0:0:0:0:
468,76,371250,5,0,0:0:0:0:
80,300,371400,1,0,0:0:0:0:
428,248,371550,2,0,P|396:200|432:136,1,105.000004005432
100,112,371850,1,0,0:0:0:0:
72,304,372000,6,0,P|128:284|172:252,1,105.000004005432
440,304,372300,2,0,P|384:284|340:252,1,105.000004005432
72,192,372600,6,0,P|131:185|181:163,1,105.000004005432
440,192,372900,2,0,P|381:185|331:163,1,105.000004005432
72,44,373200,6,0,P|132:51|182:73,1,105.000004005432
440,44,373500,2,0,P|381:51|331:73,1,105.000004005432
72,192,373800,6,0,P|128:212|172:244,1,105.000004005432
440,192,374100,2,0,P|384:212|340:244,1,105.000004005432
139,311,374400,6,0,P|124:265|165:237,1,105.000004005432
8,144,374700,1,0,0:0:0:0:
256,336,374850,1,0,0:0:0:0:
384,64,375000,6,0,P|388:128|332:128,1,105.000004005432
504,240,375300,1,0,0:0:0:0:
256,48,375450,1,0,0:0:0:0:
256,336,375600,6,0,P|184:308|256:304,1,210.000008010865
256,48,376050,6,0,P|328:76|256:80,1,210.000008010865
128,84,376500,1,0,0:0:0:0:
136,212,376650,1,0,0:0:0:0:
220,320,376800,2,0,B|292:332|304:248|304:248|260:204|260:204|408:96|408:268|360:312|360:312|372:320,2,420.000016021729
32,356,378300,5,0,0:0:0:0:
256,16,378600,1,0,0:0:0:0:
480,356,378900,1,0,0:0:0:0:
92,212,379200,2,0,P|152:192|208:200,1,105.000004005432
304,220,379500,1,0,0:0:0:0:
184,120,379650,1,0,0:0:0:0:
352,156,379800,2,0,P|384:228|276:296,1,210.000008010865
156,280,380250,1,0,0:0:0:0:
184,120,380400,5,0,0:0:0:0:
184,120,380475,1,0,0:0:0:0:
184,120,380550,1,0,0:0:0:0:
316,24,380700,1,0,0:0:0:0:
352,156,380850,1,0,0:0:0:0:
464,128,381000,5,0,0:0:0:0:
460,160,381075,1,0,0:0:0:0:
452,192,381150,1,0,0:0:0:0:
436,220,381225,1,0,0:0:0:0:
412,240,381300,1,0,0:0:0:0:
384,252,381375,1,0,0:0:0:0:
352,260,381450,1,0,0:0:0:0:
320,260,381525,1,0,0:0:0:0:
288,260,381600,2,0,P|196:216|192:104,2,210.000008010865
96,204,382500,5,0,0:0:0:0:
96,204,382575,1,0,0:0:0:0:
96,204,382650,1,0,0:0:0:0:
272,164,382800,2,0,P|364:120|368:8,2,210.000008010865
116,32,383700,5,0,0:0:0:0:
40,228,383850,1,0,0:0:0:0:
214,76,384000,2,0,L|290:192,1,105.000004005432
388,356,384300,5,0,0:0:0:0:
464,160,384450,1,0,0:0:0:0:
290,312,384600,2,0,L|214:196,1,105.000004005432
104,44,384900,5,0,0:0:0:0:
60,240,385050,1,0,0:0:0:0:
228,24,385200,1,0,0:0:0:0:
44,140,385350,1,0,0:0:0:0:
344,72,385500,1,0,0:0:0:0:
104,44,385650,1,0,0:0:0:0:
360,184,385800,1,0,0:0:0:0:
176,136,385950,6,0,L|104:208,1,87.5
305,273,386250,2,0,L|243:211,1,87.5
192,208,386700,5,0,0:0:0:0:
244,212,386775,1,0,0:0:0:0:
88,200,386850,1,0,0:0:0:0:
140,204,386925,1,0,0:0:0:0:
96,276,387000,2,0,L|112:376,1,87.5
340,116,387300,5,0,0:0:0:0:
288,120,387375,1,0,0:0:0:0:
444,108,387450,1,0,0:0:0:0:
392,112,387525,1,0,0:0:0:0:
436,184,387600,2,0,L|420:284,1,87.5
480,352,387900,5,0,0:0:0:0:
416,348,387975,1,0,0:0:0:0:
352,344,388050,1,0,0:0:0:0:
288,340,388125,1,0,0:0:0:0:
224,336,388200,1,0,0:0:0:0:
160,332,388275,1,0,0:0:0:0:
96,328,388350,1,0,0:0:0:0:
32,324,388425,1,0,0:0:0:0:
64,256,388500,2,0,L|64:144,1,87.5
148,40,388725,5,0,0:0:0:0:
148,40,388800,2,0,L|152:160,1,87.5
224,276,389025,1,0,0:0:0:0:
224,276,389100,2,0,L|228:156,1,87.5
324,64,389325,1,0,0:0:0:0:
324,64,389400,2,0,L|320:184,1,87.5
344,284,389700,5,0,0:0:0:0:
408,288,389775,1,0,0:0:0:0:
284,280,389850,1,0,0:0:0:0:
224,276,389925,1,0,0:0:0:0:
224,276,390000,2,0,P|224:220|200:176,1,87.5
24,32,390300,5,0,0:0:0:0:
88,40,390375,1,0,0:0:0:0:
152,48,390450,1,0,0:0:0:0:
216,56,390525,1,0,0:0:0:0:
284,64,390600,5,0,0:0:0:0:
224,84,390675,1,0,0:0:0:0:
164,108,390750,1,0,0:0:0:0:
104,128,390825,1,0,0:0:0:0:
40,148,390900,5,0,0:0:0:0:
104,168,390975,1,0,0:0:0:0:
168,184,391050,1,0,0:0:0:0:
232,200,391125,1,0,0:0:0:0:
424,328,391200,6,0,P|424:236|408:128,1,175
160,296,391500,5,0,0:0:0:0:
96,296,391575,1,0,0:0:0:0:
224,296,391650,1,0,0:0:0:0:
288,296,391725,1,0,0:0:0:0:
232,200,391800,2,0,P|240:144|272:112,1,87.5
396,32,392100,5,0,0:0:0:0:
396,32,392175,1,0,0:0:0:0:
396,32,392250,1,0,0:0:0:0:
396,32,392325,1,0,0:0:0:0:
396,32,392400,2,0,P|412:104|448:132,1,87.5
328,128,392625,5,0,0:0:0:0:
248,136,392700,1,0,0:0:0:0:
168,144,392775,1,0,0:0:0:0:
88,152,392850,1,0,0:0:0:0:
0,164,392925,2,0,P|16:204|27:223,1,43.75
256,344,393150,5,0,0:0:0:0:
396,32,393300,1,0,0:0:0:0:
16,204,393450,1,0,0:0:0:0:
410,187,393600,6,0,P|314:139|210:143,1,175
28,280,393900,1,0,0:0:0:0:
224,68,394050,1,0,0:0:0:0:
102,197,394200,6,0,P|198:245|302:241,1,175
464,96,394500,1,0,0:0:0:0:
356,316,394650,1,0,0:0:0:0:
224,68,394800,2,0,P|196:-32|196:88,2,350
160,164,395550,1,0,0:0:0:0:
96,224,395700,1,0,0:0:0:0:
24,272,395850,1,0,0:0:0:0:
112,304,396000,2,0,B|172:408|404:360|16:64|16:64|-160:260|404:324|128:-4|128:-4|416:44|432:268|48:208|484:196|484:196|512:272|528:356|528:356|444:280|364:280|364:280|280:392,1,2100.00008010865
112,304,397650,5,0,0:0:0:0:
168,200,397800,1,0,0:0:0:0:
16,64,397950,1,0,0:0:0:0:
288,204,398100,1,0,0:0:0:0:
128,0,398250,1,0,0:0:0:0:
52,212,398400,2,0,B|188:244|188:244|296:164|32:124|32:124|-64:-16|152:100|404:52|248:324|248:324|384:280|488:48|488:48|460:160|496:264|496:264|460:160|240:24|240:24|464:-4,1,2100.00008010865
488,48,400050,5,0,0:0:0:0:
496,264,400200,1,0,0:0:0:0:
332,11,400350,1,0,0:0:0:0:
248,328,400500,1,0,0:0:0:0:
240,24,400650,1,0,0:0:0:0:
496,264,400800,6,0,B|248:184|248:184|324:288|216:352,1,420.000016021729
192,260,401250,1,0,0:0:0:0:
16,120,401400,2,0,B|264:200|264:200|188:96|296:32,1,420.000016021729
332,132,401850,1,0,0:0:0:0:
420,52,402000,2,0,B|392:408|76:316|76:316|164:16|-20:180|-20:180|332:396|344:44|344:44|140:84|-28:20,2,1680.00006408692
76,316,404550,1,0,0:0:0:0:
48,43,404700,2,0,P|108:55|176:55,1,105.000004005432
344,44,404850,1,0,0:0:0:0:
332,280,405000,5,0,0:0:0:0:
360,248,405075,1,0,0:0:0:0:
380,208,405150,1,0,0:0:0:0:
396,172,405225,1,0,0:0:0:0:
408,132,405300,1,0,0:0:0:0:
416,92,405375,1,0,0:0:0:0:
420,52,405450,1,0,0:0:0:0:
56,52,405600,5,0,0:0:0:0:
56,52,405675,1,0,0:0:0:0:
56,52,405750,2,0,P|84:48|204:196,2,210.000008010865
112,140,406200,2,0,P|52:156|12:180,1,105.000004005432
108,248,406350,2,0,B|160:264|160:264|248:244|332:276,1,210.000008010865
313,269,406575,1,0,0:0:0:0:
313,269,406650,1,0,0:0:0:0:
432,32,406800,6,0,P|364:52|328:92,1,105.000004005432
35,117,406950,2,0,P|103:137|139:177,1,105.000004005432
424,132,407100,6,0,P|382:163|331:174,1,105.000004005432
48,220,407250,2,0,P|89:251|140:262,1,105.000004005432
256,264,407400,1,0,0:0:0:0:
256,264,407475,1,0,0:0:0:0:
256,264,407550,2,0,L|256:136,1,105.000004005432
256,54,407700,2,0,L|256:166,1,105.000004005432
35,324,408000,6,0,L|51:192,1,105.000004005432
172,272,408150,2,0,L|160:124,1,105.000004005432
477,60,408300,6,0,L|461:192,1,105.000004005432
340,112,408450,2,0,L|352:260,1,105.000004005432
360,328,408600,1,0,0:0:0:0:
256,304,408675,1,0,0:0:0:0:
340,112,408750,2,0,P|232:72|136:136,2,210.000008010865
256,192,409200,5,0,0:0:0:0:
256,192,409275,1,0,0:0:0:0:
256,192,409350,1,0,0:0:0:0:
120,296,409500,1,0,0:0:0:0:
392,84,409650,1,0,0:0:0:0:
256,192,409800,2,0,L|156:136,1,105.000004005432
96,100,409950,1,0,0:0:0:0:
416,284,410100,1,0,0:0:0:0:
256,192,410250,2,0,L|380:264,1,105.000004005432
384,76,410400,5,0,0:0:0:0:
392,84,410475,1,0,0:0:0:0:
392,84,410550,2,0,P|368:136|320:144,1,105.000004005432
249,125,410700,2,0,P|267:77|316:64,1,105.000004005432
256,304,410850,2,0,L|256:184,1,105.000004005432
144,140,411000,1,0,0:0:0:0:
144,140,411075,1,0,0:0:0:0:
144,140,411150,2,0,P|144:248|88:336,2,210.000008010865
12,88,411600,1,0,0:0:0:0:
56,56,411675,1,0,0:0:0:0:
104,41,411750,6,0,P|220:56|252:136,1,210.000008010865
91,332,412050,1,0,0:0:0:0:
368,60,412200,1,0,0:0:0:0:
368,140,412275,1,0,0:0:0:0:
368,220,412350,1,0,0:0:0:0:
368,300,412425,1,0,0:0:0:0:
252,132,412575,2,0,L|252:240,1,105.000004005432
80,324,412800,5,0,0:0:0:0:
80,324,412875,1,0,0:0:0:0:
80,324,412950,1,0,0:0:0:0:
252,132,413100,1,0,0:0:0:0:
252,124,413250,1,0,0:0:0:0:
424,324,413400,5,0,0:0:0:0:
424,324,413475,1,0,0:0:0:0:
424,324,413550,1,0,0:0:0:0:
252,116,413700,1,0,0:0:0:0:
252,104,413850,1,0,0:0:0:0:
252,116,414000,5,0,0:0:0:0:
252,128,414075,1,0,0:0:0:0:
252,140,414150,1,0,0:0:0:0:
252,152,414225,1,0,0:0:0:0:
252,164,414300,1,0,0:0:0:0:
252,176,414375,1,0,0:0:0:0:
252,188,414450,1,0,0:0:0:0:
252,200,414525,1,0,0:0:0:0:
252,212,414600,1,0,0:0:0:0:
252,224,414675,1,0,0:0:0:0:
252,236,414750,6,0,P|180:264|136:212,2,122.500001168251
368,56,415200,1,0,0:0:0:0:
504,8,415350,1,0,0:0:0:0:
484,144,415500,1,0,0:0:0:0:
172,56,415650,6,0,P|108:96|100:152,2,122.500001168251
256,192,416100,1,0,0:0:0:0:
256,192,416250,1,0,0:0:0:0:
256,192,416400,1,0,0:0:0:0:
144,288,416550,5,0,0:0:0:0:
256,0,416700,1,0,0:0:0:0:
368,288,416850,1,0,0:0:0:0:
256,192,417000,2,0,P|188:160|180:104,1,122.500001168251
256,192,417225,2,0,L|256:56,1,122.500001168251
256,192,417450,2,0,P|324:160|332:104,1,122.500001168251
256,340,417750,1,0,0:0:0:0:
368,288,417900,6,0,L|464:196,1,122.500001168251
504,44,418200,2,0,L|408:136,1,122.500001168251
256,256,418500,1,0,0:0:0:0:
96,128,418650,1,0,0:0:0:0:
228,12,418800,5,0,0:0:0:0:
140,240,418950,1,0,0:0:0:0:
116,24,419100,5,0,0:0:0:0:
256,256,419250,1,0,0:0:0:0:
388,160,419400,2,0,B|388:112|388:112|288:76,1,122.500001168251
388,160,419625,2,0,L|388:28,1,122.500001168251
388,160,419850,2,0,B|388:112|388:112|488:76,1,122.500001168251
368,336,420150,5,0,0:0:0:0:
136,196,420300,1,0,0:0:0:0:
400,252,420450,5,0,0:0:0:0:
72,328,420600,1,0,0:0:0:0:
412,304,420750,5,0,0:0:0:0:
24,232,420900,1,0,0:0:0:0:
256,308,421050,5,0,0:0:0:0:
256,192,421200,2,0,L|256:56,1,122.500001168251
256,69,421500,2,0,L|256:192,1,122.500001168251
372,0,421800,2,0,L|372:148,1,122.500001168251
372,244,422025,2,0,L|372:380,1,122.500001168251
144,192,422250,1,0,0:0:0:0:
256,192,422400,5,0,0:0:0:0:
448,48,422700,1,0,0:0:0:0:
256,192,423000,5,0,0:0:0:0:
448,336,423300,1,0,0:0:0:0:
256,192,423600,1,0,0:0:0:0:
209,288,423750,1,0,0:0:0:0:
88,288,423900,1,0,0:0:0:0:
29,182,424050,1,0,0:0:0:0:
152,192,424200,2,0,P|172:120|220:92,1,122.500001168251
152,192,424425,2,0,B|4:180,1,122.500001168251
152,192,424650,2,0,P|172:264|220:292,1,122.500001168251
240,296,424875,5,0,0:0:0:0:
272,300,424950,1,0,0:0:0:0:
304,300,425025,1,0,0:0:0:0:
332,292,425100,1,0,0:0:0:0:
360,280,425175,1,0,0:0:0:0:
384,260,425250,1,0,0:0:0:0:
420,152,425400,5,0,0:0:0:0:
388,144,425475,1,0,0:0:0:0:
356,140,425550,1,0,0:0:0:0:
324,140,425625,1,0,0:0:0:0:
292,140,425700,1,0,0:0:0:0:
260,144,425775,1,0,0:0:0:0:
232,152,425850,1,0,0:0:0:0:
164,292,426000,6,0,P|176:216|148:160,1,122.500001168251
232,152,426225,2,0,P|220:76|248:20,1,122.500001168251
324,0,426450,1,0,0:0:0:0:
420,152,426600,6,0,P|408:228|436:284,1,122.500001168251
328,228,426825,2,0,P|340:304|312:360,1,122.500001168251
256,284,427050,1,0,0:0:0:0:
108,108,427200,5,0,0:0:0:0:
148,80,427275,1,0,0:0:0:0:
196,64,427350,1,0,0:0:0:0:
244,68,427425,1,0,0:0:0:0:
288,92,427500,1,0,0:0:0:0:
320,132,427575,1,0,0:0:0:0:
336,180,427650,1,0,0:0:0:0:
328,228,427725,1,0,0:0:0:0:
284,208,427800,5,0,0:0:0:0:
240,184,427875,1,0,0:0:0:0:
192,176,427950,1,0,0:0:0:0:
144,184,428025,1,0,0:0:0:0:
100,204,428100,1,0,0:0:0:0:
56,228,428175,1,0,0:0:0:0:
28,268,428250,1,0,0:0:0:0:
4,312,428325,1,0,0:0:0:0:
52,304,428400,6,0,L|116:272,3,61.2500005841255
124,324,428700,2,0,L|208:288,3,61.2500005841255
224,280,429000,1,0,0:0:0:0:
268,260,429075,1,0,0:0:0:0:
312,240,429150,1,0,0:0:0:0:
356,220,429225,1,0,0:0:0:0:
400,204,429300,1,0,0:0:0:0:
392,76,429450,1,0,0:0:0:0:
256,24,429600,1,0,0:0:0:0:
256,24,429675,1,0,0:0:0:0:
256,24,429750,5,0,0:0:0:0:
88,64,429900,1,0,0:0:0:0:
148,84,429975,1,0,0:0:0:0:
196,120,430050,1,0,0:0:0:0:
232,172,430125,1,0,0:0:0:0:
248,232,430200,1,0,0:0:0:0:
92,316,430350,5,0,0:0:0:0:
136,236,430500,1,0,0:0:0:0:
184,284,430575,1,0,0:0:0:0:
248,304,430650,1,0,0:0:0:0:
316,304,430725,1,0,0:0:0:0:
376,276,430800,1,0,0:0:0:0:
416,72,430950,5,0,0:0:0:0:
306,144,431100,1,0,0:0:0:0:
380,148,431175,1,0,0:0:0:0:
444,184,431250,1,0,0:0:0:0:
488,244,431325,1,0,0:0:0:0:
496,316,431400,1,0,0:0:0:0:
280,308,431550,2,0,L|308:376,1,61.2500005841255
132,240,431775,2,0,L|84:188,1,61.2500005841255
128,68,432000,5,0,0:0:0:0:
144,56,432075,1,0,0:0:0:0:
160,48,432150,1,0,0:0:0:0:
176,44,432225,1,0,0:0:0:0:
196,40,432300,1,0,0:0:0:0:
216,40,432375,1,0,0:0:0:0:
236,44,432450,1,0,0:0:0:0:
252,52,432525,1,0,0:0:0:0:
264,64,432600,1,0,0:0:0:0:
276,76,432675,1,0,0:0:0:0:
284,92,432750,1,0,0:0:0:0:
288,108,432825,1,0,0:0:0:0:
292,128,432900,1,0,0:0:0:0:
296,148,432975,1,0,0:0:0:0:
296,168,433050,1,0,0:0:0:0:
292,188,433125,1,0,0:0:0:0:
288,208,433200,6,0,P|332:284|380:300,1,122.500001168251
504,340,433500,2,0,P|482:283|431:251,1,122.500001168251
288,212,433800,1,0,0:0:0:0:
200,168,433950,1,0,0:0:0:0:
112,124,434100,1,0,0:0:0:0:
24,80,434250,2,0,P|-8:100|12:120,1,61.2500005841255
28,168,434400,5,0,0:0:0:0:
64,208,434475,1,0,0:0:0:0:
112,232,434550,1,0,0:0:0:0:
168,236,434625,1,0,0:0:0:0:
220,224,434700,1,0,0:0:0:0:
260,184,434775,1,0,0:0:0:0:
284,136,434850,1,0,0:0:0:0:
300,84,434925,1,0,0:0:0:0:
328,36,435000,5,0,0:0:0:0:
364,80,435075,1,0,0:0:0:0:
384,132,435150,1,0,0:0:0:0:
388,188,435225,1,0,0:0:0:0:
376,240,435300,1,0,0:0:0:0:
344,284,435375,1,0,0:0:0:0:
296,312,435450,1,0,0:0:0:0:
240,316,435525,1,0,0:0:0:0:
188,304,435600,6,0,L|128:276,3,61.2500005841255
160,232,435900,2,0,L|100:204,3,61.2500005841255
56,180,436200,1,0,0:0:0:0:
24,128,436275,1,0,0:0:0:0:
40,68,436350,1,0,0:0:0:0:
96,44,436425,1,0,0:0:0:0:
152,68,436500,1,0,0:0:0:0:
176,124,436575,1,0,0:0:0:0:
144,176,436650,1,0,0:0:0:0:
316,40,436800,6,0,L|384:160,1,122.500001168251
96,120,437100,1,0,0:0:0:0:
224,32,437250,1,0,0:0:0:0:
296,157,437400,6,0,L|236:264,1,122.500001168251
188,168,437700,1,0,0:0:0:0:
344,264,437850,1,0,0:0:0:0:
420,84,438000,5,0,0:0:0:0:
364,60,438075,1,0,0:0:0:0:
304,48,438150,1,0,0:0:0:0:
244,56,438225,1,0,0:0:0:0:
188,76,438300,1,0,0:0:0:0:
136,108,438375,1,0,0:0:0:0:
96,156,438450,1,0,0:0:0:0:
80,216,438525,1,0,0:0:0:0:
88,276,438600,2,0,P|100:312|124:340,3,61.2500005841255
196,232,438900,2,0,P|184:196|160:168,3,61.2500005841255
348,276,439200,6,0,P|328:348|264:372,1,122.500001168251
276,220,439500,2,0,P|296:148|348:128,1,122.500001168251
136,16,439800,2,0,P|104:96|28:108,1,122.500001168251
160,196,440100,2,0,P|111:231|99:289,1,122.500001168251
268,16,440400,2,0,B|236:28|236:28|224:124,1,122.500001168251
332,316,440700,2,0,P|364:244|368:188,1,122.500001168251
368,168,440925,1,0,0:0:0:0:
360,124,441000,1,0,0:0:0:0:
108,152,441150,1,0,0:0:0:0:
229,296,441300,6,0,P|313:328|345:296,1,122.500001168251
348,288,441525,1,0,0:0:0:0:
360,240,441600,1,0,0:0:0:0:
360,48,441750,1,0,0:0:0:0:
216,16,441900,2,0,P|160:40|117:84,1,122.500001168251
96,116,442125,1,0,0:0:0:0:
80,160,442200,1,0,0:0:0:0:
256,234,442350,1,0,0:0:0:0:
256,112,442500,2,0,L|256:240,1,122.500001168251
364,48,442800,5,0,0:0:0:0:
384,124,442875,1,0,0:0:0:0:
384,204,442950,1,0,0:0:0:0:
360,280,443025,1,0,0:0:0:0:
308,340,443100,1,0,0:0:0:0:
236,372,443175,1,0,0:0:0:0:
156,384,443250,1,0,0:0:0:0:
84,352,443325,1,0,0:0:0:0:
28,296,443400,5,0,0:0:0:0:
4,220,443475,1,0,0:0:0:0:
0,140,443550,1,0,0:0:0:0:
36,68,443625,1,0,0:0:0:0:
100,20,443700,1,0,0:0:0:0:
256,192,446100,12,0,447850,0:0:0:0:
96,72,448100,5,0,0:0:0:0:
140,224,448350,1,0,0:0:0:0:
256,96,448600,5,0,0:0:0:0:
200,328,448850,1,0,0:0:0:0:
416,72,449100,5,0,0:0:0:0:
372,224,449350,1,0,0:0:0:0:
256,96,449600,5,0,0:0:0:0:
312,328,449850,1,0,0:0:0:0:
140,224,450100,5,0,0:0:0:0:
372,224,450350,1,0,0:0:0:0:
96,72,450600,5,0,0:0:0:0:
416,72,450850,1,0,0:0:0:0:
256,336,451100,5,0,0:0:0:0:
256,8,451350,1,0,0:0:0:0:
64,192,451600,5,0,0:0:0:0:
448,192,451850,1,0,0:0:0:0:
136,144,452100,6,0,P|204:144|260:204,1,140
424,36,452600,2,0,P|356:36|300:96,1,140
216,308,453100,5,0,0:0:0:0:
436,156,453350,1,0,0:0:0:0:
96,236,453600,5,0,0:0:0:0:
392,280,453850,1,0,0:0:0:0:
256,192,454100,5,0,0:0:0:0:
256,192,454350,1,0,0:0:0:0:
256,12,454600,1,0,0:0:0:0:
256,12,454850,1,0,0:0:0:0:
256,372,455100,1,0,0:0:0:0:
256,372,455350,1,0,0:0:0:0:
256,192,455600,1,0,0:0:0:0:
256,192,455850,1,0,0:0:0:0:
176,100,456100,6,0,P|236:80|272:84,1,70
408,80,456350,1,0,0:0:0:0:
408,80,456412,1,0,0:0:0:0:
408,80,456475,1,0,0:0:0:0:
360,216,456600,2,0,P|348:248|352:284,1,70
480,260,456850,1,0,0:0:0:0:
480,260,456975,1,0,0:0:0:0:
246,344,457100,6,0,P|183:333|153:313,1,70
31,252,457350,1,0,0:0:0:0:
31,252,457412,1,0,0:0:0:0:
31,252,457475,1,0,0:0:0:0:
137,155,457600,2,0,P|162:132|175:98,1,70
52,60,457850,1,0,0:0:0:0:
52,60,457975,1,0,0:0:0:0:
136,156,458100,6,0,P|152:204|148:232,1,70
96,320,458350,1,0,0:0:0:0:
96,320,458412,1,0,0:0:0:0:
96,320,458475,1,0,0:0:0:0:
200,360,458600,2,0,P|256:364|284:344,1,70
400,264,458850,2,0,P|344:260|316:280,1,70
228,272,459100,6,0,P|218:238|226:205,1,70
348,108,459350,2,0,P|292:104|264:124,1,70
96,152,459600,2,0,P|129:160|162:150,1,70
200,0,459850,2,0,P|209:33|201:66,1,70
96,152,460100,2,0,P|88:216|100:236,1,70
140,312,460350,1,0,0:0:0:0:
176,328,460412,1,0,0:0:0:0:
216,328,460475,2,0,P|256:308|276:276,1,70
304,160,460725,1,0,0:0:0:0:
200,252,460850,2,0,P|156:236|136:200,1,70
96,152,461100,5,0,0:0:0:0:
228,152,461225,1,0,0:0:0:0:
140,0,461350,1,0,0:0:0:0:
176,12,461412,1,0,0:0:0:0:
208,24,461475,2,0,P|220:64|272:64,1,70
364,40,461725,1,0,0:0:0:0:
416,136,461850,2,0,P|412:184|376:216,1,70
412,320,462100,6,0,P|383:299|349:291,1,70
232,280,462350,1,0,0:0:0:0:
352,368,462475,1,0,0:0:0:0:
232,280,462600,2,0,P|256:328|296:348,1,70
412,320,462850,2,0,P|392:284|344:256,1,70
252,148,463100,2,0,P|276:196|316:216,1,70
432,188,463350,2,0,P|412:152|364:124,1,70
264,24,463600,2,0,P|288:72|328:92,1,70
444,64,463850,2,0,P|424:28|376:0,1,70
76,68,464100,6,0,B|80:124|136:136|136:136|116:164,1,105.000004005432
96,216,464350,1,0,0:0:0:0:
76,252,464412,1,0,0:0:0:0:
76,296,464475,1,0,0:0:0:0:
92,332,464537,1,0,0:0:0:0:
128,356,464600,1,0,0:0:0:0:
208,268,464725,5,0,0:0:0:0:
272,152,464850,1,0,0:0:0:0:
292,116,464912,1,0,0:0:0:0:
292,72,464975,1,0,0:0:0:0:
276,36,465037,1,0,0:0:0:0:
240,12,465100,1,0,0:0:0:0:
180,100,465225,5,0,0:0:0:0:
100,200,465350,2,0,P|92:268|96:308,1,105.000004005432
208,268,465600,2,0,P|212:320|204:380,1,105.000004005432
320,376,465850,2,0,P|313:323|317:271,1,105.000004005432
430,307,466100,2,0,P|433:254|425:202,1,105.000004005432
376,48,466350,2,0,P|276:116|264:120,1,105.000004005432
82,307,466600,2,0,P|78:254|86:202,1,105.000004005432
136,48,466850,2,0,P|236:116|248:120,1,105.000004005432
376,200,467100,5,0,0:0:0:0:
136,200,467225,1,0,0:0:0:0:
384,200,467350,1,0,0:0:0:0:
128,200,467475,1,0,0:0:0:0:
256,32,467600,5,0,0:0:0:0:
256,272,467725,1,0,0:0:0:0:
256,24,467850,1,0,0:0:0:0:
256,280,467975,1,0,0:0:0:0:
93,103,468100,6,0,P|105:167|145:215,1,105.000004005432
256,280,468350,1,0,0:0:0:0:
228,312,468412,1,0,0:0:0:0:
192,332,468475,1,0,0:0:0:0:
152,340,468537,1,0,0:0:0:0:
108,340,468600,1,0,0:0:0:0:
93,103,468725,1,0,0:0:0:0:
256,104,468850,5,0,0:0:0:0:
284,72,468912,1,0,0:0:0:0:
320,52,468975,1,0,0:0:0:0:
360,44,469037,1,0,0:0:0:0:
404,44,469100,1,0,0:0:0:0:
419,281,469225,1,0,0:0:0:0:
432,184,469350,6,0,P|352:216|320:260,1,105.000004005432
80,200,469600,2,0,P|160:168|192:124,1,105.000004005432
248,16,469850,2,0,P|280:96|324:128,1,105.000004005432
264,368,470100,2,0,P|232:288|188:256,1,105.000004005432
316,216,470350,2,0,P|245:166|191:163,1,105.000004005432
80,200,470600,6,0,P|76:264|88:304,1,105.000004005432
104,332,470787,1,0,0:0:0:0:
128,356,470850,1,0,0:0:0:0:
316,216,470975,1,0,0:0:0:0:
80,200,471100,5,0,0:0:0:0:
324,32,471225,1,0,0:0:0:0:
200,328,471350,1,0,0:0:0:0:
168,36,471475,1,0,0:0:0:0:
400,248,471600,1,0,0:0:0:0:
112,112,471725,1,0,0:0:0:0:
316,216,471850,2,0,P|276:268|284:208,1,157.500006008148
316,132,472100,6,0,P|376:136|424:164,1,105.000004005432
196,132,472350,2,0,P|136:136|88:164,1,105.000004005432
320,216,472600,2,0,P|368:260|384:316,1,105.000004005432
192,216,472850,2,0,P|144:260|128:316,1,105.000004005432
232,304,473100,5,0,0:0:0:0:
316,132,473225,1,0,0:0:0:0:
304,300,473350,5,0,0:0:0:0:
196,132,473475,1,0,0:0:0:0:
268,320,473600,5,0,0:0:0:0:
280,24,473725,1,0,0:0:0:0:
152,208,473850,1,0,0:0:0:0:
152,208,473912,1,0,0:0:0:0:
152,208,473975,1,0,0:0:0:0:
376,56,474100,6,0,P|328:28|272:24,1,105.000004005432
156,104,474350,2,0,P|228:132|276:124,1,105.000004005432
368,148,474600,2,0,P|352:208|312:252,1,105.000004005432
216,300,474850,1,0,0:0:0:0:
216,300,474912,1,0,0:0:0:0:
216,300,474975,1,0,0:0:0:0:
156,104,475100,5,0,0:0:0:0:
368,148,475225,1,0,0:0:0:0:
120,220,475350,5,0,0:0:0:0:
376,56,475475,1,0,0:0:0:0:
92,144,475600,5,0,0:0:0:0:
400,236,475725,1,0,0:0:0:0:
256,192,475850,2,0,P|276:240|220:204,1,157.500006008148
194,126,476100,6,0,P|130:130|78:150,1,105.000004005432
8,252,476350,2,0,P|80:244|120:224,1,105.000004005432
256,192,476600,1,0,0:0:0:0:
40,160,476725,1,0,0:0:0:0:
176,288,476850,1,0,0:0:0:0:
136,56,476975,1,0,0:0:0:0:
8,252,477100,5,0,0:0:0:0:
88,336,477225,1,0,0:0:0:0:
200,360,477350,1,0,0:0:0:0:
316,356,477475,1,0,0:0:0:0:
416,300,477600,2,0,P|456:240|464:192,1,105.000004005432
464,152,477787,1,0,0:0:0:0:
452,96,477850,1,0,0:0:0:0:
340,204,477975,1,0,0:0:0:0:
316,356,478100,6,0,P|276:296|272:256,1,105.000004005432
160,224,478350,2,0,P|200:164|204:124,1,105.000004005432
296,56,478600,2,0,P|236:16|196:12,1,105.000004005432
72,28,478850,1,0,0:0:0:0:
204,132,478975,1,0,0:0:0:0:
120,308,479100,5,0,0:0:0:0:
360,100,479225,1,0,0:0:0:0:
320,340,479350,5,0,0:0:0:0:
188,40,479475,1,0,0:0:0:0:
448,232,479600,5,0,0:0:0:0:
32,208,479725,1,0,0:0:0:0:
440,44,479850,5,0,0:0:0:0:
168,352,479975,1,0,0:0:0:0:
188,40,480100,1,0,0:0:0:0:
60,56,480225,6,0,P|84:116|124:144,1,105.000004005432
32,208,480475,2,0,P|87:240|136:237,1,105.000004005432
236,216,480725,1,0,0:0:0:0:
273,95,480850,2,0,P|233:55|177:39,1,105.000004005432
60,56,481100,1,0,0:0:0:0:
160,144,481225,2,0,L|257:234,1,105.000004005432
313,286,481475,2,0,L|216:196,1,105.000004005432
60,56,481725,1,0,0:0:0:0:
160,144,481850,1,0,0:0:0:0:
8,124,481975,5,0,0:0:0:0:
23,209,482100,2,0,P|84:288|168:312,1,157.500006008148
313,286,482475,1,0,0:0:0:0:
372,216,482600,2,0,P|328:108|252:52,1,210.000008010865
168,92,482975,1,0,0:0:0:0:
21,85,483100,2,0,P|64:115|92:160,1,105.000004005432
88,288,483350,2,0,P|32:232|20:192,1,105.000004005432
168,208,483600,2,0,P|232:212|292:168,1,105.000004005432
276,44,483850,2,0,P|232:76|204:128,1,105.000004005432
267,194,484100,5,0,0:0:0:0:
388,336,484225,2,0,L|412:212,1,105.000004005432
368,64,484475,2,0,L|340:192,1,105.000004005432
247,297,484725,2,0,L|271:173,1,105.000004005432
227,25,484975,2,0,L|199:153,1,105.000004005432
172,248,485225,2,0,P|84:184|92:80,2,210.000008010865
280,276,485850,1,0,0:0:0:0:
392,300,485975,1,0,0:0:0:0:
500,324,486100,1,0,0:0:0:0:
448,196,486225,5,0,0:0:0:0:
440,372,486350,1,0,0:0:0:0:
336,216,486475,1,0,0:0:0:0:
392,124,486600,2,0,P|272:132|232:204,2,210.000008010865
448,196,487225,1,0,0:0:0:0:
432,288,487350,1,0,0:0:0:0:
364,352,487475,2,0,P|300:356|368:328,1,210.000008010865
364,352,487850,1,0,0:0:0:0:
364,352,487975,1,0,0:0:0:0:
328,104,488100,5,0,0:0:0:0:
96,292,488350,1,0,0:0:0:0:
176,80,488600,1,0,0:0:0:0:
364,352,488850,1,0,0:0:0:0:
112,216,489100,1,0,0:0:0:0:
464,152,489350,1,0,0:0:0:0:
208,328,489600,1,0,0:0:0:0:
320,24,489850,1,0,0:0:0:0:
380,280,490100,5,0,0:0:0:0:
108,64,490350,1,0,0:0:0:0:
240,344,490600,1,0,0:0:0:0:
224,24,490850,1,0,0:0:0:0:
72,272,491100,1,0,0:0:0:0:
396,96,491350,1,0,0:0:0:0:
68,124,491600,1,0,0:0:0:0:
224,24,491850,1,0,0:0:0:0:
160,96,491975,1,0,0:0:0:0:
160,192,492100,6,0,P|240:208|288:196,1,105.000004005432
252,300,492350,2,0,P|328:296|376:316,1,105.000004005432
456,216,492600,2,0,P|376:200|328:212,1,105.000004005432
364,108,492850,2,0,P|288:112|240:92,1,105.000004005432
105,12,493100,6,0,P|91:105|173:197,1,210.000008010865
407,372,493600,6,0,P|421:279|339:187,1,210.000008010865
105,12,494100,2,0,L|197:72,1,105.000004005432
280,28,494350,2,0,L|372:88,1,105.000004005432
458,238,494600,2,0,L|366:178,1,105.000004005432
120,56,494975,5,0,0:0:0:0:
80,140,495100,2,0,P|152:144|192:120,1,105.000004005432
120,56,495350,2,0,P|68:48|20:67,1,105.000004005432
4,160,495600,1,0,0:0:0:0:
84,212,495725,1,0,0:0:0:0:
0,236,495850,1,0,0:0:0:0:
80,288,495975,1,0,0:0:0:0:
0,324,496100,2,0,P|56:368|124:360,1,105.000004005432
164,312,496350,6,0,L|200:200,1,105.000004005432
208,40,496600,2,0,L|164:164,1,105.000004005432
87,370,496850,1,0,0:0:0:0:
87,370,496975,1,0,0:0:0:0:
164,312,497100,2,0,L|284:244,1,105.000004005432
444,364,497350,1,0,0:0:0:0:
444,364,497475,1,0,0:0:0:0:
348,312,497600,2,0,L|228:244,1,105.000004005432
256,192,497850,5,0,0:0:0:0:
256,192,497975,1,0,0:0:0:0:
256,192,498100,2,0,P|176:184|288:100,2,315.000012016297
256,192,499100,2,0,P|336:200|224:284,2,315.000012016297
290,256,500100,5,0,0:0:0:0:
290,256,500350,2,0,L|172:232,1,105.000004005432
168,304,500600,2,0,L|50:280,1,105.000004005432
222,128,500850,2,0,L|340:152,1,105.000004005432
344,80,501100,2,0,L|462:104,1,105.000004005432
436,196,501350,2,0,L|416:320,1,105.000004005432
76,188,501600,2,0,L|96:64,1,105.000004005432
256,192,501850,2,0,L|256:312,1,105.000004005432
256,60,502100,5,0,0:0:0:0:
256,60,502225,1,0,0:0:0:0:
256,192,502600,1,0,0:0:0:0:
256,192,502725,1,0,0:0:0:0:
108,264,502975,5,0,0:0:0:0:
256,60,503100,1,0,0:0:0:0:
404,264,503225,1,0,0:0:0:0:
256,60,503350,1,0,0:0:0:0:
108,264,503475,1,0,0:0:0:0:
240,300,503600,6,0,P|304:268|332:108,1,210.000008010865
256,192,504100,2,0,P|172:168|264:64,1,280
344,72,504475,2,0,P|344:152|396:192,1,140
297,308,504725,2,0,P|297:228|245:188,1,140
76,216,504975,2,0,B|44:168|44:168|68:64,1,140
176,36,505225,1,0,0:0:0:0:
224,48,505287,1,0,0:0:0:0:
268,64,505350,2,0,P|284:140|220:212,2,140
36,12,505725,2,0,B|68:60|68:60|44:164,1,140
336,240,505975,1,0,0:0:0:0:
336,240,506100,6,0,P|404:284|404:360,1,140
176,240,506350,2,0,P|108:284|108:360,1,140
364,168,506600,2,0,P|440:204|480:276,1,140
148,168,506850,2,0,P|72:204|32:276,1,140
392,96,507100,2,0,L|296:-8,1,140
120,96,507350,2,0,L|216:-8,1,140
364,168,507600,2,0,L|320:308,1,140
148,168,507850,2,0,L|192:308,1,140
256,48,508100,5,0,0:0:0:0:
364,168,508225,1,0,0:0:0:0:
148,168,508350,1,0,0:0:0:0:
352,80,508475,1,0,0:0:0:0:
256,260,508600,1,0,0:0:0:0:
160,88,508725,1,0,0:0:0:0:
364,168,508850,6,0,P|448:176|504:160,1,140
352,80,509100,2,0,P|268:72|212:88,1,140
256,260,509350,2,0,P|340:268|396:252,1,140
244,172,509600,2,0,P|160:164|104:180,1,140
16,232,509850,2,0,L|48:392,1,140
156,256,510100,5,0,0:0:0:0:
380,96,510225,1,0,0:0:0:0:
188,64,510350,1,0,0:0:0:0:
320,292,510475,1,0,0:0:0:0:
120,244,510600,5,0,0:0:0:0:
420,112,510725,1,0,0:0:0:0:
200,32,510850,1,0,0:0:0:0:
320,328,510975,1,0,0:0:0:0:
92,216,511100,5,0,0:0:0:0:
452,140,511225,1,0,0:0:0:0:
224,8,511350,1,0,0:0:0:0:
296,360,511475,1,0,0:0:0:0:
72,184,511600,5,0,0:0:0:0:
476,176,511725,1,0,0:0:0:0:
268,0,511850,1,0,0:0:0:0:
256,380,511975,1,0,0:0:0:0:
437,19,512100,6,0,P|409:131|497:175,1,210
512,260,512350,2,0,B|408:264|408:264|384:208,1,140
204,124,512600,2,0,B|288:184|288:184|304:252,1,140
208,352,512850,2,0,B|296:328|296:328|344:272,1,140
376,128,513100,1,0,0:0:0:0:
84,62,513225,2,0,B|116:100|116:100|204:124,1,140
112,320,513475,1,0,0:0:0:0:
327,290,513600,2,0,B|279:210|279:210|223:206,1,140
84,64,513850,6,0,B|44:112|44:112|88:268,1,210
48,360,514100,1,0,0:0:0:0:
180,372,514225,2,0,B|320:364,1,140
388,192,514475,2,0,L|488:311,1,140
216,296,514725,2,0,P|148:244|132:168,1,140
304,60,514975,2,0,P|372:112|388:188,1,140
132,160,515225,2,0,P|159:96|217:59,1,140
388,192,515475,2,0,P|361:256|304:294,1,140
132,160,515725,2,0,B|84:160|84:160|132:72,1,140
116,288,515975,5,0,0:0:0:0:
144,288,516037,1,0,0:0:0:0:
172,288,516100,1,0,0:0:0:0:
200,288,516162,1,0,0:0:0:0:
228,288,516225,1,0,0:0:0:0:
256,156,516350,1,0,0:0:0:0:
80,116,516475,2,0,B|164:52|164:52|220:88,1,140
256,156,516850,1,0,0:0:0:0:
396,288,517100,5,0,0:0:0:0:
368,288,517162,1,0,0:0:0:0:
340,288,517225,1,0,0:0:0:0:
312,288,517287,1,0,0:0:0:0:
284,288,517350,1,0,0:0:0:0:
256,156,517475,1,0,0:0:0:0:
420,196,517600,1,0,0:0:0:0:
96,112,517850,5,0,0:0:0:0:
392,40,518100,5,0,0:0:0:0:
372,56,518162,1,0,0:0:0:0:
348,40,518225,1,0,0:0:0:0:
324,56,518287,1,0,0:0:0:0:
300,40,518350,1,0,0:0:0:0:
256,156,518475,1,0,0:0:0:0:
428,232,518600,2,0,B|448:328|448:328|312:208,1,280
120,40,519100,5,0,0:0:0:0:
140,56,519162,1,0,0:0:0:0:
164,40,519225,1,0,0:0:0:0:
188,56,519287,1,0,0:0:0:0:
212,40,519350,1,0,0:0:0:0:
256,156,519475,1,0,0:0:0:0:
84,232,519600,1,0,0:0:0:0:
428,80,519850,1,0,0:0:0:0:
156,328,520100,5,0,0:0:0:0:
256,156,520225,1,0,0:0:0:0:
356,328,520350,1,0,0:0:0:0:
256,140,520475,1,0,0:0:0:0:
136,328,520600,1,0,0:0:0:0:
256,128,520725,1,0,0:0:0:0:
376,328,520850,1,0,0:0:0:0:
256,116,520975,1,0,0:0:0:0:
116,328,521100,5,0,0:0:0:0:
256,104,521225,1,0,0:0:0:0:
396,328,521350,1,0,0:0:0:0:
256,92,521475,1,0,0:0:0:0:
256,372,521600,2,0,L|256:232,1,140
256,80,521850,1,0,0:0:0:0:
152,144,521975,1,0,0:0:0:0:
152,144,522100,2,0,P|51:130|148:99,1,280
408,336,522850,5,0,0:0:0:0:
256,40,523100,1,0,0:0:0:0:
104,336,523350,1,0,0:0:0:0:
440,112,523600,1,0,0:0:0:0:
440,112,523662,1,0,0:0:0:0:
440,112,523725,1,0,0:0:0:0:
36,112,523850,1,0,0:0:0:0:
46,149,523912,1,0,0:0:0:0:
57,186,523975,1,0,0:0:0:0:
67,223,524037,1,0,0:0:0:0:
80,260,524100,6,0,B|104:336|104:336|240:212,1,210
288,176,524350,1,0,0:0:0:0:
320,64,524475,2,0,P|220:80|192:124,1,140
288,176,524725,2,0,P|376:172|420:144,1,140
468,32,524975,1,0,0:0:0:0:
320,64,525100,6,0,B|240:60|240:60|310:230,1,210
324,256,525350,1,0,0:0:0:0:
412,288,525475,1,0,0:0:0:0:
412,288,525600,2,0,B|396:348|396:348|272:376|232:304|232:304|184:320,1,262.5
176,320,525850,2,0,B|136:248|136:248|248:184|200:56,1,262.5
192,28,526100,6,0,B|152:24|128:48|128:48|116:88|132:112|120:140|120:140|100:172|56:176|44:204|44:236|48:252|48:252|64:324,2,350
328,72,526725,1,0,0:0:0:0:
248,148,526850,2,0,B|312:176|312:176|336:256,1,140
308,368,527100,1,0,0:0:0:0:
308,368,527225,1,0,0:0:0:0:
168,348,527350,2,0,B|120:344|120:344|96:244,1,140
84,96,527600,1,0,0:0:0:0:
212,144,527725,1,0,0:0:0:0:
148,120,527850,1,0,0:0:0:0:
276,168,527975,1,0,0:0:0:0:
252,24,528100,6,0,B|288:40|288:80|288:80|396:104|436:172|436:172|420:232,1,280
276,168,528475,2,0,P|152:256|16:252,1,280
52,32,528850,1,0,0:0:0:0:
380,344,529100,6,0,P|448:292|512:256,2,140
448,156,529475,2,0,P|468:80|280:44,1,280
320,140,529850,1,0,0:0:0:0:
320,140,530100,6,0,P|244:188|176:216,1,140
72,256,530350,1,0,0:0:0:0:
91,111,530475,2,0,P|167:63|235:35,1,140
315,7,530725,1,0,0:0:0:0:
320,140,530850,2,0,P|400:176|456:220,1,140
512,280,531100,5,0,0:0:0:0:
492,316,531162,1,0,0:0:0:0:
460,344,531225,1,0,0:0:0:0:
420,360,531287,1,0,0:0:0:0:
376,364,531350,1,0,0:0:0:0:
328,360,531412,1,0,0:0:0:0:
284,340,531475,1,0,0:0:0:0:
248,304,531537,1,0,0:0:0:0:
228,252,531600,5,0,0:0:0:0:
208,200,531662,1,0,0:0:0:0:
180,152,531725,1,0,0:0:0:0:
140,104,531787,1,0,0:0:0:0:
80,92,531850,1,0,0:0:0:0:
80,208,531975,1,0,0:0:0:0:
228,252,532100,6,0,P|300:208|488:236,1,280
364,284,532475,2,0,P|344:172|208:96,1,280
80,92,532850,1,0,0:0:0:0:
80,92,532975,1,0,0:0:0:0:
228,252,533100,6,0,P|288:352|312:432,1,140
292,192,533350,2,0,P|232:92|208:12,1,140
128,228,533600,2,0,P|96:348|64:364,1,140
344,124,533850,2,0,P|376:4|408:-12,1,140
452,200,534100,6,0,B|432:320|340:280|340:280|336:332|336:332|272:324|272:324|224:352|224:352|140:264,2,420
448,84,534975,1,0,0:0:0:0:
336,20,535100,2,0,P|368:72|308:156,1,140
272,328,535350,2,0,P|260:264|324:192,1,140
192,24,535600,2,0,P|224:76|164:160,1,140
128,332,535850,2,0,P|116:268|180:196,1,140
192,24,536100,5,0,0:0:0:0:
384,160,536225,1,0,0:0:0:0:
154,208,536350,1,0,0:0:0:0:
320,48,536475,2,0,P|284:192|192:280,1,280
136,100,536850,1,0,0:0:0:0:
388,256,536975,1,0,0:0:0:0:
191,280,537100,2,0,P|191:352|259:320,1,140
432,100,537350,1,0,0:0:0:0:
388,256,537475,6,0,P|292:216|288:48,1,280
191,280,537850,2,0,P|139:352|87:364,1,140
40,200,538100,1,0,0:0:0:0:
40,200,538225,1,0,0:0:0:0:
153,120,538350,2,0,P|205:192|257:204,1,140
281,56,538600,1,0,0:0:0:0:
281,56,538725,1,0,0:0:0:0:
408,116,538850,2,0,L|340:244,1,140
276,344,539100,5,0,0:0:0:0:
260,352,539350,1,0,0:0:0:0:
248,360,539600,1,0,0:0:0:0:
236,368,539850,1,0,0:0:0:0:
64,252,540100,6,0,P|140:264|236:232,1,140
340,132,540350,2,0,P|264:120|188:140,1,140
200,250,540600,6,0,P|276:262|372:230,1,140
476,130,540850,2,0,P|400:118|324:138,1,140
200,248,541100,1,0,0:0:0:0:
200,248,541225,1,0,0:0:0:0:
476,132,541350,1,0,0:0:0:0:
476,132,541475,1,0,0:0:0:0:
192,28,541600,1,0,0:0:0:0:
192,28,541725,1,0,0:0:0:0:
339,131,541850,2,0,P|328:256|192:236,1,280
184,140,542850,5,0,0:0:0:0:
204,56,543100,2,0,P|272:140|192:224,1,210.000008010865
184,140,543475,2,0,P|138:227|205:299,1,210.000008010865
232,300,543787,1,0,0:0:0:0:
268,296,543850,1,0,0:0:0:0:
300,284,543912,1,0,0:0:0:0:
332,268,543975,1,0,0:0:0:0:
360,248,544037,1,0,0:0:0:0:
384,224,544100,6,0,P|400:176|392:120,1,105.000004005432
332,16,544350,1,0,0:0:0:0:
280,188,544475,1,0,0:0:0:0:
128,80,544600,2,0,P|105:126|105:178,1,105.000004005432
108,212,544787,1,0,0:0:0:0:
120,252,544850,1,0,0:0:0:0:
360,248,544975,1,0,0:0:0:0:
415,72,545100,6,0,P|335:16|287:20,1,105.000004005432
200,16,545350,1,0,0:0:0:0:
320,124,545475,2,0,P|276:176|268:220,1,105.000004005432
256,328,545725,1,0,0:0:0:0:
360,248,545850,1,0,0:0:0:0:
360,248,545975,1,0,0:0:0:0:
360,248,546100,6,0,B|299:281|208:268|208:268|151:181|187:105,2,315.000012016297
262,146,547100,6,0,P|352:82|288:172,2,315.000012016297
104,48,548100,6,0,L|72:152,1,105.000004005432
40,244,548350,1,0,0:0:0:0:
160,160,548475,2,0,L|192:288,1,105.000004005432
216,352,548725,1,0,0:0:0:0:
368,208,548850,1,0,0:0:0:0:
348,328,548975,1,0,0:0:0:0:
348,328,549037,1,0,0:0:0:0:
348,328,549100,5,0,0:0:0:0:
256,128,549225,1,0,0:0:0:0:
185,261,549350,1,0,0:0:0:0:
368,208,549475,1,0,0:0:0:0:
172,172,549600,1,0,0:0:0:0:
256,328,549725,1,0,0:0:0:0:
344,124,549850,1,0,0:0:0:0:
148,60,549975,1,0,0:0:0:0:
168,273,550100,6,0,P|232:321|288:329,1,105.000004005432
384,320,550350,1,0,0:0:0:0:
384,320,550475,1,0,0:0:0:0:
344,124,550600,6,0,P|280:76|224:68,1,105.000004005432
148,60,550850,1,0,0:0:0:0:
148,60,550975,1,0,0:0:0:0:
24,96,551100,5,0,0:0:0:0:
32,128,551162,1,0,0:0:0:0:
48,156,551225,1,0,0:0:0:0:
72,176,551287,1,0,0:0:0:0:
100,192,551350,1,0,0:0:0:0:
132,200,551412,1,0,0:0:0:0:
164,200,551475,1,0,0:0:0:0:
196,196,551537,1,0,0:0:0:0:
228,188,551600,5,0,0:0:0:0:
260,188,551662,1,0,0:0:0:0:
288,200,551725,1,0,0:0:0:0:
312,220,551787,1,0,0:0:0:0:
328,248,551850,1,0,0:0:0:0:
340,276,551912,1,0,0:0:0:0:
344,308,551975,1,0,0:0:0:0:
340,340,552037,1,0,0:0:0:0:
328,368,552100,6,0,B|392:384|392:384|432:344,1,105.000004005432
508,240,552350,2,0,B|444:224|444:224|404:264,1,105.000004005432
328,368,552600,1,0,0:0:0:0:
496,116,552725,1,0,0:0:0:0:
496,324,552850,1,0,0:0:0:0:
344,152,552975,1,0,0:0:0:0:
400,12,553100,6,0,L|304:72,1,105.000004005432
256,4,553350,2,0,L|184:104,1,105.000004005432
128,188,553600,1,0,0:0:0:0:
124,196,553725,1,0,0:0:0:0:
284,148,553850,1,0,0:0:0:0:
280,156,553975,1,0,0:0:0:0:
200,288,554100,6,0,P|288:316|408:256,1,210.000008010865
280,156,554475,2,0,P|192:120|124:216,1,210.000008010865
48,352,554850,2,0,P|112:304|152:292,1,105.000004005432
372,272,555100,5,0,0:0:0:0:
123,195,555225,1,0,0:0:0:0:
300,356,555350,1,0,0:0:0:0:
280,156,555475,1,0,0:0:0:0:
134,295,555600,1,0,0:0:0:0:
400,168,555725,1,0,0:0:0:0:
164,96,555850,1,0,0:0:0:0:
372,344,555975,1,0,0:0:0:0:
400,168,556100,6,0,P|376:108|248:24,1,210.000008010865
284,148,556475,2,0,B|300:224|300:224|432:264,1,210.000008010865
372,344,556850,1,0,0:0:0:0:
372,344,556975,1,0,0:0:0:0:
244,300,557100,6,0,L|32:232,1,210.000008010865
104,368,557475,2,0,L|184:164,1,210.000008010865
256,4,557850,1,0,0:0:0:0:
256,4,557975,1,0,0:0:0:0:
368,76,558100,2,0,P|408:140|416:192,1,105.000004005432
256,4,558350,1,0,0:0:0:0:
256,4,558475,1,0,0:0:0:0:
144,76,558600,2,0,P|104:140|96:192,1,105.000004005432
256,192,558850,1,0,0:0:0:0:
256,192,558975,1,0,0:0:0:0:
256,376,559100,5,0,0:0:0:0:
232,352,559162,1,0,0:0:0:0:
212,328,559225,1,0,0:0:0:0:
200,300,559287,1,0,0:0:0:0:
208,268,559350,1,0,0:0:0:0:
220,240,559412,1,0,0:0:0:0:
236,212,559475,1,0,0:0:0:0:
256,192,559537,1,0,0:0:0:0:
280,172,559600,5,0,0:0:0:0:
300,148,559662,1,0,0:0:0:0:
316,120,559725,1,0,0:0:0:0:
320,88,559787,1,0,0:0:0:0:
308,60,559850,1,0,0:0:0:0:
284,40,559912,1,0,0:0:0:0:
256,28,559975,1,0,0:0:0:0:
224,24,560037,1,0,0:0:0:0:
192,32,560100,6,0,P|152:112|156:176,1,105.000004005432
200,300,560350,2,0,P|240:220|236:156,1,105.000004005432
248,104,560600,1,0,0:0:0:0:
136,216,560725,1,0,0:0:0:0:
241,205,560850,1,0,0:0:0:0:
80,72,560975,1,0,0:0:0:0:
44,196,561100,6,0,P|56:264|100:304,1,105.000004005432
204,376,561350,2,0,P|192:308|148:268,1,105.000004005432
112,356,561600,1,0,0:0:0:0:
256,192,561725,1,0,0:0:0:0:
44,196,561850,1,0,0:0:0:0:
296,364,561975,1,0,0:0:0:0:
372,236,562100,6,0,P|316:76|184:72,2,315.000012016297
67,49,563100,2,0,P|129:203|261:187,2,315.000012016297
256,192,563975,12,0,564975,0:0:0:0:
172,116,565100,5,0,0:0:0:0:
340,268,565225,1,0,0:0:0:0:
108,64,565475,5,0,0:0:0:0:
404,320,565600,1,0,0:0:0:0:
48,12,565850,5,0,0:0:0:0:
468,368,566100,1,0,0:0:0:0:
256,192,566350,1,0,0:0:0:0:
396,52,566600,5,0,0:0:0:0:
72,244,567350,5,0,0:0:0:0:
384,320,568100,5,0,0:0:0:0:
152,44,568850,5,0,0:0:0:0:
256,328,569350,5,0,0:0:0:0:
360,224,569600,1,0,0:0:0:0:
218,186,569850,1,0,0:0:0:0:
324,320,570100,5,0,0:0:0:0:
309,131,570350,1,0,0:0:0:0:
154,240,570600,1,0,0:0:0:0:
360,224,570850,5,0,0:0:0:0:
136,112,571100,1,0,0:0:0:0:
152,364,571350,1,0,0:0:0:0:
256,52,571600,5,0,0:0:0:0:
108,280,571850,1,0,0:0:0:0:
404,280,572100,1,0,0:0:0:0:
160,156,572350,1,0,0:0:0:0:
340,240,572600,6,0,B|308:284|308:284|488:276,2,210.000008010865
172,144,573350,2,0,B|204:100|204:100|24:108,2,210.000008010865
164,364,574100,6,0,B|148:344|76:368|76:368|176:264,1,210.000008010865
256,192,574600,1,0,0:0:0:0:
348,20,574850,2,0,B|364:40|436:16|436:16|336:120,1,210.000008010865
256,192,575350,1,0,0:0:0:0:
76,368,575600,5,0,0:0:0:0:
436,16,575850,1,0,0:0:0:0:
436,368,576100,5,0,0:0:0:0:
76,16,576350,1,0,0:0:0:0:
480,192,576600,5,0,0:0:0:0:
32,192,576850,1,0,0:0:0:0:
256,356,577100,5,0,0:0:0:0:
256,28,577350,1,0,0:0:0:0:
40,344,577600,5,0,0:0:0:0:
472,40,577850,1,0,0:0:0:0:
296,32,578100,5,0,0:0:0:0:
336,44,578162,1,0,0:0:0:0:
360,80,578225,1,0,0:0:0:0:
364,120,578287,1,0,0:0:0:0:
348,160,578350,1,0,0:0:0:0:
320,192,578412,1,0,0:0:0:0:
300,228,578475,1,0,0:0:0:0:
300,268,578537,1,0,0:0:0:0:
328,300,578600,1,0,0:0:0:0:
140,124,578850,5,0,0:0:0:0:
256,356,578975,1,0,0:0:0:0:
396,56,579100,1,0,0:0:0:0:
144,288,579225,1,0,0:0:0:0:
440,140,579350,1,0,0:0:0:0:
28,352,579600,5,0,0:0:0:0:
256,0,579850,1,0,0:0:0:0:
484,352,580100,1,0,0:0:0:0:
116,180,580350,5,0,0:0:0:0:
384,112,580475,1,0,0:0:0:0:
152,308,580600,1,0,0:0:0:0:
256,44,580725,1,0,0:0:0:0:
368,308,580850,1,0,0:0:0:0:
484,32,581100,5,0,0:0:0:0:
256,368,581350,1,0,0:0:0:0:
28,32,581600,5,0,0:0:0:0:
116,148,581850,1,0,0:0:0:0:
256,192,582100,1,0,0:0:0:0:
484,352,582350,5,0,0:0:0:0:
396,236,582600,1,0,0:0:0:0:
256,192,582850,1,0,0:0:0:0:
180,144,583100,5,0,0:0:0:0:
164,176,583162,1,0,0:0:0:0:
148,208,583225,1,0,0:0:0:0:
160,352,583350,1,0,0:0:0:0:
256,192,583475,5,0,0:0:0:0:
272,160,583537,1,0,0:0:0:0:
288,128,583600,1,0,0:0:0:0:
256,0,583725,1,0,0:0:0:0:
80,100,583850,5,0,0:0:0:0:
76,112,583912,1,0,0:0:0:0:
72,124,583975,1,0,0:0:0:0:
68,136,584037,1,0,0:0:0:0:
64,148,584100,1,0,0:0:0:0:
60,160,584162,1,0,0:0:0:0:
56,172,584225,1,0,0:0:0:0:
52,184,584287,1,0,0:0:0:0:
48,196,584350,1,0,0:0:0:0:
44,208,584412,1,0,0:0:0:0:
40,220,584475,1,0,0:0:0:0:
36,232,584537,1,0,0:0:0:0:
32,244,584600,5,0,0:0:0:0:
440,100,586600,1,0,0:0:0:0:
112,76,587600,1,0,0:0:0:0:
176,324,587850,5,0,0:0:0:0:
256,192,587975,1,0,0:0:0:0:
336,324,588100,1,0,0:0:0:0:
336,60,588350,5,0,0:0:0:0:
256,192,588475,1,0,0:0:0:0:
176,60,588600,1,0,0:0:0:0:
420,56,589475,5,0,0:0:0:0:
388,132,589600,1,0,0:0:0:0:
420,56,589850,5,0,0:0:0:0:
388,132,589975,1,0,0:0:0:0:
356,208,590100,1,0,0:0:0:0:
388,132,590350,5,0,0:0:0:0:
356,208,590475,1,0,0:0:0:0:
316,284,590600,1,0,0:0:0:0:
296,308,590662,1,0,0:0:0:0:
272,328,590725,1,0,0:0:0:0:
244,340,590787,1,0,0:0:0:0:
212,348,590850,1,0,0:0:0:0:
180,352,590912,1,0,0:0:0:0:
148,348,590975,1,0,0:0:0:0:
116,340,591037,1,0,0:0:0:0:
88,324,591100,6,0,P|72:304|64:272,3,52.5000020027161
136,240,591350,2,0,P|128:214|112:194,3,52.5000020027161
84,180,591600,1,0,0:0:0:0:
56,168,591662,1,0,0:0:0:0:
32,148,591725,1,0,0:0:0:0:
20,120,591787,1,0,0:0:0:0:
20,88,591850,1,0,0:0:0:0:
40,64,591912,1,0,0:0:0:0:
68,52,591975,1,0,0:0:0:0:
100,52,592037,1,0,0:0:0:0:
128,68,592100,5,0,0:0:0:0:
144,92,592162,1,0,0:0:0:0:
164,116,592225,1,0,0:0:0:0:
188,132,592287,1,0,0:0:0:0:
216,144,592350,2,0,P|268:136|280:104,3,52.5000020027161
276,108,592600,6,0,P|408:60|452:112,1,210.000008010865
488,212,592975,1,0,0:0:0:0:
364,160,593100,2,0,P|324:220|272:240,1,105.000004005432
124,342,593350,2,0,P|164:282|216:262,1,105.000004005432
88,232,593600,1,0,0:0:0:0:
368,28,593850,1,0,0:0:0:0:
360,340,594100,5,0,0:0:0:0:
132,52,594350,2,0,P|143:102|174:144,1,105.000004005432
360,340,594600,2,0,P|348:289|317:247,1,105.000004005432
104,264,594850,2,0,P|164:260|220:228,1,105.000004005432
408,120,595100,2,0,P|348:124|292:156,1,105.000004005432
360,340,595350,1,0,0:0:0:0:
132,52,595475,1,0,0:0:0:0:
104,264,595600,2,0,P|32:284|112:304,1,210.000008010865
248,276,595975,1,0,0:0:0:0:
328,84,596100,5,0,0:0:0:0:
164,192,596225,1,0,0:0:0:0:
332,220,596350,5,0,0:0:0:0:
132,52,596475,1,0,0:0:0:0:
248,276,596600,6,0,P|320:320|428:256,2,210.000008010865
164,192,597225,1,0,0:0:0:0:
192,76,597350,1,0,0:0:0:0:
300,32,597475,1,0,0:0:0:0:
338,182,597600,6,0,P|266:138|158:202,2,210.000008010865
396,280,598225,1,0,0:0:0:0:
324,368,598350,1,0,0:0:0:0:
212,348,598475,1,0,0:0:0:0:
152,252,598600,2,0,P|168:184|220:144,1,105.000004005432
288,96,598850,1,0,0:0:0:0:
404,84,598975,1,0,0:0:0:0:
356,188,599100,1,0,0:0:0:0:
336,20,599225,5,0,0:0:0:0:
444,164,599350,1,0,0:0:0:0:
260,180,599475,1,0,0:0:0:0:
168,28,599600,5,0,0:0:0:0:
160,40,599662,1,0,0:0:0:0:
152,52,599725,1,0,0:0:0:0:
56,168,599850,1,0,0:0:0:0:
168,272,599975,5,0,0:0:0:0:
208,288,600037,1,0,0:0:0:0:
252,292,600100,1,0,0:0:0:0:
292,288,600162,1,0,0:0:0:0:
332,272,600225,1,0,0:0:0:0:
364,248,600287,1,0,0:0:0:0:
396,220,600350,1,0,0:0:0:0:
432,200,600412,1,0,0:0:0:0:
476,204,600475,1,0,0:0:0:0:
468,308,600600,6,0,P|412:344|312:360,1,140
192,356,600850,1,0,0:0:0:0:
252,236,600975,2,0,P|284:160|276:88,1,140
248,0,601225,1,0,0:0:0:0:
124,68,601350,1,0,0:0:0:0:
116,88,601412,1,0,0:0:0:0:
124,108,601475,1,0,0:0:0:0:
252,236,601600,5,0,0:0:0:0:
304,252,601662,1,0,0:0:0:0:
348,288,601725,1,0,0:0:0:0:
388,324,601787,1,0,0:0:0:0:
444,336,601850,1,0,0:0:0:0:
492,312,601912,1,0,0:0:0:0:
512,264,601975,1,0,0:0:0:0:
504,208,602037,1,0,0:0:0:0:
468,168,602100,5,0,0:0:0:0:
416,152,602162,1,0,0:0:0:0:
360,164,602225,1,0,0:0:0:0:
308,180,602287,1,0,0:0:0:0:
256,200,602350,1,0,0:0:0:0:
200,200,602412,1,0,0:0:0:0:
144,188,602475,1,0,0:0:0:0:
48,108,602600,6,0,P|128:76|228:104,1,140
312,112,602850,1,0,0:0:0:0:
47,58,602975,6,0,P|133:56|216:118,1,140
276,164,603225,1,0,0:0:0:0:
63,11,603350,6,0,P|143:40|199:128,1,140
224,200,603600,1,0,0:0:0:0:
164,224,603662,1,0,0:0:0:0:
104,208,603725,1,0,0:0:0:0:
44,228,603787,1,0,0:0:0:0:
16,284,603850,1,0,0:0:0:0:
44,340,603912,1,0,0:0:0:0:
104,356,603975,1,0,0:0:0:0:
164,336,604037,1,0,0:0:0:0:
220,308,604100,5,0,0:0:0:0:
280,292,604162,1,0,0:0:0:0:
340,304,604225,1,0,0:0:0:0:
396,332,604287,1,0,0:0:0:0:
448,368,604350,1,0,0:0:0:0:
464,244,604475,1,0,0:0:0:0:
440,120,604600,6,0,P|284:88|296:304,2,420
336,188,605475,1,0,0:0:0:0:
276,293,605600,2,0,P|220:344|148:356,1,140
328,72,605850,5,0,0:0:0:0:
224,140,605975,1,0,0:0:0:0:
164,245,606100,2,0,P|108:296|36:308,1,140
32,144,606350,1,0,0:0:0:0:
164,244,606475,1,0,0:0:0:0:
256,368,606600,5,0,0:0:0:0:
440,80,606850,1,0,0:0:0:0:
256,368,607100,1,0,0:0:0:0:
72,80,607350,1,0,0:0:0:0:
378,299,607600,6,0,L|256:368,1,140
133,299,607850,2,0,L|256:368,1,140
256,228,608100,2,0,L|256:368,1,140
132,160,608350,1,0,0:0:0:0:
380,160,608475,1,0,0:0:0:0:
256,12,608600,5,0,0:0:0:0:
256,152,608725,1,0,0:0:0:0:
216,168,608787,1,0,0:0:0:0:
172,172,608850,1,0,0:0:0:0:
132,160,608912,1,0,0:0:0:0:
96,136,608975,1,0,0:0:0:0:
68,104,609037,1,0,0:0:0:0:
48,64,609100,5,0,0:0:0:0:
36,120,609162,1,0,0:0:0:0:
48,176,609225,1,0,0:0:0:0:
80,224,609287,1,0,0:0:0:0:
128,256,609350,1,0,0:0:0:0:
180,272,609412,1,0,0:0:0:0:
236,276,609475,1,0,0:0:0:0:
292,264,609537,1,0,0:0:0:0:
336,228,609600,6,0,P|368:172|368:120,3,70
496,76,609850,2,0,P|464:132|464:184,3,70
444,264,610100,1,0,0:0:0:0:
416,320,610162,1,0,0:0:0:0:
368,360,610225,1,0,0:0:0:0:
308,372,610287,1,0,0:0:0:0:
244,372,610350,1,0,0:0:0:0:
184,356,610412,1,0,0:0:0:0:
128,324,610475,1,0,0:0:0:0:
92,272,610537,1,0,0:0:0:0:
84,208,610600,6,0,P|48:132|28:128,3,70
76,16,610850,6,0,P|108:14|148:65,3,70
196,160,611100,1,0,0:0:0:0:
264,176,611162,1,0,0:0:0:0:
332,168,611225,1,0,0:0:0:0:
396,140,611287,1,0,0:0:0:0:
464,144,611350,1,0,0:0:0:0:
512,192,611412,1,0,0:0:0:0:
488,256,611475,1,0,0:0:0:0:
428,292,611537,1,0,0:0:0:0:
360,280,611600,6,0,P|336:268|292:216,3,70
208,72,611850,1,0,0:0:0:0:
132,68,611912,1,0,0:0:0:0:
68,112,611975,1,0,0:0:0:0:
56,188,612037,1,0,0:0:0:0:
64,264,612100,6,0,P|40:280|16:312,3,70
208,72,612350,2,0,P|232:56|256:24,3,70
464,144,612600,6,0,B|372:236|368:332|368:332|228:364|185:335|185:335|217:287|272:256|272:256|124:244|124:244|88:248|60:268,2,735.000007009506
88,76,614308,1,0,0:0:0:0:
256,20,614474,1,0,0:0:0:0:
424,76,614641,1,0,0:0:0:0:
256,348,614808,1,0,0:0:0:0:
112,252,616100,5,0,0:0:0:0:
256,20,616850,1,0,0:0:0:0:
400,252,617600,1,0,0:0:0:0:
256,192,617725,12,0,626725,0:0:0:0:
